osu file format v14

[General]
AudioFilename: audio.mp3
AudioLeadIn: 0
PreviewTime: 65389
Countdown: 0
SampleSet: Drum
StackLeniency: 0.4
Mode: 0
LetterboxInBreaks: 0
WidescreenStoryboard: 1

[Editor]
Bookmarks: 15341,22792,29777,37229,44680,50734,58185,67499,74951,82402
DistanceSpacing: 1.6
BeatDivisor: 4
GridSize: 32
TimelineZoom: 2.999999

[Metadata]
Title:Zankoku na Tenshi no These (TV Size)
TitleUnicode:残酷な天使のテーゼ (TV Size)
Artist:Takahashi Yoko
ArtistUnicode:高橋洋子
Creator:virt-
Version:Collab Hard
Source:新世紀エヴァンゲリオン
Tags:a cruel angels thesis japanese jpop j-pop nge neon genesis evangelion evangerion shinji asuka rei ayanami langley ikari mecha short ver anime dooe door -doodle lei luruu sweet tea roach yuki yukic dtm9 nowaie tatemae anishina Allihoppa kodoku sherrycherry loreley nowa
BeatmapID:3383361
BeatmapSetID:1657617

[Difficulty]
HPDrainRate:4
CircleSize:3
OverallDifficulty:6
ApproachRate:7
SliderMultiplier:1.7
SliderTickRate:1

[Events]
//Background and Video events
0,0,"flowers_texture_patterns_130275_1920x1080.jpg",0,0
//Break Periods
//Storyboard Layer 0 (Background)
//Storyboard Layer 1 (Fail)
//Storyboard Layer 2 (Pass)
//Storyboard Layer 3 (Foreground)
//Storyboard Layer 4 (Overlay)
//Storyboard Sound Samples

[TimingPoints]
364,857.142857142857,4,3,2,40,1,0
1221,606.060606060606,4,3,2,40,1,0
1827,588.235294117647,4,3,2,40,1,0
3003,666.666666666667,4,3,2,40,1,0
3336,750,4,3,2,40,1,0
4836,869.565217391304,4,3,2,40,1,0
6362,800,4,3,2,40,1,0
7162,697.674418604651,4,3,2,40,1,0
7859,750,4,3,2,40,1,0
9362,705.882352941176,4,3,2,40,1,0
10067,833.333333333333,4,3,2,40,1,0
10483,789.473684210526,4,3,2,40,1,0
10877,750,4,3,2,40,1,0
11439,916.030534351145,4,3,2,40,1,0
13271,451.127819548872,4,3,2,45,1,0
13722,476.190476190476,4,3,2,45,1,0
14198,465.910855722938,4,3,1,70,1,0
18157,-100,4,3,1,70,0,0
18391,-100,4,3,1,70,0,0
21652,-100,4,3,1,50,0,0
49607,-90.9090909090909,4,3,1,50,0,0
50073,-90.9090909090909,4,3,1,60,0,0
50539,-90.9090909090909,4,3,1,70,0,0
51004,-90.9090909090909,4,3,1,80,0,0
51224,-90.9090909090909,4,3,1,80,0,0
51237,-90.9090909090909,4,3,1,60,0,0
61720,-76.9230769230769,4,3,1,60,0,0
62419,-90.9090909090909,4,3,1,60,0,0
62652,-76.9230769230769,4,3,1,60,0,0
63584,-76.9230769230769,4,3,1,60,0,0
64516,-133.333333333333,4,3,1,70,0,0
65448,-76.9230769230769,4,3,1,70,0,0
66205,-76.9230769230769,4,3,1,70,0,0
66380,-76.9230769230769,4,3,1,80,0,0
76746,-76.9230769230769,4,3,1,80,0,0
79425,-83.3333333333333,4,3,1,80,0,0
81289,-76.9230769230769,4,3,1,80,0,0
81521,-76.9230769230769,4,3,1,80,0,0
81755,-76.9230769230769,4,3,1,80,0,0
87171,-76.9230769230769,4,3,1,80,0,0
87346,-76.9230769230769,4,3,1,80,0,0
87637,-76.9230769230769,4,3,1,80,0,0
87811,-76.9230769230769,4,3,1,80,0,0
88219,-76.9230769230769,4,3,1,80,0,0
88277,-76.9230769230769,4,3,1,80,0,0

[Colours]
Combo1 : 216,114,224
Combo2 : 233,54,85
Combo3 : 100,255,255
Combo4 : 81,100,230

[HitObjects]
0,115,14198,6,0,P|63:125|124:154,1,127.5,6|0,1:0|2:0,2:0:0:0:
126,163,14663,2,0,P|178:162|216:127,1,85,10|0,1:2|2:0,2:0:0:0:
387,16,15129,2,0,P|328:46|305:112,2,127.5,0|2|2,1:0|2:0|2:0,2:0:0:0:
452,136,16061,5,2,1:2:0:0:
439,225,16294,1,2,2:0:0:0:
369,332,16527,5,10,1:2:0:0:
345,245,16760,2,0,P|319:231|275:221,1,42.5,2|8,2:0|2:0,2:0:0:0:
295,216,16993,2,0,P|275:223|256:234,1,42.5,2|2,1:2|2:0,0:0:0:0:
48,345,17342,1,2,2:0:0:0:
48,345,17459,6,0,L|74:191,1,127.5,8|0,1:2|2:0,2:0:0:0:
78,202,17925,2,0,P|106:159|161:146,1,85,2|0,1:2|2:0,2:0:0:0:
185,0,18391,2,0,P|208:45|191:99,1,85,10|0,1:2|2:0,2:0:0:0:
227,166,18857,5,2,1:2:0:0:
235,175,18973,1,0,2:0:0:0:
247,179,19090,2,0,P|272:184|302:177,1,42.5,0|2,2:0|2:0,0:0:0:0:
302,179,19323,2,0,P|349:182|431:205,1,85,8|2,1:2|2:0,2:0:0:0:
429,309,19788,5,10,1:2:0:0:
345,344,20021,1,10,1:2:0:0:
274,288,20254,1,10,1:2:0:0:
192,322,20487,1,10,1:2:0:0:
56,293,20720,6,0,L|44:248,3,42.5,10|8|8|10,1:2|2:3|2:0|1:2,0:0:0:0:
64,225,21186,2,0,L|76:180,3,42.5,8|4|4|4,2:3|2:3|2:3|2:3,0:0:0:0:
61,160,21652,6,0,B|136:138|136:198|227:163,1,170,6|0,1:0|1:0,3:0:0:0:
310,131,22351,1,0,0:0:0:0:
327,218,22584,2,0,L|318:284,2,42.5,0|0|0,1:0|3:0|3:0,0:0:0:0:
411,180,23050,2,0,L|510:205,1,85,0|0,1:0|3:0,3:0:0:0:
488,292,23516,6,0,P|418:284|406:368,1,170,2|0,1:0|1:0,3:0:0:0:
320,382,24215,2,0,L|230:369,1,85,0|0,3:0|1:0,0:0:0:0:
177,303,24680,2,0,L|190:243,2,42.5,0|0|0,0:0|3:0|1:0,0:0:0:0:
100,375,25146,1,0,3:0:0:0:
100,375,25379,6,0,P|95:287|72:200,1,170,2|0,1:0|1:0,3:0:0:0:
0,161,26078,1,0,3:0:0:0:
56,93,26311,2,0,P|134:68|184:137,1,170,2|0,1:0|1:0,3:0:0:0:
219,209,27010,1,0,3:0:0:0:
299,170,27243,2,0,B|397:166|322:87|427:72,1,170,2|0,1:0|1:0,0:0:0:0:
488,127,27942,1,0,3:0:0:0:
512,212,28175,1,0,1:0:0:0:
440,259,28408,2,0,L|381:247,2,42.5,0|0|0,3:0|3:0|1:0,0:0:0:0:
326,183,28874,6,0,L|313:112,1,42.5,2|0,3:0|3:0,3:0:0:0:
306,117,29107,2,0,P|240:108|206:8,1,170,6|0,1:2|1:0,3:0:0:0:
99,37,29806,1,0,3:0:0:0:
135,126,30038,2,0,P|113:193|94:296,1,170,2|0,1:0|1:0,3:0:0:0:
220,272,30737,6,0,P|217:250|212:230,1,42.5,0|0,3:0|3:0,3:0:0:0:
230,223,30970,2,0,P|246:163|293:154,1,85,2|0,1:0|3:0,3:0:0:0:
335,195,31436,2,0,P|333:236|302:263,1,85,0|0,1:0|3:0,3:0:0:0:
413,358,31902,2,0,P|364:271|268:278,1,170,2|0,1:0|1:0,3:0:0:0:
210,225,32601,5,0,3:0:0:0:
138,267,32834,2,0,P|83:235|94:134,1,170,2|0,1:0|1:0,3:0:0:0:
165,96,33533,1,0,3:0:0:0:
165,96,33766,2,0,L|149:40,2,42.5,0|0|0,1:0|0:0|3:0,3:0:0:0:
295,71,34232,2,0,P|340:20|414:26,1,127.5,0|0,1:0|3:0,3:0:0:0:
382,33,34698,6,0,B|382:79|394:102|421:113|424:107|427:102|451:121|461:145|461:186,1,170,6|0,1:2|1:0,3:0:0:0:
400,252,35396,1,0,3:0:0:0:
314,271,35629,2,0,B|294:251|285:226|289:196|295:198|301:200|312:174|306:149|274:115,1,170,6|0,1:2|1:0,3:0:0:0:
403,15,36328,5,4,3:0:0:0:
405,21,36445,1,4,3:0:0:0:
408,27,36561,2,0,P|323:8|229:50,1,170,6|0,1:0|1:0,3:0:0:0:
191,105,37260,1,0,3:0:0:0:
116,52,37493,2,0,L|121:2,2,42.5,0|0|0,1:0|0:0|3:0,3:0:0:0:
49,114,37959,2,0,L|69:217,1,85,0|0,1:0|3:0,3:0:0:0:
103,282,38425,6,0,P|165:230|259:262,1,170,2|0,1:0|1:0,3:0:0:0:
282,333,39124,2,0,P|315:350|379:329,1,85,0|0,3:0|1:0,3:0:0:0:
430,282,39590,2,0,L|483:273,2,42.5,0|0|0,3:0|3:0|1:0,0:0:0:0:
358,218,40056,1,0,3:0:0:0:
235,247,40289,6,0,P|258:156|296:83,1,170,2|0,1:0|1:0,3:0:0:0:
385,85,40987,1,0,3:0:0:0:
372,3,41220,2,0,P|288:1|209:42,1,170,2|0,1:0|1:0,0:0:0:0:
187,122,41919,1,0,3:0:0:0:
127,57,42152,2,0,P|50:41|6:125,1,170,2|0,1:0|1:0,3:0:0:0:
85,163,42851,1,0,0:0:0:0:
130,251,43084,1,0,1:0:0:0:
79,325,43317,2,0,L|25:336,2,42.5,0|0|0,3:0|3:0|1:0,0:0:0:0:
238,356,43783,5,2,3:0:0:0:
238,356,44016,2,0,P|284:278|379:280,1,170,6|0,1:2|1:0,3:0:0:0:
435,333,44715,1,0,3:0:0:0:
435,333,44948,2,0,P|462:240|513:140,1,170,2|0,1:0|1:0,3:0:0:0:
411,125,45646,1,0,3:0:0:0:
411,125,45763,1,0,3:0:0:0:
411,125,45879,2,0,P|405:83|335:58,1,85,2|0,1:0|3:0,3:0:0:0:
290,85,46345,2,0,L|190:101,1,85,0|0,1:0|3:0,3:0:0:0:
118,43,46811,5,2,1:0:0:0:
118,43,47277,1,0,1:0:0:0:
45,97,47510,5,0,3:0:0:0:
227,118,47743,2,0,P|152:126|106:217,1,170,2|0,1:0|1:0,3:0:0:0:
67,279,48442,1,0,3:0:0:0:
137,344,48675,2,0,L|233:324,1,85,0|0,1:0|3:0,3:0:0:0:
287,272,49141,2,0,L|358:289,1,42.5,0|0,1:0|3:0,3:0:0:0:
346,296,49374,1,0,3:0:0:0:
502,210,49607,6,0,P|453:154|496:91,1,140.25,6|0,1:2|3:0,3:0:0:0:
495,84,50073,2,0,P|428:115|351:71,1,140.25000428009,4|0,1:2|3:0,3:0:0:0:
362,67,50539,2,0,P|302:116|329:190,1,140.25000428009,6|0,1:2|3:0,3:0:0:0:
317,194,51004,2,0,P|260:186|217:181,1,93.5000028533936,4|8,1:2|2:0,3:0:0:0:
206,169,51354,1,8,2:0:0:0:
194,161,51470,6,0,B|132:161|132:161|102:199|102:199|17:192,1,187.000005706787,6|8,1:0|1:2,2:0:0:0:
55,64,52169,2,0,L|95:10,1,46.7500014266968,0|8,2:0|2:0,2:0:0:0:
107,24,52402,2,0,L|214:36,1,93.5,0|0,1:0|2:0,2:0:0:0:
302,9,52868,1,8,1:2:0:0:
372,85,53101,2,0,L|366:147,1,46.75,0|0,2:0|2:0,2:0:0:0:
365,152,53334,5,2,1:0:0:0:
371,242,53567,1,0,2:0:0:0:
283,264,53800,1,8,1:2:0:0:
203,210,54033,1,0,2:0:0:0:
203,210,54149,1,8,2:0:0:0:
203,210,54266,2,0,P|164:186|81:187,1,93.5,2|0,1:0|2:0,2:0:0:0:
73,308,54732,2,0,P|112:332|195:331,1,93.5,8|0,1:2|2:0,2:0:0:0:
247,357,55198,6,0,P|343:374|394:303,1,187,2|8,1:0|1:2,2:0:0:0:
362,216,55897,1,0,2:0:0:0:
276,169,56129,2,0,L|216:162,2,46.75,2|0|0,1:0|0:0|2:0,2:0:0:0:
351,119,56595,1,8,1:2:0:0:
380,33,56828,5,0,2:0:0:0:
260,19,57061,2,0,B|161:27|231:56|102:64,1,140.25,2|0,1:0|2:0,2:0:0:0:
115,51,57527,2,0,P|61:60|48:107,1,93.5000028533936,10|0,1:0|2:0,2:0:0:0:
30,107,57877,1,8,2:0:0:0:
39,126,57993,2,0,P|58:192|72:270,1,140.25,2|0,1:0|2:0,2:0:0:0:
75,283,58459,2,0,P|62:318|58:347,1,46.75,10|0,1:0|2:0,2:0:0:0:
199,275,58808,5,8,2:0:0:0:
199,275,58925,2,0,P|197:224|281:197,1,140.25,6|0,1:2|2:0,2:0:0:0:
292,215,59391,2,0,L|302:266,2,46.7500014266968,8|0|0,1:2|2:0|2:0,2:0:0:0:
383,181,59857,2,0,P|384:102|350:77,1,93.5000028533936,0|0,1:0|2:0,2:0:0:0:
312,17,60323,2,0,L|222:31,1,46.75,8|0,1:2|0:0,2:0:0:0:
241,41,60556,1,0,0:0:0:0:
87,68,60789,6,0,L|71:25,2,46.75,2|0|0,1:0|0:0|2:0,2:0:0:0:
47,163,61254,2,0,P|73:214|116:215,1,93.5,8|0,1:2|2:0,2:0:0:0:
121,208,61604,1,8,2:0:0:0:
128,229,61720,2,0,P|112:274|106:339,1,110.499994941712,2|0,1:0|2:0,2:0:0:0:
254,274,62186,2,0,B|279:272|279:272|294:240,1,55.2499974708558,8|0,1:2|2:0,2:0:0:0:
317,225,62419,2,0,B|310:201|310:201|288:192,1,46.7500014266968,0|0,2:0|2:0,2:0:0:0:
267,189,62652,6,0,P|237:145|261:99,1,110.5,2|0,1:0|2:0,2:0:0:0:
281,89,63002,1,0,2:0:0:0:
300,82,63118,2,0,P|348:96|367:109,1,55.25,8|0,1:2|2:0,2:0:0:0:
372,96,63351,1,0,2:0:0:0:
399,243,63584,2,0,L|409:305,2,55.2499974708558,0|0|0,1:0|0:0|2:0,2:0:0:0:
286,187,64050,1,12,1:2:0:0:
173,130,64283,1,0,2:0:0:0:
173,130,64399,1,8,2:0:0:0:
173,130,64516,6,0,B|124:119|103:131|84:156|90:158|95:160|77:195|48:209|13:198,1,191.25,4|2,1:0|2:0,2:0:0:0:
29,299,65448,6,0,P|81:288|121:345,1,110.5,2|8,1:2|2:0,2:0:0:0:
105,341,65797,1,2,2:0:0:0:
118,348,65914,2,0,P|143:329|165:321,1,55.25,0|8,1:0|2:0,2:0:0:0:
188,329,66147,1,2,2:0:0:0:
286,249,66380,5,6,1:2:0:0:
286,249,66612,1,0,0:0:0:0:
295,382,66845,6,0,P|313:263|372:178,1,221,14|2,1:0|1:2,2:0:0:0:
484,81,67661,1,2,2:0:0:0:
484,81,67777,2,0,P|392:45|361:122,1,165.75,8|0,1:2|2:0,2:0:0:0:
341,100,68243,2,0,L|279:91,1,55.25,2|0,1:2|0:0,2:0:0:0:
262,101,68476,1,2,2:0:0:0:
110,79,68709,1,10,1:2:0:0:
35,148,68942,1,2,2:0:0:0:
50,255,69175,2,0,L|67:378,2,110.5,2|0|8,1:2|2:0|1:2,2:0:0:0:
147,191,69874,1,0,2:0:0:0:
140,196,69990,1,0,2:0:0:0:
133,201,70107,6,0,P|150:260|264:293,1,165.75,2|0,1:2|2:0,2:0:0:0:
250,291,70573,1,10,1:2:0:0:
415,172,70922,1,8,2:0:0:0:
422,167,71039,2,0,P|479:180|505:248,1,110.5,2|0,1:2|2:0,2:0:0:0:
455,304,71505,2,0,P|398:291|372:223,1,110.5,8|2,1:2|2:0,2:0:0:0:
341,104,71970,5,2,1:2:0:0:
276,29,72203,1,2,2:0:0:0:
209,101,72436,1,10,1:2:0:0:
151,17,72669,1,2,2:0:0:0:
33,45,72902,6,0,L|47:107,3,55.25,2|10|8|10,1:2|2:0|2:0|2:0,0:0:0:0:
37,104,73368,2,0,L|23:166,3,55.25,8|8|8|8,1:0|2:0|2:0|2:0,0:0:0:0:
35,169,73834,5,6,1:2:0:0:
47,371,74300,2,0,P|190:341|255:342,1,165.75,14|0,1:0|2:0,2:0:0:0:
224,351,74766,2,0,P|260:326|233:239,1,110.5,2|0,1:2|2:0,2:0:0:0:
228,241,75115,1,2,2:0:0:0:
233,219,75232,2,0,L|253:155,1,55.2499974708558,8|0,1:2|0:0,2:0:0:0:
226,155,75465,2,0,L|203:103,1,55.2499974708558,0|0,0:0|2:0,0:0:0:0:
202,86,75698,5,2,1:2:0:0:
290,33,75931,1,2,2:0:0:0:
398,57,76164,2,0,L|408:-21,2,55.2499974708558,10|0|2,1:2|0:0|2:0,0:0:0:0:
431,152,76630,5,2,1:2:0:0:
426,162,76746,2,0,L|364:146,1,55.2499974708558,2|0,2:0|2:0,0:0:0:0:
353,150,76979,1,2,2:0:0:0:
336,150,77095,2,0,B|353:211|353:211|389:237|389:237|409:311,1,165.75,8|0,1:2|2:0,2:0:0:0:
393,302,77561,6,0,L|287:270,1,110.5,2|0,1:2|2:0,2:0:0:0:
171,235,78027,2,0,B|131:189|131:189|170:132,1,110.5,10|0,1:2|2:0,2:0:0:0:
240,78,78493,1,2,1:2:0:0:
242,92,78610,1,8,2:0:0:0:
247,109,78726,2,0,L|258:188,2,55.2499974708558,0|2|8,2:0|2:0|1:2,0:0:0:0:
309,23,79192,1,2,2:0:0:0:
450,3,79425,6,0,P|427:51|414:101,3,101.999996887207,10|10|10|10,1:2|1:2|1:2|1:2,2:0:0:0:
480,163,80357,1,2,2:0:0:0:
480,163,80590,2,0,L|488:213,2,50.9999984436036,0|8|0,2:0|2:3|1:0,0:0:0:0:
512,305,81056,5,2,2:0:0:0:
512,305,81172,1,2,2:0:0:0:
512,305,81289,6,0,P|447:318|403:351,1,110.5,6|0,1:2|2:0,2:0:0:0:
274,367,81755,2,0,P|223:381|176:328,1,110.5,14|0,1:0|2:0,2:0:0:0:
176,335,82104,1,8,2:0:0:0:
173,322,82220,2,0,L|198:208,1,110.5,2|0,1:2|2:0,2:0:0:0:
293,154,82686,2,0,P|338:112|325:62,1,110.5,8|2,1:2|2:0,2:0:0:0:
254,14,83152,5,2,1:2:0:0:
144,0,83385,1,2,2:0:0:0:
63,79,83618,1,10,1:2:0:0:
71,192,83851,1,2,2:0:0:0:
148,271,84084,1,2,1:2:0:0:
162,274,84201,2,0,P|217:283|291:297,1,110.499994941712,2|2,2:0|2:0,0:0:0:0:
280,301,84550,1,8,1:2:0:0:
398,337,84783,5,0,2:0:0:0:
413,341,84899,1,0,2:0:0:0:
412,350,85016,2,0,P|482:295|438:192,1,165.749992412568,2|0,1:2|0:0,2:0:0:0:
451,227,85482,2,0,P|423:203|430:175,1,55.2499974708558,10|0,1:2|0:0,0:0:0:0:
421,172,85715,2,0,P|437:145|470:133,1,55.2499974708558,8|0,2:0|0:0,0:0:0:0:
476,118,85948,1,10,1:2:0:0:
387,33,86181,2,0,L|334:49,1,55.2499974708558,8|10,1:2|2:0,0:0:0:0:
328,58,86414,2,0,L|275:42,3,55.2499974708558,0|8|4|4,1:0|2:3|2:3|2:3,0:0:0:0:
267,49,86880,5,10,1:2:0:0:
198,124,87113,1,10,1:2:0:0:
229,227,87346,1,10,1:2:0:0:
336,228,87578,1,10,1:2:0:0:
370,126,87811,1,10,1:2:0:0:
198,124,88161,5,14,1:2:0:0:
