osu file format v14

[General]
AudioFilename: audio.mp3
AudioLeadIn: 0
PreviewTime: 65389
Countdown: 0
SampleSet: Drum
StackLeniency: 0.4
Mode: 0
LetterboxInBreaks: 0
WidescreenStoryboard: 1

[Editor]
DistanceSpacing: 0.2
BeatDivisor: 16
GridSize: 32
TimelineZoom: 3.799998

[Metadata]
Title:Zankoku na Tenshi no These (TV Size)
TitleUnicode:残酷な天使のテーゼ (TV Size)
Artist:Takahashi Yoko
ArtistUnicode:高橋洋子
Creator:virt-
Version:Another
Source:新世紀エヴァンゲリオン
Tags:a cruel angels thesis japanese jpop j-pop nge neon genesis evangelion evangerion shinji asuka rei ayanami langley ikari mecha short ver anime dooe door -doodle lei luruu sweet tea roach yuki yukic dtm9 nowaie tatemae anishina Allihoppa kodoku sherrycherry loreley nowa
BeatmapID:3383360
BeatmapSetID:1657617

[Difficulty]
HPDrainRate:5
CircleSize:4
OverallDifficulty:8.5
ApproachRate:9
SliderMultiplier:2.22
SliderTickRate:1

[Events]
//Background and Video events
0,0,"flowers_texture_patterns_130275_1920x1080.jpg",0,0
//Break Periods
//Storyboard Layer 0 (Background)
//Storyboard Layer 1 (Fail)
//Storyboard Layer 2 (Pass)
//Storyboard Layer 3 (Foreground)
//Storyboard Layer 4 (Overlay)
//Storyboard Sound Samples

[TimingPoints]
364,857.142857142857,4,3,2,40,1,0
1221,606.060606060606,4,3,2,40,1,0
1827,588.235294117647,4,3,2,40,1,0
3003,666.666666666667,4,3,2,40,1,0
3336,750,4,3,2,40,1,0
4836,869.565217391304,4,3,2,40,1,0
6362,800,4,3,2,40,1,0
7162,697.674418604651,4,3,2,40,1,0
7859,750,4,3,2,40,1,0
9362,705.882352941176,4,3,2,40,1,0
10067,833.333333333333,4,3,2,40,1,0
10483,789.473684210526,4,3,2,40,1,0
10877,750,4,3,2,40,1,0
11439,916.030534351145,4,3,2,40,1,0
13271,451.127819548872,4,3,2,45,1,0
13722,476.190476190476,4,3,2,45,1,0
14198,465.910855722938,4,3,1,70,1,0
14198,-50,4,3,1,70,0,1
14663,-133.333333333333,4,3,1,70,0,1
15129,-66.6666666666667,4,3,1,70,0,1
15595,-133.333333333333,4,3,1,70,0,1
15828,-66.6666666666667,4,3,1,70,0,1
18391,-52.6315789473684,4,3,1,70,0,1
18857,-133.333333333333,4,3,1,70,0,1
19323,-66.6666666666667,4,3,1,70,0,1
21652,-100,4,3,1,50,0,0
23516,-83.3333333333333,4,3,1,50,0,0
49607,-133.333333333333,4,3,1,50,0,0
50073,-100,4,3,1,60,0,0
50539,-80,4,3,1,70,0,0
51004,-80,4,3,1,80,0,0
51237,-80,4,3,1,60,0,0
57061,-100,4,3,1,60,0,0
57527,-133.333333333333,4,3,1,60,0,0
57993,-100,4,3,1,60,0,0
58459,-399.999999999997,4,3,1,60,0,0
58925,-80,4,3,1,60,0,0
64050,-133.333333333333,4,3,1,60,0,0
64516,-80,4,3,1,70,0,0
65215,-666.666666666667,4,3,1,70,0,0
65448,-55.5555555555556,4,3,1,70,0,0
65914,-41.6666666666667,4,3,1,70,0,0
66088,-41.6666666666667,4,3,1,5,0,0
66147,-100,4,3,1,70,0,0
66205,-100,4,3,1,5,0,0
66380,-333.333333333333,4,3,1,80,0,0
66418,-333.333333333333,4,3,1,80,0,0
66845,-58.8235294117647,4,3,1,80,0,1
67777,-100,4,3,1,80,0,1
68243,-58.8235294117647,4,3,1,80,0,1
68709,-100,4,3,1,80,0,1
69175,-58.8235294117647,4,3,1,80,0,1
71970,-100,4,3,1,80,0,1
72203,-133.333333333333,4,3,1,80,0,1
72436,-66.6666666666667,4,3,1,80,0,1
73018,-66.6666666666667,4,3,1,80,0,1
73135,-66.6666666666667,4,3,1,80,0,1
73251,-66.6666666666667,4,3,1,80,0,1
73368,-66.6666666666667,4,3,1,80,0,1
73484,-66.6666666666667,4,3,1,80,0,1
73601,-66.6666666666667,4,3,1,80,0,1
73717,-66.6666666666667,4,3,1,80,0,1
73834,-500,4,3,1,80,0,1
74300,-58.8235294117647,4,3,1,80,0,1
75232,-100,4,3,1,80,0,1
75465,-133.333333333333,4,3,1,80,0,1
75698,-58.8235294117647,4,3,1,80,0,1
78959,-133.333333333333,4,3,1,80,0,1
79425,-47.6190476190476,4,3,1,80,0,1
80357,-58.8235294117647,4,3,1,80,0,1
81056,-133.333333333333,4,3,1,80,0,1
81289,-399.999999999997,4,3,1,80,0,1
81755,-58.8235294117647,4,3,1,80,0,1
83385,-133.333333333333,4,3,1,80,0,1
83618,-58.8235294117647,4,3,1,80,0,1
83851,-133.333333333333,4,3,1,80,0,1
84201,-58.8235294117647,4,3,1,80,0,1
84550,-133.333333333333,4,3,1,80,0,1
85016,-58.8235294117647,4,3,1,80,0,1
85482,-100,4,3,1,80,0,1
86880,-50,4,3,1,80,0,1
87171,-50,4,3,1,5,0,1
87346,-50,4,3,1,80,0,1
87637,-50,4,3,1,5,0,1
87811,-41.6666666666667,4,3,1,80,0,1
88219,-41.6666666666667,4,3,1,5,0,1
88277,-41.6666666666667,4,3,1,80,0,0

[Colours]
Combo1 : 216,114,224
Combo2 : 233,54,85
Combo3 : 100,255,255
Combo4 : 81,100,230

[HitObjects]
34,326,13271,5,8,2:3:0:0:
41,338,13383,1,8,2:3:0:0:
53,342,13496,1,8,2:3:0:0:
67,336,13609,1,8,2:3:0:0:
66,318,13722,1,4,2:3:0:0:
108,205,13960,5,4,2:3:0:0:
108,205,14079,1,4,2:3:0:0:
31,228,14198,2,0,P|133:256|270:322,1,222,6|0,1:0|0:0,2:0:0:0:
291,371,14547,1,0,2:0:0:0:
291,371,14663,2,0,P|320:357|338:303,1,83.2500000000002,10|0,1:2|2:0,2:0:0:0:
419,304,15013,5,10,2:0:0:0:
419,304,15129,2,0,P|395:231|295:210,1,166.5,0|0,1:0|2:0,2:0:0:0:
249,239,15479,1,2,2:0:0:0:
249,239,15595,2,0,P|224:208|225:194,1,41.6250000000001,8|0,1:2|0:0,2:0:0:0:
220,199,15828,2,0,L|238:137,1,41.6250015878678,2|0,2:0|0:0,0:0:0:0:
21,22,16061,6,0,L|132:57,1,83.25,2|0,1:2|2:0,2:0:0:0:
106,53,16294,2,0,L|131:166,1,83.25,2|0,2:0|2:0,2:0:0:0:
8,373,16527,6,0,L|26:291,1,83.25,10|0,1:2|0:0,0:0:0:0:
33,285,16760,2,0,L|112:259,1,83.25,2|8,2:0|2:0,0:0:0:0:
345,282,16993,5,2,1:2:0:0:
294,344,17109,2,0,B|253:356|253:356|202:319,1,83.25
323,135,17342,1,2,2:0:0:0:
317,24,17459,2,0,L|270:270,1,249.75,8|0,1:2|0:0,0:0:0:0:
461,53,17925,6,0,P|439:165|312:132,1,249.75,2|0,1:2|2:0,2:0:0:0:
101,58,18391,2,0,P|173:56|167:198,1,210.9,10|0,1:2|2:0,2:0:0:0:
188,181,18740,1,8,2:0:0:0:
106,184,18857,6,0,P|102:164|93:146,2,41.6250000000001,2|0|0,1:2|0:0|2:0,2:0:0:0:
63,253,19206,1,2,2:0:0:0:
3,205,19323,6,0,P|80:222|176:263,1,166.5,8|2,1:2|2:0,2:0:0:0:
366,353,19788,5,10,1:2:0:0:
279,207,20021,1,10,1:2:0:0:
487,126,20254,1,10,1:2:0:0:
367,239,20487,1,10,1:2:0:0:
489,209,20720,5,10,1:2:0:0:
467,201,20837,1,8,2:3:0:0:
448,194,20953,1,8,2:0:0:0:
429,186,21070,1,10,1:2:0:0:
374,119,21186,5,8,2:3:0:0:
382,121,21303,1,4,2:3:0:0:
391,117,21419,1,4,2:3:0:0:
389,105,21536,1,4,2:3:0:0:
427,21,21652,6,0,P|305:47|166:94,3,222,6|0|0|0,1:0|1:0|1:0|1:0,3:0:0:0:
162,136,23283,5,0,3:0:0:0:
224,188,23516,2,0,P|286:201|363:225,1,133.2,2|0,1:0|0:0,3:0:0:0:
404,290,23865,1,0,3:0:0:0:
403,289,23982,2,0,P|375:347|312:360,1,133.2,0|0,0:0|3:0,0:0:0:0:
79,262,24331,1,0,0:0:0:0:
79,262,24448,2,0,P|156:239|201:398,1,266.4,0|0,1:0|1:0,3:0:0:0:
69,44,25146,5,0,3:0:0:0:
30,110,25379,2,0,P|68:164|137:144,1,133.2,2|0,1:0|3:0,3:0:0:0:
175,93,25729,1,0,3:0:0:0:
175,93,25845,2,0,L|200:-2,1,66.6,0|0,1:0|0:0,3:0:0:0:
295,218,26078,2,0,L|282:152,1,66.6,0|0,3:0|0:0,0:0:0:0:
261,75,26311,6,0,B|343:54|319:118|407:89,1,133.2,2|0,1:0|0:0,3:0:0:0:
452,50,26661,1,0,3:0:0:0:
452,50,26777,2,0,L|521:65,1,66.6,0|0,1:0|0:0,3:0:0:0:
489,179,27010,2,0,P|490:200|454:241,1,66.6,0|0,3:0|0:0,0:0:0:0:
490,351,27243,6,0,P|372:330|402:203,3,266.4,2|0|0|0,1:0|1:0|1:0|1:0,3:0:0:0:
464,267,28874,5,2,3:0:0:0:
453,279,28990,1,0,3:0:0:0:
442,290,29107,2,0,L|297:311,1,133.2,6|0,1:2|0:0,3:0:0:0:
246,266,29456,1,0,3:0:0:0:
246,266,29573,2,0,P|270:234|316:242,1,66.6,0|0,1:0|0:0,0:0:0:0:
310,309,29806,2,0,P|301:343|296:384,1,66.6,0|0,3:0|3:0,3:0:0:0:
187,362,30038,6,0,P|170:287|141:214,1,133.2,2|0,1:0|0:0,3:0:0:0:
94,178,30388,1,0,3:0:0:0:
94,178,30504,2,0,P|45:154|24:151,1,66.6,0|0,1:0|0:0,0:0:0:0:
243,74,30737,1,0,3:0:0:0:
245,53,30854,1,0,3:0:0:0:
232,44,30970,6,0,P|209:106|195:171,1,133.2,2|0,1:0|3:0,3:0:0:0:
244,242,31320,1,0,3:0:0:0:
244,242,31436,2,0,P|306:245|330:157,1,133.2,0|0,0:0|3:0,0:0:0:0:
474,59,31786,1,0,0:0:0:0:
474,59,31902,6,0,P|412:95|435:173,1,133.2,2|0,1:0|3:0,3:0:0:0:
473,210,32252,1,0,0:0:0:0:
473,210,32368,2,0,P|455:253|447:301,1,66.6,0|0,1:0|0:0,0:0:0:0:
484,345,32601,2,0,B|450:364|450:364|415:340,1,66.6,0|0,3:0|3:0,3:0:0:0:
287,213,32834,6,0,P|306:279|330:394,1,133.2,2|0,1:0|3:0,3:0:0:0:
215,243,33183,1,0,3:0:0:0:
215,243,33300,2,0,P|171:227|128:220,1,66.6,0|0,1:0|0:0,3:0:0:0:
81,258,33533,2,0,P|48:230|41:188,1,66.6,0|0,0:0|3:0,0:0:0:0:
76,25,33766,2,0,L|102:175,1,133.2,0|0,1:0|0:0,0:0:0:0:
151,222,34115,1,0,3:0:0:0:
151,222,34232,2,0,P|216:200|229:102,1,133.2,0|0,1:0|0:0,0:0:0:0:
233,128,34581,1,0,0:0:0:0:
343,9,34698,6,0,B|357:97|381:33|402:187,1,133.2,6|0,1:2|0:0,3:0:0:0:
357,203,35047,1,0,3:0:0:0:
357,203,35163,2,0,P|347:237|341:271,1,66.6,0|0,1:0|0:0,0:0:0:0:
422,271,35396,2,0,P|428:233|443:183,1,66.6,0|0,3:0|0:0,0:0:0:0:
294,384,35629,6,0,B|280:296|256:360|235:206,1,133.2,6|0,1:2|0:0,3:0:0:0:
217,53,35979,1,0,3:0:0:0:
217,53,36095,2,0,P|256:52|276:80,1,66.6,0|0,1:0|0:0,0:0:0:0:
236,166,36328,1,4,3:0:0:0:
246,158,36445,1,4,3:0:0:0:
248,146,36561,6,0,P|140:176|-33:257,3,266.4,6|0|0|0,1:0|1:0|1:0|1:0,3:0:0:0:
5,223,38192,1,0,3:0:0:0:
42,306,38425,6,0,P|128:323|196:345,1,133.2,2|0,1:0|0:0,3:0:0:0:
240,382,38774,1,0,3:0:0:0:
240,382,38891,2,0,P|281:370|329:364,1,66.6
466,331,39124,2,0,P|425:318|386:314,1,66.6,0|0,3:0|0:0,0:0:0:0:
371,161,39357,6,0,P|345:214|326:303,1,133.2,0|0,1:0|3:0,3:0:0:0:
269,193,39706,1,0,0:0:0:0:
269,193,39823,2,0,P|252:138|236:114,1,66.6,0|0,1:0|0:0,3:0:0:0:
170,109,40056,2,0,P|167:82|195:49,1,66.6,0|0,3:0|0:0,0:0:0:0:
462,15,40289,6,0,P|394:33|318:63,1,133.2,2|0,1:0|3:0,3:0:0:0:
295,124,40638,1,0,3:0:0:0:
295,124,40754,2,0,P|306:153|368:167,1,66.6,0|0,1:0|0:0,3:0:0:0:
403,137,40987,2,0,P|432:128|481:116,1,66.6,0|0,3:0|0:0,0:0:0:0:
473,318,41220,5,2,1:0:0:0:
486,308,41337,1,0,0:0:0:0:
489,294,41453,2,0,P|478:265|416:251,1,66.6,0|0,0:0|3:0,0:0:0:0:
372,244,41686,2,0,P|341:252|297:268,1,66.6,0|0,1:0|0:0,3:0:0:0:
241,301,41919,2,0,P|205:293|154:287,1,66.6,0|0,3:0|0:0,0:0:0:0:
22,122,42152,6,0,P|55:195|115:379,3,266.4,2|0|0|0,1:0|1:0|1:0|1:0,3:0:0:0:
148,184,43783,1,2,3:0:0:0:
21,331,44016,6,0,P|48:261|84:201,1,133.2,6|0,1:2|0:0,3:0:0:0:
84,136,44365,1,0,3:0:0:0:
84,136,44482,2,0,P|117:105|156:104,1,66.6,0|0,1:0|0:0,0:0:0:0:
208,131,44715,2,0,L|281:118,1,66.6,0|0,3:0|3:0,3:0:0:0:
491,8,44948,6,0,P|451:119|417:278,1,266.4,2|0,1:0|1:0,3:0:0:0:
477,313,45646,1,0,3:0:0:0:
480,328,45763,1,0,3:0:0:0:
472,340,45879,2,0,P|438:362|382:355,1,66.6,2|0,1:0|0:0,3:0:0:0:
334,337,46112,1,0,3:0:0:0:
347,329,46229,1,0,3:0:0:0:
350,316,46345,2,0,P|310:295|260:289,1,66.6,0|0,0:0|3:0,0:0:0:0:
267,220,46578,2,0,P|232:225|203:265,1,66.6,0|0,3:0|0:0,0:0:0:0:
0,245,46811,6,0,P|95:230|118:374,1,266.4,2|0,1:0|1:0,3:0:0:0:
33,348,47510,1,0,3:0:0:0:
34,364,47627,1,0,3:0:0:0:
44,373,47743,2,0,P|66:309|110:227,1,133.2,2|0,1:0|3:0,3:0:0:0:
166,215,48093,1,0,3:0:0:0:
166,215,48209,2,0,P|191:201|240:187,1,66.6,0|0,1:0|0:0,3:0:0:0:
302,211,48442,2,0,P|323:177|303:136,1,66.6,0|0,3:0|0:0,0:0:0:0:
259,99,48675,6,0,P|166:129|84:164,1,133.2,0|0,1:0|3:0,3:0:0:0:
71,189,49024,1,0,0:0:0:0:
71,189,49141,2,0,B|42:167|42:167|63:123,1,66.6,0|0,1:0|3:0,3:0:0:0:
70,12,49374,2,0,P|83:41|107:115,1,66.6,0|0,3:0|0:0,0:0:0:0:
338,162,49607,6,0,P|279:190|227:247,1,124.875,6|0,1:2|3:0,3:0:0:0:
43,227,50073,2,0,P|136:258|202:336,1,166.5,4|0,1:2|3:0,3:0:0:0:
389,241,50539,2,0,P|309:285|251:395,1,208.125,6|0,1:2|3:0,3:0:0:0:
111,355,51004,2,0,P|84:330|44:314,1,69.375,4|0,1:2|3:0,3:0:0:0:
44,22,51237,5,8,2:0:0:0:
29,27,51354,1,8,2:0:0:0:
22,39,51470,2,0,P|43:112|57:184,1,138.75,6|0,1:0|2:0,2:0:0:0:
19,329,51820,1,0,2:0:0:0:
19,329,51936,2,0,P|34:274|106:242,1,138.75,8|0,1:2|2:0,2:0:0:0:
169,288,52286,1,8,2:0:0:0:
169,288,52402,2,0,P|225:248|221:174,1,138.75,0|0,1:0|2:0,2:0:0:0:
135,84,52752,1,0,2:0:0:0:
135,84,52868,2,0,P|145:118|153:151,1,69.375,8|0,1:2|2:0,2:0:0:0:
222,109,53101,2,0,P|215:75|204:42,1,69.375,0|0,2:0|2:0,2:0:0:0:
471,22,53334,6,0,P|366:63|300:113,1,138.75,2|0,1:0|2:0,2:0:0:0:
319,152,53683,1,0,2:0:0:0:
319,152,53800,2,0,P|357:217|439:217,1,138.75,8|0,1:2|2:0,2:0:0:0:
512,122,54149,1,8,2:0:0:0:
512,122,54266,2,0,P|477:151|476:191,1,69.375,2|0,1:0|0:0,2:0:0:0:
341,358,54499,5,0,2:0:0:0:
353,357,54615,1,0,2:0:0:0:
362,349,54732,2,0,P|335:300|245:296,1,138.75,8|0,1:2|2:0,2:0:0:0:
101,299,55081,1,0,2:0:0:0:
101,299,55198,2,0,P|101:339|140:378,1,69.375,2|0,1:0|0:0,2:0:0:0:
189,346,55431,2,0,P|190:311|173:281,1,69.375,0|0,2:0|2:0,0:0:0:0:
28,122,55664,6,0,P|76:217|176:161,1,208.125,8|8,1:2|2:0,2:0:0:0:
100,5,56129,1,2,1:0:0:0:
88,10,56246,1,0,0:0:0:0:
83,21,56362,2,0,L|98:103,1,69.375,0|0,2:0|2:0,0:0:0:0:
231,177,56595,2,0,L|247:96,1,69.375,8|0,1:2|2:0,2:0:0:0:
254,101,56828,2,0,L|325:80,1,69.375,0|0,2:0|2:0,2:0:0:0:
512,248,57061,6,0,B|456:235|456:235|436:208|436:208|353:190,1,166.5,2|0,1:0|2:0,2:0:0:0:
359,184,57527,2,0,L|444:166,1,83.2500000000002,10|0,1:0|2:0,2:0:0:0:
371,327,57877,5,8,2:0:0:0:
304,283,57993,2,0,B|234:298|234:298|214:325|214:325|154:338,1,166.5,2|0,1:0|2:0,2:0:0:0:
138,336,58459,2,0,L|149:296,1,41.6250000000003,10|8,1:0|2:0,2:0:0:0:
223,154,58925,6,0,L|181:-33,1,138.75,6|0,1:2|2:0,2:0:0:0:
125,96,59274,1,0,2:0:0:0:
125,96,59391,2,0,B|95:79|95:79|106:35,1,69.375,8|0,1:2|0:0,2:0:0:0:
279,30,59624,2,0,B|308:46|308:46|298:91,1,69.375,0|8,2:0|2:0,0:0:0:0:
235,174,59857,1,0,1:0:0:0:
233,190,59973,1,0,2:0:0:0:
219,200,60090,2,0,L|120:178,1,69.375,0|0,2:0|2:0,0:0:0:0:
81,363,60323,6,0,P|133:282|189:281,1,138.75,8|0,1:2|2:0,2:0:0:0:
246,326,60672,1,0,2:0:0:0:
246,326,60789,2,0,L|383:344,1,138.75,2|0,1:0|2:0,2:0:0:0:
479,384,61138,1,0,2:0:0:0:
479,384,61254,2,0,B|497:354|497:354|479:306,1,69.375,8|0,1:2|2:0,2:0:0:0:
476,202,61487,5,0,2:0:0:0:
488,196,61604,1,8,2:0:0:0:
493,184,61720,2,0,P|425:169|355:163,1,138.75,2|0,1:0|2:0,2:0:0:0:
297,210,62070,1,0,2:0:0:0:
297,210,62186,2,0,P|274:186|270:147,1,69.375,8|0,1:2|2:0,2:0:0:0:
318,92,62419,2,0,P|327:50|345:-1,1,69.375,0|0,2:0|2:0,2:0:0:0:
98,22,62652,6,0,P|125:131|134:210,1,138.75,2|0,1:0|2:0,2:0:0:0:
84,221,63002,1,0,2:0:0:0:
84,221,63118,2,0,P|72:258|58:313,1,69.375,8|0,1:2|2:0,2:0:0:0:
129,336,63351,2,0,P|138:302|149:269,1,69.375,0|8,2:0|2:0,2:0:0:0:
191,72,63584,1,0,1:0:0:0:
191,72,63701,2,0,P|197:98|208:155,1,69.375,0|0,2:0|2:0,0:0:0:0:
279,168,63933,1,0,2:0:0:0:
328,234,64050,6,0,P|373:245|436:273,1,83.2500000000002,12|0,1:2|2:0,2:0:0:0:
422,276,64399,1,8,2:0:0:0:
438,296,64516,2,0,P|485:279|490:240,1,69.375,4|0,1:0|0:0,2:0:0:0:
502,132,64749,5,0,0:0:0:0:
498,105,64865,1,0,0:0:0:0:
475,94,64982,2,0,P|444:100|394:123,1,69.375
390,117,65215,2,0,L|377:115,1,8.325,2|0,2:0|0:0,0:0:0:0:
65,28,65448,6,0,B|107:24|130:42|144:73|142:78|139:85|144:114|178:147|238:122,1,199.8,2|8,1:2|2:0,2:0:0:0:
226,51,65797,1,2,2:0:0:0:
219,40,65914,2,0,B|180:37|157:55|143:86|145:90|148:98|143:127|109:159|70:141,1,199.799993902588,0|0,1:0|0:0,0:0:0:0:
61,131,66147,2,0,L|53:98,1,27.75,2|0,2:0|0:0,2:0:0:0:
384,356,66380,6,0,L|370:299,1,49.9500000000001,6|0,1:2|2:0,2:0:0:0:
298,268,66845,2,0,B|196:270|252:321|124:324,1,188.7,14|0,1:0|2:0,2:0:0:0:
437,255,67195,1,8,2:0:0:0:
437,255,67311,2,0,P|468:189|372:114,1,188.7,2|0,1:2|2:0,2:0:0:0:
347,169,67661,1,2,2:0:0:0:
320,168,67777,2,0,P|296:144|305:98,1,55.5,8|0,1:2|2:0,2:0:0:0:
308,106,68010,2,0,P|317:78|349:61,1,55.5,2|0,2:0|0:0,2:0:0:0:
21,109,68243,6,0,P|122:122|159:35,1,188.7,2|2,1:2|2:0,0:0:0:0:
172,49,68593,1,0,0:0:0:0:
191,45,68709,2,0,P|171:93|168:119,1,55.5,10|0,1:2|0:0,2:0:0:0:
75,215,68942,2,0,P|95:263|98:289,1,55.5,0|0,0:0|2:0,0:0:0:0:
240,224,69175,6,0,B|324:242|324:242|350:273|350:273|443:290,1,188.7,2|0,1:2|2:0,0:0:0:0:
469,353,69524,1,2,2:0:0:0:
469,353,69641,2,0,B|506:320|506:320|487:253,1,94.35,8|0,1:2|0:0,2:0:0:0:
364,158,69874,2,0,B|327:191|327:191|339:234,1,94.35,0|0,2:0|2:0,0:0:0:0:
288,20,70107,6,0,B|154:36|254:87|79:88,1,188.7,2|0,1:2|0:0,2:0:0:0:
25,39,70456,1,0,2:0:0:0:
16,54,70573,2,0,P|34:115|43:170,1,94.35,10|0,1:2|0:0,2:0:0:0:
39,328,70806,5,0,2:0:0:0:
26,312,70922,1,8,2:0:0:0:
26,292,71039,2,0,P|84:264|177:352,1,188.7,2|0,1:2|2:0,2:0:0:0:
290,384,71388,1,2,2:0:0:0:
302,372,71505,2,0,P|311:325|325:280,1,94.35,8|0,1:2|2:0,2:0:0:0:
236,247,71737,2,0,P|225:194|211:149,1,94.35,2|0,2:0|0:0,0:0:0:0:
311,0,71970,6,0,P|280:11|262:41,1,55.5,2|0,1:2|0:0,0:0:0:0:
261,44,72203,2,0,P|265:61|295:86,1,41.6250000000001,2|0,2:0|0:0,0:0:0:0:
355,108,72436,2,0,P|430:72|510:51,1,166.5,10|2,1:2|2:0,0:0:0:0:
175,214,72902,5,2,1:2:0:0:
202,178,73019,1,10,2:0:0:0:
254,178,73135,1,8,2:0:0:0:
290,230,73252,1,10,2:0:0:0:
259,297,73368,1,8,1:0:0:0:
296,364,73485,1,8,2:0:0:0:
376,376,73601,1,8,2:0:0:0:
435,320,73718,2,0,L|426:264,1,41.6250015878678,8|0,2:0|0:0,0:0:0:0:
462,130,73834,6,0,L|467:98,1,33.3,6|0,1:2|0:0,2:0:0:0:
483,89,74300,2,0,P|412:172|319:126,1,188.7,14|0,1:0|0:0,2:0:0:0:
40,308,74649,1,0,2:0:0:0:
40,308,74766,2,0,P|111:225|204:271,1,188.7,2|0,1:2|2:0,2:0:0:0:
199,323,75115,1,2,2:0:0:0:
199,323,75232,2,0,P|229:318|246:293,1,55.5,8|0,1:2|2:0,2:0:0:0:
254,293,75465,2,0,P|259:268|249:250,1,41.6250000000001,2|0,2:0|2:0,2:0:0:0:
8,38,75698,6,0,B|49:35|130:56|63:97|189:112,1,188.7,2|2,1:2|2:0,2:0:0:0:
249,77,76047,1,0,0:0:0:0:
249,77,76164,2,0,B|269:111|269:111|245:161,1,94.35,10|0,1:2|0:0,0:0:0:0:
79,182,76397,2,0,B|58:141|58:141|84:99,1,94.35,2|0,2:0|0:0,0:0:0:0:
459,20,76630,6,0,P|417:37|399:80,2,94.35,2|2|0,1:2|2:0|2:0,0:0:0:0:
512,110,76979,1,2,2:0:0:0:
499,101,77095,2,0,B|458:98|377:119|444:160|318:175,1,188.7,8|0,1:2|0:0,2:0:0:0:
316,174,77445,1,0,2:0:0:0:
245,138,77561,6,0,B|220:177|220:177|250:232,1,94.35,2|0,1:2|2:0,0:0:0:0:
274,328,77794,1,0,2:0:0:0:
279,348,77911,1,0,2:0:0:0:
322,263,78027,2,0,L|426:282,1,94.35,10|0,1:2|0:0,2:0:0:0:
203,290,78260,2,0,L|110:274,1,94.35,0|0,0:0|2:0,0:0:0:0:
38,239,78493,5,2,1:2:0:0:
16,192,78610,1,8,2:0:0:0:
60,144,78726,1,0,2:0:0:0:
9,88,78843,1,2,2:0:0:0:
50,27,78959,2,0,B|35:9|35:9|38:-9|38:-9|53:4|53:4|51:25,1,83.2500000000002,8|2,1:2|2:0,2:0:0:0:
444,7,79425,6,0,P|301:46|200:85,3,233.099992886353,10|10|10|10,1:2|1:2|1:2|1:2,2:0:0:0:
141,142,80357,2,0,P|255:174|336:205,1,188.7,2|0,2:0|2:0,2:0:0:0:
399,187,80706,2,0,P|411:168|362:114,1,94.35,8|0,2:3|1:0,2:0:0:0:
500,344,81056,6,0,L|476:341,1,20.8125007939339,2|0,2:0|0:0,2:0:0:0:
423,286,81172,2,0,L|399:283,1,20.8125007939339,2|0,2:0|0:0,0:0:0:0:
268,373,81289,6,0,L|275:333,1,41.6250000000003,6|0,1:2|2:0,2:0:0:0:
218,276,81755,2,0,B|143:294|143:294|121:319|121:319|26:342,1,188.7,14|0,1:0|2:0,2:0:0:0:
137,48,82104,1,8,2:0:0:0:
137,48,82220,2,0,B|212:66|212:66|234:91|234:91|329:114,1,188.7,2|0,1:2|2:0,2:0:0:0:
318,120,82570,1,2,2:0:0:0:
326,130,82686,2,0,L|225:151,1,94.35,8|0,1:2|0:0,2:0:0:0:
160,206,82919,2,0,B|126:168|126:168|153:119,1,94.35,2|0,2:0|0:0,0:0:0:0:
486,38,83152,6,0,P|445:38|438:111,1,94.35,2|0,1:2|0:0,0:0:0:0:
424,102,83385,2,0,P|445:122|479:123,1,41.6250000000001,2|0,2:0|0:0,0:0:0:0:
491,343,83618,2,0,P|459:291|416:291,1,94.35,10|0,1:2|2:0,2:0:0:0:
410,290,83851,2,0,P|396:305|403:338,1,41.6250000000001,2|0,2:0|0:0,2:0:0:0:
230,358,84084,5,2,1:2:0:0:
230,358,84201,2,0,P|197:315|138:330,1,94.35,2|0,2:0|0:0,2:0:0:0:
93,359,84434,1,2,2:0:0:0:
88,284,84550,2,0,P|77:233|59:190,1,83.2500000000002,8|0,1:2|2:0,0:0:0:0:
15,73,85016,6,0,P|159:101|260:149,1,188.7,2|0,1:2|0:0,2:0:0:0:
200,193,85365,1,0,2:0:0:0:
274,180,85482,2,0,P|292:158|291:108,1,55.5,10|0,1:2|2:0,2:0:0:0:
255,66,85715,2,0,L|243:10,1,55.5,8|0,2:0|2:0,2:0:0:0:
498,5,85948,6,0,L|438:24,1,55.5,10|0,1:2|2:0,2:0:0:0:
390,95,86181,5,8,1:2:0:0:
397,128,86297,1,10,2:0:0:0:
422,152,86414,1,0,1:0:0:0:
455,163,86530,1,8,2:3:0:0:
497,263,86647,5,4,2:3:0:0:
480,291,86763,1,4,2:3:0:0:
451,299,86880,6,0,P|395:231|316:272,1,111,10|0,1:2|2:0,2:0:0:0:
320,284,87113,2,0,L|337:346,1,55.5,10|0,1:2|0:0,2:0:0:0:
25,194,87346,6,0,P|81:262|160:221,1,111,10|0,1:2|2:0,2:0:0:0:
155,208,87578,2,0,L|138:146,1,55.5,10|0,1:2|0:0,2:0:0:0:
207,372,87811,6,0,L|269:89,1,266.4,10|0,1:2|2:0,2:0:0:0:
329,64,88161,2,0,L|307:-19,1,66.5999979675294,14|0,1:2|0:0,0:0:0:0:
