osu file format v14

[General]
AudioFilename: audio.mp3
AudioLeadIn: 0
PreviewTime: 67138
Countdown: 0
SampleSet: Soft
StackLeniency: 0.7
Mode: 3
LetterboxInBreaks: 0
EpilepsyWarning: 1
SpecialStyle: 0
WidescreenStoryboard: 1

[Editor]
DistanceSpacing: 1.9
BeatDivisor: 4
GridSize: 4
TimelineZoom: 1.2

[Metadata]
Title:Zankoku na Tenshi no These (TV Size)
TitleUnicode:残酷な天使のテーゼ (TV Size)
Artist:Takahashi Yoko
ArtistUnicode:高橋洋子
Creator:shizehao
Version:Hard
Source:新世紀エヴァンゲリオン
Tags:Neon Genesis Evangelion Anime Opening A Cruel Angel's Thesis Angel Shin Seiki Evangerion japanese op 1 one jpop pop j-pop denyi savageeeee
BeatmapID:3920846
BeatmapSetID:1901824

[Difficulty]
HPDrainRate:8
CircleSize:4
OverallDifficulty:8
ApproachRate:5
SliderMultiplier:1.4
SliderTickRate:1

[Events]
//Background and Video events
0,0,"bg.jpg",0,0
Video,-320,"output.mp4"
//Break Periods
//Storyboard Layer 0 (Background)
//Storyboard Layer 1 (Fail)
//Storyboard Layer 2 (Pass)
//Storyboard Layer 3 (Foreground)
//Storyboard Layer 4 (Overlay)
//Storyboard Sound Samples

[TimingPoints]
1126,750,4,2,1,60,1,0
1126,-62.111801242236,4,2,1,60,0,0
14040,451.127819548872,4,2,1,60,1,8
14040,-103.092783505155,4,2,1,60,0,8
14491,476.190476190476,4,2,1,60,1,8
14491,-98.0392156862745,4,2,1,60,0,8
14967,465.83850931677,4,2,1,60,1,0
14967,-100,4,2,1,60,0,0
67606,-100,4,2,1,60,0,1
74594,-100,4,2,1,60,0,0
75060,-100,4,2,1,60,0,1
82047,-100,4,2,1,60,0,0
82513,-100,4,2,1,60,0,1
87637,-100,4,2,1,60,0,0

[HitObjects]
64,192,1126,128,0,1876:0:0:0:0:
448,192,1126,128,0,4126:0:0:0:0:
192,192,1876,128,0,2626:0:0:0:0:
320,192,2626,128,0,3188:0:0:0:0:
64,192,3188,128,0,3751:0:0:0:0:
320,192,3751,128,0,4126:0:0:0:0:
64,192,4126,128,0,5626:0:0:0:0:
448,192,4501,128,0,4876:0:0:0:0:
192,192,4876,128,0,5251:0:0:0:0:
320,192,5251,128,0,5626:0:0:0:0:
448,192,5626,128,0,6751:0:0:0:0:
192,192,5813,128,0,6188:0:0:0:0:
320,192,6188,128,0,6751:0:0:0:0:
64,192,7126,128,0,7876:0:0:0:0:
448,192,7126,128,0,8626:0:0:0:0:
192,192,7876,128,0,8626:0:0:0:0:
320,192,8626,128,0,10126:0:0:0:0:
64,192,9188,128,0,9751:0:0:0:0:
192,192,9751,128,0,10126:0:0:0:0:
448,192,10126,128,0,11251:0:0:0:0:
64,192,10501,128,0,10876:0:0:0:0:
192,192,10876,128,0,11251:0:0:0:0:
320,192,11251,128,0,11626:0:0:0:0:
64,192,11626,128,0,14040:0:0:0:0:
320,192,12188,128,0,14040:0:0:0:0:
192,192,14040,1,0,0:0:0:60:Tom 1.wav
448,192,14152,1,0,0:0:0:60:Tom 1.wav
64,192,14265,1,0,0:0:0:60:Tom 1.wav
320,192,14378,1,0,0:0:0:60:Tom 1.wav
192,192,14491,1,0,0:0:0:60:Tom 2.wav
64,192,14729,1,0,0:0:0:50:Tom 3.wav
448,192,14848,1,0,0:0:0:50:Tom 4.wav
320,192,14967,1,4,0:0:0:0:
192,192,14967,1,2,0:0:0:0:
448,192,15199,1,0,0:0:0:0:
64,192,15432,1,8,0:0:0:0:
320,192,15432,1,0,0:0:0:0:
192,192,15665,1,0,0:0:0:0:
64,192,15898,1,8,0:0:0:0:
448,192,15898,1,2,0:0:0:0:
192,192,16015,1,0,0:0:0:0:
320,192,16248,1,0,0:0:0:0:
64,192,16364,1,8,0:0:0:0:
448,192,16364,1,0,0:0:0:0:
192,192,16480,1,0,0:0:0:0:
64,192,16597,1,0,0:0:0:0:
192,192,16830,1,2,0:0:0:0:
320,192,17063,1,0,0:0:0:0:
64,192,17296,1,8,0:0:0:0:
448,192,17296,1,0,0:0:0:0:
192,192,17529,1,0,0:0:0:0:
64,192,17762,1,8,0:0:0:0:
448,192,17762,1,2,0:0:0:0:
320,192,17878,1,0,0:0:0:0:
320,192,18111,1,0,0:0:0:0:
192,192,18227,1,8,0:0:0:0:
448,192,18227,1,0,0:0:0:0:
64,192,18460,1,0,0:0:0:0:
192,192,18693,1,2,0:0:0:0:
320,192,18693,1,0,0:0:0:0:
448,192,18926,1,0,0:0:0:0:
64,192,19159,1,8,0:0:0:0:
320,192,19159,1,0,0:0:0:0:
192,192,19392,1,0,0:0:0:0:
320,192,19625,1,8,0:0:0:0:
448,192,19625,1,2,0:0:0:0:
192,192,19741,1,0,0:0:0:0:
64,192,19974,1,0,0:0:0:0:
192,192,20091,1,8,0:0:0:0:
448,192,20091,1,0,0:0:0:0:
320,192,20207,1,0,0:0:0:0:
192,192,20324,1,2,0:0:0:0:
64,192,20557,1,8,0:0:0:0:
448,192,20557,1,0,0:0:0:0:
320,192,20789,1,8,0:0:0:0:
448,192,20789,1,0,0:0:0:0:
64,192,21022,1,8,0:0:0:0:
320,192,21022,1,2,0:0:0:0:
64,192,21255,1,8,0:0:0:0:
192,192,21255,1,0,0:0:0:0:
320,192,21488,1,8,0:0:0:0:
448,192,21488,1,0,0:0:0:0:
192,192,21605,1,8,0:0:0:0:
64,192,21721,1,8,0:0:0:0:
448,192,21838,1,8,0:0:0:0:
320,192,21954,1,0,0:0:0:60:Tom 1.wav
192,192,22071,1,0,0:0:0:60:Tom 2.wav
64,192,22187,1,0,0:0:0:50:Tom 3.wav
448,192,22303,1,0,0:0:0:50:Tom 4.wav
64,192,22420,1,2,0:0:0:0:
192,192,22420,1,4,0:0:0:0:
320,192,22653,1,0,0:0:0:0:
192,192,22886,1,2,0:0:0:0:
448,192,22886,1,0,0:0:0:0:
64,192,23119,1,0,0:0:0:0:
320,192,23352,1,2,0:0:0:0:
448,192,23352,1,0,0:0:0:0:
192,192,23468,1,0,0:0:0:0:
64,192,23585,1,0,0:0:0:0:
320,192,23701,1,0,0:0:0:0:
192,192,23817,1,2,0:0:0:0:
448,192,23817,1,0,0:0:0:0:
320,192,24050,1,0,0:0:0:0:
64,192,24283,1,2,0:0:0:0:
448,192,24283,1,0,0:0:0:0:
192,192,24516,1,0,0:0:0:0:
320,192,24633,1,0,0:0:0:0:
192,192,24749,1,2,0:0:0:0:
448,192,24749,1,0,0:0:0:0:
64,192,24982,1,0,0:0:0:0:
192,192,25215,1,2,0:0:0:0:
448,192,25215,1,0,0:0:0:0:
320,192,25448,1,0,0:0:0:0:
64,192,25564,1,0,0:0:0:0:
192,192,25681,1,2,0:0:0:0:
448,192,25681,1,0,0:0:0:0:
320,192,25914,1,0,0:0:0:0:
64,192,26147,1,2,0:0:0:0:
448,192,26147,1,0,0:0:0:0:
192,192,26380,1,0,0:0:0:0:
320,192,26612,1,2,0:0:0:0:
448,192,26612,1,0,0:0:0:0:
64,192,26845,1,0,0:0:0:0:
192,192,27078,1,2,0:0:0:0:
320,192,27078,1,0,0:0:0:0:
64,192,27195,1,0,0:0:0:0:
448,192,27311,1,0,0:0:0:0:
320,192,27428,1,0,0:0:0:0:
64,192,27544,1,2,0:0:0:0:
192,192,27544,1,0,0:0:0:0:
448,192,27777,1,0,0:0:0:0:
192,192,28010,1,2,0:0:0:0:
320,192,28010,1,0,0:0:0:0:
448,192,28243,1,0,0:0:0:0:
320,192,28359,1,0,0:0:0:0:
64,192,28476,1,2,0:0:0:0:
192,192,28476,1,0,0:0:0:0:
320,192,28709,1,0,0:0:0:0:
192,192,28942,1,2,0:0:0:0:
448,192,28942,1,0,0:0:0:0:
64,192,29175,1,0,0:0:0:0:
192,192,29291,1,0,0:0:0:0:
320,192,29407,1,2,0:0:0:0:
448,192,29407,1,0,0:0:0:0:
64,192,29640,1,0,0:0:0:0:
192,192,29873,1,2,0:0:0:0:
448,192,29873,1,4,0:0:0:0:
320,192,30106,1,0,0:0:0:0:
64,192,30339,1,2,0:0:0:0:
448,192,30339,1,0,0:0:0:0:
192,192,30572,1,0,0:0:0:0:
64,192,30805,1,2,0:0:0:0:
448,192,30805,1,0,0:0:0:0:
192,192,30921,1,0,0:0:0:0:
448,192,31038,1,0,0:0:0:0:
320,192,31154,1,0,0:0:0:0:
64,192,31271,1,2,0:0:0:0:
192,192,31271,1,0,0:0:0:0:
448,192,31504,1,0,0:0:0:0:
192,192,31620,1,0,0:0:0:0:
64,192,31737,1,2,0:0:0:0:
320,192,31737,1,0,0:0:0:0:
448,192,31970,1,0,0:0:0:0:
64,192,32086,1,0,0:0:0:0:
192,192,32203,1,2,0:0:0:0:
320,192,32203,1,0,0:0:0:0:
64,192,32435,1,0,0:0:0:0:
192,192,32552,1,0,0:0:0:0:
320,192,32668,1,2,0:0:0:0:
448,192,32668,1,0,0:0:0:0:
192,192,32901,1,0,0:0:0:0:
320,192,33018,1,0,0:0:0:0:
64,192,33134,1,2,0:0:0:0:
448,192,33134,1,0,0:0:0:0:
192,192,33367,1,0,0:0:0:0:
64,192,33600,1,2,0:0:0:0:
448,192,33600,1,0,0:0:0:0:
320,192,33833,1,0,0:0:0:0:
192,192,34066,1,2,0:0:0:0:
448,192,34066,1,0,0:0:0:0:
64,192,34299,1,0,0:0:0:0:
192,192,34415,1,0,0:0:0:0:
320,192,34532,1,2,0:0:0:0:
448,192,34532,1,0,0:0:0:0:
192,192,34648,1,0,0:0:0:0:
64,192,34765,1,0,0:0:0:0:
448,192,34881,1,0,0:0:0:0:
192,192,34998,1,2,0:0:0:0:
320,192,34998,1,0,0:0:0:0:
64,192,35114,1,0,0:0:0:0:
448,192,35230,1,0,0:0:0:0:
192,192,35347,1,0,0:0:0:0:
64,192,35463,1,2,0:0:0:0:
320,192,35463,1,4,0:0:0:0:
448,192,35696,1,0,0:0:0:0:
320,192,35813,1,0,0:0:0:0:
64,192,35929,1,2,0:0:0:0:
192,192,35929,1,0,0:0:0:0:
320,192,36162,1,0,0:0:0:0:
192,192,36279,1,0,0:0:0:0:
64,192,36395,1,2,0:0:0:0:
448,192,36395,1,4,0:0:0:0:
320,192,36628,1,0,0:0:0:0:
64,192,36861,1,2,0:0:0:0:
192,192,36861,1,0,0:0:0:0:
448,192,37094,1,0,0:0:0:60:Tom 2.wav
192,192,37210,1,0,0:0:0:50:Tom 4.wav
64,192,37327,1,2,0:0:0:0:
320,192,37327,1,4,0:0:0:0:
192,192,37560,1,0,0:0:0:0:
320,192,37793,1,2,0:0:0:0:
448,192,37793,1,0,0:0:0:0:
64,192,38026,1,0,0:0:0:0:
192,192,38258,1,2,0:0:0:0:
320,192,38258,1,0,0:0:0:0:
448,192,38375,1,0,0:0:0:0:
64,192,38491,1,0,0:0:0:0:
192,192,38608,1,0,0:0:0:0:
320,192,38724,1,2,0:0:0:0:
448,192,38724,1,0,0:0:0:0:
192,192,38957,1,0,0:0:0:0:
64,192,39190,1,2,0:0:0:0:
320,192,39190,1,0,0:0:0:0:
448,192,39423,1,0,0:0:0:0:
320,192,39539,1,0,0:0:0:0:
64,192,39656,1,2,0:0:0:0:
192,192,39656,1,0,0:0:0:0:
448,192,39889,1,0,0:0:0:0:
192,192,40005,1,0,0:0:0:0:
64,192,40122,1,2,0:0:0:0:
320,192,40122,1,0,0:0:0:0:
192,192,40355,1,0,0:0:0:0:
320,192,40471,1,0,0:0:0:0:
64,192,40588,1,2,0:0:0:0:
448,192,40588,1,0,0:0:0:0:
320,192,40937,1,0,0:0:0:0:
64,192,41053,1,2,0:0:0:0:
448,192,41053,1,0,0:0:0:0:
192,192,41286,1,0,0:0:0:0:
320,192,41519,1,2,0:0:0:0:
448,192,41519,1,0,0:0:0:0:
64,192,41752,1,0,0:0:0:0:
192,192,41985,1,2,0:0:0:0:
448,192,41985,1,0,0:0:0:0:
320,192,42102,1,0,0:0:0:0:
64,192,42218,1,0,0:0:0:0:
192,192,42335,1,0,0:0:0:0:
320,192,42451,1,2,0:0:0:0:
448,192,42451,1,0,0:0:0:0:
64,192,42684,1,0,0:0:0:0:
192,192,42917,1,2,0:0:0:0:
320,192,42917,1,0,0:0:0:0:
320,192,43266,1,0,0:0:0:0:
64,192,43383,1,2,0:0:0:0:
192,192,43383,1,0,0:0:0:0:
448,192,43616,1,0,0:0:0:0:
192,192,43848,1,2,0:0:0:0:
320,192,43848,1,0,0:0:0:0:
448,192,44081,1,0,0:0:0:0:
320,192,44198,1,0,0:0:0:0:
64,192,44314,1,2,0:0:0:0:
192,192,44314,1,0,0:0:0:0:
320,192,44547,1,0,0:0:0:0:
192,192,44780,1,4,0:0:0:0:
448,192,44780,1,2,0:0:0:0:
64,192,45013,1,0,0:0:0:0:
320,192,45246,1,2,0:0:0:0:
448,192,45246,1,0,0:0:0:0:
192,192,45479,1,0,0:0:0:0:
64,192,45712,1,2,0:0:0:0:
448,192,45712,1,0,0:0:0:0:
320,192,45828,1,0,0:0:0:0:
64,192,45945,1,0,0:0:0:0:
192,192,46061,1,0,0:0:0:0:
320,192,46178,1,2,0:0:0:0:
448,192,46178,1,0,0:0:0:0:
192,192,46411,1,0,0:0:0:0:
64,192,46644,1,2,0:0:0:0:
320,192,46644,1,0,0:0:0:0:
448,192,46876,1,0,0:0:0:0:
192,192,46993,1,0,0:0:0:0:
64,192,47109,1,2,0:0:0:0:
320,192,47109,1,0,0:0:0:0:
448,192,47342,1,0,0:0:0:0:
64,192,47575,1,2,0:0:0:0:
192,192,47575,1,0,0:0:0:0:
448,192,47808,1,0,0:0:0:0:
64,192,47925,1,0,0:0:0:0:
192,192,48041,1,2,0:0:0:0:
320,192,48041,1,0,0:0:0:0:
448,192,48274,1,0,0:0:0:0:
64,192,48507,1,2,0:0:0:0:
192,192,48507,1,0,0:0:0:0:
320,192,48740,1,0,0:0:0:0:
192,192,48973,1,2,0:0:0:0:
448,192,48973,1,0,0:0:0:0:
64,192,49206,1,0,0:0:0:0:
320,192,49439,1,2,0:0:0:0:
448,192,49439,1,0,0:0:0:0:
192,192,49555,1,0,0:0:0:0:
64,192,49671,1,0,0:0:0:0:
192,192,49904,1,2,0:0:0:0:
320,192,49904,1,0,0:0:0:0:
448,192,50137,1,0,0:0:0:0:
64,192,50370,1,2,0:0:0:0:
320,192,50370,1,4,0:0:0:0:
192,192,50603,1,0,0:0:0:0:
320,192,50720,1,0,0:0:0:0:
192,192,50836,1,2,0:0:0:0:
448,192,50836,1,4,0:0:0:0:
448,192,51069,1,0,0:0:0:0:
320,192,51185,1,0,0:0:0:0:
64,192,51302,1,2,0:0:0:0:
192,192,51302,1,4,0:0:0:0:
320,192,51535,1,0,0:0:0:0:
64,192,51651,1,0,0:0:0:0:
192,192,51768,1,2,0:0:0:0:
448,192,51768,1,4,0:0:0:0:
64,192,52001,1,8,0:0:0:0:
192,192,52117,1,8,0:0:0:0:
320,192,52234,1,4,0:0:0:0:
448,192,52234,128,2,52699:0:0:0:0:
192,192,52466,128,0,52699:0:0:0:0:
64,192,52699,1,8,0:0:0:0:
320,192,52699,1,0,0:0:0:0:
448,192,52932,1,0,0:0:0:0:
320,192,53049,1,8,0:0:0:0:
64,192,53165,1,8,0:0:0:0:
192,192,53165,1,2,0:0:0:0:
448,192,53282,1,0,0:0:0:0:
320,192,53398,1,0,0:0:0:0:
64,192,53515,1,0,0:0:0:0:
192,192,53631,1,8,0:0:0:0:
448,192,53631,1,0,0:0:0:0:
320,192,53864,1,0,0:0:0:0:
192,192,54097,1,2,0:0:0:0:
448,192,54097,128,0,54563:0:0:0:0:
64,192,54330,1,0,0:0:0:0:
192,192,54446,1,0,0:0:0:0:
64,192,54563,1,8,0:0:0:0:
320,192,54563,1,0,0:0:0:0:
192,192,54796,1,0,0:0:0:0:
448,192,54912,1,8,0:0:0:0:
64,192,55029,1,8,0:0:0:0:
320,192,55029,128,2,55494:0:0:0:0:
448,192,55262,1,0,0:0:0:0:
192,192,55378,1,0,0:0:0:0:
64,192,55494,1,8,0:0:0:0:
448,192,55494,1,0,0:0:0:0:
64,192,55727,1,0,0:0:0:0:
192,192,55960,128,2,56426:0:0:0:0:
448,192,55960,1,0,0:0:0:0:
320,192,56193,1,0,0:0:0:0:
448,192,56310,1,0,0:0:0:0:
64,192,56426,1,8,0:0:0:0:
320,192,56426,1,0,0:0:0:0:
448,192,56659,1,0,0:0:0:0:
64,192,56892,128,2,57358:0:0:0:0:
320,192,56892,1,0,0:0:0:0:
192,192,57008,1,0,0:0:0:0:
448,192,57125,1,0,0:0:0:0:
320,192,57241,1,0,0:0:0:0:
192,192,57358,1,8,0:0:0:0:
448,192,57358,1,0,0:0:0:0:
320,192,57591,1,0,0:0:0:0:
64,192,57824,128,2,58289:0:0:0:0:
192,192,57824,1,0,0:0:0:0:
320,192,58057,1,0,0:0:0:0:
192,192,58173,1,0,0:0:0:0:
320,192,58289,128,8,58755:0:0:0:0:
448,192,58289,1,0,0:0:0:0:
192,192,58522,1,0,0:0:0:0:
448,192,58639,1,8,0:0:0:0:
64,192,58755,1,8,0:0:0:0:
192,192,58755,128,2,59221:0:0:0:0:
320,192,58872,1,0,0:0:0:0:
448,192,58988,1,0,0:0:0:0:
64,192,59105,1,0,0:0:0:0:
320,192,59221,128,8,59687:0:0:0:0:
448,192,59221,1,0,0:0:0:0:
192,192,59454,1,0,0:0:0:0:
64,192,59571,1,8,0:0:0:0:
192,192,59687,1,6,0:0:0:0:
448,192,59687,128,8,60153:0:0:0:0:
64,192,59920,1,0,0:0:0:0:
192,192,60036,1,0,0:0:0:0:
64,192,60153,1,8,0:0:0:0:
320,192,60153,1,0,0:0:0:0:
320,192,60386,1,0,0:0:0:0:
64,192,60502,1,8,0:0:0:0:
192,192,60619,1,8,0:0:0:0:
448,192,60619,1,2,0:0:0:0:
320,192,60735,1,0,0:0:0:0:
64,192,60852,1,0,0:0:0:0:
448,192,60968,1,0,0:0:0:0:
192,192,61085,1,8,0:0:0:0:
320,192,61085,1,0,0:0:0:0:
64,192,61317,1,0,0:0:0:0:
192,192,61550,1,2,0:0:0:0:
320,192,61550,128,0,62016:0:0:0:0:
448,192,61783,1,0,0:0:0:0:
192,192,61900,1,0,0:0:0:0:
64,192,62016,1,8,0:0:0:0:
448,192,62016,1,0,0:0:0:0:
320,192,62249,1,0,0:0:0:0:
448,192,62366,1,8,0:0:0:0:
64,192,62482,1,8,0:0:0:0:
192,192,62482,128,2,62948:0:0:0:0:
320,192,62715,1,0,0:0:0:0:
448,192,62831,1,0,0:0:0:0:
64,192,62948,1,8,0:0:0:0:
320,192,62948,1,0,0:0:0:0:
192,192,63181,1,0,0:0:0:0:
320,192,63297,1,0,0:0:0:0:
64,192,63414,1,2,0:0:0:0:
448,192,63414,128,0,63880:0:0:0:0:
192,192,63647,1,0,0:0:0:0:
320,192,63763,1,0,0:0:0:0:
64,192,63880,1,8,0:0:0:0:
192,192,63880,1,0,0:0:0:0:
64,192,64112,1,0,0:0:0:0:
192,192,64345,1,2,0:0:0:0:
320,192,64345,1,0,0:0:0:0:
448,192,64462,1,0,0:0:0:0:
64,192,64578,1,0,0:0:0:0:
320,192,64695,1,0,0:0:0:0:
192,192,64811,1,8,0:0:0:0:
448,192,64811,1,4,0:0:0:0:
320,192,65044,1,0,0:0:0:0:
192,192,65161,1,8,0:0:0:0:
64,192,65277,128,10,65976:0:0:0:0:
448,192,65277,1,4,0:0:0:0:
192,192,65510,1,0,0:0:0:30:Tom 1.wav
320,192,65626,1,0,0:0:0:25:Tom 2.wav
448,192,65743,1,0,0:0:0:20:Tom 3.wav
192,192,65976,1,0,0:0:0:20:Tom 4.wav
448,192,66209,1,4,0:0:0:0:
64,192,66209,1,2,0:0:0:0:
192,192,66442,1,8,0:0:0:0:
64,192,66558,1,0,0:0:0:30:Tom 1.wav
320,192,66558,1,0,0:0:0:0:
320,192,66791,1,8,0:0:0:0:
192,192,66907,1,0,0:0:0:35:Tom 2.wav
448,192,66907,1,0,0:0:0:0:
64,192,67140,1,4,0:0:0:0:
320,192,67140,1,2,0:0:0:0:
448,192,67373,1,0,0:0:0:0:
64,192,67606,1,8,0:0:0:0:
320,192,67606,128,0,68072:0:0:0:0:
192,192,67839,1,0,0:0:0:0:
64,192,68072,1,2,0:0:0:0:
448,192,68072,1,0,0:0:0:0:
192,192,68189,1,0,0:0:0:0:
320,192,68421,1,0,0:0:0:0:
192,192,68538,1,8,0:0:0:0:
448,192,68538,1,0,0:0:0:0:
64,192,68654,1,0,0:0:0:0:
320,192,68771,1,0,0:0:0:0:
192,192,69004,1,2,0:0:0:0:
448,192,69004,1,0,0:0:0:0:
448,192,69237,1,0,0:0:0:0:
64,192,69470,1,8,0:0:0:0:
320,192,69470,1,0,0:0:0:0:
64,192,69703,1,0,0:0:0:0:
320,192,69935,1,2,0:0:0:0:
448,192,69935,1,0,0:0:0:0:
192,192,70052,1,0,0:0:0:0:
64,192,70285,1,0,0:0:0:0:
192,192,70401,1,8,0:0:0:0:
448,192,70401,1,0,0:0:0:0:
320,192,70634,1,0,0:0:0:0:
64,192,70867,1,2,0:0:0:0:
192,192,70867,1,0,0:0:0:0:
448,192,71100,1,0,0:0:0:0:
64,192,71333,1,8,0:0:0:0:
320,192,71333,1,0,0:0:0:0:
192,192,71566,1,0,0:0:0:0:
64,192,71682,1,8,0:0:0:0:
320,192,71799,1,2,0:0:0:0:
448,192,71799,1,8,0:0:0:0:
192,192,71915,1,0,0:0:0:0:
64,192,72148,1,0,0:0:0:0:
192,192,72265,1,8,0:0:0:0:
448,192,72265,1,0,0:0:0:0:
320,192,72381,1,0,0:0:0:0:
192,192,72498,1,0,0:0:0:0:
320,192,72730,1,2,0:0:0:0:
448,192,72730,1,0,0:0:0:0:
64,192,72963,1,0,0:0:0:0:
192,192,73196,1,8,0:0:0:0:
448,192,73196,1,0,0:0:0:0:
320,192,73429,1,0,0:0:0:0:
192,192,73662,1,2,0:0:0:0:
448,192,73662,1,0,0:0:0:0:
320,192,73779,1,8,0:0:0:0:
64,192,73895,1,8,0:0:0:0:
192,192,73895,1,0,0:0:0:0:
320,192,74012,1,8,0:0:0:0:
64,192,74128,1,8,0:0:0:0:
448,192,74128,1,2,0:0:0:0:
192,192,74244,1,8,0:0:0:0:
320,192,74361,1,8,0:0:0:0:
448,192,74361,1,0,0:0:0:0:
64,192,74477,1,8,0:0:0:0:
192,192,74594,1,2,0:0:0:0:
448,192,74594,1,4,0:0:0:0:
320,192,74827,1,0,0:0:0:0:
64,192,75060,128,8,75526:0:0:0:0:
192,192,75060,1,0,0:0:0:0:
320,192,75293,1,0,0:0:0:0:
192,192,75526,1,2,0:0:0:0:
448,192,75526,1,0,0:0:0:0:
320,192,75642,1,0,0:0:0:0:
64,192,75875,1,0,0:0:0:0:
320,192,75991,1,8,0:0:0:0:
448,192,75991,1,0,0:0:0:0:
192,192,76108,1,0,0:0:0:0:
320,192,76224,1,0,0:0:0:0:
64,192,76457,1,2,0:0:0:0:
448,192,76457,1,0,0:0:0:0:
192,192,76690,1,0,0:0:0:0:
64,192,76923,1,8,0:0:0:0:
448,192,76923,1,0,0:0:0:0:
320,192,77156,1,0,0:0:0:0:
64,192,77389,1,2,0:0:0:0:
192,192,77389,1,0,0:0:0:0:
448,192,77505,1,0,0:0:0:0:
320,192,77738,1,0,0:0:0:0:
64,192,77855,1,8,0:0:0:0:
192,192,77855,1,0,0:0:0:0:
448,192,77971,1,0,0:0:0:0:
192,192,78088,1,0,0:0:0:0:
320,192,78204,1,0,0:0:0:0:
64,192,78321,1,2,0:0:0:0:
448,192,78321,1,0,0:0:0:0:
192,192,78553,1,0,0:0:0:0:
320,192,78786,1,8,0:0:0:0:
448,192,78786,1,0,0:0:0:0:
64,192,79019,1,0,0:0:0:0:
192,192,79252,1,2,0:0:0:0:
448,192,79252,1,0,0:0:0:0:
320,192,79369,1,8,0:0:0:0:
192,192,79602,1,8,0:0:0:0:
64,192,79718,1,8,0:0:0:0:
320,192,79718,1,0,0:0:0:0:
448,192,79835,1,0,0:0:0:0:
64,192,79951,1,0,0:0:0:0:
192,192,80184,1,2,0:0:0:0:
320,192,80184,1,0,0:0:0:0:
192,192,80417,1,8,0:0:0:0:
448,192,80417,1,0,0:0:0:0:
64,192,80650,1,10,0:0:0:0:
320,192,80650,1,4,0:0:0:45:soft-hitfinish.wav
192,192,80883,1,4,0:0:0:45:soft-hitfinish.wav
320,192,80883,1,0,0:0:0:40:Tom 3.wav
192,192,81116,1,0,0:0:0:40:Tom 1.wav
448,192,81116,1,0,0:0:0:0:
64,192,81348,1,0,0:0:0:40:Tom 2.wav
448,192,81426,1,8,0:0:0:0:
320,192,81504,1,0,0:0:0:40:Tom 4.wav
192,192,81581,1,8,0:0:0:0:
64,192,81814,1,0,0:0:0:40:Tom 2.wav
192,192,81931,1,0,0:0:0:40:Tom 2.wav
320,192,82047,1,4,0:0:0:0:
448,192,82047,1,2,0:0:0:0:
64,192,82280,1,0,0:0:0:0:
192,192,82513,128,8,82979:0:0:0:0:
448,192,82513,1,4,0:0:0:0:
320,192,82746,1,0,0:0:0:0:
64,192,82979,1,2,0:0:0:0:
448,192,82979,1,8,0:0:0:0:
320,192,83095,1,0,0:0:0:0:
64,192,83328,1,0,0:0:0:0:
192,192,83445,1,8,0:0:0:0:
448,192,83445,1,0,0:0:0:0:
320,192,83678,1,0,0:0:0:0:
192,192,83911,1,2,0:0:0:0:
448,192,83911,1,0,0:0:0:0:
448,192,84144,1,0,0:0:0:0:
64,192,84376,1,8,0:0:0:0:
320,192,84376,1,0,0:0:0:0:
64,192,84609,1,0,0:0:0:0:
320,192,84842,1,2,0:0:0:0:
448,192,84842,1,0,0:0:0:0:
192,192,84959,1,0,0:0:0:0:
64,192,85192,1,0,0:0:0:0:
320,192,85308,1,8,0:0:0:0:
448,192,85308,1,0,0:0:0:0:
192,192,85541,1,0,0:0:0:0:
64,192,85774,1,2,0:0:0:0:
448,192,85774,1,0,0:0:0:0:
320,192,86007,1,0,0:0:0:0:
64,192,86240,1,8,0:0:0:0:
448,192,86240,1,0,0:0:0:0:
192,192,86473,1,8,0:0:0:0:
320,192,86473,1,0,0:0:0:0:
64,192,86706,1,8,0:0:0:0:
448,192,86706,1,0,0:0:0:0:
64,192,86939,1,8,0:0:0:0:
192,192,86939,1,0,0:0:0:0:
320,192,87055,1,8,0:0:0:0:
448,192,87055,1,0,0:0:0:0:
64,192,87171,1,8,0:0:0:0:
192,192,87171,1,2,0:0:0:0:
320,192,87288,1,0,0:0:0:60:Tom 2.wav
448,192,87288,1,0,0:0:0:0:
64,192,87404,1,0,0:0:0:50:Tom 4.wav
192,192,87404,1,0,0:0:0:0:
192,192,87637,1,8,0:0:0:0:
320,192,87637,128,0,87870:0:0:0:0:
64,192,87870,1,8,0:0:0:0:
448,192,87870,1,0,0:0:0:0:
64,192,88103,128,8,88336:0:0:0:0:
320,192,88103,1,0,0:0:0:0:
192,192,88336,1,8,0:0:0:0:
448,192,88336,1,0,0:0:0:0:
64,192,88569,1,8,0:0:0:0:
448,192,88569,128,0,88918:0:0:0:0:
64,192,88802,1,0,0:0:0:0:
192,192,88918,1,8,0:0:0:0:
320,192,88918,1,0,0:0:0:0:
