osu file format v14

[General]
AudioFilename: audio.mp3
AudioLeadIn: 0
PreviewTime: 66413
Countdown: 0
SampleSet: Soft
StackLeniency: 0.3
Mode: 0
LetterboxInBreaks: 0
WidescreenStoryboard: 0

[Editor]
DistanceSpacing: 1.4
BeatDivisor: 4
GridSize: 32
TimelineZoom: 2.6

[Metadata]
Title:Zankoku na Tenshi no These (TV Size)
TitleUnicode:残酷な天使のテーゼ (TV Size)
Artist:Takahashi Yoko
ArtistUnicode:高橋洋子
Creator:pajwoj
Version:Light Insane
Source:新世紀エヴァンゲリオン
Tags:evangelion eva op opening cruel angel thesis
BeatmapID:2041978
BeatmapSetID:975624

[Difficulty]
HPDrainRate:5
CircleSize:4
OverallDifficulty:7.3
ApproachRate:8
SliderMultiplier:1.6
SliderTickRate:1

[Events]
//Background and Video events
0,0,"695227.jpg",0,0
//Break Periods
//Storyboard Layer 0 (Background)
//Storyboard Layer 1 (Fail)
//Storyboard Layer 2 (Pass)
//Storyboard Layer 3 (Foreground)
//Storyboard Layer 4 (Overlay)
//Storyboard Sound Samples

[TimingPoints]
1507,857.142857142857,4,3,0,40,1,0
2364,606.060606060606,4,3,0,40,1,0
2970,588.235294117647,4,3,0,40,1,0
4146,666.666666666667,4,3,0,40,1,0
4479,750,4,3,0,40,1,0
5979,857.142857142857,4,3,0,40,1,0
6193,750,4,3,0,40,1,0
7505,750,4,3,0,40,1,0
10505,705.882352941176,4,3,0,40,1,0
11210,833.333333333333,4,3,0,40,1,0
11626,789.473684210526,4,3,0,40,1,0
12020,750,4,3,0,40,1,0
12582,916.030534351145,4,3,0,40,1,0
14414,451.127819548872,4,2,0,45,1,0
14865,476.190476190476,4,2,0,45,1,0
15341,465.704727679161,4,2,0,60,1,1
15341,-83.3333333333333,4,2,0,60,0,1
22792,-125,4,2,0,60,0,0
50734,-100,4,2,0,60,0,0
66568,-71.4285714285714,4,2,0,60,0,1
66801,-71.4285714285714,4,2,0,60,0,0
66917,-62.5,4,2,0,60,0,1
67150,-62.5,4,2,0,60,0,0
67267,-55.5555555555556,4,2,0,60,0,1
67499,-133.333333333333,4,2,0,60,0,0
67732,-83.3333333333333,4,2,0,5,0,0
67965,-50,4,2,0,50,0,1
68314,-83.3333333333333,4,2,0,50,0,1
74951,-133.333333333333,4,2,0,60,0,0
75416,-50,4,2,0,50,0,1
75649,-83.3333333333333,4,2,0,50,0,1
80539,-62.5,4,2,0,50,0,1
82402,-133.333333333333,4,2,0,60,0,0
82868,-83.3333333333333,4,2,0,50,0,1
87990,-62.5,4,2,0,50,0,1
89271,-100,4,2,0,60,0,0

[HitObjects]
266,190,1507,6,0,P|217:172|235:250,1,160
221,248,2970,2,0,P|244:312|177:308,2,160
221,248,4479,2,0,L|231:79,1,160
173,33,5604,1,0,0:0:0:0:
119,97,5979,2,0,L|114:147,1,40
142,212,6568,2,0,P|143:268|135:327,1,106.666666666667
136,318,7505,2,0,P|213:285|291:329,1,160
206,384,9005,2,0,L|202:246,1,120
202,264,10130,1,0,0:0:0:0:
191,243,10505,2,0,P|184:195|186:156,1,80
256,145,11210,1,0,0:0:0:0:
172,177,11626,1,0,0:0:0:0:
241,235,12020,2,0,P|248:281|247:333,1,80
158,280,12582,2,0,P|125:250|235:251,1,280
260,330,14414,6,0,L|309:335,1,40,8|0,0:0|0:0,0:0:0:0:
360,254,14639,2,0,L|311:259,1,40,8|0,0:0|0:0,0:0:0:0:
226,241,14865,1,8,0:0:0:0:
233,227,15103,5,8,0:0:0:0:
293,174,15222,1,8,0:0:0:0:
320,258,15341,2,0,P|321:307|244:363,1,143.999995605469,4|0,0:0|0:0,0:0:0:0:
366,327,15806,2,0,L|471:337,1,95.9999970703126,4|0,0:0|0:0,0:0:0:0:
423,247,16155,1,0,0:0:0:0:
438,222,16272,2,0,B|449:158|449:158|443:119,1,95.9999970703126,4|0,0:0|0:0,0:0:0:0:
334,187,16621,2,0,B|329:217|329:217|340:281,1,95.9999970703126,4|0,0:0|0:0,0:0:0:0:
456,212,16970,2,0,L|446:156,1,47.9999985351563,4|0,0:0|0:0,0:0:0:0:
360,97,17203,6,0,L|353:41,1,47.9999985351563,4|0,0:0|0:0,0:0:0:0:
265,131,17436,2,0,L|259:178,1,47.9999985351563,4|0,0:0|0:0,0:0:0:0:
187,269,17669,2,0,L|181:221,1,47.9999985351563,4|0,0:0|0:0,0:0:0:0:
102,130,17902,2,0,L|96:177,1,47.9999985351563,4|0,0:0|0:0,0:0:0:0:
197,281,18135,1,4,0:0:0:0:
207,293,18251,2,0,L|254:298,1,47.9999985351563,4|0,0:0|0:0,0:0:0:0:
257,151,18484,2,0,P|226:110|208:180,1,143.999995605469,4|0,0:0|0:0,0:0:0:0:
341,106,19066,6,0,P|347:56|267:28,1,143.999995605469,4|0,0:0|0:0,0:0:0:0:
392,45,19532,2,0,L|490:54,1,95.9999970703126,4|0,0:0|0:0,0:0:0:0:
432,150,19881,1,0,0:0:0:0:
417,175,19998,2,0,B|433:208|433:208|426:270,1,95.9999970703126,4|0,0:0|0:0,0:0:0:0:
326,209,20347,2,0,B|319:150|319:150|335:117,1,95.9999970703126,4|0,0:0|0:0,0:0:0:0:
433,214,20696,2,0,L|426:270,1,47.9999985351563,4|0,0:0|0:0,0:0:0:0:
267,285,20929,6,0,L|208:295,1,47.9999985351563,4|0,0:0|0:0,0:0:0:0:
343,337,21162,2,0,L|402:347,1,47.9999985351563,4|0,0:0|0:0,0:0:0:0:
341,219,21395,2,0,L|351:160,1,47.9999985351563,4|0,0:0|0:0,0:0:0:0:
245,310,21628,2,0,L|236:357,1,47.9999985351563,4|0,0:0|0:0,0:0:0:0:
128,218,21860,5,8,0:0:0:0:
111,163,21976,1,0,0:0:0:0:
148,119,22092,1,8,0:0:0:0:
205,126,22209,1,0,0:0:0:0:
229,178,22325,1,8,0:0:0:0:
236,213,22442,1,0,0:0:0:0:
263,235,22558,1,8,0:0:0:0:
299,235,22675,1,0,0:0:0:0:
326,212,22792,6,0,P|342:180|363:161,1,64,8|0,0:0|0:0,0:0:0:0:
411,237,23257,2,0,P|400:289|398:326,2,64,0|0|8,0:0|0:0|0:0,0:0:0:0:
427,212,23840,1,0,0:0:0:0:
452,197,23956,1,0,0:0:0:0:
397,126,24189,1,0,0:0:0:0:
337,240,24422,6,0,P|310:251|279:252,1,32
265,187,24655,2,0,B|268:168|246:140|246:140|212:155|204:177,2,96,8|0|0,0:0|0:0|0:0,0:0:0:0:
231,263,25586,1,8,0:0:0:0:
230,270,25702,1,0,0:0:0:0:
229,278,25818,1,0,0:0:0:0:
228,286,25935,1,0,0:0:0:0:
227,294,26051,1,0,0:0:0:0:
102,264,26285,6,0,P|96:237|95:227,1,32
44,176,26517,2,0,B|28:152|4:144|4:144|28:136|44:112,2,96,8|0|0,0:0|0:0|0:0,0:0:0:0:
124,121,27449,2,0,B|140:97|164:89|164:89|140:81|128:63,2,96,8|0|0,0:0|0:0|0:0,0:0:0:0:
183,198,28380,2,0,B|200:209|208:233|208:233|216:209|240:193,2,96,8|0|0,0:0|0:0|0:0,0:0:0:0:
232,115,29312,2,0,P|236:88|245:68,1,32,8|0,0:0|0:0,0:0:0:0:
262,68,29544,1,0,0:0:0:0:
181,30,29777,1,0,0:0:0:0:
245,141,30010,6,0,P|251:163|250:185,1,32
186,213,30243,2,0,P|147:249|98:260,2,96,8|0|0,0:0|0:0|0:0,0:0:0:0:
99,153,31174,1,8,0:0:0:0:
87,136,31291,1,0,0:0:0:0:
93,108,31407,1,0,0:0:0:0:
153,41,31640,1,0,0:0:0:0:
208,157,31873,6,0,P|235:152|250:156,1,32
305,193,32106,2,0,B|366:209|366:209|326:231,2,96,8|0|0,0:0|0:0|0:0,0:0:0:0:
274,109,33037,2,0,L|340:124,1,64,8|0,0:0|0:0,0:0:0:0:
366,208,33503,1,0,0:0:0:0:
251,265,33736,6,0,P|246:288|246:307,1,32
160,268,33969,2,0,P|163:232|143:172,2,96,8|0|0,0:0|0:0|0:0,0:0:0:0:
58,239,34900,2,0,P|119:222|192:242,1,128,8|0,0:0|0:0,0:0:0:0:
180,235,35832,2,0,P|166:173|183:112,1,128,8|0,0:0|0:0,0:0:0:0:
273,108,36530,2,0,P|277:132|278:156,1,32
266,216,36763,2,0,B|280:247|270:281|270:281|337:255|394:282,1,192,8|0,0:0|0:0,0:0:0:0:
407,302,37578,1,0,0:0:0:0:
434,267,37694,6,0,P|428:229|427:192,1,64,8|0,0:0|0:0,0:0:0:0:
351,134,38160,2,0,P|337:180|344:242,1,96
363,238,38626,1,8,0:0:0:0:
340,249,38742,1,0,0:0:0:0:
317,238,38859,1,0,0:0:0:0:
298,325,39091,1,0,0:0:0:0:
426,329,39324,6,0,P|444:307|446:277,1,32
458,228,39557,2,0,B|438:177|438:177|393:151,2,96,8|0|0,0:0|0:0|0:0,0:0:0:0:
368,236,40489,1,8,0:0:0:0:
362,240,40605,1,0,0:0:0:0:
355,245,40721,1,0,0:0:0:0:
349,250,40838,1,0,0:0:0:0:
343,255,40954,1,0,0:0:0:0:
283,142,41187,6,0,P|286:117|285:95,1,32
209,120,41420,2,0,P|210:166|261:217,2,96,8|0|0,0:0|0:0|0:0,0:0:0:0:
254,43,42351,2,0,P|299:38|356:82,2,96,8|0|0,0:0|0:0|0:0,0:0:0:0:
281,129,43283,2,0,P|280:175|229:226,2,96,8|0|0,0:0|0:0|0:0,0:0:0:0:
193,147,44214,2,0,L|149:150,1,32,8|0,0:0|0:0,0:0:0:0:
196,227,44447,2,0,L|240:230,1,32
313,223,44680,1,0,0:0:0:0:
274,101,44913,6,0,P|271:74|268:64,1,32
194,55,45146,2,0,P|147:47|91:63,2,96,8|0|0,0:0|0:0|0:0,0:0:0:0:
148,133,46077,2,0,L|140:273,1,128,8|0,0:0|0:0,0:0:0:0:
261,215,46776,6,0,P|263:187|262:169,1,32
300,116,47008,2,0,P|354:107|371:153,2,96,8|0|0,0:0|0:0|0:0,0:0:0:0:
212,97,47940,2,0,P|135:91|111:129,1,128,8|0,0:0|0:0,0:0:0:0:
208,212,48638,6,0,P|232:206|249:207,1,32
270,276,48871,2,0,B|261:357|261:357|255:343,2,96,8|0|0,0:0|0:0|0:0,0:0:0:0:
357,299,49803,2,0,B|438:308|438:308|424:313,2,96,8|0|0,0:0|0:0|0:0,0:0:0:0:
331,177,50734,6,0,L|340:97,1,80,8|0,0:0|0:0,0:0:0:0:
203,199,51200,2,0,L|194:279,1,80,8|0,0:0|0:0,0:0:0:0:
259,116,51665,2,0,L|250:36,1,80,8|0,0:0|0:0,0:0:0:0:
387,138,52131,2,0,L|396:218,1,80,8|0,0:0|0:0,0:0:0:0:
382,232,52480,1,0,0:0:0:0:
361,259,52597,6,0,P|306:254|261:262,1,80,4|0,0:0|0:0,0:0:0:0:
315,328,52946,2,0,P|275:331|235:325,1,80
194,259,53295,1,0,0:0:0:0:
261,159,53528,6,0,B|272:96|272:96|285:108,1,80
350,150,53878,2,0,B|361:160|361:160|372:97,1,80
332,31,54227,1,0,0:0:0:0:
176,41,54460,6,0,L|85:49,1,80,4|0,0:0|0:0,0:0:0:0:
122,122,54809,2,0,L|201:129,1,80
261,180,55158,1,0,0:0:0:0:
322,324,55391,6,0,P|331:354|356:317,1,80,4|0,0:0|0:0,0:0:0:0:
414,275,55740,2,0,P|428:242|456:263,1,80
481,338,56090,1,0,0:0:0:0:
470,182,56323,6,0,P|480:113|474:89,1,80,4|0,0:0|0:0,0:0:0:0:
403,126,56672,2,0,P|392:87|394:47,1,80
468,20,57021,1,0,0:0:0:0:
312,29,57254,6,0,L|222:33,1,80,4|0,0:0|0:0,0:0:0:0:
200,104,57603,2,0,L|110:108,1,80
66,51,57952,1,0,0:0:0:0:
143,191,58185,6,0,L|155:275,1,80,12|0,0:0|0:0,0:0:0:0:
319,231,58651,2,0,L|330:151,1,80,12|0,0:0|0:0,0:0:0:0:
131,199,59117,2,0,L|142:278,1,80,12|0,0:0|0:0,0:0:0:0:
330,238,59582,2,0,L|342:159,1,80,12|0,0:0|0:0,0:0:0:0:
199,106,60048,6,0,B|176:119|176:119|121:122,1,80,12|0,0:0|0:0,0:0:0:0:
77,58,60397,2,0,B|100:45|100:45|153:42,1,80
229,18,60747,1,0,0:0:0:0:
248,173,60980,6,0,L|241:270,1,80
316,279,61329,2,0,L|321:199,1,80
381,148,61678,1,0,0:0:0:0:
229,174,61911,6,0,P|176:165|138:168,1,80,4|0,0:0|0:0,0:0:0:0:
163,244,62260,2,0,P|202:252|242:251,1,80
316,279,62610,1,0,0:0:0:0:
167,336,62842,6,0,P|146:354|113:322,1,80,4|0,0:0|0:0,0:0:0:0:
77,254,63192,2,0,P|54:224|22:242,1,80
1,318,63541,1,0,0:0:0:0:
10,158,63774,6,0,L|13:73,1,80,4|0,0:0|0:0,0:0:0:0:
89,59,64123,2,0,L|91:138,1,80
131,207,64472,1,0,0:0:0:0:
276,264,64705,6,0,P|324:276|358:279,1,80
370,202,65054,2,0,P|331:191|291:187,1,80
214,202,65404,1,0,0:0:0:0:
107,321,65637,6,0,B|45:334|0:290|0:290|40:249|55:216|52:181,1,240,8|0,0:0|0:0,0:0:0:0:
237,77,66568,6,0,B|279:88|279:88|290:114|290:114|342:127,1,111.999996582031,8|0,0:0|0:0,0:0:0:0:
261,209,66917,6,0,B|213:222|213:222|200:248|200:248|151:258,1,128,8|0,0:0|0:0,0:0:0:0:
133,128,67267,6,0,B|110:120|110:120|92:97|92:97|69:90,1,71.9999978027344,8|0,0:0|0:0,0:0:0:0:
77,234,67499,6,0,P|77:273|82:307,1,60.0000022888184
273,291,67965,2,0,P|321:239|249:216,1,160,4|0,0:0|0:0,0:0:0:0:
376,311,68314,1,0,0:0:0:0:
411,327,68431,2,0,P|455:320|506:317,1,95.9999970703126,4|0,0:0|0:0,0:0:0:0:
434,159,68780,2,0,P|386:151|338:148,1,95.9999970703126,4|0,0:0|0:0,0:0:0:0:
230,251,69129,2,0,P|254:250|278:248,1,47.9999985351563,4|0,0:0|0:0,0:0:0:0:
140,293,69362,6,0,P|134:327|135:350,1,47.9999985351563,4|0,0:0|0:0,0:0:0:0:
55,270,69595,2,0,P|54:246|49:222,1,47.9999985351563,4|0,0:0|0:0,0:0:0:0:
149,306,69828,2,0,P|143:340|144:363,1,47.9999985351563,4|0,0:0|0:0,0:0:0:0:
64,257,70061,2,0,P|58:223|59:200,1,47.9999985351563,4|0,0:0|0:0,0:0:0:0:
131,124,70294,5,4,0:0:0:0:
177,185,70410,2,0,P|184:221|184:247,1,47.9999985351563,4|0,0:0|0:0,0:0:0:0:
281,121,70643,2,0,P|268:72|165:86,1,143.999995605469,4|0,0:0|0:0,0:0:0:0:
377,48,71225,6,0,B|416:38|416:38|490:52,1,95.9999970703126,4|0,0:0|0:0,0:0:0:0:
423,154,71691,2,0,P|437:198|434:265,1,95.9999970703126,4|0,0:0|0:0,0:0:0:0:
331,123,72040,1,0,0:0:0:0:
274,71,72156,2,0,P|233:58|173:53,1,95.9999970703126,4|0,0:0|0:0,0:0:0:0:
197,210,72506,2,0,P|238:197|298:192,1,95.9999970703126,4|0,0:0|0:0,0:0:0:0:
356,233,72855,1,4,0:0:0:0:
197,125,73088,6,0,P|160:122|127:114,1,47.9999985351563,4|0,0:0|0:0,0:0:0:0:
197,210,73321,2,0,P|220:208|244:204,1,47.9999985351563,4|0,0:0|0:0,0:0:0:0:
205,108,73554,2,0,P|181:106|157:102,1,47.9999985351563,4|0,0:0|0:0,0:0:0:0:
205,227,73786,2,0,P|228:230|252:232,1,47.9999985351563,4|0,0:0|0:0,0:0:0:0:
352,128,74019,5,8,0:0:0:0:
390,100,74135,1,0,0:0:0:0:
437,99,74251,1,8,0:0:0:0:
477,124,74368,1,0,0:0:0:0:
438,151,74485,1,8,0:0:0:0:
416,193,74601,1,0,0:0:0:0:
415,241,74718,1,8,0:0:0:0:
435,284,74834,1,0,0:0:0:0:
472,314,74951,2,0,P|501:294|455:289,1,90.0000034332277,12|0,0:0|0:0,0:0:0:0:
291,314,75416,6,0,B|274:272|274:272|260:312,1,80,6|0,0:0|0:0,0:0:0:0:
197,354,75649,2,0,P|158:363|132:364,1,47.9999985351563
159,258,75882,6,0,P|147:199|150:151,1,95.9999970703126,4|0,0:0|0:0,0:0:0:0:
282,87,76231,2,0,P|282:134|271:181,1,95.9999970703126,4|0,0:0|0:0,0:0:0:0:
327,236,76581,1,4,0:0:0:0:
159,143,76814,6,0,P|128:131|101:126,1,47.9999985351563,4|0,0:0|0:0,0:0:0:0:
168,229,77046,2,0,P|190:238|213:244,1,47.9999985351563,4|0,0:0|0:0,0:0:0:0:
153,126,77279,2,0,P|122:114|95:109,1,47.9999985351563,4|0,0:0|0:0,0:0:0:0:
174,246,77512,2,0,P|205:258|232:263,1,47.9999985351563,4|0,0:0|0:0,0:0:0:0:
326,196,77745,1,4,0:0:0:0:
355,125,77861,2,0,P|365:90|367:54,1,47.9999985351563,4|0,0:0|0:0,0:0:0:0:
476,172,78094,2,0,P|424:212|343:200,1,143.999995605469,4|0,0:0|0:0,0:0:0:0:
363,14,78676,6,0,P|304:11|256:26,1,95.9999970703126,4|0,0:0|0:0,0:0:0:0:
260,131,79142,2,0,P|307:135|354:124,1,95.9999970703126,4|0,0:0|0:0,0:0:0:0:
233,220,79491,1,0,0:0:0:0:
181,277,79608,2,0,P|169:310|150:337,1,47.9999985351563,4|0,0:0|0:0,0:0:0:0:
95,221,79841,2,0,P|83:199|76:177,1,47.9999985351563,0|4,0:0|0:0,0:0:0:0:
181,118,80073,2,0,P|173:140|162:161,1,47.9999985351563
45,190,80306,2,0,P|52:212|63:233,1,47.9999985351563,4|0,0:0|0:0,0:0:0:0:
258,298,80539,6,0,P|300:284|328:283,1,64,12|0,0:0|0:0,0:0:0:0:
162,161,80772,2,0,P|121:143|96:123,1,64,12|0,0:0|0:0,0:0:0:0:
292,181,81005,2,0,P|321:169|348:151,1,64,12|0,0:0|0:0,0:0:0:0:
185,254,81238,2,0,P|143:240|115:239,1,64,12|0,0:0|0:0,0:0:0:0:
122,365,81471,2,0,P|189:367|260:384,1,128,4|0,0:0|0:0,0:0:0:0:
277,364,81762,2,0,L|241:352,3,32,6|2|2|2,0:0|0:0|0:0|0:0,0:0:0:0:
246,353,82169,5,2,0:0:0:0:
269,253,82286,1,2,0:0:0:0:
292,153,82402,2,0,P|306:103|308:60,1,90.0000034332277,12|0,0:0|0:0,0:0:0:0:
177,137,82868,6,0,P|171:164|158:196,1,47.9999985351563,6|0,0:0|0:0,0:0:0:0:
80,240,83101,2,0,P|72:262|67:286,1,47.9999985351563
151,340,83333,2,0,P|208:350|252:353,1,95.9999970703126,4|0,0:0|0:0,0:0:0:0:
328,232,83683,2,0,P|280:240|233:244,1,95.9999970703126,4|0,0:0|0:0,0:0:0:0:
181,188,84032,1,4,0:0:0:0:
360,118,84265,6,0,L|421:130,1,47.9999985351563,4|0,0:0|0:0,0:0:0:0:
287,56,84498,2,0,L|226:68,1,47.9999985351563,4|0,0:0|0:0,0:0:0:0:
384,48,84731,2,0,L|445:60,1,47.9999985351563,4|0,0:0|0:0,0:0:0:0:
360,197,84963,2,0,P|335:220|322:242,1,47.9999985351563,4|0,0:0|0:0,0:0:0:0:
181,188,85196,1,4,0:0:0:0:
119,142,85313,2,0,P|94:119|81:97,1,47.9999985351563,4|0,0:0|0:0,0:0:0:0:
34,241,85545,2,0,P|140:232|179:197,1,143.999995605469,4|0,0:0|0:0,0:0:0:0:
52,364,86128,6,0,P|40:333|34:260,1,95.9999970703126,4|0,0:0|0:0,0:0:0:0:
153,306,86593,2,0,P|178:314|205:319,1,47.9999985351563,4|0,0:0|0:0,0:0:0:0:
266,212,86826,2,0,P|242:216|219:224,1,47.9999985351563
123,144,87059,2,0,P|146:148|169:156,1,47.9999985351563,4|0,0:0|0:0,0:0:0:0:
247,58,87292,5,8,0:0:0:0:
280,38,87408,1,0,0:0:0:0:
318,49,87524,1,8,0:0:0:0:
337,83,87641,1,0,0:0:0:0:
326,120,87757,1,12,0:0:0:0:
293,139,87874,1,0,0:0:0:0:
255,129,87990,6,0,P|224:132|188:149,1,64,12|0,0:0|0:0,0:0:0:0:
314,242,88223,2,0,P|345:244|381:261,1,64,12|0,0:0|0:0,0:0:0:0:
238,122,88456,2,0,P|206:124|170:141,1,64,12|0,0:0|0:0,0:0:0:0:
332,235,88689,2,0,P|363:237|399:254,1,64,12|0,0:0|0:0,0:0:0:0:
205,295,88922,2,0,P|162:329|172:284,1,128,4|0,0:0|0:0,0:0:0:0:
201,215,89271,1,12,0:0:0:0:
