osu file format v14

[General]
AudioFilename: audio.mp3
AudioLeadIn: 0
PreviewTime: 67080
Countdown: 0
SampleSet: Normal
StackLeniency: 0.7
Mode: 1
LetterboxInBreaks: 0
WidescreenStoryboard: 0

[Editor]
DistanceSpacing: 1.9
BeatDivisor: 2
GridSize: 4
TimelineZoom: 1.3

[Metadata]
Title:Zankoku na Tenshi no These (TV Size)
TitleUnicode:残酷な天使のテーゼ (TV Size)
Artist:Takahashi Yoko
ArtistUnicode:高橋洋子
Creator:Horiiizon
Version:Oni
Source:新世紀エヴァンゲリオン
Tags:Neon Genesis Evangelion Anime Opening A Cruel Angel's Thesis Angel Shin Seiki Evangerion japanese op jpop pop j-pop
BeatmapID:3689487
BeatmapSetID:1799692

[Difficulty]
HPDrainRate:5
CircleSize:5
OverallDifficulty:6
ApproachRate:5
SliderMultiplier:1.6
SliderTickRate:1

[Events]
//Background and Video events
0,0,"bg.jpg",0,70
//Break Periods
//Storyboard Layer 0 (Background)
//Storyboard Layer 1 (Fail)
//Storyboard Layer 2 (Pass)
//Storyboard Layer 3 (Foreground)
//Storyboard Layer 4 (Overlay)
//Storyboard Sound Samples

[TimingPoints]
1146,857.142857142857,4,1,0,30,1,0
1146,-68.4931506849315,4,1,0,30,0,0
2003,606.060606060606,4,1,0,30,1,8
2003,-97.0873786407767,4,1,0,30,0,8
2609,588.235294117647,4,1,0,30,1,8
2609,-100,4,1,0,30,0,8
3760,666.666666666667,4,1,0,30,1,8
3760,-88.495575221239,4,1,0,30,0,8
4108,750,4,1,0,30,1,0
4108,-78.740157480315,4,1,0,30,0,0
5618,857.142857142857,4,1,0,30,1,8
5618,-68.4931506849315,4,1,0,30,0,8
5880,659.340659340659,4,1,0,30,1,8
5880,-89.2857142857143,4,1,0,30,0,8
7144,750,4,1,0,30,1,0
7144,-78.740157480315,4,1,0,30,0,0
10144,705.882352941176,4,1,0,30,1,0
10144,-83.3333333333333,4,1,0,30,0,0
10820,833.333333333333,4,1,0,30,1,8
10820,-70.4225352112676,4,1,0,30,0,8
11255,789.473684210526,4,1,0,30,1,8
11255,-74.6268656716418,4,1,0,30,0,8
11645,750,4,1,0,30,1,8
11645,-78.740157480315,4,1,0,30,0,8
12221,916.030534351145,4,1,0,30,1,0
12221,-64.1025641025641,4,1,0,30,0,0
14053,451.127819548872,4,1,0,50,1,8
14053,-103.092783505155,4,1,0,50,0,8
14504,476.190476190476,4,1,0,50,1,8
14504,-98.0392156862745,4,1,0,50,0,0
14980,465.704727679161,4,1,0,60,1,0
14980,-100,4,1,0,60,0,0
20568,-96.1538461538461,4,1,0,60,0,0
20801,-92.5925925925926,4,1,0,60,0,0
21034,-89.2857142857143,4,1,0,60,0,0
21267,-86.2068965517241,4,1,0,60,0,0
21499,-83.3333333333333,4,1,0,60,0,0
21616,-85.9928780698383,4,1,0,60,0,0
21732,-88.8278542832347,4,1,0,60,0,0
21849,-91.8560432090827,4,1,0,60,0,0
21965,-95.0980746443807,4,1,0,60,0,0
22081,-98.5772347705566,4,1,0,60,0,0
22198,-102.320631932223,4,1,0,60,0,0
22314,-106.359670114847,4,1,0,60,0,0
22431,-111.111111111111,4,1,0,60,0,0
22780,-111.111111111111,4,1,0,40,0,0
35471,-111.111111111111,4,1,0,40,0,0
35936,-105.263157894737,4,1,0,40,0,0
36169,-102.564102564103,4,1,0,40,0,0
36402,-100,4,1,0,40,0,0
36868,-95.2380952380952,4,1,0,40,0,0
37100,-93.0232558139535,4,1,0,40,0,0
37217,-91.9540229885058,4,1,0,40,0,0
37333,-90.9090909090909,4,1,0,40,0,0
37683,-111.111111111111,4,1,0,40,0,0
50315,-111.111111111111,4,1,0,50,0,0
50722,-108.974365959895,4,1,0,50,0,0
50839,-108.280303054912,4,1,0,50,0,0
51072,-106.918252442547,4,1,0,50,0,0
51188,-106.250053125027,4,1,0,50,0,0
51304,-105.590042436638,4,1,0,50,0,0
51537,-104.294427340158,4,1,0,50,0,0
51654,-103.658523944082,4,1,0,50,0,0
51770,-103.030328007352,4,1,0,50,0,0
52003,-101.796401090036,4,1,0,50,0,0
52119,-101.190506306698,4,1,0,50,0,0
52236,-100.591680263309,4,1,0,50,0,0
52352,-100,4,1,0,50,0,0
64810,-100,4,1,0,50,0,0
65043,-98.0392156862745,4,1,0,50,0,0
65159,-97.0873786407767,4,1,0,50,0,0
65217,-96.1538461538461,4,1,0,60,0,0
65508,-94.3396226415094,4,1,0,60,0,0
65625,-93.4579439252336,4,1,0,60,0,0
65741,-92.5925925925926,4,1,0,60,0,0
65974,-90.9090909090909,4,1,0,60,0,0
66091,-90.0900900900901,4,1,0,60,0,0
66149,-89.2857142857143,4,1,0,70,0,0
66440,-87.719298245614,4,1,0,70,0,0
66556,-86.9565217391304,4,1,0,70,0,0
66789,-85.4700854700855,4,1,0,70,0,0
66906,-84.7457627118644,4,1,0,70,0,0
67138,-83.3333333333333,4,1,0,70,0,0
67604,-66.6666666666667,4,1,0,70,0,1
67837,-83.3333333333333,4,1,0,70,0,1
74590,-83.3333333333333,4,1,0,70,0,0
75055,-66.6666666666667,4,1,0,70,0,1
75288,-83.3333333333333,4,1,0,70,0,1
82041,-83.3333333333333,4,1,0,70,0,0
82507,-66.6666666666667,4,1,0,70,0,1
82740,-83.3333333333333,4,1,0,70,0,1
87629,-83.3333333333333,4,1,0,70,0,0
87862,-79.7362325427486,4,1,0,70,0,0
88095,-76.4367627196506,4,1,0,70,0,0
88328,-73.3995593090459,4,1,0,70,0,0
88561,-70.5944974413024,4,1,0,70,0,0
88910,-66.7670843615464,4,1,0,70,0,0

[HitObjects]
163,221,1146,5,8,0:0:0:0:
157,225,2003,1,0,0:0:0:0:
157,225,2609,1,8,0:0:0:0:
183,244,3197,1,0,0:0:0:0:
160,212,3760,1,8,0:0:0:0:
160,212,4108,1,8,0:0:0:0:
170,188,4483,1,0,0:0:0:0:
170,188,4858,1,8,0:0:0:0:
170,188,5233,1,0,0:0:0:0:
178,162,5618,1,8,0:0:0:0:
170,188,5880,1,0,0:0:0:0:
178,169,6209,1,8,0:0:0:0:
172,180,7144,1,0,0:0:0:0:
172,180,7894,1,8,0:0:0:0:
159,212,8644,1,8,0:0:0:0:
159,212,9206,1,0,0:0:0:0:
171,215,9769,1,0,0:0:0:0:
171,213,10144,1,8,0:0:0:0:
168,199,10496,1,0,0:0:0:0:
168,199,10820,1,8,0:0:0:0:
168,199,11255,1,8,0:0:0:0:
168,199,11645,1,0,0:0:0:0:
168,199,12221,1,8,0:0:0:0:
256,192,12450,12,0,13824,0:0:0:0:
156,140,14053,5,0,0:0:0:0:
146,179,14165,1,0,0:0:0:0:
146,179,14278,1,8,0:0:0:0:
146,179,14391,1,8,0:0:0:0:
140,182,14504,1,0,0:0:0:0:
136,161,14742,1,0,0:0:0:0:
132,162,14861,1,0,0:0:0:0:
177,140,14980,1,8,0:0:0:0:
177,140,15096,1,0,0:0:0:0:
148,152,15329,1,0,0:0:0:0:
148,153,15445,1,8,0:0:0:0:
143,153,15562,1,8,0:0:0:0:
153,189,15794,1,0,0:0:0:0:
155,208,15853,1,0,0:0:0:0:
154,208,15911,1,8,0:0:0:0:
155,170,16144,1,0,0:0:0:0:
144,137,16260,1,8,0:0:0:0:
158,169,16493,1,0,0:0:0:0:
158,169,16609,1,8,0:0:0:0:
158,167,16726,1,0,0:0:0:0:
155,173,16842,1,8,0:0:0:0:
164,181,17075,1,8,0:0:0:0:
162,178,17192,1,0,0:0:0:0:
182,160,17308,1,8,0:0:0:0:
182,160,17541,1,0,0:0:0:0:
148,145,17657,1,8,0:0:0:0:
170,177,17774,1,8,0:0:0:0:
148,145,17890,1,0,0:0:0:0:
131,167,18123,1,8,0:0:0:0:
140,167,18239,1,0,0:0:0:0:
140,169,18472,1,0,0:0:0:0:
150,173,18589,1,0,0:0:0:0:
150,174,18705,1,8,0:0:0:0:
150,171,18938,1,8,0:0:0:0:
155,212,19054,1,0,0:0:0:0:
161,157,19171,1,8,0:0:0:0:
161,159,19404,1,8,0:0:0:0:
159,145,19520,1,0,0:0:0:0:
172,158,19637,1,0,0:0:0:0:
160,146,19753,1,8,0:0:0:0:
164,149,19986,1,0,0:0:0:0:
170,151,20102,1,8,0:0:0:0:
159,146,20219,1,8,0:0:0:0:
159,146,20335,1,0,0:0:0:0:
408,180,20568,1,12,0:0:0:0:
189,150,20801,1,12,0:0:0:0:
189,122,21034,1,4,0:0:0:0:
189,122,21267,1,12,0:0:0:0:
189,194,21499,1,8,0:0:0:0:
174,139,21616,1,8,0:0:0:0:
171,157,21732,1,8,0:0:0:0:
177,167,21849,1,8,0:0:0:0:
171,147,21965,1,0,0:0:0:0:
167,145,22081,1,0,0:0:0:0:
167,149,22198,1,0,0:0:0:0:
158,132,22314,1,0,0:0:0:0:
169,152,22431,1,12,0:0:0:0:
152,203,22896,1,8,0:0:0:0:
152,203,23129,1,0,0:0:0:0:
171,178,23362,1,8,0:0:0:0:
171,178,23479,1,0,0:0:0:0:
171,178,23595,1,8,0:0:0:0:
165,166,23711,1,8,0:0:0:0:
165,166,23828,1,0,0:0:0:0:
133,182,24061,1,0,0:0:0:0:
133,182,24294,1,8,0:0:0:0:
140,219,24643,1,8,0:0:0:0:
143,181,24992,1,8,0:0:0:0:
166,200,25225,1,8,0:0:0:0:
160,197,25341,1,0,0:0:0:0:
160,197,25458,1,0,0:0:0:0:
169,201,25574,1,8,0:0:0:0:
172,198,25691,1,0,0:0:0:0:
143,181,25924,1,0,0:0:0:0:
141,187,26156,1,8,0:0:0:0:
158,159,26506,1,0,0:0:0:0:
153,206,26855,1,0,0:0:0:0:
153,206,27088,1,8,0:0:0:0:
153,206,27437,1,8,0:0:0:0:
159,175,27786,1,8,0:0:0:0:
159,175,28019,1,0,0:0:0:0:
136,193,28369,1,8,0:0:0:0:
136,193,28718,1,8,0:0:0:0:
149,169,28951,1,0,0:0:0:0:
146,181,29067,1,0,0:0:0:0:
149,171,29183,1,8,0:0:0:0:
146,181,29300,1,8,0:0:0:0:
151,189,29416,1,0,0:0:0:0:
141,207,29649,1,0,0:0:0:0:
141,207,29766,1,0,0:0:0:0:
132,204,29882,1,12,0:0:0:0:
132,177,30231,1,8,0:0:0:0:
138,182,30581,1,8,0:0:0:0:
155,133,30813,1,8,0:0:0:0:
158,172,30930,1,8,0:0:0:0:
161,178,31046,1,0,0:0:0:0:
161,178,31163,1,8,0:0:0:0:
161,178,31279,1,0,0:0:0:0:
176,194,31512,1,8,0:0:0:0:
175,194,31628,1,8,0:0:0:0:
171,194,31745,1,8,0:0:0:0:
166,198,32094,1,0,0:0:0:0:
163,197,32443,1,8,0:0:0:0:
171,202,32676,1,0,0:0:0:0:
157,122,32793,1,8,0:0:0:0:
182,195,32909,1,8,0:0:0:0:
171,202,33026,1,0,0:0:0:0:
145,177,33142,1,0,0:0:0:0:
156,176,33375,1,0,0:0:0:0:
161,187,33608,1,0,0:0:0:0:
161,187,33957,1,8,0:0:0:0:
177,162,34306,1,0,0:0:0:0:
177,162,34539,1,8,0:0:0:0:
177,162,35005,1,0,0:0:0:0:
168,160,35471,1,12,0:0:0:0:
183,162,35936,1,0,0:0:0:0:
183,162,36169,1,0,0:0:0:0:
171,121,36402,1,12,0:0:0:0:
174,108,36868,1,0,0:0:0:0:
174,110,37100,1,0,0:0:0:0:
173,113,37217,1,0,0:0:0:0:
179,128,37333,1,12,0:0:0:0:
158,176,37799,1,0,0:0:0:0:
171,175,38148,1,8,0:0:0:0:
171,188,38265,1,0,0:0:0:0:
140,207,38381,1,0,0:0:0:0:
173,188,38498,1,8,0:0:0:0:
140,207,38614,1,8,0:0:0:0:
169,220,38730,1,0,0:0:0:0:
96,170,38963,1,0,0:0:0:0:
118,207,39196,1,8,0:0:0:0:
120,192,39545,1,0,0:0:0:0:
121,195,39895,1,8,0:0:0:0:
157,183,40128,1,0,0:0:0:0:
155,165,40244,1,0,0:0:0:0:
149,174,40360,1,8,0:0:0:0:
149,174,40477,1,0,0:0:0:0:
154,178,40593,1,0,0:0:0:0:
136,174,40826,1,0,0:0:0:0:
137,171,41059,1,8,0:0:0:0:
138,172,41408,1,8,0:0:0:0:
152,143,41758,1,8,0:0:0:0:
169,144,41990,1,0,0:0:0:0:
169,144,42340,1,0,0:0:0:0:
146,177,42689,1,8,0:0:0:0:
151,177,42922,1,0,0:0:0:0:
159,167,43271,1,8,0:0:0:0:
159,167,43620,1,0,0:0:0:0:
159,167,43853,1,8,0:0:0:0:
152,146,43970,1,8,0:0:0:0:
152,146,44086,1,8,0:0:0:0:
151,146,44202,1,8,0:0:0:0:
151,146,44319,1,0,0:0:0:0:
151,155,44552,1,0,0:0:0:0:
153,146,44668,1,0,0:0:0:0:
169,146,44785,1,12,0:0:0:0:
169,144,45134,1,8,0:0:0:0:
171,147,45483,1,8,0:0:0:0:
164,152,45716,1,8,0:0:0:0:
169,139,45832,1,0,0:0:0:0:
169,144,45949,1,8,0:0:0:0:
158,156,46065,1,8,0:0:0:0:
161,157,46182,1,0,0:0:0:0:
179,165,46415,1,0,0:0:0:0:
154,144,46531,1,0,0:0:0:0:
164,137,46647,1,8,0:0:0:0:
165,181,46997,1,8,0:0:0:0:
166,184,47346,1,8,0:0:0:0:
165,181,47579,1,0,0:0:0:0:
170,155,47695,1,8,0:0:0:0:
163,117,47812,1,0,0:0:0:0:
163,117,47928,1,8,0:0:0:0:
151,212,48045,1,0,0:0:0:0:
151,200,48277,1,8,0:0:0:0:
151,177,48510,1,0,0:0:0:0:
151,192,48860,1,8,0:0:0:0:
151,200,49209,1,8,0:0:0:0:
152,198,49442,1,0,0:0:0:0:
170,212,49791,1,8,0:0:0:0:
170,212,50140,1,8,0:0:0:0:
174,209,50373,1,4,0:0:0:0:
156,207,50722,1,0,0:0:0:0:
160,209,50839,1,12,0:0:0:0:
183,186,51072,1,0,0:0:0:0:
160,182,51188,1,0,0:0:0:0:
158,161,51304,1,12,0:0:0:0:
221,143,51537,1,0,0:0:0:0:
215,145,51654,1,0,0:0:0:0:
169,103,51770,1,12,0:0:0:0:
189,123,52003,1,8,0:0:0:0:
189,123,52119,1,8,0:0:0:0:
189,123,52236,1,0,0:0:0:0:
174,130,52352,1,8,0:0:0:0:
176,142,52585,1,8,0:0:0:0:
176,142,52702,1,0,0:0:0:0:
155,213,52934,1,0,0:0:0:0:
155,213,53051,1,0,0:0:0:0:
155,213,53167,1,8,0:0:0:0:
159,214,53284,1,0,0:0:0:0:
132,199,53517,1,0,0:0:0:0:
132,199,53633,1,8,0:0:0:0:
136,193,53866,1,0,0:0:0:0:
135,194,53982,1,0,0:0:0:0:
151,177,54099,1,8,0:0:0:0:
146,144,54332,1,0,0:0:0:0:
146,144,54448,1,8,0:0:0:0:
131,158,54681,1,8,0:0:0:0:
146,144,54797,1,0,0:0:0:0:
144,187,54914,1,0,0:0:0:0:
141,166,55030,1,8,0:0:0:0:
152,158,55263,1,8,0:0:0:0:
159,148,55379,1,0,0:0:0:0:
156,171,55612,1,0,0:0:0:0:
151,138,55729,1,8,0:0:0:0:
151,168,55845,1,0,0:0:0:0:
144,187,55962,1,8,0:0:0:0:
155,177,56194,1,0,0:0:0:0:
153,176,56311,1,0,0:0:0:0:
158,192,56544,1,0,0:0:0:0:
159,192,56660,1,8,0:0:0:0:
177,161,56893,1,8,0:0:0:0:
185,173,57126,1,8,0:0:0:0:
185,173,57242,1,8,0:0:0:0:
183,170,57475,1,0,0:0:0:0:
162,144,57591,1,8,0:0:0:0:
166,161,57824,1,0,0:0:0:0:
164,197,58057,1,0,0:0:0:0:
164,197,58174,1,0,0:0:0:0:
162,182,58290,1,8,0:0:0:0:
162,144,58523,1,8,0:0:0:0:
162,148,58639,1,0,0:0:0:0:
186,125,58756,1,8,0:0:0:0:
157,173,58989,1,0,0:0:0:0:
157,173,59105,1,0,0:0:0:0:
155,162,59221,1,8,0:0:0:0:
151,126,59454,1,8,0:0:0:0:
146,125,59571,1,8,0:0:0:0:
160,164,59687,1,0,0:0:0:0:
156,156,59804,1,0,0:0:0:0:
160,160,60036,1,8,0:0:0:0:
153,181,60153,1,0,0:0:0:0:
176,157,60386,1,0,0:0:0:0:
175,159,60502,1,0,0:0:0:0:
187,141,60619,1,8,0:0:0:0:
187,142,60735,1,8,0:0:0:0:
171,152,60968,1,0,0:0:0:0:
174,155,61084,1,8,0:0:0:0:
139,161,61317,1,8,0:0:0:0:
139,161,61434,1,0,0:0:0:0:
139,161,61550,1,8,0:0:0:0:
132,175,61783,1,0,0:0:0:0:
143,152,61899,1,8,0:0:0:0:
155,172,62132,1,8,0:0:0:0:
155,172,62249,1,0,0:0:0:0:
149,115,62365,1,0,0:0:0:0:
146,162,62481,1,8,0:0:0:0:
155,139,62714,1,0,0:0:0:0:
157,144,62831,1,8,0:0:0:0:
170,156,63064,1,0,0:0:0:0:
171,163,63180,1,0,0:0:0:0:
169,164,63296,1,0,0:0:0:0:
156,172,63413,1,8,0:0:0:0:
176,162,63646,1,0,0:0:0:0:
176,166,63762,1,8,0:0:0:0:
164,151,63995,1,8,0:0:0:0:
156,132,64111,1,8,0:0:0:0:
151,114,64228,1,8,0:0:0:0:
156,136,64344,1,0,0:0:0:0:
157,162,64577,1,0,0:0:0:0:
152,160,64693,1,0,0:0:0:0:
144,138,64810,1,12,0:0:0:0:
161,158,65043,1,8,0:0:0:0:
161,159,65159,1,8,0:0:0:0:
174,137,65276,1,4,0:0:0:0:
274,100,65508,1,0,0:0:0:0:
139,185,65625,1,8,0:0:0:0:
186,137,65741,1,0,0:0:0:0:
154,184,65974,1,0,0:0:0:0:
154,184,66091,1,0,0:0:0:0:
143,178,66207,1,12,0:0:0:0:
150,144,66440,1,0,0:0:0:0:
146,177,66556,1,12,0:0:0:0:
161,152,66789,1,0,0:0:0:0:
154,184,66906,1,12,0:0:0:0:
150,160,67138,1,4,0:0:0:0:
161,152,67604,1,12,0:0:0:0:
180,173,67837,1,0,0:0:0:0:
176,170,67953,1,0,0:0:0:0:
156,126,68070,1,8,0:0:0:0:
151,162,68303,1,8,0:0:0:0:
152,154,68419,1,0,0:0:0:0:
151,157,68652,1,0,0:0:0:0:
151,162,68768,1,8,0:0:0:0:
148,154,68885,1,0,0:0:0:0:
159,138,69001,1,8,0:0:0:0:
164,139,69234,1,0,0:0:0:0:
179,187,69351,1,0,0:0:0:0:
185,186,69467,1,8,0:0:0:0:
178,124,69700,1,0,0:0:0:0:
159,103,69816,1,0,0:0:0:0:
174,117,69933,1,8,0:0:0:0:
164,139,70049,1,8,0:0:0:0:
214,182,70282,1,8,0:0:0:0:
151,162,70515,1,0,0:0:0:0:
151,158,70631,1,0,0:0:0:0:
151,158,70748,1,0,0:0:0:0:
160,146,70864,1,8,0:0:0:0:
162,150,71097,1,0,0:0:0:0:
162,150,71213,1,0,0:0:0:0:
166,138,71330,1,8,0:0:0:0:
167,178,71563,1,8,0:0:0:0:
167,176,71679,1,0,0:0:0:0:
167,175,71795,1,8,0:0:0:0:
168,165,71912,1,8,0:0:0:0:
168,156,72145,1,8,0:0:0:0:
171,154,72261,1,0,0:0:0:0:
186,126,72378,1,0,0:0:0:0:
183,141,72494,1,8,0:0:0:0:
173,113,72610,1,8,0:0:0:0:
183,142,72727,1,0,0:0:0:0:
160,139,72960,1,0,0:0:0:0:
180,137,73193,1,8,0:0:0:0:
189,136,73425,1,0,0:0:0:0:
179,152,73658,1,8,0:0:0:0:
181,149,73775,1,0,0:0:0:0:
187,172,73891,1,8,0:0:0:0:
149,140,74008,1,8,0:0:0:0:
149,140,74124,1,0,0:0:0:0:
149,140,74240,1,0,0:0:0:0:
143,143,74357,1,0,0:0:0:0:
143,142,74473,1,0,0:0:0:0:
143,143,74590,1,12,0:0:0:0:
180,173,74823,1,8,0:0:0:0:
176,170,74939,1,8,0:0:0:0:
205,159,75055,1,4,0:0:0:0:
180,173,75288,1,0,0:0:0:0:
176,170,75404,1,0,0:0:0:0:
156,126,75521,1,8,0:0:0:0:
154,132,75754,1,0,0:0:0:0:
151,132,75870,1,8,0:0:0:0:
151,157,76103,1,0,0:0:0:0:
151,162,76219,1,8,0:0:0:0:
163,155,76336,1,8,0:0:0:0:
121,151,76453,1,0,0:0:0:0:
164,139,76685,1,0,0:0:0:0:
179,187,76802,1,0,0:0:0:0:
185,186,76918,1,8,0:0:0:0:
178,124,77151,1,0,0:0:0:0:
159,103,77267,1,0,0:0:0:0:
174,117,77384,1,8,0:0:0:0:
161,171,77500,1,0,0:0:0:0:
214,182,77733,1,8,0:0:0:0:
151,162,77966,1,0,0:0:0:0:
160,137,78082,1,8,0:0:0:0:
151,158,78199,1,0,0:0:0:0:
160,146,78315,1,8,0:0:0:0:
162,150,78548,1,0,0:0:0:0:
162,150,78664,1,0,0:0:0:0:
166,138,78781,1,8,0:0:0:0:
165,142,79014,1,0,0:0:0:0:
167,176,79130,1,0,0:0:0:0:
167,175,79246,1,8,0:0:0:0:
168,165,79363,1,8,0:0:0:0:
168,156,79596,1,8,0:0:0:0:
171,154,79712,1,0,0:0:0:0:
170,152,79829,1,8,0:0:0:0:
173,153,79945,1,0,0:0:0:0:
113,119,80062,1,0,0:0:0:0:
180,155,80178,1,8,0:0:0:0:
160,139,80411,1,0,0:0:0:0:
180,137,80644,1,12,0:0:0:0:
189,136,80876,1,12,0:0:0:0:
160,156,81110,1,0,0:0:0:0:
235,200,81342,1,0,0:0:0:0:
190,149,81420,1,8,0:0:0:0:
190,149,81498,1,8,0:0:0:0:
174,162,81575,1,0,0:0:0:0:
160,177,81808,1,8,0:0:0:0:
159,183,81925,1,8,0:0:0:0:
143,143,82041,1,4,0:0:0:0:
148,176,82274,1,0,0:0:0:0:
148,176,82390,1,0,0:0:0:0:
161,152,82507,1,12,0:0:0:0:
163,146,82740,1,8,0:0:0:0:
176,170,82856,1,0,0:0:0:0:
156,126,82973,1,8,0:0:0:0:
151,162,83206,1,8,0:0:0:0:
152,154,83322,1,0,0:0:0:0:
151,157,83555,1,0,0:0:0:0:
146,160,83671,1,8,0:0:0:0:
148,154,83788,1,0,0:0:0:0:
159,138,83904,1,8,0:0:0:0:
164,139,84137,1,0,0:0:0:0:
179,187,84254,1,0,0:0:0:0:
185,186,84370,1,8,0:0:0:0:
133,165,84602,1,8,0:0:0:0:
159,103,84719,1,0,0:0:0:0:
174,117,84836,1,8,0:0:0:0:
164,139,84952,1,8,0:0:0:0:
105,153,85184,1,0,0:0:0:0:
97,93,85417,1,8,0:0:0:0:
151,158,85534,1,0,0:0:0:0:
151,158,85651,1,0,0:0:0:0:
160,146,85767,1,8,0:0:0:0:
162,150,86000,1,0,0:0:0:0:
162,150,86116,1,0,0:0:0:0:
166,138,86233,1,8,0:0:0:0:
167,178,86466,1,8,0:0:0:0:
167,176,86582,1,0,0:0:0:0:
167,175,86698,1,8,0:0:0:0:
136,187,86814,1,8,0:0:0:0:
143,192,86931,1,0,0:0:0:0:
140,164,87047,1,8,0:0:0:0:
171,154,87164,1,0,0:0:0:0:
186,126,87281,1,0,0:0:0:0:
140,134,87397,1,0,0:0:0:0:
143,139,87513,1,0,0:0:0:0:
166,140,87629,1,12,0:0:0:0:
160,139,87862,1,4,0:0:0:0:
180,137,88095,1,12,0:0:0:0:
189,136,88328,1,12,0:0:0:0:
162,122,88561,1,4,0:0:0:0:
168,130,88910,1,12,0:0:0:0:
