osu file format v14

[General]
AudioFilename: audio.mp3
AudioLeadIn: 0
PreviewTime: 67080
Countdown: 0
SampleSet: Normal
StackLeniency: 0.7
Mode: 1
LetterboxInBreaks: 0
WidescreenStoryboard: 1

[Editor]
DistanceSpacing: 1.9
BeatDivisor: 2
GridSize: 4
TimelineZoom: 0.5999998

[Metadata]
Title:Zankoku na Tenshi no These (TV Size)
TitleUnicode:残酷な天使のテーゼ (TV Size)
Artist:Takahashi Yoko
ArtistUnicode:高橋洋子
Creator:Horiiizon
Version:Futsuu
Source:新世紀エヴァンゲリオン
Tags:Neon Genesis Evangelion Anime Opening A Cruel Angel's Thesis Angel Shin Seiki Evangerion japanese op jpop pop j-pop
BeatmapID:3689484
BeatmapSetID:1799692

[Difficulty]
HPDrainRate:7
CircleSize:5
OverallDifficulty:4
ApproachRate:5
SliderMultiplier:1.6
SliderTickRate:1

[Events]
//Background and Video events
0,0,"bg.jpg",0,70
//Break Periods
//Storyboard Layer 0 (Background)
//Storyboard Layer 1 (Fail)
//Storyboard Layer 2 (Pass)
//Storyboard Layer 3 (Foreground)
//Storyboard Layer 4 (Overlay)
//Storyboard Sound Samples

[TimingPoints]
1146,857.142857142857,4,1,0,30,1,0
1146,-68.4931506849315,4,1,0,30,0,0
2003,606.060606060606,4,1,0,30,1,8
2003,-97.0873786407767,4,1,0,30,0,8
2609,588.235294117647,4,1,0,30,1,8
2609,-100,4,1,0,30,0,8
3760,666.666666666667,4,1,0,30,1,8
3760,-88.495575221239,4,1,0,30,0,8
4108,750,4,1,0,30,1,0
4108,-78.740157480315,4,1,0,30,0,0
5618,857.142857142857,4,1,0,30,1,8
5618,-68.4931506849315,4,1,0,30,0,8
5880,659.340659340659,4,1,0,30,1,8
5880,-89.2857142857143,4,1,0,30,0,8
7144,750,4,1,0,30,1,0
7144,-78.740157480315,4,1,0,30,0,0
10144,705.882352941176,4,1,0,30,1,0
10144,-83.3333333333333,4,1,0,30,0,0
10820,833.333333333333,4,1,0,30,1,8
10820,-70.4225352112676,4,1,0,30,0,8
11255,789.473684210526,4,1,0,30,1,8
11255,-74.6268656716418,4,1,0,30,0,8
11645,750,4,1,0,30,1,8
11645,-78.740157480315,4,1,0,30,0,8
12221,916.030534351145,4,1,0,30,1,0
12221,-64.1025641025641,4,1,0,30,0,0
14053,451.127819548872,4,1,0,50,1,8
14053,-103.092783505155,4,1,0,50,0,8
14504,476.190476190476,4,1,0,50,1,8
14504,-98.0392156862745,4,1,0,50,0,0
14980,465.704727679161,4,1,0,60,1,0
14980,-100,4,1,0,60,0,0
22780,-100,4,1,0,40,0,0
50315,-100,4,1,0,50,0,0
65217,-100,4,1,0,60,0,0
66149,-100,4,1,0,70,0,0
67604,-100,4,1,0,70,0,1
74590,-100,4,1,0,70,0,0
75055,-100,4,1,0,70,0,1
82041,-100,4,1,0,70,0,0
82507,-100,4,1,0,70,0,1
87629,-100,4,1,0,70,0,0

[HitObjects]
163,221,1146,5,8,0:0:0:0:
157,225,2003,1,0,0:0:0:0:
157,225,2609,1,8,0:0:0:0:
183,244,3197,1,0,0:0:0:0:
160,212,3760,1,8,0:0:0:0:
160,212,4108,1,8,0:0:0:0:
170,188,4858,1,8,0:0:0:0:
170,188,5233,1,0,0:0:0:0:
178,162,5608,1,8,0:0:0:0:
178,169,6209,1,8,0:0:0:0:
172,180,7144,1,0,0:0:0:0:
172,180,7894,1,8,0:0:0:0:
159,212,8644,1,8,0:0:0:0:
159,212,9206,1,0,0:0:0:0:
171,215,9769,1,0,0:0:0:0:
171,213,10144,1,8,0:0:0:0:
168,199,10820,1,8,0:0:0:0:
168,199,11236,1,8,0:0:0:0:
168,199,11645,1,0,0:0:0:0:
168,199,12221,1,8,0:0:0:0:
256,192,12450,12,0,13824,0:0:0:0:
137,139,14053,5,0,0:0:0:0:
131,140,14278,1,0,0:0:0:0:
148,152,14504,1,8,0:0:0:0:
297,129,14742,1,0,0:0:0:0:
177,140,14980,1,8,0:0:0:0:
139,122,15445,1,0,0:0:0:0:
154,208,15911,1,8,0:0:0:0:
144,137,16260,1,8,0:0:0:0:
158,169,16609,1,8,0:0:0:0:
155,154,16842,1,0,0:0:0:0:
156,159,17075,1,0,0:0:0:0:
158,169,17308,1,8,0:0:0:0:
158,169,17541,1,8,0:0:0:0:
99,158,17774,1,0,0:0:0:0:
142,109,18123,1,0,0:0:0:0:
150,174,18705,1,8,0:0:0:0:
161,157,19171,1,8,0:0:0:0:
115,187,19637,1,8,0:0:0:0:
164,149,19986,1,0,0:0:0:0:
159,146,20335,1,0,0:0:0:0:
408,180,20568,1,8,0:0:0:0:
189,150,20801,1,8,0:0:0:0:
189,122,21034,1,0,0:0:0:0:
189,122,21267,1,8,0:0:0:0:
189,194,21499,1,8,0:0:0:0:
146,167,21849,1,8,0:0:0:0:
140,180,22431,1,12,0:0:0:0:
152,203,22896,1,8,0:0:0:0:
152,203,23129,1,0,0:0:0:0:
171,178,23362,1,8,0:0:0:0:
133,182,24061,1,0,0:0:0:0:
133,182,24294,1,8,0:0:0:0:
140,219,24643,1,8,0:0:0:0:
143,181,24992,1,8,0:0:0:0:
140,178,25225,1,0,0:0:0:0:
143,181,25924,1,0,0:0:0:0:
141,187,26156,1,8,0:0:0:0:
158,159,26506,1,0,0:0:0:0:
147,140,26855,1,8,0:0:0:0:
147,140,27088,1,0,0:0:0:0:
132,146,27437,1,0,0:0:0:0:
136,155,27786,1,8,0:0:0:0:
136,156,28019,1,8,0:0:0:0:
136,193,28369,1,8,0:0:0:0:
147,138,28718,1,0,0:0:0:0:
149,169,28951,1,0,0:0:0:0:
139,151,29649,1,8,0:0:0:0:
132,204,29882,1,8,0:0:0:0:
149,168,30231,1,8,0:0:0:0:
147,179,30581,1,8,0:0:0:0:
156,137,30813,1,0,0:0:0:0:
176,194,31512,1,8,0:0:0:0:
171,194,31745,1,8,0:0:0:0:
166,198,32094,1,0,0:0:0:0:
163,197,32443,1,8,0:0:0:0:
130,167,32676,1,8,0:0:0:0:
156,176,33375,1,0,0:0:0:0:
161,187,33608,1,0,0:0:0:0:
161,187,33957,1,8,0:0:0:0:
177,162,34306,1,0,0:0:0:0:
177,162,34539,1,8,0:0:0:0:
177,162,35005,1,0,0:0:0:0:
168,160,35471,1,12,0:0:0:0:
171,121,36402,1,12,0:0:0:0:
179,128,37333,1,12,0:0:0:0:
158,176,37799,1,0,0:0:0:0:
171,175,38148,1,8,0:0:0:0:
145,100,38963,1,0,0:0:0:0:
118,207,39196,1,8,0:0:0:0:
120,192,39545,1,0,0:0:0:0:
133,152,39895,1,0,0:0:0:0:
157,183,40128,1,0,0:0:0:0:
136,174,40826,1,0,0:0:0:0:
137,171,41059,1,8,0:0:0:0:
138,172,41408,1,8,0:0:0:0:
152,143,41758,1,8,0:0:0:0:
169,144,41990,1,0,0:0:0:0:
169,144,42340,1,0,0:0:0:0:
146,177,42689,1,8,0:0:0:0:
151,177,42922,1,0,0:0:0:0:
159,167,43271,1,8,0:0:0:0:
159,167,43620,1,0,0:0:0:0:
159,167,43853,1,8,0:0:0:0:
151,155,44552,1,0,0:0:0:0:
157,194,44785,1,0,0:0:0:0:
169,144,45134,1,8,0:0:0:0:
171,147,45483,1,8,0:0:0:0:
136,145,45716,1,0,0:0:0:0:
155,139,46415,1,8,0:0:0:0:
155,140,46647,1,8,0:0:0:0:
148,152,46997,1,0,0:0:0:0:
156,165,47346,1,0,0:0:0:0:
158,167,47579,1,8,0:0:0:0:
151,200,48277,1,8,0:0:0:0:
151,177,48510,1,0,0:0:0:0:
151,192,48860,1,8,0:0:0:0:
151,200,49209,1,8,0:0:0:0:
152,198,49442,1,0,0:0:0:0:
170,212,49791,1,8,0:0:0:0:
174,209,50373,1,4,0:0:0:0:
160,209,50839,1,12,0:0:0:0:
158,161,51304,1,12,0:0:0:0:
169,103,51770,1,12,0:0:0:0:
189,123,52236,1,4,0:0:0:0:
125,143,52585,1,8,0:0:0:0:
155,213,52934,1,0,0:0:0:0:
155,213,53167,1,8,0:0:0:0:
132,199,53517,1,0,0:0:0:0:
126,153,53866,1,8,0:0:0:0:
151,177,54099,1,8,0:0:0:0:
126,153,54448,1,0,0:0:0:0:
158,137,54797,1,8,0:0:0:0:
166,141,55030,1,0,0:0:0:0:
128,127,55729,1,0,0:0:0:0:
178,153,55962,1,0,0:0:0:0:
141,156,56311,1,0,0:0:0:0:
159,192,56660,1,8,0:0:0:0:
177,161,56893,1,8,0:0:0:0:
134,188,57242,1,8,0:0:0:0:
167,115,57591,1,0,0:0:0:0:
172,116,57824,1,8,0:0:0:0:
162,182,58290,1,8,0:0:0:0:
186,125,58756,1,8,0:0:0:0:
155,162,59221,1,8,0:0:0:0:
139,138,59687,1,8,0:0:0:0:
139,157,60036,1,0,0:0:0:0:
176,157,60386,1,0,0:0:0:0:
187,141,60619,1,8,0:0:0:0:
171,152,60968,1,0,0:0:0:0:
147,149,61317,1,0,0:0:0:0:
147,149,61550,1,8,0:0:0:0:
138,168,61899,1,0,0:0:0:0:
138,168,62249,1,8,0:0:0:0:
138,168,62481,1,0,0:0:0:0:
126,159,63180,1,0,0:0:0:0:
127,160,63413,1,8,0:0:0:0:
156,135,63762,1,8,0:0:0:0:
136,122,64111,1,8,0:0:0:0:
162,158,64344,1,0,0:0:0:0:
144,138,64810,1,12,0:0:0:0:
174,137,65276,1,12,0:0:0:0:
186,137,65741,1,0,0:0:0:0:
143,178,66207,1,12,0:0:0:0:
146,177,66556,1,12,0:0:0:0:
154,184,66906,1,12,0:0:0:0:
156,156,67138,1,4,0:0:0:0:
161,152,67604,1,12,0:0:0:0:
92,159,68070,1,0,0:0:0:0:
152,154,68419,1,0,0:0:0:0:
151,162,68768,1,8,0:0:0:0:
141,156,69001,1,0,0:0:0:0:
145,155,69234,1,0,0:0:0:0:
185,186,69467,1,8,0:0:0:0:
145,155,69700,1,8,0:0:0:0:
135,152,69933,1,0,0:0:0:0:
214,182,70282,1,8,0:0:0:0:
144,146,70864,1,0,0:0:0:0:
166,138,71330,1,8,0:0:0:0:
167,175,71795,1,8,0:0:0:0:
151,161,72145,1,8,0:0:0:0:
156,167,72494,1,0,0:0:0:0:
156,167,72727,1,8,0:0:0:0:
157,167,72960,1,8,0:0:0:0:
169,166,73193,1,0,0:0:0:0:
169,166,73425,1,0,0:0:0:0:
179,152,73658,1,8,0:0:0:0:
149,186,74008,1,0,0:0:0:0:
143,143,74590,1,12,0:0:0:0:
205,159,75055,1,4,0:0:0:0:
156,126,75521,1,8,0:0:0:0:
151,132,75870,1,8,0:0:0:0:
133,164,76220,1,0,0:0:0:0:
139,181,76453,1,8,0:0:0:0:
147,177,76685,1,0,0:0:0:0:
157,182,76918,1,8,0:0:0:0:
157,182,77151,1,8,0:0:0:0:
157,139,77384,1,0,0:0:0:0:
214,182,77733,1,8,0:0:0:0:
160,146,78315,1,8,0:0:0:0:
135,156,78781,1,0,0:0:0:0:
167,175,79246,1,8,0:0:0:0:
130,146,79596,1,8,0:0:0:0:
173,153,79945,1,0,0:0:0:0:
180,155,80178,1,8,0:0:0:0:
180,137,80644,1,12,0:0:0:0:
189,136,80876,1,12,0:0:0:0:
160,156,81110,1,0,0:0:0:0:
133,170,81459,1,8,0:0:0:0:
145,144,82041,1,12,0:0:0:0:
120,152,82507,1,4,0:0:0:0:
121,148,82972,1,8,0:0:0:0:
152,154,83322,1,0,0:0:0:0:
146,160,83671,1,8,0:0:0:0:
138,143,83904,1,0,0:0:0:0:
124,157,84137,1,0,0:0:0:0:
185,186,84370,1,8,0:0:0:0:
126,123,84602,1,0,0:0:0:0:
133,177,84835,1,8,0:0:0:0:
105,153,85184,1,0,0:0:0:0:
160,146,85767,1,8,0:0:0:0:
136,170,86232,1,0,0:0:0:0:
167,175,86698,1,8,0:0:0:0:
151,144,87047,1,0,0:0:0:0:
166,140,87629,1,8,0:0:0:0:
160,139,87862,1,0,0:0:0:0:
180,137,88095,1,8,0:0:0:0:
189,136,88328,1,8,0:0:0:0:
162,122,88561,1,0,0:0:0:0:
168,130,88910,1,12,0:0:0:0:
