osu file format v14

[General]
AudioFilename: audio.mp3
AudioLeadIn: 0
PreviewTime: 66989
Countdown: 0
SampleSet: Soft
StackLeniency: 0.7
Mode: 2
LetterboxInBreaks: 0
WidescreenStoryboard: 1

[Editor]
DistanceSpacing: 2
BeatDivisor: 4
GridSize: 4
TimelineZoom: 1.9

[Metadata]
Title:Zankoku na Tenshi no These (TV Size)
TitleUnicode:残酷な天使のテーゼ (TV Size)
Artist:Takahashi Yoko
ArtistUnicode:高橋洋子
Creator:Ascendance
Version:Sinnoh's Overdose
Source:新世紀エヴァンゲリオン
Tags:Neon Genesis Evangelion opening Cruel Angel's Thesis AJamez Benita BennyBananas Benny- MBomb -_magic_bomb_- Nelly Sinnoh moph
BeatmapID:1825040
BeatmapSetID:872723

[Difficulty]
HPDrainRate:6
CircleSize:4
OverallDifficulty:9.2
ApproachRate:9.2
SliderMultiplier:2.7
SliderTickRate:2

[Events]
//Background and Video events
0,0,"cropped-1920-1080-870874.jpg",0,0
//Break Periods
//Storyboard Layer 0 (Background)
//Storyboard Layer 1 (Fail)
//Storyboard Layer 2 (Pass)
//Storyboard Layer 3 (Foreground)
//Storyboard Sound Samples

[TimingPoints]
997,750,4,2,3,40,1,0
997,-100,4,2,3,40,0,0
11497,-100,4,2,3,40,0,0
13934,466.417910447761,4,2,2,55,1,0
13934,-76.9230769230769,4,2,2,55,0,0
14867,466.417910447761,4,2,1,70,1,0
14867,-76.9230769230769,4,2,1,70,0,0
15333,-66.6666666666667,4,2,1,70,0,0
15683,-76.9230769230769,4,2,1,70,0,0
16674,-76.9230769230769,4,2,1,10,0,0
16732,-76.9230769230769,4,2,1,70,0,0
20405,-76.9230769230769,4,2,1,10,0,0
20464,-76.9230769230769,4,2,1,70,0,0
22329,-90.9090909090909,4,2,2,60,0,0
50314,-76.9230769230769,4,2,2,50,0,0
50781,-76.9230769230769,4,2,2,55,0,0
51247,-76.9230769230769,4,2,2,60,0,0
52180,-25,4,2,1,65,0,0
57777,-10,4,2,1,65,0,0
59643,-25,4,2,1,65,0,0
59876,-25,4,2,1,65,0,0
64307,-76.9230769230769,4,2,1,65,0,0
66172,-76.9230769230769,4,2,1,65,0,0
66347,-76.9230769230769,4,2,1,10,0,0
66406,-76.9230769230769,4,2,1,65,0,0
66522,-33.3333333333333,4,2,1,65,0,0
66697,-76.9230769230769,4,2,1,10,0,0
66755,-76.9230769230769,4,2,1,65,0,0
66872,-25,4,2,1,65,0,0
67105,-76.9230769230769,4,2,1,70,0,1
67922,-76.9230769230769,4,2,1,70,0,1
72877,-76.9230769230769,4,2,1,10,0,1
72936,-76.9230769230769,4,2,1,70,0,1
73344,-76.9230769230769,4,2,1,10,0,1
73402,-76.9230769230769,4,2,1,70,0,1
75034,-33.3333333333333,4,2,1,70,0,0
75268,-76.9230769230769,4,2,1,70,0,1
76609,-76.9230769230769,4,2,1,10,0,1
76667,-76.9230769230769,4,2,1,70,0,1
77075,-76.9230769230769,4,2,1,10,0,1
77133,-76.9230769230769,4,2,1,70,0,1
80165,-76.9230769230769,4,2,1,70,0,1
82497,-76.9230769230769,4,2,1,70,0,1
82730,-76.9230769230769,4,2,1,70,0,1
84071,-76.9230769230769,4,2,1,10,0,1
84130,-76.9230769230769,4,2,1,70,0,1
84538,-76.9230769230769,4,2,1,10,0,1
84596,-76.9230769230769,4,2,1,70,0,1
87628,-76.9230769230769,4,2,1,70,0,1
88910,-76.9230769230769,4,2,1,70,0,0
89260,-76.9230769230769,4,2,1,5,0,0

[Colours]
Combo1 : 192,192,192
Combo2 : 255,128,128
Combo3 : 0,121,121

[HitObjects]
356,323,13934,6,0,L|253:309,1,87.749995983124,8|8,0:3|0:3,0:0:0:0:
383,249,14167,2,0,L|275:232,1,87.749995983124,8|8,0:3|0:3,0:0:0:0:
416,175,14400,2,0,B|479:141|502:81|382:46,1,175.499991966248,4|8,0:3|0:3,0:0:0:0:
329,31,14749,1,8,0:3:0:0:
127,270,14867,6,0,B|103:201|124:184|130:142|186:125,1,175.499991966248,4|0,0:0|0:0,0:0:0:0:
270,158,15216,1,0,0:0:0:0:
369,202,15333,2,0,L|140:164,1,202.500007724762,10|0,0:0|0:0,0:0:0:0:
98,149,15683,1,2,0:0:0:0:
346,292,15799,2,0,B|403:293|457:263|494:135|371:115,1,263.249987949372,2|2,0:0|0:0,0:0:0:0:
290,119,16266,2,0,L|119:62,1,175.499991966248,8|2,0:0|0:0,0:0:0:0:
465,251,16732,6,0,L|471:140,1,87.749995983124,2|0,0:0|0:0,0:0:0:0:
272,196,16965,2,0,L|271:100,1,87.749995983124,2|0,0:0|0:0,0:0:0:0:
63,219,17199,2,0,L|54:117,1,87.749995983124,10|0,0:0|0:0,0:0:0:0:
179,110,17432,2,0,L|278:91,1,87.749995983124,2|0,0:0|0:0,0:0:0:0:
66,280,17665,1,2,0:0:0:0:
12,225,17782,2,0,B|18:140|18:140|46:109|107:118,1,175.499991966248,2|2,0:0|0:0,0:0:0:0:
214,238,18131,2,0,B|281:195|280:195|357:177|163:180,1,175.499991966248,8|0,0:0|0:0,0:0:0:0:
114,174,18481,1,0,0:0:0:0:
341,299,18598,6,0,B|346:243|350:188|229:182,1,175.499991966248,2|0,0:0|0:0,0:0:0:0:
146,175,18948,1,0,0:0:0:0:
371,245,19064,2,0,L|359:123,1,87.749995983124,10|0,0:0|0:0,0:0:0:0:
246,160,19297,2,0,L|236:53,1,87.749995983124,0|0,0:0|0:0,0:0:0:0:
460,202,19531,1,2,0:0:0:0:
366,182,19647,2,0,L|151:136,1,175.499991966248,0|2,0:0|0:0,0:0:0:0:
300,291,19997,2,0,B|356:286|407:252|382:148,1,175.499991966248,8|2,0:0|0:0,0:0:0:0:
65,197,20464,6,0,L|166:170,1,87.749995983124,10|0,0:0|0:0,0:0:0:0:
374,174,20697,2,0,L|497:132,1,87.749995983124,2|0,0:0|0:0,0:0:0:0:
255,136,20930,2,0,L|157:110,1,87.749995983124,10|0,0:0|0:0,0:0:0:0:
420,161,21163,2,0,L|306:79,1,87.749995983124,2|0,0:0|0:0,0:0:0:0:
143,249,21396,2,0,B|43:237|102:142|163:122,1,175.499991966248,10|8,0:3|0:3,0:0:0:0:
372,271,21746,1,10,0:3:0:0:
287,225,21863,1,8,0:3:0:0:
273,141,21979,1,8,0:3:0:0:
333,82,22096,1,8,0:3:0:0:
416,97,22212,1,8,0:3:0:0:
180,281,22329,6,0,B|56:246|98:172|117:77|221:112,1,297.000009063721,4|8,0:0|0:0,0:0:0:0:
374,296,23029,1,0,0:0:0:0:
235,334,23262,1,0,0:0:0:0:
218,262,23378,1,0,0:0:0:0:
242,193,23495,1,2,0:0:0:0:
299,147,23611,1,0,0:0:0:0:
379,278,23728,2,0,B|409:259|409:259|414:231|412:191|360:123,1,148.50000453186,10|0,0:0|0:0,0:0:0:0:
284,149,24078,1,0,0:0:0:0:
150,293,24195,6,0,B|87:264|164:128|164:128,1,148.50000453186,2|0,0:3|0:0,0:0:0:0:
245,108,24545,2,0,L|489:50,1,222.750006797791,0|0,0:0|0:0,0:0:0:0:
269,294,25128,2,0,L|253:204,1,74.2500022659302,0|0,0:0|0:0,0:0:0:0:
345,179,25361,2,0,L|431:154,2,74.2500022659302,2|0|10,0:0|0:0|0:0,0:0:0:0:
144,187,25827,1,0,0:0:0:0:
475,343,26061,6,0,L|467:184,1,148.50000453186,2|0,0:3|0:0,0:0:0:0:
367,200,26410,2,0,L|141:159,1,222.750006797791,0|2,0:0|0:0,0:0:0:0:
341,312,26993,2,0,B|397:321|459:260|382:167,1,148.50000453186,2|0,0:3|0:0,0:0:0:0:
321,187,27343,2,0,B|309:106|279:48|455:67,1,222.750006797791,0|2,0:0|0:0,0:0:0:0:
226,289,27926,6,0,B|75:283|69:215|71:102,2,222.750006797791,2|0|0,0:3|0:0|0:0,0:0:0:0:
407,303,28859,2,0,L|404:143,1,148.50000453186,0|2,0:0|0:0,0:0:0:0:
307,144,29209,1,0,0:0:0:0:
214,132,29325,1,10,0:0:0:0:
376,156,29559,2,0,L|271:147,1,74.2500022659302,0|0,0:0|0:0,0:0:0:0:
62,275,29792,6,0,B|26:203|26:203|91:139,1,148.50000453186,2|0,0:3|0:0,0:0:0:0:
193,154,30142,2,0,L|423:105,1,222.750006797791,0|0,0:0|0:0,0:0:0:0:
205,331,30725,1,0,0:0:0:0:
147,287,30841,1,0,0:0:0:0:
136,215,30958,1,2,0:0:0:0:
179,156,31074,1,0,0:0:0:0:
250,144,31191,1,10,0:0:0:0:
405,106,31424,2,0,L|332:79,1,74.2500022659302,0|0,0:0|0:0,0:0:0:0:
112,299,31658,6,0,L|106:87,1,148.50000453186,2|0,0:3|0:0,0:0:0:0:
210,134,32007,2,0,L|436:50,1,222.750006797791,0|0,0:0|0:0,0:0:0:0:
192,312,32590,2,0,B|35:263|110:81|261:151,1,297.000009063721,2|10,0:3|0:0,0:0:0:0:
381,179,33290,1,0,0:0:0:0:
184,227,33523,6,0,B|77:253|39:198|16:72,2,222.750006797791,2|0|0,0:3|0:0|0:0,0:0:0:0:
389,278,34456,2,0,B|426:215|402:172|392:111|308:112,1,222.750006797791,0|0,0:0|0:0,0:0:0:0:
209,184,34922,2,0,L|50:142,1,148.50000453186,10|0,0:0|0:0,0:0:0:0:
408,286,35389,6,0,B|431:183|370:104|223:90,1,297.000009063721,6|8,0:0|0:0,0:0:0:0:
402,148,36089,1,0,0:0:0:0:
67,280,36322,2,0,B|26:198|103:96|255:106,1,297.000009063721,6|8,0:0|0:0,0:0:0:0:
423,118,37021,2,0,L|295:125,1,74.2500022659302,10|8,0:3|0:3,0:0:0:0:
138,291,37255,6,0,L|402:132,1,297.000009063721,12|8,0:3|0:0,0:0:0:0:
216,259,37955,2,0,L|210:173,1,74.2500022659302,0|0,0:0|0:0,0:0:0:0:
293,224,38187,1,0,0:0:0:0:
352,184,38303,1,0,0:0:0:0:
362,112,38420,1,2,0:0:0:0:
314,58,38536,1,0,0:0:0:0:
242,59,38653,1,10,0:0:0:0:
60,152,38887,2,0,L|169:132,1,74.2500022659302,0|0,0:0|0:0,0:0:0:0:
339,262,39120,6,0,B|440:221|437:204|403:80,1,222.750006797791,2|0,0:3|0:0,0:0:0:0:
293,106,39587,2,0,L|100:89,1,148.50000453186,8|0,0:0|0:0,0:0:0:0:
326,224,40053,2,0,L|332:55,1,148.50000453186,2|0,0:0|0:0,0:0:0:0:
114,145,40519,2,0,L|298:137,1,148.50000453186,8|0,0:0|0:0,0:0:0:0:
452,195,40986,6,0,L|196:166,1,222.750006797791,2|0,0:3|0:0,0:0:0:0:
318,277,41452,2,0,L|472:248,1,148.50000453186,10|2,0:0|0:0,0:0:0:0:
289,232,41919,2,0,B|220:220|230:149|223:91|349:99,1,222.750006797791,2|0,0:3|0:0,0:0:0:0:
413,90,42385,2,0,L|269:126,1,148.50000453186,10|2,0:0|0:0,0:0:0:0:
86,221,42852,6,0,L|337:174,2,222.750006797791,2|0|0,0:3|0:0|0:0,0:0:0:0:
274,325,43784,1,0,0:0:0:0:
333,284,43900,1,0,0:0:0:0:
346,213,44017,1,2,0:0:0:0:
302,155,44133,1,0,0:0:0:0:
231,147,44250,1,10,0:0:0:0:
67,118,44484,2,0,L|168:93,1,74.2500022659302,0|0,0:0|0:0,0:0:0:0:
372,278,44717,6,0,B|445:277|429:229|458:184|369:160,1,148.50000453186,2|0,0:3|0:0,0:0:0:0:
320,151,45067,2,0,B|240:147|206:138|91:65,1,222.750006797791,0|0,0:0|0:0,0:0:0:0:
304,291,45650,2,0,L|325:212,1,74.2500022659302,2|0,0:3|0:0,0:0:0:0:
219,201,45883,2,0,L|135:186,2,74.2500022659302,2|0|10,0:0|0:0|0:0,0:0:0:0:
410,135,46350,2,0,L|318:118,1,74.2500022659302,0|0,0:0|0:0,0:0:0:0:
142,306,46583,6,0,L|154:140,1,148.50000453186,2|0,0:3|0:0,0:0:0:0:
255,217,46933,2,0,B|342:197|380:195|422:56,1,222.750006797791,0|0,0:0|0:0,0:0:0:0:
207,327,47516,2,0,B|103:336|90:211|121:140|244:157,1,297.000009063721,2|10,0:3|0:0,0:0:0:0:
412,216,48215,1,0,0:0:0:0:
201,242,48449,6,0,B|40:241|53:158|55:67,2,222.750006797791,2|0|0,0:3|0:0|0:0,0:0:0:0:
442,206,49381,2,0,L|197:149,2,222.750006797791,0|0|0,0:0|0:0|0:0,0:0:0:0:
57,318,50314,6,0,L|140:147,1,175.499991966248,4|0,0:0|0:0,0:0:0:0:
372,215,50781,2,0,L|237:59,1,175.499991966248,4|0,0:0|0:0,0:0:0:0:
76,144,51246,2,0,B|156:118|156:118|159:112|159:112|263:78,1,175.499991966248,6|2,0:0|0:0,0:0:0:0:
455,226,51714,2,0,B|455:220|455:220|240:204,1,175.499991966248,6|8,0:0|0:3,0:0:0:0:
169,189,52063,1,0,0:0:0:0:
374,294,52180,6,0,B|304:274|304:274|366:246|409:268|409:268|472:289|588:259|588:259|535:226|535:226|476:209|334:233,1,540,14|0,0:3|0:0,0:0:0:0:
338,164,52530,1,2,0:0:0:0:
229,284,52646,2,0,P|175:131|246:284,1,540,8|2,0:0|0:0,0:0:0:0:
325,119,52996,1,0,0:0:0:0:
207,106,53113,2,0,B|173:50|173:50|153:185|153:185|113:105,2,270,2|0|0,0:0|0:0|0:0,0:0:0:0:
403,235,53579,2,0,B|347:109|347:109|472:59|472:59|527:184|527:184|399:234,1,540,8|2,0:0|0:0,0:0:0:0:
75,381,54046,6,0,B|110:301|110:301|33:343|33:343|124:344|124:344|56:293|56:293|75:379|75:379|145:226,1,540,2|0,0:0|0:0,0:0:0:0:
219,171,54395,1,2,0:0:0:0:
107,264,54512,2,0,B|98:14|98:14|100:97|100:97|31:97|31:97|173:89|173:89|83:95,1,540,8|2,0:0|0:0,0:0:0:0:
462,207,54978,2,0,B|444:192|444:192|445:168|445:168|491:162|491:162|499:201|499:201|476:211|476:211|501:186|501:186|455:157|455:157|503:165|505:165|490:205|490:205|457:213|457:213|447:189|448:187|449:167|449:167|472:158|488:165|500:184|500:184|488:205|488:205|442:191,1,540,2|0,0:0|0:0,0:0:0:0:
349,218,55328,1,2,0:0:0:0:
272,304,55445,2,0,B|269:298|269:298|275:296|275:296|273:291|273:291|279:289|279:289|277:284|277:284|283:282|283:282|281:276|281:276|287:275|287:275|286:269|286:269|291:269|291:269|290:263|290:263|295:262|295:262|294:256|294:256|297:258|297:258|295:253|295:253|299:255|299:255|297:249|297:249|301:252|301:252|300:246|300:246|303:247|303:247|301:242|301:242|305:244|305:244|304:239|304:239|307:240|307:240|308:232|308:232|311:234|311:234|312:225|312:225|315:227|315:227|315:218|315:218|319:220|319:220|319:211|319:211|323:213|323:213|323:204|323:204|326:206|326:206|329:194|329:194|333:196|333:196|333:187|333:187|337:188|337:188|337:180|337:180|340:182|340:182|342:173|342:173|345:175|345:175|346:166|346:166|349:168|349:168|350:159|350:159|353:161|353:161|353:152|353:152|357:154|357:154|357:145|357:145|361:148|361:148|361:138|361:138|364:140|364:140|365:132|365:132|368:133|368:133|370:125|370:125|373:126|373:126|374:118|374:118|377:119|377:119|375:114|375:114|379:116|379:116|378:110|378:110|381:113|381:113|379:107|379:107|382:109|382:109|381:103|381:103|385:106|385:106|384:100|384:100|387:102|387:102|385:97|385:97|389:99|389:99|388:93|388:93|391:96|391:96|389:90|389:90|393:92|393:92|392:86|392:86|395:89|395:89|393:83|393:83|396:84|396:84|395:80|395:80|399:81|399:81|399:73|399:73|403:74|403:74|403:66|403:66|407:67|407:67|406:63|406:63|409:64|409:64|407:58|407:58|410:61|410:61|412:51|412:51|415:54|415:54|413:48|413:48|417:50|417:50|429:29,1,540,8|2,0:0|0:0,0:0:0:0:
340,100,55795,1,0,0:0:0:0:
137,311,55911,6,0,B|118:309|104:293|105:274|105:274|106:255|121:240|141:240|141:240|160:240|175:255|176:274|176:274|177:293|163:309|144:311|144:311|121:313|100:297|97:274|97:274|94:250|110:229|133:225|133:225|156:221|178:236|182:259|182:259|187:282|173:305|150:310|150:310|171:312|190:298|195:278|195:278|200:257|189:236|170:228|170:228|151:220|128:227|117:245|117:245|106:263|110:286|126:300|126:300,1,540,2|0,0:0|0:0,0:0:0:0:
278,278,56261,1,2,0:0:0:0:
365,248,56378,2,0,B|300:61|300:61|187:-139|187:-139|218:-248,1,540,8|2,0:0|0:0,0:0:0:0:
136,166,56728,1,0,0:0:0:0:
356,329,56844,2,0,B|401:296|401:296|360:268|287:339|413:387|409:282|408:288|408:288|344:84|344:84|391:232,1,540,2|0,0:0|0:0,0:0:0:0:
272,283,57193,2,0,B|216:284|184:192|184:192|217:228|432:188|98:107|251:84|251:84|293:220|359:70,1,540
436,269,57544,2,0,B|528:304|528:304|291:277,1,270,2|0,0:0|0:0,0:0:0:0:
228,212,57777,6,0,B|226:199|226:199|266:141|266:141|230:194|230:194|171:143|171:143|228:192|228:192|239:270|239:270|158:273|158:273|144:208|144:208|181:146|181:146|144:205|144:205|95:160|95:160|144:204|144:204|155:273|155:273|78:273|78:273|25:158|25:158|-6:289|-6:289|11:216|11:216|89:215,1,1350,2|0,0:0|0:0,0:0:0:0:
175,259,58127,1,0,0:0:0:0:
291,139,58243,2,0,B|273:242|273:242|295:145|295:145|272:242|272:242|329:251|329:251|298:248|298:248|344:253|344:253|369:178|369:178|387:206|387:206|416:184|416:184|383:261|383:261|442:267|442:267|511:172|511:172|536:232|536:232|536:232|536:232|536:236|536:236|544:283|544:283|592:289|592:289|617:295|637:292|637:292|649:288|649:288|656:264|656:264|654:240|654:240|650:235|650:235|637:227|637:227|615:227|615:227|600:236|600:236|593:258|593:258|575:265|575:265|550:263|550:263|536:235|536:235|486:230|486:230|360:311,1,1350,10|0,0:0|0:0,0:0:0:0:
392,308,58593,1,0,0:0:0:0:
182,313,58710,6,0,P|255:-48|168:318,1,1350,2|2,0:0|0:0,0:0:0:0:
239,111,59060,1,0,0:0:0:0:
437,368,59176,2,0,B|521:361|521:362|521:362|517:317|517:317|433:325|433:325|431:286|431:286|513:280|513:280|510:245|510:245|430:256|430:256|429:221|429:221|501:214|501:214|507:181|507:181|424:192|424:192|419:158|419:158|503:151|503:151|501:124|501:124|418:136|418:136|414:95|414:95|492:91|492:91|494:59|494:59|411:72|411:72|410:42|410:42|491:34|491:34|485:5|485:5|402:18,1,1350,10|2,0:0|0:0,0:0:0:0:
323,214,59527,1,0,0:0:0:0:
88,367,59643,2,0,L|103:600,1,540,2|0,0:0|0:0,0:0:0:0:
211,358,59992,6,0,B|352:117|352:117|381:349|381:349|405:368,1,540,2|0,0:0|0:0,0:0:0:0:
477,311,60342,2,0,B|459:277|459:277|468:261|468:261|449:262|449:262|415:198|415:198|399:201|399:201|410:188|410:188|396:161|396:161|401:152|401:152|391:152|391:152|317:12,1,270,2|0,0:0|0:0,0:0:0:0:
270,286,60575,1,2,0:0:0:0:
176,139,60692,1,0,0:0:0:0:
175,360,60809,1,0,0:0:0:0:
268,32,60925,1,2,0:0:0:0:
372,228,61042,2,0,B|329:251|275:239|275:239|323:225|370:228|370:228|451:231|537:209|537:209|431:201|354:233,1,540,8|2,0:0|0:0,0:0:0:0:
271,300,61392,1,0,0:0:0:0:
72,280,61508,6,0,B|48:320|12:304|-4:292|12:256|32:260|44:272|44:272|36:248|52:220|80:224|92:236|92:256|84:268|72:272|72:272|112:280|112:284|108:304|104:312|56:324|56:324|68:292|68:292|88:360|52:364|20:344|8:308|40:284|112:284,1,540,2|0,0:0|0:0,0:0:0:0:
172,276,61858,2,0,B|247:274|247:274|247:279|247:279|246:272|246:272|248:276|248:276|244:274|244:274|249:272|249:272|247:276|247:276|245:272|245:272|248:275|248:275|245:276|245:276|248:272|248:272|248:278|248:278|243:275|243:275|245:274|245:274|251:272|251:272|247:277|247:277|245:273|245:273|249:273|249:273|246:279|246:279|250:274|250:274|246:278|246:278|245:271|245:271|249:275|249:275|245:278|245:278|247:272|247:272|247:273|247:273|243:273|243:273|246:271|246:271|244:280|244:280|246:275|246:275|252:274|252:274|246:277|246:277|248:277|248:277|248:274|248:274|251:278|251:278|247:273|248:273|248:273|247:275|247:275|250:276|250:276|247:274|247:274|249:278|249:278|247:272|247:272|245:277|245:277|243:279|243:279|244:271|244:271|246:278|246:278|248:275|248:275|247:280|247:280|247:273|247:273|245:280|245:280|246:274|246:274|246:278|246:278|247:273|247:273|246:278|246:278|248:271|248:271|246:278|246:278|248:272|248:272|245:277|245:277|249:272|249:272|244:278|244:278|248:271|248:271|245:277|245:277|248:271|248:271|245:277|245:277|248:271|248:271|245:279|245:279|248:271|248:271|246:278|246:278|249:271|249:271|248:274|248:274|351:274,1,540,2|0,0:0|0:0,0:0:0:0:
424,279,62208,2,0,B|367:254|367:254|365:299|365:299|316:297|316:297|311:238|311:238|341:211|341:211|325:246,1,270,2|0,0:0|0:0,0:0:0:0:
120,324,62441,2,0,B|176:324|200:228|200:228|56:276|16:128|64:36|196:40|276:124|104:176,1,540,2|0,0:0|0:0,0:0:0:0:
252,300,62791,2,0,B|292:324|336:308|336:308|472:196|288:104|192:224|336:308|336:308|388:328|492:296,1,540,2|0,0:0|0:0,0:0:0:0:
328,120,63141,2,0,P|220:176|280:328,1,270,2|0,0:0|0:0,0:0:0:0:
472,312,63374,6,0,B|516:64|516:64|460:364,1,540,2|0,0:0|0:0,0:0:0:0:
368,364,63724,2,0,B|280:-156|264:628|180:-4,1,540,2|0,0:0|0:0,0:0:0:0:
264,252,64074,2,0,P|324:172|292:280,1,270,2|0,0:0|0:0,0:0:0:0:
132,324,64307,1,2,0:0:0:0:
62,273,64423,1,0,0:0:0:0:
52,189,64540,1,0,0:0:0:0:
108,124,64656,1,2,0:0:0:0:
296,288,64773,2,0,P|288:172|240:108,1,175.499991966248,8|2,0:0|0:0,0:0:0:0:
144,112,65123,1,0,0:0:0:0:
444,208,65240,6,0,L|232:188,1,175.499991966248,4|8,0:3|0:3,0:0:0:0:
160,148,65589,2,0,L|288:132,1,87.749995983124,8|8,0:3|0:3,0:0:0:0:
420,216,65939,2,0,L|404:118,1,87.749995983124
224,114,66172,2,0,L|0:90,1,175.499991966248,14|0,0:0|0:3,0:0:0:0:
104,88,66522,2,0,L|484:332,1,405.000015449524,14|0,0:0|0:3,0:0:0:0:
416,248,66872,2,0,L|16:232,1,270,14|0,0:0|0:0,0:0:0:0:
224,136,67105,6,0,L|512:124,1,263.249987949372,14|0,0:3|0:0,0:0:0:0:
160,308,67572,2,0,P|100:208|216:136,1,263.249987949372,14|0,0:0|0:0,0:0:0:0:
424,272,68038,2,0,L|412:164,1,87.749995983124,2|0,0:0|0:0,0:0:0:0:
308,168,68271,1,0,0:0:0:0:
96,296,68389,2,0,P|71:204|140:120,1,175.499991966248,2|0,0:0|0:0,0:0:0:0:
208,72,68738,2,0,L|121:85,1,87.749995983124,2|0,0:0|0:0,0:0:0:0:
312,216,68971,6,0,L|448:256,1,87.749995983124,2|0,0:0|0:0,0:0:0:0:
276,308,69204,2,0,L|188:316,1,87.749995983124,0|0,0:0|0:0,0:0:0:0:
440,292,69437,2,0,L|424:176,1,87.749995983124,10|0,0:0|0:0,0:0:0:0:
152,188,69671,2,0,L|164:68,1,87.749995983124,2|0,0:0|0:0,0:0:0:0:
380,168,69903,1,2,0:0:0:0:
472,100,70020,2,0,L|288:84,1,175.499991966248,0|2,0:0|0:0,0:0:0:0:
232,192,70370,2,0,L|440:160,1,175.499991966248,8|0,0:0|0:0,0:0:0:0:
496,144,70720,1,0,0:0:0:0:
304,288,70837,6,0,P|194:276|176:168,1,175.499991966248,2|0,0:0|0:0,0:0:0:0:
268,180,71186,1,0,0:0:0:0:
72,264,71303,1,10,0:0:0:0:
46,182,71419,1,0,0:0:0:0:
90,109,71536,1,0,0:0:0:0:
173,93,71652,1,0,0:0:0:0:
352,132,71769,6,0,L|504:88,2,87.749995983124,2|0|0,0:0|0:0|0:0,0:0:0:0:
248,200,72119,2,0,L|444:168,1,175.499991966248,2|0,0:0|0:0,0:0:0:0:
236,112,72469,2,0,L|132:88,1,87.749995983124,2|0,0:0|0:0,0:0:0:0:
416,296,72702,6,0,L|440:188,1,87.749995983124,2|0,0:0|0:0,0:0:0:0:
312,196,72936,2,0,L|308:96,1,87.749995983124,2|0,0:0|0:0,0:0:0:0:
64,272,73169,2,0,L|36:132,1,87.749995983124,10|0,0:0|0:0,0:0:0:0:
234,158,73402,2,0,L|248:44,1,87.749995983124,2|0,0:0|0:0,0:0:0:0:
464,128,73635,6,0,L|368:96,1,87.749995983124,10|10,0:3|0:3,0:0:0:0:
192,216,73868,2,0,L|92:184,1,87.749995983124,8|8,0:3|0:3,0:0:0:0:
416,252,74102,2,0,L|412:152,1,87.749995983124,8|8,0:3|0:3,0:0:0:0:
224,120,74335,2,0,L|324:56,1,87.749995983124,8|8,0:3|0:3,0:0:0:0:
80,340,74568,6,0,P|44:244|136:92,1,263.249987949372,8|0,0:3|0:0,0:0:0:0:
192,52,75034,2,0,B|328:184|328:184|500:352,1,405.000015449524,14|0,0:0|0:0,0:0:0:0:
376,244,75384,1,0,0:0:0:0:
184,308,75501,1,2,0:0:0:0:
88,264,75617,2,0,P|88:132|160:92,1,175.499991966248,0|2,0:0|0:0,0:0:0:0:
288,120,75967,2,0,L|404:96,1,87.749995983124,8|0,0:0|0:0,0:0:0:0:
448,216,76200,2,0,L|352:176,1,87.749995983124,2|0,0:0|0:0,0:0:0:0:
72,296,76433,6,0,L|60:168,1,87.749995983124,2|0,0:0|0:0,0:0:0:0:
172,207,76667,2,0,L|168:83,1,87.749995983124,2|0,0:0|0:0,0:0:0:0:
472,116,76900,2,0,L|372:96,1,87.749995983124,10|0,0:0|0:0,0:0:0:0:
152,128,77133,2,0,L|256:100,1,87.749995983124,2|0,0:0|0:0,0:0:0:0:
444,272,77366,1,2,0:0:0:0:
360,256,77483,2,0,L|184:208,1,175.499991966248,2|2,0:0|0:0,0:0:0:0:
396,264,77833,2,0,P|412:176|316:116,1,175.499991966248,8|0,0:0|0:0,0:0:0:0:
248,136,78183,1,0,0:0:0:0:
72,256,78299,6,0,P|104:132|192:112,1,175.499991966248,2|0,0:0|0:0,0:0:0:0:
240,228,78649,1,0,0:0:0:0:
368,168,78766,2,0,L|260:144,1,87.749995983124,10|0,0:0|0:0,0:0:0:0:
176,128,78999,2,0,L|80:112,1,87.749995983124,0|0,0:0|0:0,0:0:0:0:
368,228,79232,6,0,L|484:216,2,87.749995983124,2|0|0,0:0|0:0|0:0,0:0:0:0:
256,168,79582,2,0,L|440:136,1,175.499991966248,2|0,0:0|0:0,0:0:0:0:
328,272,79932,2,0,L|224:276,1,87.749995983124,2|0,0:0|0:0,0:0:0:0:
480,196,80165,6,0,L|368:196,1,87.749995983124,2|0,0:0|0:0,0:0:0:0:
160,264,80398,2,0,L|176:128,1,87.749995983124,2|0,0:0|0:0,0:0:0:0:
388,116,80631,2,0,L|508:108,1,87.749995983124,10|0,0:0|0:0,0:0:0:0:
276,280,80865,2,0,L|268:192,1,87.749995983124,2|0,0:0|0:0,0:0:0:0:
64,256,81098,6,0,B|36:180|64:128|140:96,1,175.499991966248,10|8,0:3|0:3,0:0:0:0:
408,304,81448,2,0,P|432:212|340:136,1,175.499991966248,10|0,0:3|0:0,0:0:0:0:
188,132,81797,1,8,0:3:0:0:
384,84,81914,1,8,0:3:0:0:
152,276,82031,6,0,P|84:216|200:96,1,263.249987949372,8|0,0:3|0:0,0:0:0:0:
456,268,82497,2,0,P|460:164|308:92,1,263.249987949372,14|0,0:0|0:0,0:0:0:0:
152,180,82964,2,0,L|32:112,2,87.749995983124,2|0|0,0:0|0:0|0:0,0:0:0:0:
388,216,83313,2,0,L|200:256,1,175.499991966248,2|0,0:0|0:0,0:0:0:0:
300,308,83663,2,0,L|416:328,1,87.749995983124,2|0,0:0|0:0,0:0:0:0:
120,304,83896,6,0,L|138:174,1,87.749995983124,2|0,0:0|0:0,0:0:0:0:
241,204,84130,2,0,L|345:179,1,87.749995983124,2|0,0:0|0:0,0:0:0:0:
80,124,84363,2,0,L|172:100,1,87.749995983124,10|0,0:0|0:0,0:0:0:0:
380,100,84596,2,0,L|268:76,1,87.749995983124,2|0,0:0|0:0,0:0:0:0:
80,216,84829,1,2,0:0:0:0:
164,188,84946,2,0,L|364:140,1,175.499991966248,2|2,0:0|0:0,0:0:0:0:
244,184,85296,2,0,L|52:140,1,175.499991966248,8|0,0:0|0:0,0:0:0:0:
156,88,85645,1,0,0:0:0:0:
408,280,85762,6,0,P|420:200|328:120,1,175.499991966248,2|0,0:0|0:0,0:0:0:0:
264,128,86112,1,0,0:0:0:0:
152,220,86228,2,0,L|276:188,1,87.749995983124,10|0,0:0|0:0,0:0:0:0:
324,112,86462,2,0,L|432:88,1,87.749995983124,0|0,0:0|0:0,0:0:0:0:
208,292,86695,1,2,0:0:0:0:
128,232,86811,2,0,P|120:176|216:84,1,175.499991966248,0|2,0:0|0:0,0:0:0:0:
296,208,87161,2,0,L|492:140,1,175.499991966248,8|2,0:0|0:0,0:0:0:0:
368,108,87511,1,0,0:0:0:0:
84,156,87628,6,0,L|200:132,1,87.749995983124,2|0,0:0|0:0,0:0:0:0:
392,264,87861,2,0,L|384:152,1,87.749995983124,2|0,0:0|0:0,0:0:0:0:
168,228,88094,2,0,L|48:204,1,87.749995983124,2|0,0:0|0:0,0:0:0:0:
304,104,88327,2,0,L|416:80,1,87.749995983124,2|0,0:0|0:0,0:0:0:0:
124,280,88561,2,0,P|116:172|200:124,1,175.499991966248,2|0,0:0|0:0,0:0:0:0:
344,280,88910,2,0,P|428:200|312:88,1,263.249987949372,6|0,0:0|0:0,0:0:0:0:
