osu file format v14

[General]
AudioFilename: audio.ogg
AudioLeadIn: 0
PreviewTime: 50476
Countdown: 0
SampleSet: Soft
StackLeniency: 0.7
Mode: 0
LetterboxInBreaks: 0
WidescreenStoryboard: 0

[Editor]
DistanceSpacing: 0.9
BeatDivisor: 4
GridSize: 4
TimelineZoom: 1.7

[Metadata]
Title:Full Moon Full Life -Opening Movie version-
TitleUnicode:Full Moon Full Life -Opening Movie version-
Artist:Takahashi Azumi feat. Lotus Juice
ArtistUnicode:高橋あず美 feat. Lotus Juice
Creator:Yogurtt
Version:The Answer
Source:ペルソナ3 リロード
Tags:opening video game size atlus pop amateurre -_ex_- miy koldnoodl cjstmdals english persona 3 reload shin megami tensei atsushi kitajo 喜多條敦志
BeatmapID:4447349
BeatmapSetID:2117629

[Difficulty]
HPDrainRate:7
CircleSize:4
OverallDifficulty:9
ApproachRate:9.3
SliderMultiplier:1.8
SliderTickRate:1

[Events]
//Background and Video events
0,0,"cropped-1920-1080-1250760.jpg",0,0
Video,45,"persona.avi"
//Break Periods
//Storyboard Layer 0 (Background)
//Storyboard Layer 1 (Fail)
//Storyboard Layer 2 (Pass)
//Storyboard Layer 3 (Foreground)
//Storyboard Layer 4 (Overlay)
//Storyboard Sound Samples

[TimingPoints]
1513,310.880829015544,4,2,1,70,1,0
1513,-125,4,2,1,40,0,0
11461,-111.111111111111,4,2,1,60,0,0
20165,-153.846153846153,4,2,1,70,0,0
21409,-111.111111111111,4,2,1,50,0,0
41305,-200,4,2,1,70,0,0
49388,-142.857142857143,4,2,1,70,0,0
50010,-111.111111111111,4,2,1,70,0,0
51253,-100,4,2,1,80,0,1
70528,-100,4,2,1,80,0,0
71150,-100,4,2,1,80,0,1
91046,-100,4,2,1,80,0,0

[Colours]
Combo1 : 176,79,79
Combo2 : 60,103,183
Combo3 : 22,165,250
Combo4 : 162,95,171

[HitObjects]
200,136,1513,6,0,P|203:204|212:299,1,144,2|8,1:2|0:0,0:0:0:0:
210,279,1979,1,2,1:2:0:0:
287,177,2134,2,0,P|331:171|376:172,1,72,2|0,0:3|0:0,0:0:0:0:
180,119,2445,2,0,P|136:125|91:124,1,72,2|0,0:3|1:2,0:0:0:0:
267,58,2756,1,2,1:2:0:0:
284,332,3067,6,0,P|227:314|130:344,1,144,10|0,0:0|0:0,0:0:0:0:
63,287,3533,2,0,P|45:230|75:133,1,144,2|2,0:0|0:3,0:0:0:0:
280,205,4000,6,0,P|208:210|136:215,1,144,2|8,1:2|0:0,0:0:0:0:
136,215,4466,1,2,1:2:0:0:
352,158,4621,2,0,P|364:202|358:251,1,72,2|0,0:3|0:0,0:0:0:0:
270,358,4932,2,0,P|258:314|264:265,1,72,2|0,0:3|1:2,0:0:0:0:
280,205,5243,1,2,1:2:0:0:
132,329,5554,6,0,P|94:326|47:318,1,72,10|0,0:0|1:2,0:0:0:0:
105,246,5865,1,2,0:3:0:0:
217,341,6020,1,0,0:0:0:0:
333,308,6176,1,0,0:3:0:0:
420,346,6331,1,0,0:0:0:0:
403,247,6487,6,0,P|391:200|407:88,1,144,2|8,1:2|0:0,0:0:0:0:
447,39,6953,1,2,1:2:0:0:
291,1,7108,2,0,P|304:71|293:142,1,144,0|8,1:2|0:0,0:0:0:0:
221,185,7575,1,0,1:2:0:0:
138,82,7730,2,0,P|176:88|226:94,1,72,2|0,1:2|0:0,0:0:0:0:
345,231,8041,6,0,P|277:217|190:208,1,144,10|2,0:0|0:3,0:0:0:0:
115,224,8507,2,0,P|129:156|138:69,1,144,2|0,0:0|0:0,0:0:0:0:
205,279,8974,6,0,P|205:217|191:185,1,72,2|0,1:2|0:0,0:0:0:0:
202,208,9285,1,8,0:0:0:0:
89,350,9440,2,0,P|67:288|147:252,1,144,0|0,1:2|0:0,0:0:0:0:
279,323,9906,1,2,0:3:0:0:
400,287,10062,1,0,1:2:0:0:
305,198,10217,5,2,1:2:0:0:
305,198,10295,1,0,0:0:0:0:
305,198,10373,1,0,0:0:0:0:
381,372,10528,1,10,0:0:0:0:
381,372,10606,1,0,0:0:0:0:
381,372,10683,1,0,1:2:0:0:
456,263,10839,1,2,0:3:0:0:
440,234,10917,1,0,0:0:0:0:
435,202,10994,1,0,0:0:0:0:
442,170,11072,1,0,0:0:0:0:
457,141,11150,1,0,0:3:0:0:
460,108,11228,1,0,0:0:0:0:
444,80,11305,1,0,0:0:0:0:
416,63,11383,1,0,0:0:0:0:
383,66,11461,6,0,P|310:81|200:88,1,161.999995056153,6|8,1:2|0:0,0:0:0:0:
91,50,11927,1,2,1:2:0:0:
222,88,12082,1,0,0:0:0:0:
184,219,12238,1,0,0:0:0:0:
315,257,12393,2,0,P|320:301|313:351,1,80.9999975280763,10|0,0:0|0:0,0:0:0:0:
125,256,12704,6,0,P|168:249|229:234,1,80.9999975280763,2|0,1:2|0:0,0:0:0:0:
54,190,13015,1,8,0:0:0:0:
204,241,13171,1,2,1:2:0:0:
133,360,13326,1,0,0:0:0:0:
15,273,13481,1,0,0:0:0:0:
15,273,13559,1,0,0:0:0:0:
15,273,13637,2,0,P|6:219|33:128,1,121.499996292114,10|0,0:0|0:0,0:0:0:0:
51,140,13948,6,0,P|90:149|130:154,1,80.9999975280763,2|0,1:2|0:0,0:0:0:0:
171,261,14259,1,8,0:0:0:0:
283,255,14414,2,0,P|243:245|203:240,1,80.9999975280763,2|0,1:2|0:0,0:0:0:0:
288,131,14725,1,0,0:0:0:0:
288,131,14803,1,0,0:0:0:0:
288,131,14880,2,0,P|327:140|367:145,1,80.9999975280763,8|0,0:0|0:0,0:0:0:0:
496,274,15191,5,2,1:2:0:0:
411,318,15347,1,0,0:0:0:0:
410,220,15502,1,8,0:0:0:0:
485,355,15658,5,2,1:2:0:0:
396,297,15813,1,0,0:0:0:0:
259,332,15968,1,0,0:0:0:0:
290,190,16123,1,10,0:0:0:0:
342,362,16279,5,0,0:0:0:0:
342,362,16357,1,0,0:0:0:0:
342,362,16435,2,0,B|289:345|289:345|236:357|236:357|177:342,1,161.999995056153,2|8,1:2|0:0,0:0:0:0:
21,260,16901,2,0,P|86:265|167:207,1,161.999995056153,2|2,1:2|0:0,0:0:0:0:
108,124,17367,1,10,0:0:0:0:
134,24,17523,1,2,0:0:0:0:
282,111,17678,6,0,P|242:116|191:115,1,80.9999975280763,2|0,1:2|0:0,0:0:0:0:
201,115,17989,1,8,0:0:0:0:
367,68,18145,2,0,P|376:109|371:159,1,80.9999975280763,2|0,1:2|0:0,0:0:0:0:
339,373,18456,2,0,P|308:337|336:251,1,121.499996292114,2|0,0:0|0:0,0:0:0:0:
350,251,18766,2,0,P|390:256|439:252,1,80.9999975280763,2|2,0:0|1:2,0:0:0:0:
477,166,19077,5,0,0:0:0:0:
431,254,19233,1,8,0:0:0:0:
240,206,19388,1,2,1:2:0:0:
389,171,19544,1,0,0:0:0:0:
272,109,19699,1,2,0:0:0:0:
353,80,19854,2,0,P|359:37|352:-8,1,80.9999975280763,10|0,0:0|0:0,0:0:0:0:
259,85,20165,5,2,0:0:0:0:
188,135,20321,2,0,P|144:149|61:124,1,116.999994644165,0|2,1:2|0:0,0:0:0:0:
258,187,20787,2,0,P|313:171|369:186,1,116.999994644165,0|0,1:2|0:0,0:0:0:0:
437,248,21253,1,2,0:0:0:0:
218,291,21409,6,0,P|179:281|105:280,1,80.9999975280763,2|0,3:2|0:0,0:0:0:0:
258,187,21720,1,10,0:0:0:0:
268,373,21875,2,0,P|253:311|281:200,1,161.999995056153,0|0,1:2|0:0,0:0:0:0:
490,270,22342,2,0,P|422:311|344:295,1,161.999995056153,2|0,1:2|1:2,0:0:0:0:
396,143,22808,2,0,P|407:188|407:227,1,80.9999975280763,2|8,0:0|0:0,0:0:0:0:
305,123,23119,2,0,P|294:83|293:43,1,80.9999975280763,0|0,1:2|0:0,0:0:0:0:
409,120,23430,1,2,0:0:0:0:
272,216,23585,1,8,0:0:0:0:
285,110,23740,1,0,1:2:0:0:
426,236,23896,6,0,P|367:237|257:263,1,161.999995056153,2|8,3:2|0:0,0:0:0:0:
29,244,24362,2,0,P|88:243|198:217,1,161.999995056153,2|0,1:2|0:0,0:0:0:0:
188,220,24829,1,0,1:2:0:0:
263,346,24984,1,0,3:0:0:0:
253,165,25139,6,0,P|244:104|248:61,1,80.9999975280763,0|0,1:2|0:0,0:0:0:0:
181,308,25450,2,0,P|128:315|81:303,1,80.9999975280763,8|0,0:0|1:2,0:0:0:0:
132,154,25761,1,2,0:0:0:0:
132,154,25917,1,0,0:0:0:0:
334,229,26072,1,8,0:0:0:0:
265,126,26228,1,2,1:2:0:0:
264,291,26383,6,0,P|336:258|414:273,1,161.999995056153,2|8,3:2|0:0,0:0:0:0:
490,165,26849,2,0,P|453:174|399:182,2,80.9999975280763
385,93,27316,1,10,0:0:0:0:
302,162,27471,6,0,P|295:122|286:82,2,80.9999975280763,2|0|0,1:2|1:2|0:0,0:0:0:0:
174,263,27937,2,0,P|146:217|220:140,1,161.999995056153,10|0,0:0|0:0,0:0:0:0:
302,162,28404,1,2,0:0:0:0:
262,285,28559,1,8,0:0:0:0:
378,364,28715,1,2,1:2:0:0:
338,245,28870,1,2,3:2:0:0:
131,334,29025,6,0,P|193:318|302:311,2,161.999995056153,0|0|0,0:0|1:2|0:0,0:0:0:0:
41,290,29803,1,10,0:0:0:0:
114,195,29958,1,0,1:2:0:0:
31,54,30114,1,0,3:0:0:0:
31,54,30269,2,0,P|6:115|41:217,1,161.999995056153,0|0,0:0|1:2,0:0:0:0:
208,158,30735,2,0,P|173:165|128:171,1,80.9999975280763
294,173,31046,2,0,P|301:207|307:252,1,80.9999975280763,8|0,0:0|1:2,0:0:0:0:
239,57,31357,6,0,P|301:75|388:73,1,121.499996292114,2|0,1:2|0:0,0:0:0:0:
384,63,31668,2,0,P|376:97|370:142,1,80.9999975280763,8|0,0:0|1:2,0:0:0:0:
384,216,31979,1,2,0:0:0:0:
71,267,32290,6,0,P|133:249|252:249,1,161.999995056153,0|0,1:2|1:2,0:0:0:0:
341,269,32756,1,0,0:0:0:0:
369,142,32911,2,0,P|290:162|210:163,1,161.999995056153,10|0,0:0|0:0,0:0:0:0:
87,18,33378,1,0,0:0:0:0:
87,18,33456,1,0,0:0:0:0:
87,18,33533,2,0,P|76:64|79:117,1,80.9999975280763,10|2,0:0|1:2,0:0:0:0:
19,172,33844,6,0,P|42:230|17:354,1,161.999995056153,2|8,3:0|0:0,0:0:0:0:
123,379,34310,2,0,P|161:371|216:365,1,80.9999975280763,0|2,1:2|0:0,0:0:0:0:
318,133,34777,6,0,P|280:141|225:147,1,80.9999975280763,8|0,0:0|1:2,0:0:0:0:
238,146,35010,1,0,1:2:0:0:
238,146,35088,1,0,1:2:0:0:
125,37,35243,2,0,P|106:100|148:214,1,161.999995056153,0|0,1:2|1:2,0:0:0:0:
298,272,35709,1,8,0:0:0:0:
246,152,35865,1,0,0:0:0:0:
85,215,36020,1,10,0:0:0:0:
217,231,36176,1,2,1:2:0:0:
26,310,36331,1,2,1:2:0:0:
26,310,36642,5,8,0:0:0:0:
115,356,36797,2,0,P|197:350|286:322,1,161.999995056153,2|0,1:2|0:0,0:0:0:0:
398,174,37264,2,0,P|316:180|227:208,1,161.999995056153,8|0,0:0|1:2,0:0:0:0:
135,182,37730,2,0,P|138:230|154:282,1,80.9999975280763,2|8,0:2|0:0,0:0:0:0:
324,98,38041,5,0,1:2:0:0:
239,202,38196,1,2,0:0:0:0:
195,107,38352,1,0,0:0:0:0:
341,208,38507,1,10,0:0:0:0:
248,311,38663,1,0,1:2:0:0:
426,356,38818,2,0,P|443:300|425:194,1,161.999995056153,2|8,3:2|0:0,0:0:0:0:
342,75,39285,1,2,1:2:0:0:
317,219,39440,2,0,P|281:214|233:199,1,80.9999975280763,0|0,0:0|1:2,0:0:0:0:
52,227,39751,2,0,P|92:232|130:244,1,80.9999975280763,8|0,0:0|0:0,0:0:0:0:
156,87,40062,5,8,0:3:0:0:
156,87,40373,1,8,0:0:0:0:
156,87,40683,1,8,0:3:0:0:
85,203,40839,1,8,0:0:0:0:
201,274,40994,1,8,0:2:0:0:
272,158,41150,1,8,0:3:0:0:
288,372,41305,6,0,P|283:328|280:278,1,90,6|0,1:1|0:0,0:0:0:0:
415,335,41772,1,0,1:2:0:0:
280,282,41927,1,8,0:0:0:0:
381,188,42082,1,0,0:0:0:0:
487,371,42238,6,0,P|492:342|492:310,1,45,2|0,1:1|0:0,0:0:0:0:
467,157,42549,2,0,P|462:186|462:218,1,45
363,263,42860,1,8,0:3:0:0:
363,263,43171,5,8,0:0:0:0:
252,302,43326,1,2,0:1:0:0:
155,243,43481,1,2,0:2:0:0:
87,378,43637,1,0,3:2:0:0:
265,281,43792,1,2,1:1:0:0:
67,190,43948,2,0,P|60:149|64:99,1,90,0|0,0:0|1:2,0:0:0:0:
104,266,44414,2,0,L|45:277,1,45,10|0,0:1|0:0,0:0:0:0:
59,274,44725,1,0,0:0:0:0:
206,165,44880,6,0,P|201:143|195:103,1,45,2|0,1:1|0:0,0:0:0:0:
282,259,45191,2,0,P|286:280|293:321,2,45,2|0|0,0:1|1:0|0:0,0:0:0:0:
328,155,45658,1,8,0:0:0:0:
177,265,45813,1,0,1:2:0:0:
317,384,45968,1,8,0:0:0:0:
454,260,46124,5,0,1:3:0:0:
454,260,46202,1,0,1:3:0:0:
454,260,46279,2,0,P|409:262|357:272,1,90,2|0,1:2|0:0,0:0:0:0:
364,269,46746,1,4,0:3:0:0:
211,184,46901,2,0,P|256:182|308:172,1,90,10|0,0:0|1:2,0:0:0:0:
388,111,47367,1,2,0:0:0:0:
364,269,47523,1,0,0:0:0:0:
364,269,47834,5,4,0:3:0:0:
300,174,47989,1,0,0:0:0:0:
302,335,48145,1,8,0:0:0:0:
161,288,48300,1,0,0:0:0:0:
250,242,48456,5,0,1:2:0:0:
188,384,48611,1,0,1:2:0:0:
39,293,48766,1,6,1:2:0:0:
138,162,48922,1,0,0:0:0:0:
145,271,49077,6,0,L|153:320,2,30,8|8|8,0:0|0:0|0:0,0:0:0:0:
63,124,49388,6,0,P|97:132|138:140,1,62.9999980773926,8|0,0:0|0:0,0:0:0:0:
233,131,49699,2,0,P|225:161|219:192,1,62.9999980773926,0|8,1:2|0:0,0:0:0:0:
257,341,50010,2,0,P|291:332|347:325,1,80.9999975280763,2|0,0:0|0:0,0:0:0:0:
491,339,50321,2,0,P|481:299|475:259,1,80.9999975280763,4|4,0:3|0:3,0:0:0:0:
359,138,50632,5,8,0:0:0:0:
279,260,50787,1,8,0:0:0:0:
279,260,50865,1,8,0:0:0:0:
279,260,50943,1,8,0:0:0:0:
118,150,51098,1,8,0:0:0:0:
26,369,51253,2,0,P|13:300|35:226,1,135,6|0,1:2|0:0,0:0:0:0:
52,220,51564,6,0,P|100:236|156:239,1,90,14|0,0:0|0:0,0:0:0:0:
313,361,51875,2,0,P|265:345|209:342,1,90,2|0,1:2|0:0,0:0:0:0:
338,181,52186,1,8,0:0:0:0:
221,237,52342,1,0,0:0:0:0:
234,106,52497,5,2,1:2:0:0:
438,190,52652,1,0,0:0:0:0:
296,209,52808,1,8,0:0:0:0:
493,286,52963,2,0,P|481:219|482:89,1,180,2|0,0:0|1:2,0:0:0:0:
399,272,53430,1,8,0:0:0:0:
479,107,53585,1,2,1:2:0:0:
338,181,53740,6,0,P|290:192|236:189,1,90,0|0,0:0|1:2,0:0:0:0:
374,11,54051,2,0,P|385:59|382:113,1,90,8|0,0:0|0:0,0:0:0:0:
203,104,54362,2,0,L|302:92,1,90,0|0,0:0|1:2,0:0:0:0:
120,48,54673,1,8,0:0:0:0:
293,94,54829,1,0,1:2:0:0:
83,181,54984,5,2,1:2:0:0:
83,181,55062,1,0,1:2:0:0:
83,181,55139,1,0,1:2:0:0:
214,79,55295,1,8,0:0:0:0:
177,207,55450,2,0,P|114:199|22:266,1,180,2|0,0:0|1:2,0:0:0:0:
131,379,55917,2,0,P|116:325|131:266,1,90,10|0,0:0|0:0,0:0:0:0:
293,372,56228,6,0,P|340:366|387:356,1,90,2|0,1:2|0:0,0:0:0:0:
200,321,56538,1,10,0:0:0:0:
382,358,56694,1,0,0:0:0:0:
462,207,56849,1,2,1:2:0:0:
314,288,57005,1,0,1:2:0:0:
488,358,57160,2,0,P|499:298|473:176,1,180,10|2,0:0|1:2,0:0:0:0:
403,283,57626,5,0,0:0:0:0:
259,221,57782,1,10,0:0:0:0:
362,134,57937,1,2,1:2:0:0:
362,134,58015,1,0,1:2:0:0:
362,134,58093,1,0,1:2:0:0:
304,302,58248,1,2,1:2:0:0:
139,200,58404,1,8,0:0:0:0:
255,89,58559,6,0,P|336:88|436:59,1,180,2|0,1:2|1:2,0:0:0:0:
175,36,59025,2,0,P|166:87|176:147,1,90,8|0,0:0|0:0,0:0:0:0:
221,260,59336,2,0,P|134:234|45:232,1,180,2|8,1:2|0:0,0:0:0:0:
303,320,59803,2,0,P|312:269|302:209,1,90,0|2,0:0|1:2,0:0:0:0:
130,276,60114,5,0,0:0:0:0:
130,276,60191,1,0,0:0:0:0:
130,276,60269,1,8,0:2:0:0:
222,346,60424,1,2,1:2:0:0:
223,185,60580,1,0,1:2:0:0:
14,255,60735,1,0,1:2:0:0:
237,167,60891,1,10,0:0:0:0:
69,89,61046,1,2,1:2:0:0:
144,294,61202,6,0,P|148:214|154:96,1,180,6|8,1:2|0:0,0:0:0:0:
153,114,61668,1,0,0:0:0:0:
343,233,61823,2,0,P|284:234|233:243,1,90,2|0,1:2|1:2,0:0:0:0:
109,380,62134,2,0,P|168:379|219:370,1,90,8|0,0:0|0:0,0:0:0:0:
374,151,62445,6,0,P|427:204|390:313,1,180,2|10,1:2|0:0,0:0:0:0:
229,314,62911,1,0,1:2:0:0:
165,152,63067,1,0,0:0:0:0:
343,233,63222,1,2,1:2:0:0:
229,314,63378,2,0,P|221:254|231:188,1,90,8|0,0:0|0:0,0:0:0:0:
367,61,63689,6,0,P|375:121|365:187,1,90,6|0,1:2|0:0,0:0:0:0:
165,152,64000,1,8,0:0:0:0:
263,81,64155,1,0,1:2:0:0:
263,81,64233,1,0,1:2:0:0:
263,81,64310,1,2,1:2:0:0:
343,233,64466,1,0,1:2:0:0:
391,45,64621,1,8,0:0:0:0:
247,197,64777,5,0,1:2:0:0:
247,197,64854,1,0,1:2:0:0:
247,197,64932,2,0,P|157:189|62:171,1,180,2|10,1:2|0:0,0:0:0:0:
1,94,65399,1,2,1:2:0:0:
137,13,65554,1,0,0:0:0:0:
165,152,65709,1,2,1:2:0:0:
23,236,65865,5,8,0:0:0:0:
23,236,65943,1,8,0:0:0:0:
23,236,66020,1,8,0:0:0:0:
23,236,66098,1,8,0:0:0:0:
23,236,66176,2,0,P|7:286|49:392,1,135,6|0,1:2|0:0,0:0:0:0:
51,380,66487,2,0,L|156:366,1,90,8|2,0:0|0:0,0:0:0:0:
271,295,66797,2,0,P|255:245|297:139,1,135,0|0,1:2|0:0,0:0:0:0:
299,151,67108,2,0,L|404:165,1,90,8|2,0:0|1:2,0:0:0:0:
485,261,67419,1,2,1:2:0:0:
485,261,67730,5,8,0:0:0:0:
337,231,67886,1,0,0:0:0:0:
491,128,68041,1,2,1:2:0:0:
320,138,68197,1,2,1:2:0:0:
469,0,68352,1,10,0:0:0:0:
290,59,68507,2,0,P|199:77|102:84,1,180,6|0,1:2|1:2,0:0:0:0:
27,38,68974,5,10,0:0:0:0:
207,161,69129,1,0,0:0:0:0:
0,29,69285,2,0,P|8:77|12:144,1,90,2|0,1:2|0:0,0:0:0:0:
8,240,69595,1,8,0:0:0:0:
130,281,69751,2,0,P|122:233|118:166,1,90,2|0,1:2|0:0,0:0:0:0:
4,384,70062,1,0,1:2:0:0:
220,350,70217,2,0,P|268:342|335:338,1,90,10|0,0:0|1:2,0:0:0:0:
323,308,70450,5,8,0:0:0:0:
354,339,70527,1,8,0:0:0:0:
396,354,70605,1,8,0:0:0:0:
441,350,70683,1,8,0:0:0:0:
479,328,70760,1,8,0:0:0:0:
495,290,70839,1,8,0:0:0:0:
482,251,70917,1,8,0:0:0:0:
448,228,70994,1,8,0:0:0:0:
412,208,71072,1,8,0:0:0:0:
391,173,71150,2,0,P|379:122|406:33,1,135,6|0,1:2|0:0,0:0:0:0:
411,16,71461,6,0,P|366:22|308:21,1,90,14|0,0:0|0:0,0:0:0:0:
240,158,71772,1,2,1:2:0:0:
179,31,71927,1,0,1:2:0:0:
209,242,72082,1,10,0:0:0:0:
320,114,72238,1,0,0:0:0:0:
133,303,72393,6,0,P|186:279|310:291,1,180,2|10,1:2|0:0,0:0:0:0:
88,216,72860,2,0,P|46:210|-3:199,1,90,2|0,0:0|1:2,0:0:0:0:
150,140,73171,1,2,1:2:0:0:
0,200,73326,1,8,0:0:0:0:
154,317,73481,1,2,1:2:0:0:
88,216,73637,5,0,0:0:0:0:
266,329,73792,1,0,1:2:0:0:
32,384,73948,1,8,0:0:0:0:
188,229,74103,1,0,1:2:0:0:
188,229,74181,1,0,1:2:0:0:
188,229,74259,2,0,P|199:174|179:49,1,180,0|8,1:2|0:0,0:0:0:0:
76,190,74725,1,0,0:0:0:0:
280,251,74880,6,0,P|197:238|111:303,1,180,2|8,0:2|0:2,0:2:0:0:
218,337,75347,1,2,0:0:0:0:
372,298,75502,2,0,P|371:252|359:186,1,90,0|0,1:2|1:2,0:0:0:0:
276,71,75813,2,0,P|277:117|289:183,1,90,10|0,0:0|0:0,0:0:0:0:
218,337,76124,5,2,1:2:0:0:
159,194,76279,1,0,0:0:0:0:
218,337,76435,1,10,0:0:0:0:
261,137,76590,5,0,0:0:0:0:
68,184,76746,1,2,1:2:0:0:
236,221,76901,1,0,1:2:0:0:
197,64,77057,1,10,0:0:0:0:
118,275,77212,5,2,1:2:0:0:
118,275,77290,1,0,1:2:0:0:
118,275,77367,2,0,P|126:322|133:379,1,90,0|0,1:2|0:0,0:0:0:0:
174,149,77678,1,10,0:0:0:0:
396,301,77834,2,0,P|351:293|307:287,1,90,2|0,1:2|0:0,0:0:0:0:
105,154,78145,2,0,P|149:161|193:167,1,90,2|8,1:2|0:0,0:0:0:0:
354,172,78456,6,0,P|371:111|337:-14,1,180,6|2,1:2|1:2,0:0:0:0:
267,117,78922,1,8,0:0:0:0:
308,262,79077,1,0,0:0:0:0:
446,211,79233,5,8,0:3:0:0:
291,275,79388,1,0,1:2:0:0:
512,299,79544,1,8,0:0:0:0:
459,115,79699,1,0,1:2:0:0:
382,237,79854,6,0,P|426:233|486:223,1,90,2|0,1:2|0:0,0:0:0:0:
346,336,80165,2,0,P|284:304|195:321,1,135,8|0,0:0|0:0,0:0:0:0:
154,351,80476,1,2,1:2:0:0:
99,210,80632,2,0,L|88:282,1,45,2|0,1:2|0:0,0:0:0:0:
220,178,80787,1,10,0:0:0:0:
13,76,80943,5,0,1:2:0:0:
13,76,81020,1,0,1:2:0:0:
13,76,81098,2,0,P|3:121|23:197,1,90,6|0,1:2|0:0,0:0:0:0:
94,298,81409,2,0,P|104:253|84:177,1,90,8|0,0:0|0:0,0:0:0:0:
181,110,81720,2,0,P|137:120|81:128,1,90,2|0,1:2|1:2,0:0:0:0:
254,244,82031,2,0,P|298:234|354:226,1,90,8|0,0:0|0:0,0:0:0:0:
473,301,82342,6,0,P|491:231|459:107,1,180,2|8,1:2|0:0,0:0:0:0:
342,227,82808,1,2,1:2:0:0:
392,344,82963,1,0,0:0:0:0:
228,326,83119,1,2,1:2:0:0:
291,153,83274,1,10,0:0:0:0:
316,309,83430,5,0,1:2:0:0:
316,309,83507,1,0,1:2:0:0:
316,309,83585,1,2,1:2:0:0:
153,367,83740,1,0,0:0:0:0:
161,189,83896,1,8,0:0:0:0:
351,214,84051,1,0,1:2:0:0:
95,263,84207,5,2,1:2:0:0:
263,202,84362,1,0,1:2:0:0:
124,96,84518,1,8,0:0:0:0:
194,270,84673,1,0,1:2:0:0:
194,270,84751,1,0,1:2:0:0:
194,270,84829,2,0,P|250:237|378:250,1,180,6|10,1:2|0:0,0:0:0:0:
441,167,85295,5,0,1:2:0:0:
384,43,85450,1,0,0:0:0:0:
361,241,85606,1,2,1:2:0:0:
361,241,85683,1,0,1:2:0:0:
361,241,85761,1,8,0:2:0:0:
248,327,85917,1,0,0:0:0:0:
228,180,86072,1,6,1:2:0:0:
478,264,86228,6,0,P|482:223|466:145,1,90,0|8,0:0|0:0,0:0:0:0:
299,57,86538,2,0,P|292:101|296:146,1,90,2|0,0:0|1:2,0:0:0:0:
397,222,86849,1,0,0:0:0:0:
215,213,87005,2,0,P|271:183|397:200,2,180,10|0|8,0:0|1:2|0:0,0:0:0:0:
117,280,87782,1,0,1:2:0:0:
43,171,87937,2,0,P|37:126|53:57,1,90,0|0,0:0|1:2,0:0:0:0:
220,117,88248,2,0,P|168:126|116:128,1,90,10|0,0:0|0:0,0:0:0:0:
0,286,88559,2,0,P|44:289|89:297,1,90,6|0,1:2|0:0,0:0:0:0:
221,290,88870,5,8,0:0:0:0:
176,383,89025,1,0,0:0:0:0:
159,216,89181,1,2,1:2:0:0:
323,292,89336,1,0,1:2:0:0:
195,306,89492,5,8,0:0:0:0:
366,198,89647,1,0,1:2:0:0:
423,347,89803,1,6,1:2:0:0:
255,221,89958,1,0,0:0:0:0:
375,31,90114,6,0,P|390:77|387:134,1,90,10|0,0:0|1:2,0:0:0:0:
176,284,90424,2,0,P|161:238|164:181,1,90,2|0,1:2|1:2,0:0:0:0:
254,24,90735,2,0,B|279:113|243:108|276:212,1,180,10|6,0:0|1:2,0:0:0:0:
