osu file format v14

[General]
AudioFilename: audio.mp3
AudioLeadIn: 0
PreviewTime: 65092
Countdown: 0
SampleSet: Soft
StackLeniency: 0.7
Mode: 2
LetterboxInBreaks: 0
WidescreenStoryboard: 1

[Editor]
Bookmarks: 8003,19297,30592,41886,53180,58827,65886,77180
DistanceSpacing: 1.2
BeatDivisor: 4
GridSize: 32
TimelineZoom: 1

[Metadata]
Title:Kimagure Romantic (TV Size)
TitleUnicode:気まぐれロマンティック (TV Size)
Artist:Takagi-san (CV: Takahashi Rie)
ArtistUnicode:高木さん(CV:高橋李依)
Creator:Xetopia
Version:Platter
Source:からかい上手の高木さん
Tags:AJamez Spectator Karakai Jouzu no Takagi san ending ed いきものがかり ikimono gakari
BeatmapID:1650941
BeatmapSetID:784563

[Difficulty]
HPDrainRate:5
CircleSize:3.2
OverallDifficulty:8
ApproachRate:8
SliderMultiplier:1.6
SliderTickRate:2

[Events]
//Background and Video events
0,0,"takagi.jpg",0,0
//Break Periods
//Storyboard Layer 0 (Background)
//Storyboard Layer 1 (Fail)
//Storyboard Layer 2 (Pass)
//Storyboard Layer 3 (Foreground)
//Storyboard Sound Samples

[TimingPoints]
945,352.941176470588,4,2,2,70,1,0
5356,-100,4,2,2,60,0,0
6592,-100,4,2,2,50,0,0
7474,-100,4,2,2,45,0,0
8003,-100,4,2,2,40,0,0
10827,-100,4,2,2,45,0,0
12239,-100,4,2,2,48,0,0
13650,-100,4,2,2,45,0,0
53180,-100,4,2,2,50,0,0
61297,-90.9090909090909,4,2,2,55,0,0
65533,-90.9090909090909,4,2,2,40,0,0
65886,-90.9090909090909,4,2,2,70,0,1
82827,-90.9090909090909,4,2,2,30,0,0
86356,-90.9090909090909,4,2,2,30,0,0
88121,-90.9090909090909,4,2,2,5,0,0

[Colours]
Combo1 : 255,165,121
Combo2 : 255,0,0
Combo3 : 255,128,0
Combo4 : 255,0,128
Combo5 : 206,0,5

[HitObjects]
85,49,944,6,0,P|35:104|95:143,1,160,4|2,0:0|1:2,0:0:0:0:
173,154,1474,1,0,3:0:0:0:
356,162,1650,2,0,L|364:322,1,160,0|2,3:0|1:2,0:0:0:0:
274,325,2180,1,0,3:0:0:0:
453,342,2356,6,0,P|487:296|417:225,1,160,0|2,3:0|1:2,0:0:0:0:
352,215,2886,1,0,3:0:0:0:
239,189,3062,2,0,L|230:109,1,80,2|0,1:2|0:0,0:0:0:0:
407,38,3415,2,0,L|488:40,1,80,0|0,1:0|0:0,0:0:0:0:
212,104,3768,6,0,L|52:108,2,160,4|2|2,0:0|1:2|1:2,0:0:0:0:
386,100,4827,1,0,1:0:0:0:
130,322,5180,6,0,P|124:277|218:218,1,160,4|0,0:0|3:0,0:0:0:0:
377,276,5709,2,0,L|385:116,1,160,2|0,3:2|3:0,0:0:0:0:
299,115,6239,1,0,3:0:0:0:
27,47,6592,6,0,L|187:51,1,160,4|8,0:0|0:3,0:0:0:0:
280,56,7121,1,0,3:3:0:0:
92,156,7474,1,0,0:0:0:0:
84,240,7650,1,2,0:0:0:0:
386,335,8003,6,0,P|382:315|271:232,1,160,2|0,0:0|0:0,0:0:0:0:
199,225,8533,1,0,0:0:0:0:
404,48,8886,2,0,L|412:132,1,80,0|2,0:0|0:0,0:0:0:0:
126,286,9415,6,0,P|86:226|129:159,1,160,2|0,0:0|0:0,0:0:0:0:
298,30,9944,2,0,P|298:94|218:142,1,160,0|0,0:0|0:0,0:0:0:0:
92,144,10474,2,0,L|84:64,1,80,2|0,0:0|0:0,0:0:0:0:
333,95,10827,6,0,P|377:171|334:208,1,160,2|2,0:0|0:0,0:0:0:0:
178,331,11356,2,0,P|205:296|311:254,1,160,0|0,0:0|0:0,0:0:0:0:
392,250,11886,1,2,0:0:0:0:
105,270,12239,6,0,P|59:207|109:152,1,160,2|0,0:0|0:0,0:0:0:0:
272,256,12768,2,0,L|278:94,1,160,2|0,0:0|0:0,0:0:0:0:
198,94,13297,1,2,0:0:0:0:
112,94,13474,1,0,0:0:0:0:
351,334,13650,6,0,P|412:309|440:215,1,160,2|0,0:0|0:0,0:0:0:0:
355,222,14180,1,0,0:0:0:0:
150,261,14533,2,0,L|146:175,1,80,0|2,0:0|2:0,0:0:0:0:
439,49,15062,6,0,L|451:209,1,160,2|0,0:0|0:0,0:0:0:0:
246,331,15768,2,0,L|165:336,1,80,0|2,0:0|0:0,0:0:0:0:
337,252,16121,2,0,L|341:172,1,80,2|0,0:0|0:0,0:0:0:0:
64,52,16474,6,0,P|64:116|144:160,1,160,2|0,0:0|0:0,0:0:0:0:
304,108,17003,2,0,L|137:112,1,160,2|0,0:0|0:0,0:0:0:0:
134,217,17533,1,2,0:0:0:0:
409,224,17886,6,0,L|416:313,1,80,0|2,0:0|0:0,0:0:0:0:
201,176,18415,2,0,L|291:177,1,80,2|0,0:0|0:0,0:0:0:0:
390,182,18768,2,0,P|430:250|390:318,1,160,2|0,0:0|0:0,0:0:0:0:
152,297,19297,6,0,P|103:238|170:186,1,160,2|0,0:0|0:0,0:0:0:0:
312,236,19827,2,0,L|316:66,1,160,2|0,0:0|0:0,0:0:0:0:
185,70,20356,1,2,0:0:0:0:
473,152,20709,6,0,P|471:172|353:263,1,160,2|0,0:0|0:0,0:0:0:0:
291,266,21239,1,0,0:0:0:0:
207,216,21415,2,0,L|301:215,1,80,2|0,0:0|0:0,0:0:0:0:
389,209,21768,1,0,0:0:0:0:
108,320,22121,6,0,P|57:262|114:216,1,160,2|0,0:0|0:0,0:0:0:0:
203,204,22650,2,0,L|287:208,2,80,0|2|0,0:0|0:0|0:0,0:0:0:0:
36,58,23180,2,0,L|32:150,1,80,2|0,0:0|0:0,0:0:0:0:
282,207,23533,6,0,P|374:187|414:131,2,160,2|0|2,0:0|0:0|0:0,0:0:0:0:
159,140,24415,2,0,L|144:316,1,160,2|0,0:0|0:0,0:0:0:0:
388,328,24944,6,0,P|436:289|368:226,1,160,2|0,0:0|0:0,0:0:0:0:
276,211,25474,2,0,L|192:215,2,80,0|0|0,0:0|0:0|0:0,0:0:0:0:
451,129,26003,2,0,L|455:45,1,80,2|0,0:0|0:0,0:0:0:0:
207,59,26356,6,0,P|143:75|67:138,2,160,2|0|2,0:0|0:0|0:0,0:0:0:0:
368,181,27415,1,0,0:0:0:0:
73,303,27768,6,0,P|25:252|80:187,1,160,2|0,0:0|0:0,0:0:0:0:
250,272,28297,2,0,P|290:261|349:152,1,160,2|0,0:0|0:0,0:0:0:0:
180,143,28827,2,0,L|175:55,1,80,0|0,0:0|0:0,0:0:0:0:
436,337,29180,6,0,P|482:284|426:224,1,160,2|0,0:0|0:0,0:0:0:0:
348,211,29709,1,2,0:0:0:0:
63,67,30062,2,0,L|59:151,1,80,0|2,0:0|0:0,0:0:0:0:
376,120,30592,6,0,P|417:202|368:245,1,160,0|0,3:0|0:0,0:0:0:0:
207,152,31121,2,0,L|37:154,1,160,0|0,3:0|0:0,0:0:0:0:
131,232,31650,1,8,2:0:0:0:
418,52,32003,6,0,P|465:127|406:157,1,160,0|2,3:0|0:0,0:0:0:0:
335,160,32533,1,0,3:0:0:0:
127,78,32886,1,0,0:0:0:0:
124,165,33062,1,8,0:0:0:0:
407,326,33415,6,0,P|397:314|266:256,1,160,2|0,3:2|0:0,0:0:0:0:
101,202,33944,2,0,P|111:190|242:132,1,160,0|0,3:0|0:0,0:0:0:0:
330,125,34474,1,8,0:0:0:0:
49,47,34827,6,0,L|135:48,2,80,0|0|2,3:0|0:0|0:0,0:0:0:0:
220,137,35356,2,0,P|261:211|212:255,1,160,8|0,0:0|3:0,0:0:0:0:
133,268,35886,1,8,0:0:0:0:
437,342,36239,6,0,P|426:333|284:283,1,160,0|0,3:0|0:0,0:0:0:0:
178,224,36768,2,0,L|175:61,1,160,0|0,3:0|0:0,0:0:0:0:
348,66,37297,2,0,L|432:65,1,80,8|2,0:0|0:0,0:0:0:0:
183,333,37650,6,0,P|133:290|195:223,1,160,0|2,3:0|0:0,0:0:0:0:
283,191,38180,2,0,L|372:193,2,80,0|0|0,3:0|0:0|0:0,0:0:0:0:
102,129,38709,2,0,L|99:47,1,80,8|0,0:0|0:0,0:0:0:0:
351,274,39062,6,0,P|399:220|325:171,1,160,0|0,3:0|0:0,0:0:0:0:
212,77,39592,2,0,L|48:81,1,160,0|0,3:2|0:0,0:0:0:0:
138,154,40121,1,8,0:0:0:0:
435,321,40474,6,0,L|436:242,1,80,0|2,3:0|0:0,0:0:0:0:
160,89,41003,2,0,P|168:112|282:174,1,160,0|2,3:0|0:0,0:0:0:0:
454,236,41533,2,0,L|458:316,1,80,8|0,0:0|0:0,0:0:0:0:
209,65,41886,6,0,P|163:129|219:175,1,160,0|2,3:0|0:0,0:0:0:0:
378,261,42415,2,0,L|201:263,1,160,0|0,3:0|0:0,0:0:0:0:
131,262,42944,1,8,0:0:0:0:
426,249,43297,6,0,P|474:210|413:152,1,160,0|0,3:0|0:0,0:0:0:0:
244,69,43827,2,0,L|238:238,1,160,0|0,3:0|0:0,0:0:0:0:
353,228,44356,1,8,0:0:0:0:
61,322,44709,6,0,L|147:320,2,80,0|2|0,3:0|0:0|0:0,0:0:0:0:
234,257,45239,2,0,L|398:261,1,160,2|0,0:0|0:0,0:0:0:0:
324,189,45768,1,8,0:0:0:0:
40,45,46121,6,0,L|36:208,1,160,0|2,3:0|0:0,0:0:0:0:
206,326,46650,2,0,P|256:280|197:226,1,160,2|0,0:0|0:0,0:0:0:0:
36,204,47180,2,0,L|124:200,1,80,8|0,0:0|0:0,0:0:0:0:
364,244,47533,6,0,L|372:84,1,160,0|2,3:0|0:0,0:0:0:0:
292,80,48062,1,0,0:0:0:0:
212,80,48239,1,2,0:0:0:0:
479,267,48592,1,8,0:0:0:0:
161,333,48944,6,0,L|154:167,1,160,2|2,3:2|0:0,0:0:0:0:
272,212,49474,1,0,0:0:0:0:
349,177,49650,1,2,0:0:0:0:
377,105,49826,1,0,3:0:0:0:
363,39,50003,1,8,0:0:0:0:
64,128,50356,6,0,L|228:132,1,160,2|0,0:0|0:0,0:0:0:0:
312,137,50886,1,2,0:0:0:0:
105,235,51239,2,0,L|101:315,1,80,0|8,3:0|0:0,0:0:0:0:
420,340,51768,6,0,P|468:290|402:241,1,160,2|0,0:0|0:0,0:0:0:0:
119,212,52474,1,0,3:0:0:0:
92,182,52562,1,0,3:0:0:0:
81,144,52650,1,0,3:0:0:0:
87,105,52738,1,0,3:0:0:0:
111,73,52826,1,0,3:0:0:0:
191,44,53003,1,2,0:0:0:0:
471,70,53180,6,0,L|479:234,1,160,4|8,0:0|0:0,0:0:0:0:
395,234,53709,1,0,3:0:0:0:
218,327,53886,2,0,L|378:323,1,160,4|8,0:0|0:0,0:0:0:0:
464,319,54415,1,0,3:0:0:0:
213,92,54592,6,0,L|41:98,2,160,4|8|2,0:0|0:0|0:0,0:0:0:0:
395,231,55650,2,0,L|399:147,1,80,8|0,0:0|3:0,0:0:0:0:
224,48,56003,6,0,L|384:44,2,160,2|8|2,3:2|0:0|3:2,0:0:0:0:
64,52,57062,1,8,0:0:0:0:
375,233,57415,6,0,L|466:232,2,80,0|2|8,3:0|0:0|0:0,0:0:0:0:
197,292,57944,2,0,L|193:128,1,160,2|2,0:0|0:0,0:0:0:0:
289,124,58474,1,8,0:0:0:0:
385,124,58650,1,0,3:0:0:0:
105,40,58827,6,0,P|56:110|116:148,1,160,4|8,0:0|0:0,0:0:0:0:
183,167,59356,1,0,3:0:0:0:
316,288,59533,2,0,P|306:282|140:243,1,160,4|8,0:0|0:0,0:0:0:0:
77,242,60062,1,0,0:0:0:0:
325,65,60239,6,0,L|497:63,2,160,2|8|2,0:0|0:0|0:0,0:0:0:0:
146,74,61297,1,8,0:0:0:0:
470,276,61650,6,0,P|422:292|299:271,2,176.000005371094,4|8|8,0:0|0:0|0:0,0:0:0:0:
232,142,62709,2,0,L|134:146,1,88.000002685547,8|0,0:0|3:0,0:0:0:0:
408,44,63062,5,12,0:0:0:0:
447,120,63238,1,0,3:0:0:0:
421,201,63414,1,8,0:0:0:0:
344,239,63591,1,2,0:0:0:0:
208,160,63768,2,0,L|204:248,1,88.000002685547,8|0,0:0|0:0,0:0:0:0:
340,328,64121,2,0,L|428:324,1,88.000002685547,8|0,0:0|3:0,0:0:0:0:
160,72,64474,5,4,0:0:0:0:
416,48,65180,1,2,3:2:0:0:
420,88,65268,1,0,0:0:0:0:
424,128,65356,1,0,3:0:0:0:
320,88,65532,1,0,1:0:0:0:
424,128,65709,1,0,1:0:0:0:
136,324,65886,6,0,P|77:268|139:220,1,176.000005371094,4|8,0:0|0:0,0:0:0:0:
229,207,66415,1,0,3:0:0:0:
39,57,66592,2,0,L|33:153,1,88.000002685547,8|0,0:0|3:0,0:0:0:0:
162,190,66944,2,0,L|172:286,1,88.000002685547,8|0,0:0|3:0,0:0:0:0:
437,48,67297,6,0,P|490:115|416:161,1,176.000005371094,10|8,0:0|0:0,0:0:0:0:
247,154,67827,1,0,3:0:0:0:
154,154,68003,1,10,0:0:0:0:
247,154,68179,1,0,3:0:0:0:
446,333,68356,2,0,L|451:240,1,88.000002685547,8|0,0:0|3:0,0:0:0:0:
186,46,68709,6,0,P|118:58|33:120,2,176.000005371094,4|8|8,0:0|0:0|0:0,0:0:0:0:
261,82,69592,1,2,0:0:0:0:
78,170,69768,2,0,L|70:263,1,88.000002685547,8|2,0:0|0:0,0:0:0:0:
336,328,70121,6,0,L|428:324,2,88.000002685547,0|2|8,3:0|0:0|0:0,0:0:0:0:
156,297,70650,2,0,P|164:281|295:186,1,176.000005371094,2|0,3:2|3:0,0:0:0:0:
477,212,71180,2,0,L|482:124,1,88.000002685547,8|0,0:0|0:0,0:0:0:0:
194,44,71533,6,0,P|139:100|201:162,1,176.000005371094,4|8,0:0|2:0,0:0:0:0:
291,175,72062,1,2,0:0:0:0:
384,310,72239,2,0,L|286:302,1,88.000002685547,8|0,0:0|3:0,0:0:0:0:
106,291,72592,2,0,L|101:197,1,88.000002685547,8|0,0:0|0:0,0:0:0:0:
390,53,72944,6,0,P|437:144|374:178,1,176.000005371094,2|8,3:2|0:0,0:0:0:0:
203,286,73474,2,0,L|199:197,1,88.000002685547,0|2,0:0|3:2,0:0:0:0:
320,179,73827,2,0,L|412:175,1,88.000002685547,0|8,3:0|0:0,0:0:0:0:
100,39,74356,6,0,L|89:216,1,176.000005371094,0|4,3:0|0:0,0:0:0:0:
412,39,75062,2,0,L|423:216,1,176.000005371094,0|4,3:0|0:0,0:0:0:0:
78,295,75768,1,4,0:0:0:0:
136,229,75944,1,2,0:0:0:0:
212,186,76120,1,4,0:0:0:0:
298,170,76297,1,2,0:0:0:0:
181,47,76474,2,0,L|178:140,1,88.000002685547,0|0,1:0|3:0,0:0:0:0:
350,304,76827,2,0,L|445:308,1,88.000002685547,8|0,0:0|0:0,0:0:0:0:
170,89,77180,6,0,P|112:130|173:191,1,176.000005371094,4|8,0:0|0:0,0:0:0:0:
258,196,77709,1,0,1:0:0:0:
75,325,77886,1,2,3:2:0:0:
182,285,78062,2,0,L|186:180,1,88.000002685547,2|8,0:0|0:0,0:0:0:0:
75,325,78415,1,2,0:0:0:0:
352,324,78592,6,0,P|406:253|340:200,1,176.000005371094,0|8,3:0|0:0,0:0:0:0:
262,181,79121,1,0,3:0:0:0:
453,39,79297,2,0,L|456:128,1,88.000002685547,0|0,3:0|0:0,0:0:0:0:
330,237,79650,2,0,L|418:239,1,88.000002685547,8|0,0:0|0:0,0:0:0:0:
143,330,80003,6,0,P|88:268|151:227,1,176.000005371094,0|8,3:0|0:0,0:0:0:0:
255,186,80533,2,0,L|343:190,2,88.000002685547,2|0|0,0:0|0:0|3:0,0:0:0:0:
77,154,81062,2,0,L|73:62,1,88.000002685547,12|0,0:0|0:0,0:0:0:0:
350,340,81415,6,0,P|408:288|333:237,1,176.000005371094,0|8,3:0|0:0,0:0:0:0:
257,227,81944,1,2,0:0:0:0:
79,182,82121,1,8,0:0:0:0:
108,149,82209,1,0,0:0:0:0:
143,122,82297,1,0,0:0:0:0:
181,101,82385,1,0,0:0:0:0:
223,86,82473,1,8,0:0:0:0:
129,45,82650,1,0,3:0:0:0:
438,73,82827,6,0,L|444:264,1,176.000005371094,4|0,0:0|0:0,0:0:0:0:
329,254,83356,1,2,0:0:0:0:
152,337,83709,2,0,L|148:245,1,88.000002685547,2|0,0:0|0:0,0:0:0:0:
284,295,84062,6,0,P|330:238|278:164,1,176.000005371094,2|0,0:0|0:0,0:0:0:0:
174,178,84592,2,0,L|169:87,1,88.000002685547,2|0,0:0|0:0,0:0:0:0:
297,50,84944,2,0,L|385:54,1,88.000002685547,2|0,0:0|0:0,0:0:0:0:
272,132,85297,2,0,L|176:136,1,88.000002685547,2|0,0:0|0:0,0:0:0:0:
390,287,85650,2,0,P|445:240|377:168,1,176.000005371094,2|0,0:0|0:0,0:0:0:0:
270,155,86180,1,2,0:0:0:0:
395,167,86356,1,2,0:0:0:0:
256,192,86533,12,0,88121,0:0:0:0:
