osu file format v14

[General]
AudioFilename: audio.mp3
AudioLeadIn: 0
PreviewTime: 65092
Countdown: 0
SampleSet: Soft
StackLeniency: 0.4
Mode: 2
LetterboxInBreaks: 0
WidescreenStoryboard: 1

[Editor]
Bookmarks: 8003,30592,53180,65886,77180,82827
DistanceSpacing: 1.2
BeatDivisor: 4
GridSize: 32
TimelineZoom: 2

[Metadata]
Title:Kimagure Romantic (TV Size)
TitleUnicode:気まぐれロマンティック (TV Size)
Artist:Takagi-san (CV: Takahashi Rie)
ArtistUnicode:高木さん(CV:高橋李依)
Creator:Xetopia
Version:Love
Source:からかい上手の高木さん
Tags:AJamez Spectator Karakai Jouzu no Takagi san ending ed いきものがかり ikimono gakari
BeatmapID:1647193
BeatmapSetID:784563

[Difficulty]
HPDrainRate:6
CircleSize:4.2
OverallDifficulty:9
ApproachRate:9
SliderMultiplier:2.1
SliderTickRate:2

[Events]
//Background and Video events
0,0,"takagi.jpg",0,0
//Break Periods
//Storyboard Layer 0 (Background)
//Storyboard Layer 1 (Fail)
//Storyboard Layer 2 (Pass)
//Storyboard Layer 3 (Foreground)
//Storyboard Sound Samples

[TimingPoints]
945,352.941176470588,4,2,2,70,1,0
945,-100,4,2,2,70,0,0
6062,-100,4,2,2,50,0,0
6239,-100,4,2,2,70,0,0
8003,-117.647058823529,4,2,2,50,0,0
51768,-125,4,2,2,60,0,0
52474,-100,4,2,2,60,0,0
65356,-100,4,2,2,40,0,0
65533,-100,4,2,2,50,0,0
65709,-100,4,2,2,60,0,0
65886,-100,4,2,2,70,0,1
82827,-100,4,2,2,60,0,0
83180,-125,4,2,2,30,0,0
86356,-142.857142857143,4,2,2,30,0,0
88121,-100,4,2,2,5,0,0

[Colours]
Combo1 : 255,165,121
Combo2 : 255,0,0
Combo3 : 255,128,0
Combo4 : 255,0,128
Combo5 : 206,0,5

[HitObjects]
192,56,944,6,0,L|300:60,2,105,4|2|2,0:0|0:0|1:2,0:0:0:0:
72,48,1474,1,0,3:0:0:0:
304,340,1650,2,0,L|312:236,1,105,0|0,3:0|0:0,0:0:0:0:
152,244,2003,2,0,L|144:140,1,105,2|0,1:2|3:0,0:0:0:0:
396,68,2356,6,0,L|292:64,1,105,0|0,3:0|0:0,0:0:0:0:
184,60,2709,1,2,1:2:0:0:
324,144,2886,1,0,3:0:0:0:
64,312,3062,2,0,L|172:308,1,105,2|0,1:2|0:0,0:0:0:0:
416,352,3415,2,0,L|420:248,1,105,0|0,1:0|0:0,0:0:0:0:
148,48,3768,6,0,L|144:152,1,105,4|0,0:0|0:0,0:0:0:0:
400,216,4121,2,0,L|292:220,1,105,2|0,1:2|0:0,0:0:0:0:
60,332,4474,2,0,L|164:336,1,105,2|0,1:2|3:0,0:0:0:0:
432,336,4827,2,0,L|436:232,1,105,0|0,1:0|0:0,0:0:0:0:
148,40,5180,6,0,P|108:84|184:192,1,210,4|0,0:0|3:0,0:0:0:0:
340,272,5709,2,0,L|128:272,1,210,2|0,3:2|3:0,0:0:0:0:
8,348,6239,2,0,L|116:352,1,105,0|0,3:0|0:0,0:0:0:0:
352,60,6592,6,0,P|408:108|348:216,1,210,4|8,0:0|0:3,0:0:0:0:
244,212,7121,1,0,3:3:0:0:
48,64,7474,1,0,0:0:0:0:
172,104,7650,2,0,L|168:212,1,105,2|0,0:0|0:0,0:0:0:0:
424,320,8003,6,0,P|473:269|415:191,1,178.500003404617,2|0,0:0|0:0,0:0:0:0:
287,223,8533,2,0,L|281:130,1,89.2500017023087,0|0,0:0|0:0,0:0:0:0:
437,54,8886,2,0,L|341:54,2,89.2500017023087,0|2|0,0:0|0:0|0:0,0:0:0:0:
181,323,9415,6,0,P|140:318|55:199,1,178.500003404617,2|0,0:0|0:0,0:0:0:0:
177,209,9944,2,0,L|184:117,1,89.2500017023087,0|0,0:0|0:0,0:0:0:0:
37,52,10297,1,0,0:0:0:0:
135,50,10474,1,2,0:0:0:0:
37,52,10650,1,0,0:0:0:0:
302,335,10827,6,0,P|356:286|293:218,1,178.500003404617,2|2,0:0|0:0,0:0:0:0:
140,209,11356,2,0,L|232:212,2,89.2500017023087,0|0|0,0:0|0:0|0:0,0:0:0:0:
307,102,11886,2,0,L|406:101,1,89.2500017023087,2|0,0:0|0:0,0:0:0:0:
112,41,12239,6,0,P|63:129|125:153,1,178.500003404617,2|0,0:0|0:0,0:0:0:0:
267,177,12768,2,0,P|261:202|126:282,1,178.500003404617,2|0,0:0|0:0,0:0:0:0:
31,284,13297,1,2,0:0:0:0:
143,283,13474,1,0,0:0:0:0:
422,140,13650,6,0,P|474:199|416:260,1,178.500003404617,2|0,0:0|0:0,0:0:0:0:
303,215,14180,2,0,L|209:216,1,89.2500017023087,0|0,0:0|0:0,0:0:0:0:
378,334,14533,1,0,0:0:0:0:
278,331,14709,1,2,2:0:0:0:
378,334,14886,1,0,0:0:0:0:
116,47,15062,6,0,P|119:73|237:172,1,178.500003404617,2|0,0:0|0:0,0:0:0:0:
317,180,15592,1,0,0:0:0:0:
153,305,15768,2,0,L|144:210,1,89.2500017023087,0|2,0:0|0:0,0:0:0:0:
250,263,16121,1,0,0:0:0:0:
143,217,16297,1,0,0:0:0:0:
415,44,16474,6,0,P|469:109|398:165,1,178.500003404617,2|0,0:0|0:0,0:0:0:0:
290,202,17003,2,0,L|286:291,1,89.2500017023087,2|0,0:0|0:0,0:0:0:0:
124,311,17356,2,0,L|218:308,2,89.2500017023087,0|2|0,0:0|0:0|0:0,0:0:0:0:
388,47,17886,1,0,0:0:0:0:
280,141,18062,6,0,L|465:143,1,178.500003404617,2|2,0:0|0:0,0:0:0:0:
298,41,18592,1,0,0:0:0:0:
290,149,18768,1,2,0:0:0:0:
458,142,18944,1,2,0:0:0:0:
466,250,19121,1,0,0:0:0:0:
163,340,19297,6,0,P|150:313|231:206,1,178.500003404617,2|0,0:0|0:0,0:0:0:0:
388,327,19827,2,0,L|395:147,1,178.500003404617,2|0,0:0|0:0,0:0:0:0:
283,252,20356,1,2,0:0:0:0:
394,148,20533,1,0,0:0:0:0:
86,325,20709,6,0,P|95:298|208:197,1,178.500003404617,2|0,0:0|0:0,0:0:0:0:
292,185,21239,1,0,0:0:0:0:
450,99,21415,2,0,L|361:99,1,89.2500017023087,2|0,0:0|0:0,0:0:0:0:
246,276,21768,2,0,L|341:276,1,89.2500017023087,0|0,0:0|0:0,0:0:0:0:
89,40,22121,6,0,P|31:86|93:141,1,178.500003404617,2|0,0:0|0:0,0:0:0:0:
218,159,22650,2,0,L|226:248,1,89.2500017023087,0|2,0:0|0:0,0:0:0:0:
55,328,23003,2,0,L|146:328,2,89.2500017023087,0|2|0,0:0|0:0|0:0,0:0:0:0:
317,157,23533,6,0,P|364:171|311:251,1,178.500003404617,2|0,0:0|0:0,0:0:0:0:
406,335,24062,1,0,0:0:0:0:
245,214,24239,2,0,L|153:216,2,89.2500017023087,2|2|2,0:0|0:0|0:0,0:0:0:0:
337,211,24768,1,0,0:0:0:0:
97,283,24944,6,0,P|41:219|101:175,1,178.500003404617,2|0,0:0|0:0,0:0:0:0:
221,177,25474,1,0,0:0:0:0:
323,178,25650,1,0,0:0:0:0:
221,177,25827,1,0,0:0:0:0:
385,39,26003,2,0,L|391:131,1,89.2500017023087,2|0,0:0|0:0,0:0:0:0:
102,345,26356,6,0,L|285:342,1,178.500003404617,2|0,0:0|0:0,0:0:0:0:
189,267,26886,1,0,0:0:0:0:
337,43,27062,2,0,L|353:135,1,89.2500017023087,2|0,0:0|0:0,0:0:0:0:
182,47,27415,2,0,L|165:139,1,89.2500017023087,0|0,0:0|0:0,0:0:0:0:
420,335,27768,6,0,P|474:305|414:238,1,178.500003404617,2|0,0:0|0:0,0:0:0:0:
285,196,28297,2,0,L|196:194,2,89.2500017023087,2|0|0,0:0|0:0|0:0,0:0:0:0:
448,152,28827,2,0,L|454:63,1,89.2500017023087,0|0,0:0|0:0,0:0:0:0:
176,152,29180,6,0,P|186:125|311:51,1,178.500003404617,2|0,0:0|0:0,0:0:0:0:
149,217,29709,2,0,L|142:318,1,89.2500017023087,2|0,0:0|0:0,0:0:0:0:
318,321,30062,1,0,0:0:0:0:
432,323,30239,1,2,0:0:0:0:
318,321,30415,1,0,0:0:0:0:
34,290,30592,6,0,L|213:288,1,178.500003404617,0|0,3:0|0:0,0:0:0:0:
364,170,31121,2,0,P|423:233|361:278,1,178.500003404617,0|0,3:0|0:0,0:0:0:0:
257,279,31650,1,8,2:0:0:0:
366,278,31827,1,0,0:0:0:0:
116,228,32003,6,0,P|71:204|124:117,1,178.500003404617,0|2,3:0|0:0,0:0:0:0:
291,225,32533,2,0,P|286:205|152:110,1,178.500003404617,0|0,3:0|0:0,0:0:0:0:
58,103,33062,1,8,0:0:0:0:
169,110,33239,1,0,0:0:0:0:
436,211,33415,6,0,L|249:213,1,178.500003404617,2|0,3:2|0:0,0:0:0:0:
426,36,33944,2,0,P|481:110|425:157,1,178.500003404617,0|0,3:0|0:0,0:0:0:0:
270,177,34474,2,0,L|263:267,1,89.2500017023087,8|0,0:0|0:0,0:0:0:0:
416,344,34827,1,0,3:0:0:0:
315,342,35003,1,0,0:0:0:0:
416,344,35180,1,2,0:0:0:0:
168,292,35356,6,0,P|105:277|38:165,1,178.500003404617,8|0,0:0|3:0,0:0:0:0:
281,147,35886,2,0,L|372:149,1,89.2500017023087,8|0,0:0|0:0,0:0:0:0:
90,36,36239,6,0,P|34:78|98:144,1,178.500003404617,0|0,3:0|0:0,0:0:0:0:
274,313,36768,2,0,P|267:295|134:212,1,178.500003404617,0|0,3:0|0:0,0:0:0:0:
30,212,37297,1,8,0:0:0:0:
140,212,37474,1,2,0:0:0:0:
417,326,37650,6,0,P|464:296|411:207,1,178.500003404617,0|2,3:0|0:0,0:0:0:0:
295,201,38180,2,0,L|203:198,2,89.2500017023087,0|0|0,3:0|0:0|0:0,0:0:0:0:
461,158,38709,2,0,L|465:67,1,89.2500017023087,8|0,0:0|0:0,0:0:0:0:
192,266,39062,6,0,L|374:268,1,178.500003404617,0|0,3:0|0:0,0:0:0:0:
200,317,39592,2,0,P|146:264|211:209,1,178.500003404617,0|0,3:2|0:0,0:0:0:0:
343,191,40121,2,0,L|349:97,1,89.2500017023087,8|0,0:0|0:0,0:0:0:0:
105,46,40474,5,0,3:0:0:0:
206,150,40650,2,0,L|17:150,1,178.500003404617,2|0,0:0|3:0,0:0:0:0:
191,273,41180,2,0,L|284:274,1,89.2500017023087,0|2,0:0|0:0,0:0:0:0:
107,195,41533,2,0,L|103:99,1,89.2500017023087,8|0,0:0|0:0,0:0:0:0:
373,44,41886,6,0,L|195:47,1,178.500003404617,0|2,3:0|0:0,0:0:0:0:
102,49,42415,1,0,3:0:0:0:
213,127,42592,2,0,L|225:225,1,89.2500017023087,0|0,0:0|0:0,0:0:0:0:
47,257,42944,2,0,L|37:348,1,89.2500017023087,8|0,0:0|0:0,0:0:0:0:
311,335,43297,6,0,P|367:276|302:232,1,178.500003404617,0|0,3:0|0:0,0:0:0:0:
130,151,43827,2,0,L|316:149,1,178.500003404617,0|0,3:0|0:0,0:0:0:0:
470,213,44356,2,0,L|475:121,1,89.2500017023087,8|0,0:0|0:0,0:0:0:0:
221,44,44709,6,0,L|310:42,2,89.2500017023087,0|2|0,3:0|0:0|0:0,0:0:0:0:
389,119,45239,2,0,P|443:177|381:245,1,178.500003404617,2|0,0:0|0:0,0:0:0:0:
226,330,45768,2,0,L|222:234,1,89.2500017023087,8|0,0:0|0:0,0:0:0:0:
482,47,46121,6,0,L|295:50,1,178.500003404617,0|2,3:0|0:0,0:0:0:0:
153,101,46650,2,0,P|107:138|165:230,1,178.500003404617,2|0,0:0|0:0,0:0:0:0:
310,338,47180,2,0,L|319:244,1,89.2500017023087,8|0,0:0|0:0,0:0:0:0:
52,45,47533,6,0,L|238:44,1,178.500003404617,0|2,3:0|0:0,0:0:0:0:
323,44,48062,1,0,0:0:0:0:
204,122,48239,2,0,L|188:212,1,89.2500017023087,2|0,0:0|1:0,0:0:0:0:
433,244,48592,2,0,L|448:331,1,89.2500017023087,8|0,0:0|0:0,0:0:0:0:
154,338,48944,6,0,P|98:313|158:240,1,178.500003404617,2|2,3:2|0:0,0:0:0:0:
315,283,49474,2,0,L|224:286,2,89.2500017023087,0|2|0,0:0|0:0|3:0,0:0:0:0:
153,209,50003,2,0,L|150:118,1,89.2500017023087,8|0,0:0|0:0,0:0:0:0:
416,40,50356,6,0,P|405:55|264:122,1,178.500003404617,2|0,0:0|0:0,0:0:0:0:
413,347,50886,2,0,L|420:163,1,178.500003404617,2|0,0:0|3:0,0:0:0:0:
165,333,51415,2,0,L|76:335,1,89.2500017023087,8|0,0:0|0:0,0:0:0:0:
326,52,51768,5,2,0:0:0:0:
423,101,51944,2,0,L|432:278,1,168,0|0,0:0|0:0,0:0:0:0:
44,172,52474,1,0,3:0:0:0:
96,170,52562,1,0,3:0:0:0:
148,168,52650,1,0,3:0:0:0:
201,166,52738,1,0,3:0:0:0:
253,164,52826,1,0,3:0:0:0:
144,288,53003,1,2,0:0:0:0:
476,76,53180,6,0,L|264:80,1,210,4|8,0:0|0:0,0:0:0:0:
375,176,53709,1,0,3:0:0:0:
96,328,53886,2,0,P|60:272|144:176,1,210,4|8,0:0|0:0,0:0:0:0:
23,120,54415,1,0,3:0:0:0:
304,36,54592,6,0,L|308:148,1,105,4|0,0:0|0:0,0:0:0:0:
60,296,54944,2,0,L|164:300,1,105,8|0,0:0|3:0,0:0:0:0:
424,348,55297,2,0,L|436:136,1,210,2|8,0:0|0:0,0:0:0:0:
328,136,55827,1,0,3:0:0:0:
72,60,56003,6,0,L|283:60,1,210,2|8,3:2|0:0,0:0:0:0:
176,140,56533,1,0,3:0:0:0:
340,201,56709,2,0,L|346:306,1,105,2|0,3:2|0:0,0:0:0:0:
109,56,57062,2,0,L|103:161,1,105,8|0,0:0|0:0,0:0:0:0:
381,57,57415,5,0,3:0:0:0:
245,53,57592,1,2,0:0:0:0:
381,57,57768,1,8,0:0:0:0:
85,229,57944,2,0,L|301:228,1,210,2|2,0:0|0:0,0:0:0:0:
123,148,58474,2,0,L|116:37,1,105,8|0,0:0|3:0,0:0:0:0:
404,35,58827,6,0,P|421:94|321:188,1,210,4|8,0:0|0:0,0:0:0:0:
447,260,59356,1,0,3:0:0:0:
140,70,59533,6,0,L|356:74,1,210,4|8,0:0|0:0,0:0:0:0:
456,76,60062,1,0,0:0:0:0:
153,341,60239,6,0,L|147:232,1,105,2|0,0:0|0:0,0:0:0:0:
391,100,60592,2,0,L|495:103,1,105,8|0,0:0|3:0,0:0:0:0:
327,209,60944,2,0,L|211:211,1,105,2|0,0:0|0:0,0:0:0:0:
467,58,61297,2,0,L|470:162,1,105,8|0,0:0|0:0,0:0:0:0:
188,304,61650,6,0,L|81:298,1,105,4|0,0:0|3:0,0:0:0:0:
336,216,62003,2,0,L|440:212,1,105,8|0,0:0|3:0,0:0:0:0:
188,136,62356,2,0,L|292:140,1,105,8|0,0:0|1:0,0:0:0:0:
40,48,62709,2,0,L|144:44,1,105,8|0,0:0|3:0,0:0:0:0:
440,112,63062,6,0,L|448:216,1,105,12|0,0:0|3:0,0:0:0:0:
204,328,63415,1,8,0:0:0:0:
76,324,63592,1,2,0:0:0:0:
216,328,63768,1,8,0:0:0:0:
64,320,63944,1,0,0:0:0:0:
232,328,64121,1,8,0:0:0:0:
48,316,64297,1,0,3:0:0:0:
404,152,64474,5,4,0:0:0:0:
62,35,65180,5,2,3:2:0:0:
39,80,65268,1,0,0:0:0:0:
54,129,65356,1,0,3:0:0:0:
99,154,65444,1,0,3:0:0:0:
272,89,65533,2,0,L|328:89,1,52.5,0|0,1:0|1:0,1:1:0:0:
170,225,65709,2,0,L|231:227,1,52.5,0|0,1:0|1:0,0:0:0:0:
486,346,65886,6,0,L|490:240,1,105,4|0,0:0|0:0,0:0:0:0:
248,200,66239,2,0,L|352:204,1,105,8|0,0:0|3:0,0:0:0:0:
95,59,66592,2,0,L|199:55,2,105,8|0|8,0:0|3:0|0:0,0:0:0:0:
346,47,67121,1,0,3:0:0:0:
70,88,67297,6,0,P|18:180|82:252,1,210,10|8,0:0|0:0,0:0:0:0:
380,188,67827,1,0,3:0:0:0:
240,180,68003,1,10,0:0:0:0:
380,188,68180,1,0,3:0:0:0:
120,40,68356,2,0,L|112:144,1,105,8|0,0:0|3:0,0:0:0:0:
364,329,68709,6,0,L|258:330,1,105,4|0,0:0|0:0,0:0:0:0:
500,191,69062,2,0,L|392:191,1,105,8|0,0:0|0:0,0:0:0:0:
131,47,69415,1,8,0:0:0:0:
291,107,69592,2,0,L|296:216,1,105,2|8,0:0|0:0,0:0:0:0:
31,305,69944,1,2,0:0:0:0:
337,309,70121,5,0,3:0:0:0:
205,309,70297,1,2,0:0:0:0:
337,309,70473,1,8,0:0:0:0:
60,87,70650,1,2,3:2:0:0:
306,89,70827,2,0,L|193:88,1,105,0|0,0:0|3:0,0:0:0:0:
460,294,71180,2,0,L|463:189,1,105,8|0,0:0|0:0,0:0:0:0:
139,37,71533,6,0,L|354:37,1,210,4|8,0:0|2:0,0:0:0:0:
203,127,72062,1,2,0:0:0:0:
442,213,72239,2,0,L|445:322,1,105,0|0,0:0|3:0,0:0:0:0:
202,267,72592,2,0,L|91:268,1,105,8|0,0:0|0:0,0:0:0:0:
395,33,72944,6,0,P|461:115|385:147,1,210,2|8,3:2|0:0,0:0:0:0:
290,175,73474,1,0,0:0:0:0:
43,347,73650,2,0,L|41:242,1,105,2|0,3:2|3:0,0:0:0:0:
288,112,74003,2,0,L|172:108,1,105,8|0,0:0|0:0,0:0:0:0:
482,39,74356,6,0,P|468:61|351:119,1,157.5,0|0,3:0|3:0,0:0:0:0:
192,333,74709,2,0,L|314:330,1,105,4|0,0:0|3:0,0:0:0:0:
30,39,75062,6,0,P|44:61|161:119,1,157.5,0|0,3:0|3:0,0:0:0:0:
419,331,75415,2,0,L|424:222,1,105,4|0,0:0|3:0,0:0:0:0:
146,99,75768,6,0,L|251:101,1,105,4|2,0:0|0:0,0:0:0:0:
6,273,76121,2,0,L|117:274,1,105,4|2,0:0|0:0,0:0:0:0:
413,40,76474,1,0,1:0:0:0:
430,88,76562,1,0,0:0:0:0:
407,133,76650,1,0,3:0:0:0:
358,149,76738,1,0,3:0:0:0:
188,264,76827,2,0,L|134:267,1,52.5,8|0,0:0|0:0,0:0:0:0:
358,149,77003,2,0,L|424:151,1,52.5,0|0,0:0|0:0,0:0:0:0:
173,49,77180,6,0,L|66:49,1,105,4|0,0:0|0:0,0:0:0:0:
342,244,77533,2,0,L|450:242,1,105,8|0,0:0|1:0,0:0:0:0:
184,326,77886,1,2,3:2:0:0:
324,322,78062,1,2,0:0:0:0:
184,326,78239,1,8,0:0:0:0:
442,325,78415,1,2,0:0:0:0:
127,259,78592,6,0,P|60:206|134:134,1,210,0|8,3:0|0:0,0:0:0:0:
23,58,79121,1,0,3:0:0:0:
337,283,79297,1,0,3:0:0:0:
197,279,79473,1,0,0:0:0:0:
337,283,79650,1,8,0:0:0:0:
85,275,79827,1,0,0:0:0:0:
371,52,80003,6,0,L|379:156,1,105,0|2,3:0|0:0,0:0:0:0:
104,311,80356,2,0,L|212:315,1,105,8|2,0:0|0:0,0:0:0:0:
480,208,80709,1,0,0:0:0:0:
336,216,80886,1,0,3:0:0:0:
480,208,81062,1,12,0:0:0:0:
192,220,81239,1,0,0:0:0:0:
448,48,81415,5,0,3:0:0:0:
328,44,81591,1,2,0:0:0:0:
204,40,81767,1,8,0:0:0:0:
328,44,81944,1,2,0:0:0:0:
61,306,82121,5,8,0:0:0:0:
98,269,82209,1,0,0:0:0:0:
144,243,82297,1,0,0:0:0:0:
194,229,82385,1,0,0:0:0:0:
451,306,82474,1,8,0:0:0:0:
413,269,82562,1,0,0:0:0:0:
367,243,82650,1,0,3:0:0:0:
317,229,82738,1,0,3:0:0:0:
64,44,82827,5,4,0:0:0:0:
301,44,83180,1,0,0:0:0:0:
150,145,83356,2,0,L|326:147,1,168,2|2,0:0|0:0,0:0:0:0:
230,234,83886,1,0,0:0:0:0:
414,345,84062,6,0,P|462:311|400:239,1,168,2|0,0:0|0:0,0:0:0:0:
232,317,84592,2,0,L|145:313,1,84,2|0,0:0|0:0,0:0:0:0:
324,223,84944,2,0,L|412:219,1,84,2|0,0:0|0:0,0:0:0:0:
224,162,85297,2,0,L|219:74,1,84,2|0,0:0|0:0,0:0:0:0:
37,54,85650,6,0,P|77:90|190:120,1,168,2|0,0:0|0:0,0:0:0:0:
274,125,86180,1,2,0:0:0:0:
113,232,86356,5,2,0:0:0:0:
256,192,86533,12,0,88121,0:0:0:0:
