osu file format v14

[General]
AudioFilename: audio.mp3
AudioLeadIn: 0
PreviewTime: 65092
Countdown: 0
SampleSet: Soft
StackLeniency: 0.7
Mode: 2
LetterboxInBreaks: 0
WidescreenStoryboard: 1

[Editor]
Bookmarks: 6944,41886
DistanceSpacing: 1.2
BeatDivisor: 4
GridSize: 4
TimelineZoom: 1

[Metadata]
Title:Kimagure Romantic (TV Size)
TitleUnicode:気まぐれロマンティック (TV Size)
Artist:Takagi-san (CV: Takahashi Rie)
ArtistUnicode:高木さん(CV:高橋李依)
Creator:Xetopia
Version:Cup
Source:からかい上手の高木さん
Tags:AJamez Spectator Karakai Jouzu no Takagi san ending ed いきものがかり ikimono gakari
BeatmapID:1649972
BeatmapSetID:784563

[Difficulty]
HPDrainRate:3
CircleSize:2.5
OverallDifficulty:6
ApproachRate:6
SliderMultiplier:1.2
SliderTickRate:1

[Events]
//Background and Video events
0,0,"takagi.jpg",0,0
//Break Periods
//Storyboard Layer 0 (Background)
//Storyboard Layer 1 (Fail)
//Storyboard Layer 2 (Pass)
//Storyboard Layer 3 (Foreground)
//Storyboard Sound Samples

[TimingPoints]
945,352.941176470588,4,2,2,70,1,0
5356,-100,4,2,2,60,0,0
6592,-100,4,2,2,50,0,0
7474,-100,4,2,2,45,0,0
8003,-100,4,2,2,40,0,0
10827,-100,4,2,2,45,0,0
12239,-100,4,2,2,48,0,0
53180,-100,4,2,2,50,0,0
61297,-90.9090909090909,4,2,2,55,0,0
65533,-83.3333333333333,4,2,2,40,0,0
65886,-90.9090909090909,4,2,2,70,0,1
82827,-90.9090909090909,4,2,2,60,0,0
88121,-90.9090909090909,4,2,2,5,0,0

[Colours]
Combo1 : 255,165,121
Combo2 : 255,0,0
Combo3 : 255,128,0
Combo4 : 255,0,128
Combo5 : 206,0,5

[HitObjects]
236,68,944,6,0,L|112:72,2,120,4|2|0,0:0|1:2|3:0,0:0:0:0:
392,60,2003,1,2,1:2:0:0:
212,168,2356,2,0,L|208:288,1,120,0|2,3:0|1:2,0:0:0:0:
388,80,3062,2,0,L|392:204,1,120,2|0,1:2|1:0,0:0:0:0:
208,300,3768,6,0,L|328:304,2,120,4|2|2,0:0|1:2|1:2,0:0:0:0:
72,296,4827,1,0,1:0:0:0:
256,220,5180,6,0,P|280:168|208:72,1,180,4|2,0:0|3:2,0:0:0:0:
60,64,6062,2,0,L|56:132,1,60,0|0,3:0|3:0,0:0:0:0:
244,236,6592,6,0,L|364:232,1,120,4|8,0:0|0:3,0:0:0:0:
304,208,7121,1,0,3:3:0:0:
144,112,7474,1,0,0:0:0:0:
140,64,7650,1,2,0:0:0:0:
332,40,8003,6,0,P|352:88|336:156,1,120,2|0,0:0|0:0,0:0:0:0:
148,280,8886,2,0,L|84:276,2,60,0|2|0,0:0|0:0|0:0,0:0:0:0:
236,320,9415,6,0,P|264:268|200:172,1,180,2|0,0:0|0:0,0:0:0:0:
57,140,10474,1,2,0:0:0:0:
248,340,10827,6,0,L|376:336,1,120,2|2,0:0|0:0,0:0:0:0:
308,308,11356,1,0,0:0:0:0:
180,244,11709,1,0,0:0:0:0:
368,168,12239,6,0,L|372:48,1,120,2|0,0:0|0:0,0:0:0:0:
280,108,12768,2,0,L|160:112,1,120,2|0,0:0|0:0,0:0:0:0:
220,160,13297,1,2,0:0:0:0:
404,272,13650,6,0,L|408:148,1,120,2|0,0:0|0:0,0:0:0:0:
200,56,14533,2,0,L|136:60,2,60,0|2|0,0:0|2:0|0:0,0:0:0:0:
260,156,15062,6,0,L|136:152,1,120,2|0,0:0|0:0,0:0:0:0:
284,264,15768,2,0,L|348:260,2,60,0|2|0,0:0|0:0|0:0,0:0:0:0:
104,328,16474,6,0,P|88:268|100:200,1,120,2|0,0:0|0:0,0:0:0:0:
240,260,17180,2,0,L|364:264,1,120,0|2,0:0|0:0,0:0:0:0:
180,172,17886,6,0,L|176:96,1,60,0|2,0:0|0:0,0:0:0:0:
336,52,18592,1,0,0:0:0:0:
180,52,18944,1,0,0:0:0:0:
348,120,19297,6,0,L|356:240,1,120,2|0,0:0|0:0,0:0:0:0:
292,240,19827,1,2,0:0:0:0:
136,324,20180,2,0,L|72:328,2,60,0|2|0,0:0|0:0|0:0,0:0:0:0:
216,296,20709,6,0,L|340:300,1,120,2|0,0:0|0:0,0:0:0:0:
184,152,21415,2,0,L|168:212,2,60,2|0|0,0:0|0:0|0:0,0:0:0:0:
364,40,22121,6,0,L|368:164,1,120,2|0,0:0|0:0,0:0:0:0:
208,240,22827,2,0,L|140:236,2,60,2|0|2,0:0|0:0|0:0,0:0:0:0:
392,332,23533,6,0,L|272:336,1,120,2|0,0:0|0:0,0:0:0:0:
104,300,24239,2,0,L|96:176,1,120,2|0,0:0|0:0,0:0:0:0:
264,204,24944,6,0,L|384:208,2,120,2|0|0,0:0|0:0|0:0,0:0:0:0:
200,240,25826,1,0,0:0:0:0:
196,168,26003,1,2,0:0:0:0:
380,200,26356,6,0,P|396:144|380:80,1,120,2|0,0:0|0:0,0:0:0:0:
240,164,27062,1,2,0:0:0:0:
400,80,27415,1,0,0:0:0:0:
424,116,27592,1,0,0:0:0:0:
400,148,27768,6,0,L|280:152,2,120,2|0|0,0:0|0:0|0:0,0:0:0:0:
228,156,28827,1,0,0:0:0:0:
408,312,29180,6,0,L|412:244,1,60,2|0,0:0|0:0,0:0:0:0:
268,192,29709,1,2,0:0:0:0:
424,196,30062,1,0,0:0:0:0:
253,286,30415,1,0,0:0:0:0:
193,284,30592,6,0,P|176:283|131:190,1,120,0|0,3:0|0:0,0:0:0:0:
174,204,31121,1,0,3:0:0:0:
328,144,31474,1,0,0:0:0:0:
280,140,31650,1,8,2:0:0:0:
96,168,32003,6,0,L|92:40,1,120,0|2,3:0|0:0,0:0:0:0:
180,104,32533,2,0,L|304:108,1,120,0|0,3:0|0:0,0:0:0:0:
240,148,33062,1,8,0:0:0:0:
60,280,33415,6,0,L|240:284,2,180,2|0|8,3:2|3:0|0:0,0:0:0:0:
240,64,34827,6,0,P|304:88|332:192,1,180,0|8,3:0|0:0,0:0:0:0:
156,216,35709,2,0,L|92:212,1,60,0|8,3:0|0:0,0:0:0:0:
276,152,36239,6,0,L|284:272,1,120,0|0,3:0|0:0,0:0:0:0:
216,272,36768,1,0,3:0:0:0:
60,224,37121,1,0,0:0:0:0:
56,172,37297,1,8,0:0:0:0:
236,72,37650,6,0,L|356:76,1,120,0|2,3:0|0:0,0:0:0:0:
316,88,38180,1,0,3:0:0:0:
160,220,38533,2,0,L|84:224,2,60,0|8|0,0:0|0:0|0:0,0:0:0:0:
240,280,39062,6,0,P|260:208|248:160,1,120,0|0,3:0|0:0,0:0:0:0:
156,184,39592,2,0,P|112:160|160:60,1,180,0|8,3:2|0:0,0:0:0:0:
332,156,40474,6,0,L|392:160,2,60,0|2|0,3:0|0:0|0:0,0:0:0:0:
184,64,41180,2,0,L|120:68,2,60,0|2|8,0:0|0:0|0:0,0:0:0:0:
364,176,41886,6,0,L|244:172,1,120,0|2,3:0|0:0,0:0:0:0:
184,168,42415,1,0,3:0:0:0:
328,272,42768,2,0,L|332:332,1,60,0|8,0:0|0:0,0:0:0:0:
152,328,43297,6,0,L|148:208,1,120,0|0,3:0|0:0,0:0:0:0:
224,172,43827,2,0,L|348:176,1,120,0|0,3:0|0:0,0:0:0:0:
280,136,44356,1,8,0:0:0:0:
124,44,44709,6,0,L|120:172,1,120,0|0,3:0|0:0,0:0:0:0:
188,164,45239,1,2,0:0:0:0:
344,284,45592,2,0,L|348:216,1,60,0|8,0:0|0:0,0:0:0:0:
168,160,46121,6,0,L|288:156,1,120,0|2,3:0|0:0,0:0:0:0:
368,248,46650,2,0,L|372:120,1,120,2|0,0:0|0:0,0:0:0:0:
168,184,47533,6,0,L|48:188,2,120,0|2|2,3:0|0:0|0:0,0:0:0:0:
336,172,48592,1,8,0:0:0:0:
156,216,48944,6,0,L|148:96,1,120,2|2,3:2|0:0,0:0:0:0:
208,96,49474,1,0,0:0:0:0:
268,96,49650,1,2,0:0:0:0:
400,96,50003,1,8,0:0:0:0:
208,180,50356,6,0,P|128:220|108:304,2,180,2|2|8,0:0|0:0|0:0,0:0:0:0:
400,276,51768,6,0,P|472:208|396:108,1,240,2|0,0:0|3:0,0:0:0:0:
148,40,53180,6,0,L|140:160,1,120,4|8,0:0|0:0,0:0:0:0:
300,156,53886,2,0,L|308:276,1,120,4|8,0:0|0:0,0:0:0:0:
128,332,54592,6,0,L|248:336,2,120,4|8|2,0:0|0:0|0:0,0:0:0:0:
284,240,55650,2,0,L|348:236,1,60,8|0,0:0|3:0,0:0:0:0:
264,180,56003,6,0,L|140:176,1,120,2|8,3:2|0:0,0:0:0:0:
300,72,56709,2,0,L|420:68,1,120,2|8,3:2|0:0,0:0:0:0:
240,80,57415,6,0,L|224:140,2,60,0|2|8,3:0|0:0|0:0,0:0:0:0:
328,48,57944,2,0,L|332:172,1,120,2|2,0:0|0:0,0:0:0:0:
272,172,58474,1,8,0:0:0:0:
92,284,58827,6,0,L|220:288,1,120,4|8,0:0|0:0,0:0:0:0:
368,336,59533,2,0,L|376:216,1,120,4|8,0:0|0:0,0:0:0:0:
192,120,60239,6,0,L|312:116,2,120,2|8|2,0:0|0:0|0:0,0:0:0:0:
368,112,61297,1,8,0:0:0:0:
176,52,61650,6,0,L|168:188,1,132.00000402832,4|8,0:0|0:0,0:0:0:0:
312,116,62356,1,8,0:0:0:0:
168,196,62709,1,8,0:0:0:0:
356,312,63062,6,0,L|488:308,2,132.00000402832,12|8|8,0:0|0:0|0:0,0:0:0:0:
220,308,64121,1,8,0:0:0:0:
405,232,64474,2,0,L|413:100,1,132.00000402832,4|0,0:0|0:0,0:0:0:0:
266,51,65180,2,0,L|198:55,2,66.0000020141602,2|0|0,3:2|3:0|1:0,1:1:0:0:
444,180,65886,6,0,L|312:176,1,132.00000402832,4|8,0:0|0:0,0:0:0:0:
272,192,66415,1,0,3:0:0:0:
260,252,66592,1,8,0:0:0:0:
420,348,66944,1,8,0:0:0:0:
232,344,67297,6,0,L|224:208,1,132.00000402832,10|8,0:0|0:0,0:0:0:0:
288,212,67827,1,0,3:0:0:0:
352,212,68003,1,10,0:0:0:0:
192,216,68356,1,8,0:0:0:0:
380,48,68709,6,0,L|388:180,1,132.00000402832,4|8,0:0|0:0,0:0:0:0:
228,252,69415,2,0,L|160:248,2,66.0000020141602,8|2|8,0:0|0:0|0:0,0:0:0:0:
416,104,70121,6,0,L|280:108,1,132.00000402832,0|8,3:0|0:0,0:0:0:0:
224,112,70650,1,2,3:2:0:0:
164,112,70827,1,0,0:0:0:0:
312,224,71180,1,8,0:0:0:0:
120,300,71533,6,0,L|112:164,1,132.00000402832,4|8,0:0|2:0,0:0:0:0:
176,168,72062,1,2,0:0:0:0:
240,168,72239,1,0,0:0:0:0:
80,64,72592,1,8,0:0:0:0:
268,48,72944,6,0,L|404:52,1,132.00000402832,2|8,3:2|0:0,0:0:0:0:
244,180,73650,2,0,L|168:184,2,66.0000020141602,2|0|8,3:2|3:0|0:0,0:0:0:0:
432,272,74356,6,0,L|436:140,1,132.00000402832,0|4,3:0|0:0,0:0:0:0:
264,64,75062,2,0,L|128:68,1,132.00000402832,0|4,3:0|0:0,0:0:0:0:
324,188,75768,6,0,P|340:260|324:320,1,132.00000402832,4|4,0:0|0:0,0:0:0:0:
180,248,76474,1,0,1:0:0:0:
326,315,76826,1,8,0:0:0:0:
136,340,77180,6,0,L|132:200,1,132.00000402832,4|8,0:0|0:0,0:0:0:0:
296,88,77886,2,0,L|368:92,2,66.0000020141602,2|2|8,3:2|0:0|0:0,0:0:0:0:
112,40,78592,6,0,L|104:172,1,132.00000402832,0|8,3:0|0:0,0:0:0:0:
168,176,79121,1,0,3:0:0:0:
232,176,79297,1,0,3:0:0:0:
84,256,79650,1,8,0:0:0:0:
276,324,80003,6,0,L|408:320,1,132.00000402832,0|8,3:0|0:0,0:0:0:0:
340,284,80533,1,2,0:0:0:0:
272,276,80709,1,0,0:0:0:0:
128,256,81062,1,12,0:0:0:0:
320,52,81415,5,0,3:0:0:0:
176,104,81768,1,8,0:0:0:0:
152,160,81944,1,2,0:0:0:0:
176,204,82120,1,8,0:0:0:0:
320,52,82473,1,8,0:0:0:0:
144,304,82827,5,4,0:0:0:0:
256,192,83180,12,0,88121,0:0:0:0:
