osu file format v14

[General]
AudioFilename: audio.mp3
AudioLeadIn: 0
PreviewTime: 65092
Countdown: 0
SampleSet: Soft
StackLeniency: 0.7
Mode: 2
LetterboxInBreaks: 0
WidescreenStoryboard: 1

[Editor]
Bookmarks: 41886
DistanceSpacing: 1.2
BeatDivisor: 4
GridSize: 4
TimelineZoom: 1.7

[Metadata]
Title:Kimagure Romantic (TV Size)
TitleUnicode:気まぐれロマンティック (TV Size)
Artist:Takagi-san (CV: Takahashi Rie)
ArtistUnicode:高木さん(CV:高橋李依)
Creator:Xetopia
Version:Collab Salad
Source:からかい上手の高木さん
Tags:AJamez Spectator Karakai Jouzu no Takagi san ending ed いきものがかり ikimono gakari
BeatmapID:1647769
BeatmapSetID:784563

[Difficulty]
HPDrainRate:4
CircleSize:3
OverallDifficulty:7
ApproachRate:7
SliderMultiplier:1.6
SliderTickRate:2

[Events]
//Background and Video events
0,0,"takagi.jpg",0,0
//Break Periods
//Storyboard Layer 0 (Background)
//Storyboard Layer 1 (Fail)
//Storyboard Layer 2 (Pass)
//Storyboard Layer 3 (Foreground)
//Storyboard Sound Samples

[TimingPoints]
945,352.941176470588,4,2,2,70,1,0
5356,-100,4,2,2,60,0,0
6592,-100,4,2,2,50,0,0
7474,-100,4,2,2,45,0,0
8003,-100,4,2,2,40,0,0
10827,-100,4,2,2,45,0,0
12239,-100,4,2,2,48,0,0
13650,-100,4,2,2,45,0,0
53180,-100,4,2,2,50,0,0
61297,-83.3333333333333,4,2,2,55,0,0
65533,-83.3333333333333,4,2,2,40,0,0
65886,-90.9090909090909,4,2,2,70,0,1
82827,-90.9090909090909,4,2,2,60,0,0
88121,-90.9090909090909,4,2,2,5,0,0

[Colours]
Combo1 : 255,165,121
Combo2 : 255,0,0
Combo3 : 255,128,0
Combo4 : 255,0,128
Combo5 : 206,0,5

[HitObjects]
176,300,944,6,0,P|121:268|138:178,1,160,4|2,0:0|1:2,0:0:0:0:
275,134,1650,1,0,3:0:0:0:
133,179,2003,1,2,1:2:0:0:
303,157,2356,2,0,P|369:145|473:155,1,160,0|2,3:0|1:2,0:0:0:0:
305,329,3062,1,2,1:2:0:0:
226,313,3239,1,0,0:0:0:0:
147,297,3415,1,0,1:0:0:0:
413,272,3768,6,0,P|446:212|398:142,1,160,4|2,0:0|1:2,0:0:0:0:
214,175,4474,2,0,P|181:115|229:45,1,160,2|0,1:2|1:0,0:0:0:0:
421,212,5180,6,0,P|333:201|268:233,1,160,4|0,0:0|3:0,0:0:0:0:
168,271,5709,2,0,P|175:204|270:138,1,160,2|0,3:2|3:0,0:0:0:0:
341,142,6239,1,0,3:0:0:0:
43,143,6592,5,4,0:0:0:0:
192,224,6944,1,8,0:3:0:0:
208,156,7121,1,0,3:3:0:0:
67,142,7474,2,0,L|56:62,1,80,0|2,0:0|0:0,0:0:0:0:
220,333,8003,6,0,P|272:303|241:219,1,160,2|0,0:0|0:0,0:0:0:0:
155,218,8533,2,0,P|173:132|298:56,1,240,0|2,0:0|0:0,0:0:0:0:
139,277,9415,2,0,P|152:217|233:163,1,160,2|0,0:0|0:0,0:0:0:0:
321,210,9944,2,0,P|258:192|168:27,1,240,0|2,0:0|0:0,0:0:0:0:
438,293,10827,6,0,P|468:248|404:168,1,160,2|2,0:0|0:0,0:0:0:0:
329,166,11356,1,0,0:0:0:0:
171,141,11709,2,0,L|158:52,1,80,0|2,0:0|0:0,0:0:0:0:
448,60,12239,5,2,0:0:0:0:
241,209,12768,2,0,P|201:165|265:81,1,160,2|0,0:0|0:0,0:0:0:0:
349,86,13297,2,0,L|451:125,1,80,2|0,0:0|0:0,0:0:0:0:
254,226,13650,6,0,P|177:240|151:310,1,160,2|0,0:0|0:0,0:0:0:0:
260,337,14180,2,0,P|328:305|348:205,1,160,0|0,0:0|0:0,0:0:0:0:
255,197,14709,2,0,L|245:98,1,80,2|0,2:0|0:0,0:0:0:0:
358,108,15062,6,0,L|378:274,1,160,2|0,0:0|0:0,0:0:0:0:
201,228,15768,1,0,0:0:0:0:
109,225,15944,2,0,P|60:186|60:92,1,160,2|0,0:0|0:0,0:0:0:0:
230,154,16474,6,0,L|417:144,1,160,2|0,0:0|0:0,0:0:0:0:
295,236,17003,2,0,P|258:188|322:124,1,160,2|0,0:0|0:0,0:0:0:0:
411,122,17533,1,2,0:0:0:0:
314,122,17709,1,0,0:0:0:0:
217,125,17886,6,0,L|201:28,1,80,0|2,0:0|0:0,0:0:0:0:
393,188,18415,1,2,0:0:0:0:
160,189,18944,1,2,0:0:0:0:
328,244,19297,6,0,L|80:212,2,240,2|2|2,0:0|0:0|0:0,0:0:0:0:
176,248,20709,2,0,P|96:208|52:64,2,240,2|0|0,0:0|0:0|0:0,0:0:0:0:
455,94,22121,6,0,L|207:62,1,240,2|0,0:0|0:0,0:0:0:0:
122,125,22827,2,0,P|116:173|142:218,1,80,2|0,0:0|0:0,0:0:0:0:
228,244,23180,1,2,0:0:0:0:
404,320,23533,2,0,P|399:254|320:199,1,160,2|0,0:0|0:0,0:0:0:0:
239,197,24062,1,0,0:0:0:0:
74,238,24415,1,2,0:0:0:0:
156,228,24592,1,0,0:0:0:0:
353,314,24944,6,0,P|392:269|333:201,1,160,2|0,0:0|0:0,0:0:0:0:
177,173,25650,2,0,L|179:92,1,80,0|0,0:0|0:0,0:0:0:0:
292,78,26003,1,2,0:0:0:0:
28,237,26356,6,0,L|189:223,1,160,2|0,0:0|0:0,0:0:0:0:
373,133,27062,2,0,L|212:119,1,160,2|0,0:0|0:0,0:0:0:0:
370,313,27768,2,0,P|420:275|351:217,1,160,2|0,0:0|0:0,0:0:0:0:
299,170,28297,1,2,0:0:0:0:
228,131,28474,2,0,L|221:37,1,80,0|0,0:0|0:0,0:0:0:0:
311,65,28827,2,0,L|411:62,1,80,0|0,0:0|0:0,0:0:0:0:
215,174,29180,5,2,0:0:0:0:
151,129,29356,1,0,0:0:0:0:
279,110,29709,1,2,0:0:0:0:
150,87,30062,1,0,0:0:0:0:
148,42,30238,1,2,0:0:0:0:
444,301,30592,6,0,P|435:236|358:183,1,160,0|0,3:0|0:0,0:0:0:0:
263,182,31121,2,0,L|247:7,1,160,0|0,3:0|0:0,0:0:0:0:
353,68,31650,1,8,2:0:0:0:
168,296,32003,2,0,L|328:272,1,160,0|2,3:0|0:0,0:0:0:0:
212,206,32533,2,0,P|151:178|126:86,1,160,0|0,3:0|0:0,0:0:0:0:
220,64,33062,1,8,0:0:0:0:
391,123,33415,6,0,L|133:90,2,240,2|0|8,3:2|3:0|0:0,0:0:0:0:
229,274,35003,1,0,0:0:0:0:
391,264,35356,2,0,P|441:233|380:179,1,160,8|0,0:0|3:0,0:0:0:0:
299,182,35886,1,8,0:0:0:0:
37,289,36239,6,0,P|46:224|123:171,1,160,0|0,3:0|0:0,0:0:0:0:
218,170,36768,2,0,L|234:-5,1,160,0|0,3:0|0:0,0:0:0:0:
128,56,37297,1,8,0:0:0:0:
293,292,37650,2,0,L|133:268,1,160,0|2,3:0|0:0,0:0:0:0:
249,202,38180,2,0,P|310:174|335:82,1,160,0|0,3:0|0:0,0:0:0:0:
241,60,38709,1,8,0:0:0:0:
419,270,39062,6,0,P|337:242|293:85,1,240,0|0,3:0|3:2,0:0:0:0:
384,147,39768,2,0,L|388:66,1,80,2|0,0:0|0:0,0:0:0:0:
312,65,40121,1,8,0:0:0:0:
41,249,40474,1,0,3:0:0:0:
29,208,40650,2,0,P|46:142|138:92,1,160,2|0,0:0|3:0,0:0:0:0:
217,95,41180,1,0,0:0:0:0:
123,172,41356,2,0,P|61:121|106:52,1,160,2|0,0:0|0:0,0:0:0:0:
253,39,41886,6,0,P|333:55|394:108,1,160,0|2,3:0|0:0,0:0:0:0:
283,142,42415,2,0,P|236:216|284:250,1,160,0|0,3:0|0:0,0:0:0:0:
379,333,42944,2,0,L|383:249,1,80,8|0,0:0|0:0,0:0:0:0:
203,189,43297,6,0,L|35:193,1,160,0|0,3:0|0:0,0:0:0:0:
120,108,43827,2,0,L|284:112,1,160,0|0,3:0|0:0,0:0:0:0:
352,116,44356,1,8,0:0:0:0:
80,36,44709,6,0,L|68:196,1,160,0|0,3:0|0:0,0:0:0:0:
152,200,45239,1,2,0:0:0:0:
332,311,45592,2,0,L|352:224,1,80,0|8,0:0|0:0,0:0:0:0:
80,332,46121,6,0,P|52:276|96:192,1,160,0|2,3:0|0:0,0:0:0:0:
204,156,46650,2,0,L|372:160,2,160,2|0|0,0:0|0:0|0:0,0:0:0:0:
94,167,47533,6,0,P|59:265|91:295,1,160,0|2,3:0|0:0,0:0:0:0:
250,329,48239,1,2,0:0:0:0:
32,304,48592,1,8,0:0:0:0:
324,344,48944,6,0,L|488:336,1,160,2|2,3:2|0:0,0:0:0:0:
377,251,49474,2,0,L|286:254,2,80,0|2|0,0:0|0:0|3:0,0:0:0:0:
488,224,50003,2,0,L|492:144,1,80,8|0,0:0|0:0,0:0:0:0:
325,75,50356,6,0,L|165:79,1,160,2|0,0:0|0:0,0:0:0:0:
260,140,50886,2,0,P|292:184|248:272,1,160,2|0,0:0|3:0,0:0:0:0:
160,344,51415,2,0,L|156:264,1,80,8|0,0:0|0:0,0:0:0:0:
328,272,51768,5,2,0:0:0:0:
120,257,52474,1,0,3:0:0:0:
84,239,52562,1,0,3:0:0:0:
68,203,52650,1,0,3:0:0:0:
83,161,52739,1,0,3:0:0:0:
121,144,52826,1,0,3:0:0:0:
418,64,53180,6,0,P|465:131|415:181,1,160,4|8,0:0|0:0,0:0:0:0:
340,228,53709,1,0,3:0:0:0:
172,320,53886,2,0,L|336:324,1,160,4|8,0:0|0:0,0:0:0:0:
336,232,54415,1,0,3:0:0:0:
166,197,54592,6,0,P|134:145|166:49,1,160,4|8,0:0|0:0,0:0:0:0:
340,128,55297,1,2,0:0:0:0:
164,312,55650,2,0,L|152:232,1,80,8|0,0:0|3:0,0:0:0:0:
224,152,56003,6,0,L|388:160,1,160,2|8,3:2|0:0,0:0:0:0:
184,40,56709,2,0,L|24:44,1,160,2|8,3:2|0:0,0:0:0:0:
304,192,57415,2,0,L|328:272,2,80,0|2|8,3:0|0:0|0:0,0:0:0:0:
208,120,57944,2,0,P|272:104|372:124,1,160,2|2,0:0|0:0,0:0:0:0:
272,212,58474,2,0,L|268:292,1,80,8|0,0:0|3:0,0:0:0:0:
440,349,58827,6,0,P|480:285|432:217,1,160,4|8,0:0|0:0,0:0:0:0:
352,192,59356,1,0,3:0:0:0:
176,285,59533,2,0,L|168:117,1,160,4|8,0:0|0:0,0:0:0:0:
256,122,60062,1,0,0:0:0:0:
429,60,60239,6,0,L|269:56,2,160,2|8|2,0:0|0:0|0:0,0:0:0:0:
227,240,61297,1,8,0:0:0:0:
476,296,61650,6,0,P|490:254|399:151,1,191.999994140625,4|8,0:0|0:0,0:0:0:0:
247,250,62356,1,8,0:0:0:0:
405,151,62709,1,8,0:0:0:0:
142,68,63062,6,0,P|110:160|177:208,1,191.999994140625,12|8,0:0|0:0,0:0:0:0:
281,322,63592,2,0,L|289:227,1,95.9999970703126,2|8,0:0|0:0,0:0:0:0:
178,202,63944,2,0,L|174:98,1,95.9999970703126,0|8,0:0|0:0,0:0:0:0:
456,64,64474,5,4,0:0:0:0:
152,64,65180,1,2,3:2:0:0:
127,104,65268,1,0,0:0:0:0:
120,151,65356,1,0,3:0:0:0:
131,198,65444,1,0,3:0:0:0:
160,236,65532,1,0,1:0:0:0:
444,332,65886,6,0,P|439:266|348:216,1,176.000005371094,4|8,0:0|0:0,0:0:0:0:
240,288,66415,1,0,3:0:0:0:
211,206,66591,1,8,0:0:0:0:
238,124,66767,1,0,3:0:0:0:
310,75,66944,1,8,0:0:0:0:
44,44,67297,6,0,L|36:220,1,176.000005371094,10|8,0:0|0:0,0:0:0:0:
148,280,67827,2,0,L|240:276,1,88.000002685547,0|10,3:0|0:0,0:0:0:0:
144,180,68180,2,0,L|56:176,1,88.000002685547,0|8,3:0|0:0,0:0:0:0:
360,40,68709,6,0,P|404:96|356:188,1,176.000005371094,4|8,0:0|0:0,0:0:0:0:
180,96,69415,2,0,L|176:184,1,88.000002685547,8|2,0:0|0:0,0:0:0:0:
288,204,69768,2,0,L|292:300,1,88.000002685547,8|2,0:0|0:0,0:0:0:0:
156,324,70121,6,0,L|332:328,1,176.000005371094,0|8,3:0|0:0,0:0:0:0:
424,300,70650,1,2,3:2:0:0:
471,228,70826,1,0,0:0:0:0:
452,144,71002,1,0,3:0:0:0:
378,100,71179,1,8,0:0:0:0:
76,40,71533,6,0,L|68:224,1,176.000005371094,4|8,0:0|2:0,0:0:0:0:
156,224,72062,1,2,0:0:0:0:
244,316,72239,2,0,L|68:320,1,176.000005371094,0|8,0:0|0:0,0:0:0:0:
360,100,72944,6,0,P|400:160|352:256,1,176.000005371094,2|8,3:2|0:0,0:0:0:0:
264,276,73474,2,0,L|172:272,2,88.000002685547,0|2|0,0:0|3:2|3:0,0:0:0:0:
368,280,74003,1,8,0:0:0:0:
136,232,74356,6,0,L|128:56,1,176.000005371094,0|4,3:0|0:0,0:0:0:0:
312,336,75062,2,0,P|388:292|392:200,1,176.000005371094,0|4,3:0|0:0,0:0:0:0:
112,40,75768,6,0,P|76:92|132:176,1,176.000005371094,4|4,0:0|0:0,0:0:0:0:
328,188,76474,2,0,L|384:256,2,88.000002685547,0|0|8,1:0|3:0|0:0,0:0:0:0:
64,40,77180,6,0,P|69:106|160:156,1,176.000005371094,4|8,0:0|0:0,0:0:0:0:
276,116,77709,2,0,L|284:204,1,88.000002685547,0|2,0:0|3:2,0:0:0:0:
176,236,78062,2,0,L|172:324,1,88.000002685547,2|8,0:0|0:0,0:0:0:0:
452,320,78592,6,0,P|492:276|452:176,1,176.000005371094,0|8,3:0|0:0,0:0:0:0:
340,224,79121,1,0,3:0:0:0:
289,156,79297,1,0,3:0:0:0:
313,75,79473,1,0,0:0:0:0:
393,47,79650,1,8,0:0:0:0:
128,48,80003,6,0,P|60:72|20:164,1,176.000005371094,0|8,3:0|0:0,0:0:0:0:
116,164,80533,1,2,0:0:0:0:
200,184,80709,2,0,L|216:280,1,88.000002685547,0|0,0:0|3:0,0:0:0:0:
104,256,81062,2,0,L|96:352,1,88.000002685547,12|0,0:0|0:0,0:0:0:0:
270,332,81415,6,0,P|318:280|262:197,1,176.000005371094,0|8,3:0|0:0,0:0:0:0:
180,183,81944,1,2,0:0:0:0:
93,149,82120,1,8,0:0:0:0:
91,64,82296,1,0,0:0:0:0:
179,33,82473,1,8,0:0:0:0:
479,35,82827,5,4,0:0:0:0:
256,192,83180,12,0,88121,0:0:0:0:
