osu file format v14

[General]
AudioFilename: audio.mp3
AudioLeadIn: 0
PreviewTime: 52176
Countdown: 0
SampleSet: Soft
StackLeniency: 0.7
Mode: 3
LetterboxInBreaks: 0
SpecialStyle: 0
WidescreenStoryboard: 1

[Editor]
Bookmarks: 9873,30152
DistanceSpacing: 1.5
BeatDivisor: 2
GridSize: 4
TimelineZoom: 1.5

[Metadata]
Title:Chiisana Koi no Uta (TV Size)
TitleUnicode:小さな恋のうた (TV Size)
Artist:Takagi-san (CV: Takahashi Rie)
ArtistUnicode:高木さん(CV:高橋李依)
Creator:[Seo-a]
Version:Seulgi's Intermediate
Source:からかい上手の高木さん
Tags:Nicknem_ Seulgi Muse Dash jpop j-pop pop anime japanese 西片 にしかた nishikata karakai jouzu no Teasing master little love song cover MONGOL800 ending ed 5 TOHO animation RECORDS THCA-60210 高橋李依 Takahashi Rie cut short ver version
BeatmapID:4069365
BeatmapSetID:1937220

[Difficulty]
HPDrainRate:7
CircleSize:4
OverallDifficulty:7
ApproachRate:5
SliderMultiplier:1.4
SliderTickRate:1

[Events]
//Background and Video events
Video,400,"takagi video.mp4"
0,0,"uta.jpg",0,0
//Break Periods
//Storyboard Layer 0 (Background)
//Storyboard Layer 1 (Fail)
//Storyboard Layer 2 (Pass)
//Storyboard Layer 3 (Foreground)
//Storyboard Layer 4 (Overlay)
//Storyboard Sound Samples

[TimingPoints]
1250,292.682926829268,4,2,1,40,1,0
52176,-100,4,2,1,40,0,1
70615,-100,4,2,1,40,0,0

[HitObjects]
320,192,664,128,0,957:0:0:0:0:
192,192,957,128,0,1250:0:0:0:0:
64,192,1250,128,0,1542:0:0:0:0:
448,192,1542,128,0,1835:0:0:0:0:
192,192,1835,128,0,2128:0:0:0:0:
320,192,2128,128,0,2420:0:0:0:0:
64,192,2420,128,0,2713:0:0:0:0:
192,192,3006,128,0,3298:0:0:0:0:
320,192,3298,128,0,3591:0:0:0:0:
448,192,3591,128,0,3884:0:0:0:0:
64,192,3884,128,0,4176:0:0:0:0:
320,192,4176,128,0,4469:0:0:0:0:
192,192,4469,128,0,4762:0:0:0:0:
448,192,4762,128,0,5054:0:0:0:0:
64,192,5347,128,0,5640:0:0:0:0:
192,192,5640,128,0,5932:0:0:0:0:
448,192,5932,128,0,6225:0:0:0:0:
192,192,6225,128,0,6518:0:0:0:0:
320,192,6518,128,0,6810:0:0:0:0:
64,192,6810,128,0,7103:0:0:0:0:
192,192,7103,128,0,7396:0:0:0:0:
320,192,7689,128,0,7981:0:0:0:0:
448,192,7981,128,0,8274:0:0:0:0:
64,192,8274,128,0,8567:0:0:0:0:
192,192,8567,1,0,0:0:0:0:
320,192,8713,128,0,9006:0:0:0:0:
448,192,9006,128,0,9298:0:0:0:0:
64,192,9298,128,0,9737:0:0:0:0:
320,192,10030,128,0,10323:0:0:0:0:
192,192,10323,128,0,10615:0:0:0:0:
64,192,10615,1,0,0:0:0:0:
448,192,10615,128,0,10908:0:0:0:0:
320,192,10908,128,0,11201:0:0:0:0:
64,192,11201,128,0,11493:0:0:0:0:
192,192,11493,128,0,11786:0:0:0:0:
448,192,11786,128,0,12079:0:0:0:0:
192,192,12371,128,0,12664:0:0:0:0:
64,192,12664,128,0,12957:0:0:0:0:
448,192,12957,128,0,13249:0:0:0:0:
64,192,13249,128,0,13542:0:0:0:0:
320,192,13542,128,0,13835:0:0:0:0:
192,192,13835,128,0,14128:0:0:0:0:
448,192,14128,128,0,14420:0:0:0:0:
64,192,14713,128,0,15006:0:0:0:0:
448,192,15006,128,0,15298:0:0:0:0:
192,192,15298,128,0,15591:0:0:0:0:
64,192,15591,128,0,15884:0:0:0:0:
448,192,15884,128,0,16176:0:0:0:0:
320,192,16176,128,0,16469:0:0:0:0:
192,192,16469,128,0,16762:0:0:0:0:
64,192,17054,128,0,17347:0:0:0:0:
192,192,17347,128,0,17640:0:0:0:0:
448,192,17640,128,0,17932:0:0:0:0:
320,192,17932,1,0,0:0:0:0:
192,192,18079,128,0,18371:0:0:0:0:
64,192,18371,128,0,18664:0:0:0:0:
448,192,18664,128,0,19396:0:0:0:0:
64,192,19396,1,0,0:0:0:0:
192,192,19542,1,0,0:0:0:0:
320,192,19689,1,0,0:0:0:0:
448,192,19689,1,0,0:0:0:0:
64,192,19981,1,0,0:0:0:0:
448,192,19981,128,0,21152:0:0:0:0:
64,192,20567,128,0,20859:0:0:0:0:
192,192,20859,128,0,21152:0:0:0:0:
64,192,21152,1,0,0:0:0:0:
320,192,21152,128,0,21445:0:0:0:0:
448,192,21445,128,0,21737:0:0:0:0:
64,192,21737,128,0,22030:0:0:0:0:
320,192,21737,1,0,0:0:0:0:
192,192,22030,128,0,22323:0:0:0:0:
320,192,22323,128,0,22615:0:0:0:0:
64,192,22323,1,0,0:0:0:0:
448,192,22908,128,0,23201:0:0:0:0:
192,192,22908,1,0,0:0:0:0:
320,192,23201,128,0,23493:0:0:0:0:
192,192,23493,128,0,23786:0:0:0:0:
448,192,23493,1,0,0:0:0:0:
64,192,23786,128,0,24079:0:0:0:0:
448,192,24079,128,0,24371:0:0:0:0:
192,192,24079,1,0,0:0:0:0:
320,192,24371,128,0,24664:0:0:0:0:
192,192,24664,128,0,24957:0:0:0:0:
448,192,24664,1,0,0:0:0:0:
64,192,25249,128,0,25542:0:0:0:0:
192,192,25249,1,0,0:0:0:0:
448,192,25542,128,0,25835:0:0:0:0:
64,192,25835,128,0,26128:0:0:0:0:
192,192,25835,1,0,0:0:0:0:
448,192,26128,128,0,26420:0:0:0:0:
192,192,26420,128,0,26713:0:0:0:0:
64,192,26420,1,0,0:0:0:0:
320,192,26713,128,0,27006:0:0:0:0:
64,192,27006,128,0,27298:0:0:0:0:
192,192,27006,1,0,0:0:0:0:
320,192,27591,128,0,27884:0:0:0:0:
448,192,27591,1,0,0:0:0:0:
192,192,27884,128,0,28176:0:0:0:0:
64,192,28176,128,0,28469:0:0:0:0:
448,192,28176,1,0,0:0:0:0:
320,192,28469,1,0,0:0:0:0:
192,192,28615,128,0,28908:0:0:0:0:
320,192,28908,128,0,29201:0:0:0:0:
448,192,29201,128,0,29640:0:0:0:0:
64,192,29347,1,0,0:0:0:0:
64,192,29932,128,0,30225:0:0:0:0:
448,192,29932,1,0,0:0:0:0:
320,192,30225,128,0,30518:0:0:0:0:
448,192,30518,128,0,30810:0:0:0:0:
64,192,30518,1,0,0:0:0:0:
192,192,30810,128,0,31103:0:0:0:0:
64,192,31103,128,0,31396:0:0:0:0:
448,192,31103,1,0,0:0:0:0:
320,192,31396,128,0,31689:0:0:0:0:
64,192,31689,1,0,0:0:0:0:
448,192,31689,128,0,31981:0:0:0:0:
192,192,32274,128,0,32567:0:0:0:0:
320,192,32274,1,0,0:0:0:0:
64,192,32567,128,0,32859:0:0:0:0:
320,192,32859,128,0,33152:0:0:0:0:
192,192,32859,1,0,0:0:0:0:
448,192,33152,128,0,33445:0:0:0:0:
192,192,33445,128,0,33737:0:0:0:0:
320,192,33445,1,0,0:0:0:0:
64,192,33737,128,0,34030:0:0:0:0:
320,192,34030,128,0,34323:0:0:0:0:
192,192,34030,1,0,0:0:0:0:
448,192,34615,128,0,34908:0:0:0:0:
192,192,34615,1,0,0:0:0:0:
320,192,34908,128,0,35201:0:0:0:0:
192,192,35201,128,0,35493:0:0:0:0:
448,192,35201,1,0,0:0:0:0:
64,192,35493,128,0,35786:0:0:0:0:
448,192,35786,128,0,36079:0:0:0:0:
192,192,35786,1,0,0:0:0:0:
320,192,36079,128,0,36371:0:0:0:0:
192,192,36371,128,0,36664:0:0:0:0:
448,192,36371,1,0,0:0:0:0:
64,192,36957,128,0,37249:0:0:0:0:
448,192,36957,1,0,0:0:0:0:
192,192,37249,128,0,37542:0:0:0:0:
320,192,37542,128,0,37835:0:0:0:0:
64,192,37542,1,0,0:0:0:0:
448,192,37835,1,0,0:0:0:0:
192,192,37981,128,0,38274:0:0:0:0:
64,192,38274,128,0,38567:0:0:0:0:
448,192,38567,128,0,39298:0:0:0:0:
320,192,38567,1,0,0:0:0:0:
192,192,39006,1,0,0:0:0:0:
64,192,39298,128,0,39591:0:0:0:0:
320,192,39298,1,0,0:0:0:0:
448,192,39591,1,0,0:0:0:0:
320,192,39737,1,0,0:0:0:0:
192,192,39884,1,0,0:0:0:0:
64,192,39884,128,0,40176:0:0:0:0:
448,192,40176,1,0,0:0:0:0:
192,192,40469,128,0,40762:0:0:0:0:
448,192,40762,1,0,0:0:0:0:
320,192,41054,128,0,41347:0:0:0:0:
64,192,41347,1,0,0:0:0:0:
192,192,41640,128,0,41932:0:0:0:0:
448,192,41640,1,0,0:0:0:0:
64,192,41932,128,0,42225:0:0:0:0:
448,192,42225,128,0,42518:0:0:0:0:
64,192,42518,1,0,0:0:0:0:
320,192,42664,128,0,42957:0:0:0:0:
192,192,42957,128,0,43249:0:0:0:0:
64,192,43249,128,0,43689:0:0:0:0:
448,192,43689,1,0,0:0:0:0:
320,192,43981,128,0,44274:0:0:0:0:
64,192,43981,1,0,0:0:0:0:
448,192,44274,128,0,44567:0:0:0:0:
64,192,44567,128,0,44859:0:0:0:0:
192,192,44567,1,0,0:0:0:0:
320,192,44859,1,0,0:0:0:0:
448,192,45006,128,0,45298:0:0:0:0:
192,192,45298,128,0,45591:0:0:0:0:
64,192,45298,1,0,0:0:0:0:
320,192,45591,128,0,46030:0:0:0:0:
448,192,45591,1,0,0:0:0:0:
64,192,46030,1,0,0:0:0:0:
448,192,46323,128,0,46615:0:0:0:0:
192,192,46323,1,0,0:0:0:0:
64,192,46615,128,0,46908:0:0:0:0:
320,192,46908,128,0,47201:0:0:0:0:
448,192,46908,1,0,0:0:0:0:
64,192,47201,1,0,0:0:0:0:
192,192,47347,128,0,47640:0:0:0:0:
448,192,47347,1,0,0:0:0:0:
320,192,47640,128,0,47932:0:0:0:0:
64,192,47640,1,0,0:0:0:0:
448,192,47932,128,0,49835:0:0:0:0:
192,192,47932,1,0,0:0:0:0:
64,192,48371,1,0,0:0:0:0:
192,192,48664,1,0,0:0:0:0:
64,192,48957,1,0,0:0:0:0:
192,192,49249,1,0,0:0:0:0:
64,192,49542,1,0,0:0:0:0:
192,192,49835,128,0,50128:0:0:0:0:
320,192,50128,128,0,50420:0:0:0:0:
64,192,50420,128,0,51591:0:0:0:0:
448,192,50420,1,0,0:0:0:0:
320,192,50713,1,0,0:0:0:0:
448,192,51006,128,0,51298:0:0:0:0:
320,192,51298,128,0,51591:0:0:0:0:
192,192,51591,1,0,0:0:0:0:
448,192,51591,1,0,0:0:0:0:
448,192,52176,128,0,52469:0:0:0:0:
320,192,52469,128,0,52762:0:0:0:0:
64,192,52762,128,0,53054:0:0:0:0:
192,192,52762,128,0,53054:0:0:0:0:
448,192,53054,1,0,0:0:0:0:
192,192,53347,1,0,0:0:0:0:
64,192,53347,1,0,0:0:0:0:
320,192,53640,128,0,53932:0:0:0:0:
448,192,53932,128,0,54225:0:0:0:0:
192,192,53932,1,0,0:0:0:0:
64,192,54225,1,0,0:0:0:0:
192,192,54371,128,0,54664:0:0:0:0:
320,192,54664,128,0,55103:0:0:0:0:
448,192,55103,128,0,55396:0:0:0:0:
64,192,55103,1,0,0:0:0:0:
192,192,55396,1,0,0:0:0:0:
448,192,55689,1,0,0:0:0:0:
320,192,55689,1,0,0:0:0:0:
192,192,55981,128,0,56274:0:0:0:0:
448,192,56274,128,0,56567:0:0:0:0:
64,192,56274,1,0,0:0:0:0:
320,192,56567,1,0,0:0:0:0:
64,192,56713,128,0,57006:0:0:0:0:
192,192,56713,1,0,0:0:0:0:
448,192,57006,128,0,57298:0:0:0:0:
320,192,57006,1,0,0:0:0:0:
64,192,57298,128,0,57591:0:0:0:0:
192,192,57298,1,0,0:0:0:0:
448,192,57591,1,0,0:0:0:0:
320,192,57737,128,0,58030:0:0:0:0:
64,192,58030,1,0,0:0:0:0:
192,192,58030,1,0,0:0:0:0:
448,192,58323,128,0,58615:0:0:0:0:
64,192,58615,128,0,58908:0:0:0:0:
192,192,58615,1,0,0:0:0:0:
320,192,58908,1,0,0:0:0:0:
192,192,59201,128,0,59493:0:0:0:0:
448,192,59201,1,0,0:0:0:0:
320,192,59493,128,0,59786:0:0:0:0:
192,192,59786,1,0,0:0:0:0:
64,192,59786,128,0,60079:0:0:0:0:
448,192,60079,128,0,60371:0:0:0:0:
320,192,60079,1,0,0:0:0:0:
192,192,60371,128,0,60664:0:0:0:0:
64,192,60371,1,0,0:0:0:0:
448,192,60664,1,0,0:0:0:0:
320,192,60664,128,0,60957:0:0:0:0:
64,192,60957,1,0,0:0:0:0:
192,192,61103,1,0,0:0:0:0:
320,192,61249,1,0,0:0:0:0:
448,192,61249,1,0,0:0:0:0:
64,192,61542,128,0,61835:0:0:0:0:
192,192,61835,128,0,62128:0:0:0:0:
448,192,62128,128,0,62420:0:0:0:0:
320,192,62128,128,0,62420:0:0:0:0:
64,192,62420,1,0,0:0:0:0:
320,192,62713,1,0,0:0:0:0:
448,192,62713,1,0,0:0:0:0:
192,192,63006,128,0,63298:0:0:0:0:
64,192,63298,128,0,63591:0:0:0:0:
320,192,63298,1,0,0:0:0:0:
448,192,63591,1,0,0:0:0:0:
320,192,63737,128,0,64030:0:0:0:0:
192,192,64030,128,0,64469:0:0:0:0:
64,192,64469,128,0,64762:0:0:0:0:
448,192,64469,1,0,0:0:0:0:
320,192,64762,1,0,0:0:0:0:
192,192,65054,1,0,0:0:0:0:
64,192,65054,1,0,0:0:0:0:
320,192,65347,128,0,65640:0:0:0:0:
64,192,65640,128,0,65932:0:0:0:0:
448,192,65640,1,0,0:0:0:0:
192,192,65932,1,0,0:0:0:0:
448,192,66079,128,0,66371:0:0:0:0:
320,192,66079,1,0,0:0:0:0:
64,192,66371,128,0,66664:0:0:0:0:
192,192,66371,1,0,0:0:0:0:
448,192,66664,128,0,66957:0:0:0:0:
320,192,66664,1,0,0:0:0:0:
64,192,66957,1,0,0:0:0:0:
192,192,67103,128,0,67396:0:0:0:0:
448,192,67396,1,0,0:0:0:0:
320,192,67396,1,0,0:0:0:0:
64,192,67689,128,0,67981:0:0:0:0:
448,192,67981,128,0,68274:0:0:0:0:
320,192,67981,1,0,0:0:0:0:
192,192,68274,1,0,0:0:0:0:
320,192,68567,128,0,68859:0:0:0:0:
64,192,68567,1,0,0:0:0:0:
192,192,68859,128,0,69152:0:0:0:0:
448,192,69152,128,0,69445:0:0:0:0:
320,192,69152,1,0,0:0:0:0:
64,192,69445,128,0,69737:0:0:0:0:
192,192,69445,1,0,0:0:0:0:
320,192,69737,128,0,70030:0:0:0:0:
448,192,69737,1,0,0:0:0:0:
192,192,70030,128,0,70323:0:0:0:0:
64,192,70030,1,0,0:0:0:0:
448,192,70323,1,0,0:0:0:0:
320,192,70469,1,0,0:0:0:0:
192,192,70615,1,0,0:0:0:0:
64,192,70615,1,0,0:0:0:0:
320,192,70908,128,0,71201:0:0:0:0:
448,192,70908,1,0,0:0:0:0:
192,192,71201,128,0,71493:0:0:0:0:
64,192,71493,128,0,73249:0:0:0:0:
320,192,71493,1,0,0:0:0:0:
448,192,71786,1,0,0:0:0:0:
320,192,72079,1,0,0:0:0:0:
448,192,72371,1,0,0:0:0:0:
320,192,72664,1,0,0:0:0:0:
448,192,72957,1,0,0:0:0:0:
192,192,73249,128,0,73542:0:0:0:0:
320,192,73249,1,0,0:0:0:0:
448,192,73542,128,0,75006:0:0:0:0:
64,192,73542,1,0,0:0:0:0:
192,192,73835,1,0,0:0:0:0:
64,192,74128,1,0,0:0:0:0:
192,192,74420,1,0,0:0:0:0:
64,192,74713,1,0,0:0:0:0:
192,192,75006,1,0,0:0:0:0:
320,192,75152,1,0,0:0:0:0:
448,192,75298,1,0,0:0:0:0:
64,192,75298,1,0,0:0:0:0:
192,192,75591,128,0,75884:0:0:0:0:
448,192,75591,1,0,0:0:0:0:
64,192,75884,1,0,0:0:0:0:
320,192,75884,128,0,76176:0:0:0:0:
448,192,76176,128,0,77932:0:0:0:0:
192,192,76176,1,0,0:0:0:0:
64,192,76469,1,0,0:0:0:0:
192,192,76762,1,0,0:0:0:0:
64,192,77054,1,0,0:0:0:0:
192,192,77347,1,0,0:0:0:0:
64,192,77640,1,0,0:0:0:0:
320,192,77932,128,0,78225:0:0:0:0:
192,192,77932,1,0,0:0:0:0:
64,192,78225,128,0,79689:0:0:0:0:
448,192,78225,1,0,0:0:0:0:
320,192,78518,1,0,0:0:0:0:
448,192,78810,1,0,0:0:0:0:
320,192,79103,1,0,0:0:0:0:
448,192,79396,1,0,0:0:0:0:
320,192,79689,1,0,0:0:0:0:
192,192,79835,1,0,0:0:0:0:
64,192,79981,1,0,0:0:0:0:
448,192,79981,1,0,0:0:0:0:
192,192,80274,128,0,80567:0:0:0:0:
448,192,80274,1,0,0:0:0:0:
320,192,80567,128,0,80859:0:0:0:0:
64,192,80567,1,0,0:0:0:0:
448,192,80859,128,0,81445:0:0:0:0:
192,192,80859,1,0,0:0:0:0:
64,192,81152,1,0,0:0:0:0:
320,192,81445,128,0,82030:0:0:0:0:
192,192,81445,1,0,0:0:0:0:
64,192,81737,1,0,0:0:0:0:
192,192,82030,128,0,82615:0:0:0:0:
448,192,82030,1,0,0:0:0:0:
320,192,82323,1,0,0:0:0:0:
64,192,82615,128,0,82908:0:0:0:0:
448,192,82615,1,0,0:0:0:0:
320,192,82908,128,0,83201:0:0:0:0:
192,192,82908,1,0,0:0:0:0:
448,192,83201,128,0,83493:0:0:0:0:
64,192,83201,1,0,0:0:0:0:
320,192,83493,128,0,84079:0:0:0:0:
192,192,83493,1,0,0:0:0:0:
64,192,83786,1,0,0:0:0:0:
192,192,84079,128,0,84371:0:0:0:0:
448,192,84079,1,0,0:0:0:0:
64,192,84371,128,0,84957:0:0:0:0:
320,192,84371,1,0,0:0:0:0:
448,192,84664,1,0,0:0:0:0:
192,192,84957,1,0,0:0:0:0:
320,192,85103,1,0,0:0:0:0:
448,192,85249,128,0,85542:0:0:0:0:
192,192,85542,128,0,85835:0:0:0:0:
64,192,85542,1,0,0:0:0:0:
448,192,85835,128,0,86128:0:0:0:0:
64,192,86128,1,0,0:0:0:0:
192,192,86128,1,0,0:0:0:0:
64,192,86420,128,0,86713:0:0:0:0:
448,192,86420,1,0,0:0:0:0:
320,192,86713,1,0,0:0:0:0:
448,192,86713,1,0,0:0:0:0:
448,192,87298,1,0,0:0:0:0:
64,192,87298,1,0,0:0:0:0:
320,192,87445,1,0,0:0:0:0:
192,192,87591,1,0,0:0:0:0:
64,192,87737,1,0,0:0:0:0:
448,192,87884,1,0,0:0:0:0:
320,192,87884,1,0,0:0:0:0:
