osu file format v14

[General]
AudioFilename: audio.mp3
AudioLeadIn: 0
PreviewTime: 72610
Countdown: 0
SampleSet: Soft
StackLeniency: 0.7
Mode: 0
LetterboxInBreaks: 0
WidescreenStoryboard: 1

[Editor]
DistanceSpacing: 0.9
BeatDivisor: 4
GridSize: 4
TimelineZoom: 2.6

[Metadata]
Title:AM11:00 (TV Size)
TitleUnicode:AM11:00 (TV Size)
Artist:Takagi-san (CV: Takahashi Rie)
ArtistUnicode:高木さん(CV:高橋李依)
Creator:climbx3145
Version:Normal
Source:からかい上手の高木さん
Tags:Karakai Jouzu no Takagi san skilled teaser Teasing Master Takagi-san HY cover ending ed 11am anime japanese jpop pop j-pop
BeatmapID:2842179
BeatmapSetID:1373851

[Difficulty]
HPDrainRate:3
CircleSize:3.5
OverallDifficulty:4
ApproachRate:6
SliderMultiplier:2
SliderTickRate:1

[Events]
//Background and Video events
0,0,"BG.jpg",0,0
Video,1000,"ED_no_audio.mp4"
//Break Periods
//Storyboard Layer 0 (Background)
//Storyboard Layer 1 (Fail)
//Storyboard Layer 2 (Pass)
//Storyboard Layer 3 (Foreground)
//Storyboard Layer 4 (Overlay)
//Storyboard Sound Samples

[TimingPoints]
-247,612.244897959184,4,2,1,80,1,0
1589,-117.647058823529,4,2,1,40,0,0
9548,-111.111111111111,4,2,1,40,0,0
11997,-105.263157894737,4,2,1,40,0,0
21793,-111.111111111111,4,2,1,50,0,0
41385,-105.263157894737,4,2,1,65,0,0
60977,-111.111111111111,4,2,1,55,0,0
68324,-105.263157894737,4,2,1,55,0,0
70773,-100,4,2,1,70,0,0
71385,-100,4,2,1,75,0,0
73222,-95.2380952380952,4,2,1,80,0,1
91283,-100,4,2,1,80,0,0
92814,-100,4,2,1,70,0,0
93426,-100,4,2,1,60,0,0
94038,-100,4,2,1,50,0,0
94650,-100,4,2,1,40,0,0
95263,-100,4,2,1,30,0,0
95875,-100,4,2,1,20,0,0
96411,-100,4,3,2,5,0,0

[Colours]
Combo1 : 255,159,207
Combo2 : 255,145,145
Combo3 : 255,166,123
Combo4 : 142,199,255

[HitObjects]
157,80,1589,6,0,P|138:124|143:163,1,85.0000016212464,2|2,0:0|0:0,0:3:0:0:
232,136,2201,2,0,L|399:106,1,170.000003242493,2|2,0:0|0:0,0:0:0:0:
421,197,3120,2,0,L|253:226,2,170.000003242493,2|0|0,0:0|0:0|0:0,0:0:0:0:
492,256,4650,6,0,P|511:299|506:339,2,85.0000016212464,2|0|2,0:0|0:0|0:0,0:3:0:0:
416,313,5569,2,0,P|336:338|251:336,1,170.000003242493,2|0,0:0|0:0,0:0:0:0:
204,255,6487,2,0,P|162:252|124:271,1,85.0000016212464,2|2,0:0|0:0,0:3:0:0:
13,314,7099,2,0,P|15:231|64:163,1,170.000003242493,2|2,0:0|0:0,0:3:0:0:
158,89,8018,1,2,0:0:0:0:
344,103,8630,2,0,L|427:88,2,85.0000016212464,2|2|2,0:0|0:0|0:0,0:0:0:0:
275,174,9548,5,2,0:0:0:0:
305,267,9855,1,0,3:2:0:0:
206,253,10161,2,0,L|73:229,1,134.999995880127,8|8,0:0|0:0,0:0:0:0:
36,263,10773,2,0,L|43:307,1,44.999998626709,8|8,0:0|0:0,0:3:0:0:
78,343,11079,2,0,P|121:336|162:354,1,89.9999972534181,0|8,3:0|0:0,0:3:0:0:
259,372,11691,2,0,L|251:327,1,44.999998626709,4|0,3:2|0:0,0:3:0:0:
273,285,11997,6,0,L|366:301,2,94.9999974632264,6|2|10,3:2|0:0|0:0,0:0:0:0:
287,190,12916,2,0,L|380:206,1,94.9999974632264,2|0,3:2|0:0,0:0:0:0:
452,144,13528,2,0,L|443:97,1,47.4999987316132,2|0,3:2|0:0,0:0:0:0:
434,50,13834,1,10,0:0:0:0:
346,12,14140,1,2,0:0:0:0:
258,49,14446,6,0,P|211:52|167:34,2,94.9999974632264,2|0|8,3:2|0:0|0:0,0:3:0:0:
334,105,15365,2,0,P|314:197|316:292,1,189.999994926453,2|2,3:2|3:2,0:0:0:0:
256,365,16283,1,10,0:0:0:0:
163,342,16589,1,2,3:2:0:0:
229,274,16895,6,0,L|245:180,2,94.9999974632264,6|2|10,3:2|3:2|0:0,0:0:0:0:
163,342,17814,2,0,P|116:344|73:324,1,94.9999974632264,2|0,3:2|0:0,0:0:0:0:
25,242,18426,1,2,3:2:0:0:
97,181,18732,1,10,0:0:0:0:
34,109,19038,6,0,B|89:48|89:48|146:71|146:71|192:65,1,189.999994926453,6|0,3:2|3:2,0:0:0:0:
286,76,19957,1,8,0:0:0:0:
246,161,20263,2,0,L|254:207,1,47.4999987316132,8|8,0:0|0:0,0:0:0:0:
279,247,20569,2,0,L|372:230,2,94.9999974632264,0|0|8,3:2|3:2|0:0,0:0:0:0:
186,263,21487,1,0,3:2:0:0:
115,206,21793,6,0,P|108:161|125:120,2,89.9999972534181,6|2|2,3:2|0:0|0:0,0:0:0:0:
199,174,22712,1,2,3:2:0:0:
186,263,23018,2,0,L|170:351,1,89.9999972534181,2|0,3:2|0:3,0:3:0:0:
258,370,23630,2,0,L|273:281,1,89.9999972534181,2|2,0:0|3:2,0:0:0:0:
340,221,24242,6,0,P|384:227|425:210,2,89.9999972534181,2|0|0,3:2|0:0|0:0,0:0:0:0:
372,136,25161,1,2,0:0:0:0:
282,123,25467,2,0,L|193:107,1,89.9999972534181,2|2,3:2|3:2,0:0:0:0:
166,71,25926,2,0,L|77:86,1,89.9999972534181,2|2,0:0|0:0,0:0:0:0:
33,97,26385,1,0,3:2:0:0:
80,173,26691,6,0,P|96:214|90:258,2,89.9999972534181,2|2|2,3:2|0:0|0:0,0:0:0:0:
33,97,27610,1,2,3:2:0:0:
92,29,27916,2,0,L|180:44,1,89.9999972534181,2|0,3:2|0:0,0:0:0:0:
269,57,28528,2,0,L|253:145,1,89.9999972534181,2|2,0:0|3:2,0:0:0:0:
287,229,29140,6,0,P|242:235|201:218,2,89.9999972534181,2|0|0,3:2|0:0|0:0,0:0:0:0:
344,159,30059,2,0,L|388:166,1,44.999998626709,2|0,0:0|3:2,0:0:0:0:
420,135,30365,2,0,P|413:90|430:49,2,89.9999972534181,2|0|0,3:2|3:2|0:0,0:0:0:0:
475,206,31283,1,0,3:2:0:0:
427,282,31589,6,0,L|338:266,2,89.9999972534181,4|2|2,3:2|0:0|0:0,0:3:0:0:
474,358,32508,1,2,3:2:0:0:
385,376,32814,2,0,P|340:374|302:351,1,89.9999972534181,2|0,3:2|0:0,0:0:0:0:
249,278,33426,2,0,P|204:279|166:302,1,89.9999972534181,2|2,0:0|3:2,0:0:0:0:
78,320,34038,6,0,P|79:275|102:237,2,89.9999972534181,2|0|0,3:2|0:0|0:0,0:0:0:0:
143,382,34957,2,0,L|187:374,1,44.999998626709,2|0,0:0|3:2,0:0:0:0:
218,341,35263,2,0,L|306:356,1,89.9999972534181,2|2,3:2|3:2,0:3:0:0:
351,360,35722,2,0,L|335:271,1,89.9999972534181,2|2,0:0|0:0,0:0:0:0:
325,227,36181,1,0,3:2:0:0:
343,137,36487,6,0,P|298:138|261:162,2,89.9999972534181,2|2|2,3:2|0:0|0:0,0:0:0:0:
411,196,37406,2,0,L|455:188,1,44.999998626709,2|0,0:0|3:2,0:0:0:0:
493,211,37712,2,0,L|477:299,2,89.9999972534181,2|2|2,3:2|3:2|0:0,0:3:0:0:
505,121,38630,1,2,0:0:0:0:
466,39,38936,6,0,P|421:37|383:14,2,89.9999972534181,2|0|0,3:2|0:0|0:0,0:0:0:0:
505,121,39855,2,0,L|497:165,1,44.999998626709,2|8,0:0|0:0,0:0:0:0:
460,190,40161,2,0,B|412:198|412:198|376:176,2,89.9999972534181,0|2|10,3:2|3:2|0:0,0:0:0:0:
483,276,41079,2,0,L|438:283,1,44.999998626709,2|0,3:2|0:3,0:3:0:0:
410,321,41385,6,0,L|316:304,1,94.9999974632264,4|2,3:2|0:0,0:0:0:0:
222,288,41997,1,10,0:0:0:0:
176,204,42304,2,0,L|185:152,1,47.4999987316132,2|0,0:0|3:2,0:0:0:0:
223,130,42610,2,0,L|206:36,1,94.9999974632264,2|0,3:2|3:2,0:0:0:0:
117,3,43222,1,10,0:0:0:0:
30,42,43528,1,2,0:0:0:0:
108,92,43834,6,0,P|121:138|111:184,2,94.9999974632264,2|0|8,3:2|0:0|0:0,0:0:0:0:
27,142,44753,1,2,0:0:0:0:
4,234,45059,2,0,L|22:338,1,94.9999974632264,2|2,3:2|3:2,0:0:0:0:
54,360,45518,2,0,P|100:350|145:362,1,94.9999974632264,2|2,0:0|0:0,0:3:0:0:
189,382,45977,1,0,3:2:0:0:
264,323,46283,6,0,P|265:275|245:233,1,94.9999974632264,2|2,3:2|0:0,0:3:0:0:
196,151,46895,1,10,0:0:0:0:
102,166,47201,2,0,L|55:174,1,47.4999987316132,2|0,0:0|3:2,0:3:0:0:
17,145,47508,2,0,L|33:51,1,94.9999974632264,2|0,3:2|3:2,0:0:0:0:
114,1,48120,1,10,0:0:0:0:
166,80,48426,1,2,0:0:0:0:
256,50,48732,6,0,P|303:48|345:68,2,94.9999974632264,2|0|8,3:2|0:0|0:0,0:3:0:0:
285,140,49650,2,0,L|293:186,1,47.4999987316132,2|2,0:0|3:2,0:0:0:0:
330,217,49957,2,0,L|313:310,1,94.9999974632264,2|2,3:2|3:2,0:3:0:0:
237,367,50569,1,8,0:0:0:0:
184,287,50875,1,0,3:2:0:0:
138,370,51181,6,0,P|90:371|48:351,1,94.9999974632264,0|2,3:2|0:0,0:3:0:0:
7,265,51793,1,10,0:0:0:0:
70,194,52099,2,0,L|61:147,1,47.4999987316132,2|0,0:0|3:2,0:3:0:0:
52,100,52406,1,2,3:2:0:0:
104,21,52712,1,0,3:2:0:0:
187,66,53018,2,0,L|280:49,1,94.9999974632264,10|2,0:0|0:0,0:0:0:0:
369,16,53630,6,0,L|462:32,2,94.9999974632264,2|0|8,3:2|0:0|0:0,0:0:0:0:
280,49,54548,2,0,L|288:95,1,47.4999987316132,2|2,0:0|3:2,0:0:0:0:
323,128,54855,2,0,L|306:221,1,94.9999974632264,2|2,3:2|3:2,0:3:0:0:
294,267,55314,2,0,P|253:243|207:247,2,94.9999974632264,2|2|2,0:0|0:0|0:0,0:3:0:0:
322,304,56079,5,2,3:2:0:0:
392,367,56385,1,2,0:0:0:0:
463,304,56691,1,8,0:0:0:0:
448,210,56997,2,0,L|440:163,1,47.4999987316132,2|0,0:0|3:2,0:0:0:0:
431,116,57304,5,2,3:2:0:0:
338,93,57610,1,2,3:2:0:0:
377,6,57916,1,8,0:0:0:0:
282,8,58222,2,0,L|235:16,1,47.4999987316132,2|0,0:0|0:0,0:0:0:0:
207,55,58528,6,0,L|113:38,1,94.9999974632264,2|2,3:2|0:0,0:3:0:0:
75,10,58987,2,0,L|28:18,1,47.4999987316132,2|8,0:0|0:0,0:3:0:0:
3,58,59293,2,0,P|25:125|4:192,1,142.49999619484,2|2,0:0|3:2,0:3:0:0:
83,246,60059,1,2,3:2:0:0:
157,187,60365,2,0,P|204:185|246:205,1,94.9999974632264,10|2,0:0|3:2,0:3:0:0:
315,263,60977,6,0,P|362:264|404:244,2,89.9999972534181,6|2|10,3:2|0:0|0:0,0:3:0:0:
343,177,61895,2,0,B|356:93|356:93|310:67|269:104,1,179.999994506836,2|2,3:2|3:2,0:0:0:0:
185,138,62814,2,0,P|140:139|99:122,1,89.9999972534181,10|2,0:0|0:0,0:3:0:0:
99,32,63426,2,0,P|140:14|184:16,2,89.9999972534181,0|0|8,3:2|3:2|0:0,0:3:0:0:
98,121,64344,6,0,P|104:211|70:293,1,179.999994506836,0|0,3:2|3:2,0:0:0:0:
12,362,65263,1,10,0:0:0:0:
99,382,65569,1,2,0:0:0:0:
181,345,65875,2,0,P|222:327|266:329,2,89.9999972534181,2|2|10,3:2|0:0|0:0,0:3:0:0:
99,382,66793,2,0,P|104:295|179:253,1,179.999994506836,2|0,3:2|3:2,0:0:0:0:
269,244,67712,1,8,0:0:0:0:
421,130,68324,6,0,L|437:36,2,94.9999974632264,2|0|8,3:2|3:2|0:0,0:3:0:0:
479,205,69242,1,2,3:2:0:0:
410,270,69548,2,0,P|362:271|320:251,1,94.9999974632264,2|2,0:0|3:2,0:3:0:0:
242,196,70161,2,0,P|194:194|152:214,1,94.9999974632264,10|2,0:0|3:2,0:3:0:0:
69,270,70773,5,2,3:2:0:0:
16,184,71079,1,8,0:0:0:0:
100,131,71385,2,0,L|117:32,1,100,8|8,0:0|0:0,0:0:0:0:
212,0,71997,1,8,0:0:0:0:
303,41,72304,1,8,0:0:0:0:
217,93,72610,1,10,0:0:0:0:
271,177,72916,2,0,L|262:226,1,50,10|8,0:0|0:0,0:0:0:0:
284,268,73222,6,0,P|360:260|426:302,1,157.499995193482,6|0,3:2|3:2,0:0:0:0:
472,296,73834,2,0,L|481:244,1,52.4999983978272,10|0,0:0|0:0,0:0:0:0:
460,207,74140,1,2,3:2:0:0:
460,207,74293,2,0,L|487:51,1,157.499995193482,2|0,0:0|3:2,0:0:0:0:
407,0,75059,1,8,0:0:0:0:
329,53,75365,2,0,L|277:43,1,52.4999983978272,2|0,0:0|0:0,0:0:0:0:
238,70,75671,6,0,P|260:116|254:168,1,104.999996795654,2|2,3:2|0:0,0:0:0:0:
218,198,76130,2,0,P|212:249|234:296,1,104.999996795654,2|2,3:2|0:0,0:0:0:0:
276,319,76589,2,0,P|322:296|374:302,2,104.999996795654,2|0|0,3:2|0:0|3:2,0:0:0:0:
204,381,77508,1,10,0:0:0:0:
110,365,77814,1,2,3:2:0:0:
36,305,78120,6,0,B|13:271|42:234|42:234|122:246,1,157.499995193482,2|0,3:2|3:2,0:0:0:0:
168,256,78732,1,8,0:0:0:0:
186,163,79038,2,0,L|195:111,1,52.4999983978272,2|2,3:2|0:0,0:0:0:0:
206,65,79344,2,0,P|257:70|304:48,1,104.999996795654,2|2,0:0|3:2,0:0:0:0:
343,20,79804,2,0,L|394:29,1,52.4999983978272,2|8,0:0|0:0,0:0:0:0:
488,21,80263,2,0,L|478:72,1,52.4999983978272,2|0,3:2|0:0,0:0:0:0:
476,119,80569,6,0,P|425:114|378:136,1,104.999996795654,2|2,3:2|0:0,0:0:0:0:
294,181,81181,1,10,0:0:0:0:
284,274,81487,1,2,3:2:0:0:
208,217,81793,2,0,P|156:211|109:233,1,104.999996795654,2|2,0:0|3:2,0:0:0:0:
66,253,82253,2,0,L|14:243,2,52.4999983978272,10|8|0,0:0|0:0|3:2,0:0:0:0:
104,280,82712,2,0,L|94:331,1,52.4999983978272,10|10,0:0|0:0,0:0:0:0:
88,379,83018,5,6,3:2:0:0:
181,363,83324,1,2,0:0:0:0:
267,323,83630,2,0,P|318:317|365:339,1,104.999996795654,10|2,0:0|3:2,0:0:0:0:
407,360,84089,2,0,P|400:282|426:208,1,157.499995193482,2|0,0:0|3:2,0:0:0:0:
478,129,84855,1,10,0:0:0:0:
434,45,85161,1,2,3:2:0:0:
343,72,85467,6,0,P|316:72|292:63,1,52.4999983978272,2|0,3:2|0:0,0:0:0:0:
255,34,85773,2,0,P|228:33|204:42,1,52.4999983978272,2|0,0:0|0:0,0:0:0:0:
178,81,86079,2,0,L|196:184,1,104.999996795654,10|2,0:0|0:0,0:0:0:0:
217,276,86691,1,2,3:2:0:0:
155,347,86997,1,2,3:2:0:0:
62,325,87304,2,0,L|43:222,1,104.999996795654,10|0,0:0|0:0,0:0:0:0:
18,130,87916,6,0,P|40:83|34:31,1,104.999996795654,0|2,3:2|0:0,0:0:0:0:
76,7,88375,1,2,3:2:0:0:
76,7,88528,2,0,P|122:29|174:23,1,104.999996795654,10|2,0:0|3:2,0:0:0:0:
221,18,88987,2,0,L|193:173,1,157.499995193482,2|2,0:0|3:2,0:0:0:0:
172,265,89753,1,10,0:0:0:0:
264,243,90059,2,0,L|315:233,1,52.4999983978272,2|2,3:2|0:0,0:0:0:0:
361,223,90365,5,14,0:0:0:0:
328,134,90671,1,2,3:2:0:0:
343,40,90977,1,2,3:2:0:0:
432,29,91283,1,14,0:0:0:0:
256,192,91436,12,0,96487,0:0:0:0:
