osu file format v14

[General]
AudioFilename: audio.mp3
AudioLeadIn: 0
PreviewTime: 65092
Countdown: 0
SampleSet: Soft
StackLeniency: 0.7
Mode: 0
LetterboxInBreaks: 0
WidescreenStoryboard: 1

[Editor]
DistanceSpacing: 1.2
BeatDivisor: 4
GridSize: 4
TimelineZoom: 2

[Metadata]
Title:Kimagure Romantic
TitleUnicode:気まぐれロマンティック
Artist:Takagi-san (CV: Rie Takahashi)
ArtistUnicode:高木さん(CV:高橋李依)
Creator:_kotachi_
Version:Affection
Source:からかい上手の高木さん
Tags:Karakai Jouzu no Takagi san ending ed Yasaija 714 いきものがかり ikimono gakari
BeatmapID:1543673
BeatmapSetID:731497

[Difficulty]
HPDrainRate:6
CircleSize:4
OverallDifficulty:8.5
ApproachRate:9
SliderMultiplier:1.7
SliderTickRate:1

[Events]
//Background and Video events
0,0,"BG.jpg",0,0
//Break Periods
//Storyboard Layer 0 (Background)
//Storyboard Layer 1 (Fail)
//Storyboard Layer 2 (Pass)
//Storyboard Layer 3 (Foreground)
//Storyboard Sound Samples

[TimingPoints]
945,352.941176470588,4,2,1,70,1,0
6062,-100,4,2,1,50,0,0
6239,-100,4,2,1,70,0,0
8003,-133.333333333333,4,2,3,50,0,0
30062,-133.333333333333,4,2,3,30,0,0
30239,-133.333333333333,4,2,3,50,0,0
30592,-111.111111111111,4,2,1,50,0,0
51768,-200,4,2,1,60,0,0
53180,-100,4,2,1,60,0,0
65356,-100,4,2,1,40,0,0
65533,-100,4,2,1,50,0,0
65709,-100,4,2,1,60,0,0
65886,-83.3333333333333,4,2,1,70,0,1
74356,-100,4,2,1,70,0,1
74621,-100,4,2,1,5,0,1
74709,-66.6666666666667,4,2,1,70,0,1
75062,-100,4,2,1,70,0,1
75327,-66.6666666666667,4,2,1,5,0,1
75415,-66.6666666666667,4,2,1,70,0,1
76650,-66.6666666666667,4,2,1,50,0,1
76915,-66.6666666666667,4,2,1,60,0,1
77180,-83.3333333333333,4,2,1,70,0,1
80268,-83.3333333333333,4,2,1,5,0,1
80356,-83.3333333333333,4,2,1,70,0,1
82297,-83.3333333333333,4,2,1,50,0,1
82827,-200,4,2,1,60,0,0
83180,-200,4,2,1,30,0,0
86356,-181.818181818182,4,2,1,30,0,0
88121,-188.679245283019,4,2,1,5,0,0

[Colours]
Combo1 : 255,165,121
Combo2 : 255,0,0
Combo3 : 255,128,0
Combo4 : 255,0,128
Combo5 : 128,0,0

[HitObjects]
120,107,944,5,12,0:1:0:0:
120,107,1121,2,0,L|204:108,1,85,2|8,0:0|0:0,0:0:0:0:
349,39,1474,2,0,P|294:101|295:184,1,170,2|2,1:2|0:2,0:2:0:0:
483,136,2003,2,0,L|399:137,1,85,8|2,0:0|1:2,0:0:0:0:
315,272,2356,6,0,P|353:256|379:212,1,85,8|2,0:0|0:0,0:0:0:0:
225,254,2709,1,8,0:0:0:0:
291,101,2886,2,0,B|202:86|218:148|128:124,1,170,2|2,1:2|0:0,0:0:0:0:
0,27,3415,2,0,P|32:66|48:113,1,85,8|0,0:0|0:0,0:0:0:0:
62,272,3768,6,0,P|59:230|59:187,1,85,12|0,0:2|0:0,0:0:0:0:
215,32,4121,2,0,P|215:74|211:116,1,85,10|0,0:0|1:0,0:0:0:0:
259,325,4474,6,0,P|310:318|355:316,1,85,8|0,0:0|1:0,0:0:0:0:
143,178,4827,2,0,P|92:185|47:187,1,85,12|0,0:0|0:0,0:0:0:0:
289,243,5180,6,0,P|306:163|371:104,1,170,4|8,1:0|0:0,0:0:0:0:
343,316,5709,2,0,B|279:328|279:328|243:314|243:314|176:324,1,170,8|8,0:3|0:0,0:0:0:0:
210,116,6239,2,0,P|215:159|218:212,1,85,8|0,0:0|0:0,0:0:0:0:
361,360,6592,6,0,P|363:317|368:275,1,85,4|0,1:0|0:0,0:0:0:0:
469,154,6944,1,0,1:0:0:0:
473,327,7121,1,4,0:3:0:0:
469,154,7474,5,8,0:3:0:0:
368,275,7650,2,0,L|274:237,1,85,4|0,0:3|0:0,0:0:0:0:
195,160,8003,6,0,P|210:221|206:285,1,127.500004863739,0|2,0:0|0:0,0:0:0:0:
113,184,8533,2,0,P|112:152|119:121,1,63.7500024318696
184,37,8886,1,0,0:0:0:0:
56,37,9062,1,2,0:0:0:0:
193,24,9239,1,0,0:0:0:0:
118,120,9415,6,0,P|182:127|244:117,1,127.500004863739,0|2,0:0|0:0,0:0:0:0:
367,75,9944,2,0,P|329:126|307:185,1,127.500004863739,0|0,2:0|2:0,2:0:0:0:
407,278,10474,2,0,L|415:214,1,63.7500024318696,2|0,0:0|0:0,0:0:0:0:
311,294,10827,6,0,B|247:281|256:330|189:313,1,127.500004863739,0|2,0:0|0:0,0:0:0:0:
159,176,11356,2,0,P|224:200|203:249,1,127.500004863739
129,258,11886,1,2,0:0:0:0:
71,191,12062,1,0,0:0:0:0:
211,242,12239,5,0,0:0:0:0:
45,277,12415,1,0,0:0:0:0:
101,111,12592,1,2,0:0:0:0:
211,242,12768,6,0,P|271:217|345:208,1,127.500004863739
458,259,13297,2,0,P|441:232|430:202,1,63.7500024318696,2|0,0:0|0:0,0:0:0:0:
408,0,13650,6,0,P|399:64|370:133,1,127.500004863739,0|2,0:0|0:0,0:0:0:0:
260,42,14180,2,0,P|231:28|200:21,1,63.7500024318696
193,158,14533,1,0,0:0:0:0:
304,110,14709,1,2,0:0:0:0:
165,85,14886,1,0,0:0:0:0:
223,232,15062,6,0,P|287:223|350:221,1,127.500004863739,0|2,0:0|0:0,0:0:0:0:
242,312,15592,1,0,0:0:0:0:
242,312,15768,2,0,P|205:310|174:296,1,63.7500024318696
203,172,16121,2,0,P|219:205|223:238,1,63.7500024318696,2|0,0:0|0:0,0:0:0:0:
116,112,16474,6,0,P|106:174|111:238,1,127.500004863739,0|2,0:0|0:0,0:0:0:0:
202,172,17003,1,0,0:0:0:0:
202,172,17180,2,0,P|217:143|222:112,1,63.7500024318696
116,112,17533,1,2,0:0:0:0:
164,32,17709,1,0,0:0:0:0:
203,172,17886,5,0,0:0:0:0:
203,172,18062,2,0,P|214:226|219:305,1,127.500004863739
77,270,18592,2,0,P|105:256|137:252,1,63.7500024318696
252,308,18944,2,0,P|283:303|312:290,1,63.7500024318696,2|0,0:0|0:0,0:0:0:0:
392,118,19297,6,0,P|381:172|376:251,1,127.500004863739,0|2,0:0|0:0,0:0:0:0:
474,139,19827,2,0,P|466:77|418:36,1,127.500004863739
273,46,20356,2,0,P|304:51|335:49,1,63.7500024318696,2|0,0:0|0:0,0:0:0:0:
186,30,20709,6,0,P|197:84|202:163,1,127.500004863739,0|2,0:0|0:0,0:0:0:0:
82,114,21239,1,0,0:0:0:0:
82,114,21415,2,0,P|77:147|77:182,1,63.7500024318696
155,282,21768,2,0,P|154:250|149:218,1,63.7500024318696,2|0,0:0|0:0,0:0:0:0:
246,318,22121,6,0,P|305:295|379:300,1,127.500004863739,0|2,0:0|0:0,0:0:0:0:
476,350,22650,2,0,B|462:312|462:312|480:217,1,127.500004863739
378,143,23180,2,0,L|386:206,1,63.7500024318696,2|0,0:0|0:0,0:0:0:0:
416,65,23533,6,0,L|351:58,1,63.7500024318696
227,128,23886,2,0,L|292:121,1,63.7500024318696,2|0,0:0|0:0,0:0:0:0:
136,92,24239,1,0,0:0:0:0:
136,92,24415,2,0,P|143:134|139:162,1,63.7500024318696,0|2,0:0|0:0,0:0:0:0:
24,128,24768,1,0,0:0:0:0:
28,263,24944,6,0,B|99:252|79:299|150:283,1,127.500004863739,0|2,0:0|0:0,0:0:0:0:
269,232,25474,1,0,0:0:0:0:
269,232,25650,2,0,L|196:228,1,63.7500024318696
104,128,26003,2,0,L|188:116,1,63.7500024318696,2|0,0:0|0:0,0:0:0:0:
206,229,26356,6,0,L|186:366,1,127.500004863739,0|2,0:0|0:0,0:0:0:0:
311,318,26886,1,0,0:0:0:0:
311,318,27062,2,0,P|323:283|321:246,1,63.7500024318696
260,149,27415,2,0,L|196:146,1,63.7500024318696,2|0,0:0|0:0,0:0:0:0:
364,154,27768,6,0,B|496:158,1,127.500004863739,0|2,0:0|0:0,0:0:0:0:
398,68,28297,2,0,L|328:66,1,63.7500024318696
199,149,28650,1,0,0:0:0:0:
199,149,28827,2,0,L|262:150,1,63.7500024318696,2|0,0:0|0:0,0:0:0:0:
105,87,29180,5,0,0:0:0:0:
105,87,29356,2,0,P|116:131|122:220,1,127.500004863739
23,290,29886,1,0,0:0:0:0:
35,194,30062,1,2,0:0:0:0:
115,309,30239,2,0,L|200:310,1,63.7500024318696,2|0,0:0|0:0,0:0:0:0:
286,202,30592,6,0,P|263:274|260:350,1,152.999995330811,0|2,1:0|0:0,0:0:0:0:
367,236,31121,2,0,P|370:198|362:160,1,76.4999976654053,0|0,1:0|0:0,0:0:0:0:
211,159,31474,1,0,1:0:0:0:
287,118,31650,1,8,0:0:0:0:
217,72,31827,1,0,0:0:0:0:
203,243,32003,6,0,B|145:228|145:228|112:243|112:243|54:229,1,152.999995330811,0|2,1:0|0:0,0:0:0:0:
170,326,32533,2,0,P|210:330|246:323,1,76.4999976654053,0|0,1:0|0:0,0:0:0:0:
367,236,32886,1,0,1:0:0:0:
367,236,33062,2,0,P|327:231|290:238,1,76.4999976654053,8|0,0:0|0:0,0:0:0:0:
447,314,33415,6,0,P|449:240|444:161,1,152.999995330811,0|2,1:0|0:0,0:0:0:0:
492,37,33944,2,0,B|453:32|424:63|424:63|381:69|348:43,1,152.999995330811,0|0,1:0|1:0,0:0:0:0:
272,144,34474,1,8,0:0:0:0:
228,30,34650,1,0,0:0:0:0:
361,151,34827,5,0,1:0:0:0:
187,140,35003,1,0,0:0:0:0:
350,45,35180,1,2,0:0:0:0:
165,146,35356,6,0,P|89:132|10:127,1,152.999995330811,0|0,1:0|1:0,0:0:0:0:
133,236,35886,2,0,P|172:237|209:232,1,76.4999976654053,8|0,0:0|0:0,0:0:0:0:
262,74,36239,6,0,B|251:151|251:151|286:171|297:210,1,152.999995330811,0|2,1:0|0:0,0:0:0:0:
269,363,36768,2,0,P|264:323|273:286,1,76.4999976654053,0|0,1:0|0:0,0:0:0:0:
390,334,37121,1,0,1:0:0:0:
386,194,37297,1,8,0:0:0:0:
452,263,37474,1,0,0:0:0:0:
296,208,37650,5,0,1:0:0:0:
474,175,37827,1,0,0:0:0:0:
296,208,38003,1,2,0:0:0:0:
398,41,38180,2,0,P|388:114|386:194,1,152.999995330811,0|0,1:0|1:0,0:0:0:0:
213,227,38709,2,0,P|209:189|200:151,1,76.4999976654053,8|0,0:0|0:0,0:0:0:0:
279,5,39062,6,0,P|310:67|246:90,1,152.999995330811,0|2,1:0|0:0,0:0:0:0:
104,25,39592,2,0,P|115:99|133:190,1,152.999995330811,0|0,1:0|1:0,0:0:0:0:
232,307,40121,2,0,P|238:268|242:221,1,76.4999976654053,8|0,0:0|0:0,0:0:0:0:
211,74,40474,5,0,1:0:0:0:
306,174,40650,1,0,0:0:0:0:
337,4,40827,1,2,0:0:0:0:
322,185,41003,2,0,P|245:182|169:180,1,152.999995330811,0|0,1:0|1:0,0:0:0:0:
94,37,41533,2,0,P|101:74|99:112,1,76.4999976654053,8|0,0:0|0:0,0:0:0:0:
70,291,41886,6,0,P|81:218|143:178,1,152.999995330811,0|2,1:0|0:0,0:0:0:0:
306,265,42415,2,0,B|274:270|244:258|244:258|220:272|220:272|187:261|153:269,1,152.999995330811,0|0,1:0|1:0,0:0:0:0:
274,112,42944,2,0,P|281:149|283:187,1,76.4999976654053,8|0,0:0|0:0,0:0:0:0:
130,29,43297,6,0,P|122:66|120:104,1,76.4999976654053,0|0,1:0|0:0,0:0:0:0:
258,30,43650,1,2,0:0:0:0:
202,235,43827,2,0,L|197:78,1,152.999995330811,0|0,1:0|1:0,0:0:0:0:
358,147,44356,2,0,L|264:149,1,76.4999976654053,8|0,0:0|0:0,0:0:0:0:
430,219,44709,6,0,P|459:149|434:79,1,152.999995330811,0|2,1:0|0:0,0:0:0:0:
281,148,45239,2,0,L|358:147,1,76.4999976654053,0|0,1:0|0:0,0:0:0:0:
268,11,45592,1,0,1:0:0:0:
184,154,45768,1,8,0:0:0:0:
318,71,45944,1,0,0:0:0:0:
150,77,46121,6,0,L|72:68,1,76.4999976654053,0|0,1:0|0:0,0:0:0:0:
205,157,46474,1,2,0:0:0:0:
205,157,46650,2,0,P|275:149|370:159,1,152.999995330811,0|0,1:0|1:0,0:0:0:0:
218,241,47180,2,0,P|180:239|145:223,1,76.4999976654053,8|0,0:0|0:0,0:0:0:0:
74,68,47533,6,0,B|41:112|41:112|59:208,1,152.999995330811,0|2,1:0|0:0,0:0:0:0:
161,88,48062,2,0,P|159:48|142:8,1,76.4999976654053,0|0,1:0|0:0,0:0:0:0:
142,184,48415,1,0,1:0:0:0:
142,183,48592,2,0,P|177:170|215:166,1,76.4999976654053,8|0,0:0|0:0,0:0:0:0:
324,259,48944,6,0,B|366:270|366:270|401:226|375:164,1,152.999995330811,0|2,1:0|0:0,0:0:0:0:
265,52,49474,2,0,B|348:34|330:95|410:75,1,152.999995330811,0|0,1:0|1:0,0:0:0:0:
287,134,50003,1,8,0:0:0:0:
412,175,50180,1,0,0:0:0:0:
220,193,50356,6,0,P|205:157|200:120,1,76.4999976654053,0|0,1:0|0:0,0:0:0:0:
302,219,50709,1,2,0:0:0:0:
83,266,50886,2,0,P|146:264|243:281,1,152.999995330811,0|0,1:0|1:0,0:0:0:0:
383,333,51415,2,0,L|377:245,1,76.4999976654053,8|0,0:0|0:0,0:0:0:0:
421,93,51768,6,0,P|363:91|290:110,1,127.5,0|2,1:0|0:0,0:0:0:0:
159,186,52474,1,4,0:3:0:0:
160,154,52562,1,0,3:0:0:0:
162,122,52650,1,8,0:0:0:0:
163,90,52738,1,8,0:0:0:0:
165,58,52827,1,8,0:0:0:0:
234,191,53003,1,0,1:0:0:0:
26,248,53180,6,0,P|110:250|187:284,1,170,4|8,1:0|0:0,0:0:0:0:
75,87,53709,1,2,1:2:0:0:
23,267,53886,6,0,P|107:268|184:302,1,170,2|8,1:2|0:0,0:0:0:0:
72,106,54415,1,2,1:2:0:0:
256,204,54592,6,0,P|297:203|349:195,1,85,2|0,1:2|0:0,0:0:0:0:
476,64,54944,2,0,P|435:65|383:73,1,85,8|0,0:2|1:0,0:0:0:0:
450,292,55297,6,0,P|458:250|461:207,1,85,2|0,1:2|0:2,0:0:0:0:
256,204,55650,1,8,0:0:0:0:
372,76,55827,1,2,0:0:0:0:
346,298,56003,6,0,B|280:289|280:289|245:312|245:312|176:301,1,170,2|8,1:2|0:0,0:0:0:0:
217,151,56533,1,0,1:0:0:0:
217,151,56709,2,0,B|235:192|235:192|228:234,1,85,2|0,1:2|0:0,0:0:0:0:
110,333,57062,2,0,B|103:293|103:293|121:252,1,85,8|0,0:0|0:0,0:0:0:0:
300,368,57415,5,2,1:2:0:0:
184,302,57592,1,2,0:0:0:0:
354,220,57768,1,8,0:0:0:0:
184,302,57944,2,0,L|95:293,1,85,2|0,1:2|0:0,0:0:0:0:
370,305,58297,5,2,1:2:0:0:
200,224,58474,1,8,0:0:0:0:
413,145,58650,1,2,0:0:0:0:
264,275,58827,6,0,B|297:227|297:227|272:118,1,170,4|8,1:2|0:0,0:0:0:0:
91,239,59356,1,2,1:2:0:0:
285,281,59533,6,0,B|318:233|318:233|293:124,1,170,2|8,1:2|0:0,0:0:0:0:
112,245,60062,1,2,1:2:0:0:
366,298,60239,6,0,L|450:293,1,85,2|0,1:2|0:0,0:0:0:0:
200,224,60592,2,0,L|115:219,1,85,8|0,0:0|1:0,0:0:0:0:
389,137,60944,6,0,P|395:178|396:221,1,85,2|0,1:2|0:0,0:0:0:0:
172,55,61297,2,0,P|165:96|164:139,1,85,10|0,0:0|0:0,0:0:0:0:
239,311,61650,5,12,0:0:0:0:
282,109,61827,1,0,0:0:0:0:
153,269,62003,5,10,0:0:0:0:
363,156,62180,1,0,1:0:0:0:
164,139,62356,6,0,L|75:145,1,85,10|0,0:0|1:0,0:0:0:0:
347,278,62709,2,0,L|436:272,1,85,10|0,0:0|0:0,0:0:0:0:
246,156,63062,5,12,0:2:0:0:
239,311,63239,1,0,0:0:0:0:
377,93,63415,5,8,0:0:0:0:
443,305,63592,1,2,1:2:0:0:
455,44,63768,5,8,0:0:0:0:
347,278,63944,1,2,1:2:0:0:
299,26,64121,5,8,0:0:0:0:
486,201,64297,1,0,1:2:0:0:
164,139,64474,1,4,1:0:0:0:
164,139,65180,5,8,0:3:0:0:
132,137,65268,1,0,0:0:0:0:
101,143,65356,1,8,0:0:0:0:
72,157,65444,1,8,0:0:0:0:
48,178,65532,1,8,0:0:0:0:
29,203,65621,1,8,0:0:0:0:
17,233,65709,1,8,0:0:0:0:
13,264,65797,1,8,0:0:0:0:
16,296,65886,6,0,L|118:308,1,101.999996887207,12|0,0:1|0:0,0:0:0:0:
331,156,66239,2,0,L|229:167,1,101.999996887207,8|2,0:1|1:2,0:0:0:0:
355,274,66592,1,8,0:0:0:0:
309,75,66768,1,2,0:0:0:0:
210,248,66945,1,8,0:0:0:0:
449,172,67121,1,2,1:2:0:0:
211,94,67297,6,0,B|140:83|140:83|94:117|94:117|19:107,1,203.999993774414,8|8,0:0|0:0,0:0:0:0:
150,193,67827,1,2,1:2:0:0:
283,38,68003,2,0,P|300:93|289:139,1,101.999996887207,8|2,0:0|0:0,0:0:0:0:
219,346,68356,2,0,P|202:291|212:244,1,101.999996887207,8|2,0:0|1:2,0:0:0:0:
471,264,68709,6,0,P|396:251|324:275,1,152.999995330811,8|0,0:0|0:0,0:0:0:0:
303,289,69062,2,0,L|310:173,1,101.999996887207,8|0,0:0|1:0,0:0:0:0:
216,20,69415,1,8,0:0:0:0:
150,193,69592,1,2,0:0:0:0:
372,61,69768,1,8,0:0:0:0:
184,105,69944,1,2,1:2:0:0:
397,252,70121,6,0,P|386:150|395:49,1,203.999993774414,8|8,0:0|0:0,0:0:0:0:
490,227,70650,1,2,1:2:0:0:
303,289,70827,2,0,L|201:278,1,101.999996887207,8|2,0:0|0:0,0:0:0:0:
387,150,71180,2,0,L|488:139,1,101.999996887207,8|2,0:0|1:2,0:0:0:0:
223,183,71533,6,0,B|181:178|145:196|145:196|107:173|107:173|72:192|28:188,1,203.999993774414,12|8,0:0|0:0,0:0:0:0:
148,10,72062,2,0,P|160:59|154:109,1,101.999996887207,2|8,1:2|0:0,0:0:0:0:
116,320,72415,2,0,P|152:284|198:264,1,101.999996887207,2|8,0:2|0:0,0:0:0:0:
408,200,72768,1,0,1:0:0:0:
408,200,72944,2,0,P|358:186|318:156,1,101.999996887207,8|0,0:0|0:0,0:0:0:0:
461,22,73297,6,0,L|448:123,1,101.999996887207,8|2,0:0|1:2,0:0:0:0:
253,213,73650,2,0,L|240:111,1,101.999996887207,8|2,0:0|0:0,0:0:0:0:
444,227,74003,2,0,L|431:328,1,101.999996887207,8|0,0:0|1:0,0:0:0:0:
340,74,74356,6,0,L|213:88,1,127.5,8|0,0:0|0:0,0:0:0:0:
132,34,74709,6,0,P|116:94|140:153,1,127.500004863739,12|0,0:0|1:0,0:0:0:0:
349,297,75062,6,0,L|352:169,1,127.500004863739,8|0,0:0|0:0,0:0:0:0:
417,96,75415,6,0,P|359:71|298:87,1,127.500004863739,12|0,0:0|1:0,0:0:0:0:
298,87,75680,1,0,1:0:0:0:
298,87,75768,5,8,0:0:0:0:
256,319,75944,1,0,0:0:0:0:
214,3,76121,5,12,0:0:0:0:
414,222,76297,1,0,1:0:0:0:
298,3,76474,5,8,0:0:0:0:
98,222,76650,1,8,0:0:0:0:
96,195,76738,1,8,0:0:0:0:
95,168,76826,1,8,0:0:0:0:
94,142,76914,1,8,0:0:0:0:
93,115,77002,1,8,0:0:0:0:
92,89,77091,1,8,0:0:0:0:
91,62,77180,6,0,L|193:57,1,101.999996887207,12|0,0:1|0:0,0:0:0:0:
312,242,77533,2,0,L|210:237,1,101.999996887207,8|0,0:1|1:0,0:0:0:0:
440,88,77886,1,8,0:0:0:0:
432,299,78062,1,2,0:0:0:0:
241,141,78239,1,8,0:0:0:0:
307,279,78415,1,2,1:2:0:0:
279,72,78592,6,0,B|230:49|182:87|182:87|140:121|86:93,1,203.999993774414,8|8,0:0|0:0,0:0:0:0:
241,141,79121,1,2,1:2:0:0:
0,142,79297,2,0,P|-3:91|1:41,1,101.999996887207,8|2,0:0|0:0,0:0:0:0:
240,140,79650,2,0,P|245:191|242:242,1,101.999996887207,8|2,0:0|1:2,0:0:0:0:
133,31,80003,6,0,P|205:52|281:43,1,152.999995330811,8|0,0:0|0:0,0:0:0:0:
305,32,80356,2,0,P|354:21|405:31,1,101.999996887207,8|2,0:0|1:2,0:0:0:0:
351,278,80709,1,8,0:0:0:0:
357,125,80886,1,2,0:0:0:0:
474,201,81062,1,12,0:0:0:0:
242,193,81239,1,0,1:0:0:0:
440,44,81415,5,8,0:0:0:0:
351,277,81592,1,0,0:0:0:0:
281,43,81768,5,12,0:0:0:0:
474,201,81945,1,8,0:3:0:0:
211,117,82121,5,4,0:3:0:0:
184,134,82209,1,0,0:0:0:0:
166,160,82297,1,8,0:0:0:0:
159,191,82385,1,8,0:0:0:0:
165,222,82473,1,8,0:0:0:0:
182,249,82562,1,8,0:0:0:0:
207,268,82650,1,8,0:0:0:0:
238,275,82738,1,8,0:0:0:0:
269,271,82826,5,4,1:0:0:0:
401,125,83180,1,2,0:0:0:0:
401,125,83356,2,0,L|316:127,1,85,2|2,0:0|0:0,0:0:0:0:
242,193,83886,1,0,0:0:0:0:
195,25,84062,6,0,P|213:63|220:105,1,85,2|0,0:0|0:0,0:0:0:0:
152,165,84592,2,0,P|138:147|130:121,1,42.5,2|0,0:0|0:0,0:0:0:0:
149,251,84944,2,0,P|126:248|102:235,1,42.5,2|0,0:0|0:0,0:0:0:0:
208,314,85297,2,0,P|189:328|163:336,1,42.5,2|0,0:0|0:0,0:0:0:0:
236,232,85650,6,0,L|228:133,1,85,2|0,0:0|0:0,0:0:0:0:
222,57,86180,1,2,0:0:0:0:
348,80,86356,6,0,B|310:72|281:110|286:158|329:190|364:138|413:227|413:227|427:126|474:162|506:115|493:69|451:44|416:68,1,467.500014266968,2|0,0:0|0:0,0:0:0:0:
