osu file format v14

[General]
AudioFilename: audio.mp3
AudioLeadIn: 0
PreviewTime: 70708
Countdown: 0
SampleSet: Soft
StackLeniency: 0.2
Mode: 0
LetterboxInBreaks: 0
WidescreenStoryboard: 0

[Editor]
Bookmarks: 58708,103531
DistanceSpacing: 0.5
BeatDivisor: 4
GridSize: 32
TimelineZoom: 1.7

[Metadata]
Title:Kimagure Romantic
TitleUnicode:気まぐれロマンティック
Artist:Takagi-san (CV: Rie Takahashi)
ArtistUnicode:高木さん(CV:高橋李依)
Creator:Yogurtt
Version:Sweet Sweet Darling
Source:からかい上手の高木さん
Tags:Karakai Jouzu no Takagi san ending ed いきものがかり
BeatmapID:2222587
BeatmapSetID:1061377

[Difficulty]
HPDrainRate:5.5
CircleSize:4.3
OverallDifficulty:8.8
ApproachRate:9.3
SliderMultiplier:1.93
SliderTickRate:1

[Events]
//Background and Video events
0,0,"thumb-1920-907666.png",0,0
//Break Periods
//Storyboard Layer 0 (Background)
//Storyboard Layer 1 (Fail)
//Storyboard Layer 2 (Pass)
//Storyboard Layer 3 (Foreground)
//Storyboard Layer 4 (Overlay)
//Storyboard Sound Samples

[TimingPoints]
826,352.941176470588,4,2,1,70,1,0
10708,-125,4,2,1,70,0,0
13002,-250,4,2,1,70,0,0
13531,-125,4,2,2,40,0,0
58708,-111.111111111111,4,2,1,60,0,0
67178,-111.111111111111,4,2,1,70,0,0
68590,-111.111111111111,4,2,1,80,0,0
70884,-100,4,2,1,60,0,0
71414,-90.9090909090909,4,2,1,70,0,1
79884,-125,4,2,1,70,0,1
80237,-76.9230769230769,4,2,1,70,0,1
80590,-125,4,2,1,70,0,1
80943,-76.9230769230769,4,2,1,70,0,1
88355,-125,4,2,1,80,0,0
88708,-125,4,2,1,40,0,0
91178,-200,4,2,1,40,0,0
94355,-200,4,2,1,30,0,0
94708,-200,4,2,1,20,0,0
95061,-200,4,2,1,10,0,0
95237,-200,4,2,1,40,0,0
95414,-125,4,2,1,60,0,0
98237,-100,4,2,1,70,0,0
110767,-200,4,2,1,70,0,0
111473,-200,4,2,1,5,0,0

[HitObjects]
157,51,826,5,6,0:0:0:0:
206,326,1002,2,0,P|158:320|81:313,1,96.5,0|8,0:0|0:0,0:0:0:0:
193,218,1355,2,0,B|287:207|283:277|385:253,1,193
489,189,1884,1,8,0:0:0:0:
326,62,2061,6,0,P|332:111|339:178,1,96.5,2|0,0:0|0:0,0:0:0:0:
346,357,2414,1,0,0:0:0:0:
326,173,2590,1,8,0:0:0:0:
364,374,2767,2,0,P|264:362|154:347,1,193
109,148,3296,2,0,P|141:206|133:256,1,96.5,8|0,0:0|0:0,0:0:0:0:
48,356,3649,6,0,P|20:316|16:269,1,96.5,6|0,0:0|0:0,0:0:0:0:
109,148,4002,1,8,0:0:0:0:
268,186,4178,2,0,P|319:179|378:167,1,96.5
490,87,4531,1,0,0:0:0:0:
405,38,4708,1,8,0:0:0:0:
420,227,4884,1,0,0:0:0:0:
285,334,5061,6,0,L|237:323,1,48.25,2|0,0:0|0:0,0:0:0:0:
123,263,5237,2,0,L|170:273,1,48.25
293,351,5414,1,8,0:0:0:0:
114,246,5590,1,0,0:0:0:0:
340,243,5767,2,0,P|391:250|450:262,1,96.5
253,131,6120,2,0,P|205:140|157:146,1,96.5,8|0,0:0|0:0,0:0:0:0:
371,37,6473,5,6,0:0:0:0:
303,262,6649,2,0,P|255:252|207:246,1,96.5,0|8,0:0|0:0,0:0:0:0:
441,172,7002,2,0,P|510:214|499:318,1,193
327,372,7531,1,8,0:0:0:0:
207,246,7708,6,0,P|216:198|222:150,1,96.5,2|0,0:0|0:0,0:0:0:0:
188,30,8061,1,0,0:0:0:0:
311,143,8237,1,8,0:0:0:0:
151,107,8414,1,0,0:0:0:0:
312,58,8590,2,0,P|362:57|433:52,1,96.5
394,245,8943,2,0,P|395:195|400:124,1,96.5,8|0,0:0|0:0,0:0:0:0:
452,317,9296,5,2,0:0:0:0:
408,54,9473,1,0,0:0:0:0:
333,360,9649,5,10,0:0:0:0:
396,73,9826,1,0,0:0:0:0:
511,258,10002,5,2,0:0:0:0:
310,60,10178,1,0,0:0:0:0:
222,352,10355,5,10,0:0:0:0:
173,57,10531,1,0,0:0:0:0:
116,182,10708,6,0,P|76:173|32:167,1,77.2,2|0,0:0|0:0,0:0:0:0:
36,159,11061,1,8,0:0:0:0:
191,175,11237,6,0,P|151:184|107:190,1,77.2,2|0,0:0|0:0,0:0:0:0:
111,198,11590,1,8,0:0:0:0:
275,180,11767,6,0,P|235:171|191:165,1,77.2,2|0,0:0|0:0,0:0:0:0:
378,164,12120,6,0,P|312:183|274:266,1,154.4,6|0,0:0|0:0,0:0:0:0:
280,270,12649,1,8,0:3:0:0:
360,254,13002,6,0,L|360:304,1,38.6,2|2,0:3|0:3,0:3:0:0:
360,294,13531,6,0,B|302:288|302:288|271:305|271:305|192:292,1,154.4,2|0,0:0|0:0,0:0:0:0:
136,284,14061,2,0,L|146:208,2,77.2
64,216,14590,1,8,0:0:0:0:
64,216,14767,1,8,0:0:0:0:
112,130,14943,6,0,B|186:107|185:156|269:132,1,154.4,2|0,0:0|0:0,0:0:0:0:
319,90,15473,2,0,P|307:138|322:179,1,77.2
396,97,15825,2,0,P|402:134|390:171,1,77.2
300,242,16178,1,8,0:0:0:0:
208,281,16355,6,0,P|270:271|388:299,1,154.4,2|0,0:0|0:0,0:0:0:0:
358,364,16884,2,0,P|296:374|178:346,1,154.4
107,212,17414,2,0,P|127:263|123:307,1,77.2,8|8,0:0|0:0,0:0:0:0:
16,278,17767,6,0,L|31:94,1,154.4,2|0,0:0|0:0,0:0:0:0:
118,48,18296,2,0,L|123:124,1,77.2
308,172,18649,1,0,0:0:0:0:
211,94,18825,1,0,0:0:0:0:
198,234,19002,1,8,0:0:0:0:
326,176,19178,6,0,P|380:161|484:163,1,154.4,2|0,0:0|0:0,0:0:0:0:
292,272,19708,2,0,L|206:252,2,77.2
375,368,20237,1,8,0:0:0:0:
282,290,20414,1,8,0:0:0:0:
180,350,20590,6,0,P|135:315|140:204,1,154.4,2|0,0:0|0:0,0:0:0:0:
213,160,21120,1,0,0:0:0:0:
216,254,21296,1,0,0:0:0:0:
155,102,21473,1,0,0:0:0:0:
292,143,21649,1,0,0:0:0:0:
131,129,21825,1,8,0:0:0:0:
269,61,22002,6,0,B|344:50|346:101|432:84,1,154.4
510,53,22531,1,0,0:0:0:0:
411,97,22708,2,0,L|417:178,1,77.2
507,246,23061,2,8,L|512:169,1,77.2
361,233,23414,5,2,0:0:0:0:
374,332,23590,2,0,P|333:323|287:321,1,77.2
212,347,23943,1,0,0:0:0:0:
212,347,24120,2,0,P|171:356|128:373,1,77.2
47,307,24473,1,8,0:0:0:0:
47,307,24825,6,0,P|24:262|112:225,1,154.4,2|0,0:0|0:0,0:0:0:0:
114,132,25355,2,0,P|143:91|216:152,1,154.4
230,208,25884,1,8,0:0:0:0:
334,192,26061,1,8,0:0:0:0:
386,122,26237,6,0,P|363:189|357:290,1,154.4,2|0,0:0|0:0,0:0:0:0:
230,208,26767,2,0,P|241:241|244:292,1,77.2
133,283,27120,2,0,P|121:316|118:367,2,77.2,0|0|8,0:0|0:0|0:0,0:0:0:0:
230,208,27649,6,0,B|164:179|146:228|66:181,1,154.4,2|0,0:0|0:0,0:0:0:0:
130,126,28178,2,0,L|216:119,1,77.2
282,113,28531,1,0,0:0:0:0:
384,128,28708,2,8,L|307:134,1,77.2
449,53,29061,6,0,P|430:109|424:222,1,154.4,2|0,0:0|0:0,0:0:0:0:
437,282,29590,1,0,0:0:0:0:
321,151,29767,1,0,0:0:0:0:
345,318,29943,1,0,0:0:0:0:
233,221,30120,2,0,L|321:234,1,77.2,0|8,0:0|0:0,0:0:0:0:
229,321,30473,6,0,P|176:296|59:317,1,154.4,2|0,0:0|0:0,0:0:0:0:
21,262,31002,1,0,0:0:0:0:
91,190,31178,1,0,0:0:0:0:
32,114,31355,1,0,0:0:0:0:
84,208,31531,2,8,L|181:194,1,77.2
259,130,31884,6,0,P|206:75|139:114,1,154.4,2|0,0:0|0:0,0:0:0:0:
240,208,32414,1,0,0:0:0:0:
240,208,32590,2,0,L|244:295,1,77.2
327,323,32943,2,0,L|330:245,1,77.2,0|8,0:0|0:0,0:0:0:0:
355,159,33296,6,0,P|404:125|508:137,1,154.4,2|0,0:0|0:0,0:0:0:0:
365,262,33825,2,0,P|440:271|505:232,1,154.4
413,89,34355,1,8,0:0:0:0:
274,179,34531,1,8,0:0:0:0:
301,22,34708,5,6,0:0:0:0:
298,202,34884,1,0,0:0:0:0:
298,202,35237,1,0,0:0:0:0:
196,161,35414,2,0,L|111:174,1,77.2
0,223,35767,2,0,L|85:236,1,77.2,0|8,0:0|0:0,0:0:0:0:
208,267,36120,6,0,P|148:282|109:368,1,154.4,2|8,0:0|0:0,0:0:0:0:
235,342,36649,2,0,P|311:324|401:328,1,154.4
470,345,37178,2,0,P|465:300|463:248,1,77.2,8|0,0:0|0:0,0:0:0:0:
410,86,37531,6,0,P|390:162|395:262,1,154.4,2|8,0:0|0:0,0:0:0:0:
247,253,38061,2,0,P|257:291|254:341,1,77.2
135,190,38414,2,0,P|125:228|127:278,1,77.2,0|8,0:0|0:0,0:0:0:0:
25,182,38767,1,0,0:0:0:0:
126,81,38943,6,0,B|203:80|201:125|293:114,1,154.4,2|8,0:0|0:0,0:0:0:0:
352,86,39473,2,0,P|302:110|362:111,1,154.4
433,81,40002,2,0,L|439:169,1,77.2,8|0,0:0|0:0,0:0:0:0:
445,231,40355,5,2,0:0:0:0:
358,209,40531,1,0,0:0:0:0:
461,261,40708,1,8,0:0:0:0:
337,305,40884,1,0,0:0:0:0:
481,282,41061,1,0,0:0:0:0:
317,283,41237,2,0,P|279:288|226:290,1,77.2,0|8,0:0|0:0,0:0:0:0:
240,290,41767,6,0,P|180:263|96:301,1,154.4,2|8,0:0|0:0,0:0:0:0:
0,242,42296,2,0,P|68:273|138:246,1,154.4
194,138,42825,1,8,0:0:0:0:
300,192,43002,1,0,0:0:0:0:
337,57,43178,6,0,P|327:129|331:231,1,154.4,2|8,0:0|0:0,0:0:0:0:
418,65,43708,2,0,P|419:142|409:218,1,154.4
320,294,44237,2,0,L|222:280,1,77.2,8|0,0:0|0:0,0:0:0:0:
92,304,44590,6,0,B|149:313|149:313|166:344|166:344|250:356,1,154.4,2|8,0:0|0:0,0:0:0:0:
463,282,45120,2,0,P|394:264|316:296,1,154.4
232,206,45649,2,0,L|248:316,1,77.2,8|0,0:0|0:0,0:0:0:0:
255,364,46002,5,2,0:0:0:0:
267,134,46178,2,0,P|216:128|174:154,1,77.2,0|8,0:0|0:0,0:0:0:0:
99,199,46531,1,0,0:0:0:0:
99,199,46708,2,0,P|48:205|6:179,1,77.2
112,67,47061,2,0,L|199:58,1,77.2,8|0,0:0|0:0,0:0:0:0:
370,54,47414,6,0,P|302:81|286:178,1,154.4,2|8,0:0|0:0,0:0:0:0:
427,111,47943,2,0,P|404:182|335:210,1,154.4
201,187,48473,2,0,L|218:276,1,77.2,8|8,0:0|0:0,0:0:0:0:
230,342,48825,6,0,B|152:322|165:378|58:355,1,154.4,2|8,0:0|0:0,0:0:0:0:
215,262,49355,2,0,P|276:273|376:264,1,154.4
448,131,49884,2,8,P|424:161|393:184,1,77.2
260,152,50237,5,2,0:0:0:0:
357,91,50414,1,0,0:0:0:0:
242,144,50590,1,8,0:0:0:0:
406,195,50767,2,0,P|409:243|415:295,1,77.2
330,373,51120,2,0,P|333:334|336:296,1,77.2,0|8,0:0|0:0,0:0:0:0:
250,229,51473,1,8,0:0:0:0:
175,310,51649,6,0,P|130:326|33:281,1,154.4,2|8,0:0|0:0,0:0:0:0:
46,178,52178,2,0,B|89:171|117:145|117:145|105:179|121:250,1,154.4
267,171,52708,2,8,P|229:181|175:187,1,77.2
268,91,53061,6,0,P|332:51|406:66,1,154.4,2|8,0:0|0:0,0:0:0:0:
497,113,53590,2,0,P|486:187|483:286,1,154.4
384,348,54120,2,8,P|378:311|377:261,1,77.2
373,194,54473,6,0,P|333:148|245:188,1,154.4,2|8,0:0|0:0,0:0:0:0:
210,97,55002,2,0,P|149:92|115:183,1,154.4
195,317,55531,1,8,0:0:0:0:
183,210,55708,1,8,0:0:0:0:
138,371,55884,6,0,P|220:352|319:355,1,154.4,2|8,0:0|0:0,0:0:0:0:
449,267,56414,2,0,P|371:265|297:247,1,154.4
248,160,56943,1,8,0:0:0:0:
335,73,57120,1,8,0:0:0:0:
309,269,57296,5,6,0:0:0:0:
152,148,57473,2,0,L|69:156,2,77.2,0|8|0,0:0|0:0|0:0,0:0:0:0:
265,204,58002,1,8,0:3:0:0:
264,196,58090,1,8,0:3:0:0:
263,188,58178,1,8,0:3:0:0:
262,180,58267,1,8,0:3:0:0:
261,172,58355,1,8,0:3:0:0:
223,286,58531,5,2,0:0:0:0:
323,86,58708,1,4,0:0:0:0:
376,224,58884,2,0,P|424:219|483:220,1,86.8499973495484
231,93,59237,5,2,0:0:0:0:
271,353,59414,1,4,0:0:0:0:
194,269,59590,2,0,P|150:268|107:263,1,86.8499973495484
380,142,59943,5,2,0:0:0:0:
211,75,60120,1,10,0:0:0:0:
344,65,60296,5,0,0:0:0:0:
161,152,60473,1,10,0:0:0:0:
381,231,60649,5,0,0:0:0:0:
183,253,60825,2,0,L|194:356,1,86.8499973495484,10|0,0:0|0:0,0:0:0:0:
277,173,61178,5,10,0:0:0:0:
132,79,61355,1,0,0:0:0:0:
95,278,61531,5,10,0:0:0:0:
173,164,61708,1,0,0:0:0:0:
266,311,61884,5,10,0:0:0:0:
225,101,62061,1,0,0:0:0:0:
340,239,62237,5,10,0:0:0:0:
375,63,62414,1,0,0:0:0:0:
461,273,62590,5,10,0:0:0:0:
293,159,62767,1,0,0:0:0:0:
170,307,62943,6,0,L|69:294,1,86.8499973495484,2|0,0:0|0:0,0:0:0:0:
324,247,63296,1,8,0:0:0:0:
324,247,63473,2,0,L|223:234,1,86.8499973495484,0|2,0:0|0:0,0:0:0:0:
385,384,63825,2,0,L|284:371,1,86.8499973495484,0|8,0:0|0:0,0:0:0:0:
466,210,64178,5,2,0:0:0:0:
280,131,64355,1,4,0:0:0:0:
344,259,64531,2,0,P|354:206|368:156,1,86.8499973495484
249,32,64884,5,2,0:0:0:0:
219,248,65061,1,4,0:0:0:0:
155,149,65237,2,0,P|112:141|70:130,1,86.8499973495484
7,233,65590,5,2,0:0:0:0:
85,57,65767,1,10,0:0:0:0:
121,271,65943,5,0,0:0:0:0:
146,134,66120,1,10,0:0:0:0:
206,344,66296,5,0,0:0:0:0:
245,118,66473,2,0,P|296:104|341:99,1,86.8499973495484,10|0,0:0|0:0,0:0:0:0:
465,221,66825,2,0,P|422:214|380:202,1,86.8499973495484,10|0,0:0|0:0,0:0:0:0:
285,23,67178,5,12,0:0:0:0:
324,256,67355,1,0,0:0:0:0:
189,65,67531,5,10,0:0:0:0:
129,331,67708,1,0,0:0:0:0:
96,107,67884,5,10,0:0:0:0:
214,368,68061,1,0,0:0:0:0:
119,29,68237,5,10,0:0:0:0:
35,254,68414,1,0,0:0:0:0:
272,215,68590,5,12,0:0:0:0:
18,128,68767,1,0,0:0:0:0:
302,96,68943,5,10,0:0:0:0:
80,182,69120,1,0,0:0:0:0:
387,263,69296,5,10,0:0:0:0:
169,109,69473,1,0,0:0:0:0:
484,61,69649,5,10,0:0:0:0:
191,189,69825,1,0,0:0:0:0:
512,320,70002,6,0,P|496:312|501:329,1,43.4249986747742,6|0,0:0|0:0,0:0:0:0:
428,251,70708,5,2,0:0:0:0:
355,339,70884,6,8,L|270:326,1,48.25
220,139,71061,2,8,L|207:224,1,48.25
96,342,71237,2,8,L|88:294,1,48.25
16,124,71414,6,0,L|0:228,1,106.150003239441,6|0,0:0|0:0,0:0:0:0:
212,186,71767,1,8,0:0:0:0:
67,60,71943,1,0,0:0:0:0:
88,294,72120,1,10,0:0:0:0:
152,29,72296,1,0,0:0:0:0:
219,337,72473,1,8,0:0:0:0:
146,1,72649,1,0,0:0:0:0:
256,115,72825,6,0,P|308:98|376:112,1,106.150003239441,10|0,0:0|0:0,0:0:0:0:
450,197,73178,1,8,0:0:0:0:
398,28,73355,1,0,0:0:0:0:
370,264,73531,1,10,0:0:0:0:
475,73,73708,1,0,0:0:0:0:
508,351,73884,1,8,0:0:0:0:
461,95,74061,1,0,0:0:0:0:
355,284,74237,6,0,L|247:274,1,106.150003239441,10|0,0:0|0:0,0:0:0:0:
70,220,74590,2,0,L|178:210,1,106.150003239441,8|0,0:0|0:0,0:0:0:0:
360,127,74943,1,10,0:0:0:0:
171,286,75120,1,0,0:0:0:0:
332,368,75296,1,8,0:0:0:0:
219,120,75473,1,0,0:0:0:0:
219,120,75561,1,0,0:0:0:0:
219,120,75649,6,0,B|117:90|121:168|0:125,1,212.300006478882,10|8,0:0|0:0,0:0:0:0:
144,17,76178,1,0,0:0:0:0:
175,210,76355,1,10,0:0:0:0:
343,46,76531,1,0,0:0:0:0:
289,234,76708,1,8,0:0:0:0:
460,145,76884,1,0,0:0:0:0:
460,145,76973,1,0,0:0:0:0:
460,145,77061,6,0,P|359:152|244:151,1,212.300006478882,12|8,0:0|0:0,0:0:0:0:
68,286,77590,2,0,P|83:228|89:174,1,106.150003239441,0|10,0:0|0:0,0:0:0:0:
144,17,77943,2,0,P|150:69|164:120,1,106.150003239441,0|8,0:0|0:0,0:0:0:0:
289,234,78296,1,0,0:0:0:0:
289,234,78384,1,0,0:0:0:0:
289,234,78473,5,10,0:0:0:0:
230,55,78649,1,0,0:0:0:0:
142,257,78825,5,10,0:0:0:0:
300,125,79002,1,0,0:0:0:0:
356,355,79178,5,10,0:0:0:0:
202,188,79355,1,0,0:0:0:0:
48,361,79531,6,0,P|113:342|177:340,1,106.150003239441,10|0,0:0|0:0,0:0:0:0:
356,355,79884,2,0,P|294:332|263:281,1,115.8,2|0,0:0|0:0,0:0:0:0:
202,188,80237,6,0,P|229:248|215:318,1,125.449994257355,4|0,0:0|0:0,0:0:0:0:
119,159,80590,6,0,P|163:108|234:108,1,115.8,2|0,0:0|0:0,0:0:0:0:
327,131,80943,6,0,P|266:122|228:74,1,125.449994257355,4|0,0:0|0:0,0:0:0:0:
449,21,81296,1,10,0:0:0:0:
304,57,81473,1,0,0:0:0:0:
507,99,81649,1,8,0:0:0:0:
292,45,81825,1,0,0:0:0:0:
346,252,82002,5,10,0:0:0:0:
430,98,82178,2,8,L|440:166,1,62.7249971286775,8|8,0:0|0:0,0:0:0:0:
317,329,82355,2,8,L|326:266,1,62.7249971286775
228,74,82531,2,8,L|165:64,1,62.7249971286775
65,245,82708,6,0,L|198:228,1,125.449994257355,6|0,0:0|0:0,0:0:0:0:
318,145,83061,1,8,0:0:0:0:
131,314,83237,1,0,0:0:0:0:
455,258,83414,1,10,0:0:0:0:
142,122,83590,1,0,0:0:0:0:
403,14,83767,1,8,0:0:0:0:
124,130,83943,1,0,0:0:0:0:
334,168,84120,6,0,P|342:241|346:301,1,125.449994257355,10|0,0:0|0:0,0:0:0:0:
287,365,84473,1,8,0:0:0:0:
379,96,84649,1,0,0:0:0:0:
423,323,84825,1,10,0:0:0:0:
309,33,85002,1,0,0:0:0:0:
204,242,85178,1,8,0:0:0:0:
462,123,85355,1,0,0:0:0:0:
213,62,85531,6,0,P|150:57|85:50,1,125.449994257355,10|0,0:0|0:0,0:0:0:0:
16,297,85884,2,0,P|22:234|27:172,1,125.449994257355,8|0,0:0|0:0,0:0:0:0:
181,354,86237,1,10,0:0:0:0:
143,142,86414,1,0,0:0:0:0:
272,350,86590,1,8,0:0:0:0:
290,135,86767,1,0,0:0:0:0:
290,135,86855,1,0,0:0:0:0:
290,135,86943,6,0,B|405:116|403:206|537:167,1,250.89998851471,12|10,0:0|0:0,0:0:0:0:
362,38,87473,1,0,0:0:0:0:
325,242,87649,2,0,L|337:326,1,62.7249971286775,10|0,0:0|0:0,0:0:0:0:
136,382,87825,1,8,0:0:0:0:
141,344,87913,1,8,0:0:0:0:
146,306,88002,1,10,0:0:0:0:
151,268,88089,1,8,0:0:0:0:
157,230,88177,1,8,0:0:0:0:
162,192,88266,1,8,0:0:0:0:
167,154,88354,5,4,0:0:0:0:
147,77,88708,1,0,0:0:0:0:
147,77,88884,1,0,0:0:0:0:
193,12,89237,1,0,0:0:0:0:
246,178,89590,6,0,P|321:170|401:166,1,154.4
494,277,90120,2,0,P|455:275|417:271,1,77.2
320,60,90473,2,0,P|318:98|314:136,1,77.2
238,273,90825,2,0,P|233:234|232:196,1,77.2
46,136,91178,6,0,B|3:127|-40:161|-48:218|-13:270|41:265|98:264|145:311|145:311|140:240|179:205|227:171|224:116|201:86|167:80|143:70|109:74|75:111|91:158,1,675.5
227,133,93825,6,2,L|269:121,2,24.125
305,76,94355,1,2,0:0:0:0:
306,68,94708,1,2,0:0:0:0:
307,60,95061,1,2,0:0:0:0:
472,157,95237,5,8,0:0:0:0:
472,157,95325,1,8,0:0:0:0:
472,157,95414,2,0,P|402:140|310:152,1,154.4,6|0,0:0|0:0,0:0:0:0:
238,240,95943,1,0,0:0:0:0:
238,240,96120,2,0,P|203:248|157:242,2,77.2,2|0|0,0:0|0:0|0:0,0:0:0:0:
226,53,96649,6,0,L|248:153,1,77.2,0|2,0:0|0:0,0:0:0:0:
146,256,97002,2,0,L|162:180,1,77.2
51,57,97355,1,0,0:0:0:0:
67,205,97531,1,2,0:0:0:0:
5,136,97708,1,0,0:0:0:0:
4,285,97884,1,8,0:0:0:0:
35,307,97972,1,8,0:0:0:0:
72,313,98060,1,8,0:0:0:0:
110,304,98148,1,8,0:0:0:0:
139,279,98236,5,6,0:0:0:0:
176,69,98414,2,0,P|247:56|297:52,1,96.5,0|8,0:0|0:0,0:0:0:0:
435,205,98767,2,0,B|336:226|340:149|239:171,1,193,2|0,0:0|0:0,0:0:0:0:
139,279,99296,1,8,0:0:0:0:
285,353,99473,6,0,P|277:307|273:240,1,96.5,2|0,0:0|0:0,0:0:0:0:
289,68,99825,1,0,0:0:0:0:
111,126,100002,1,8,0:0:0:0:
304,82,100178,2,0,P|361:56|442:156,1,193,2|0,0:0|0:0,0:0:0:0:
448,288,100708,2,0,L|353:271,1,96.5,8|0,0:0|0:0,0:0:0:0:
189,178,101061,6,0,L|284:161,1,96.5,6|0,0:0|0:0,0:0:0:0:
222,45,101414,1,8,0:0:0:0:
106,139,101590,2,0,P|94:195|125:249,1,96.5,0|2,0:0|0:0,0:0:0:0:
204,295,101943,1,0,0:0:0:0:
146,71,102120,1,8,0:0:0:0:
105,339,102296,1,0,0:0:0:0:
358,241,102473,6,0,L|293:231,1,48.25,2|0,0:0|0:0,0:0:0:0:
189,178,102649,2,0,L|236:185,1,48.25
375,262,102825,1,8,0:0:0:0:
171,161,103002,1,0,0:0:0:0:
333,140,103178,2,0,P|329:86|319:31,1,96.5,2|0,0:0|0:0,0:0:0:0:
475,227,103531,2,0,P|471:281|461:336,1,96.5,8|0,0:0|0:0,0:0:0:0:
427,88,103884,5,6,0:0:0:0:
283,262,104061,2,0,P|225:255|161:256,1,96.5,0|8,0:0|0:0,0:0:0:0:
88,98,104414,2,0,P|136:77|177:202,1,193,2|0,0:0|0:0,0:0:0:0:
138,312,104943,1,8,0:0:0:0:
11,259,105120,6,0,P|8:203|4:147,1,96.5,2|0,0:0|0:0,0:0:0:0:
42,37,105473,1,0,0:0:0:0:
138,147,105649,1,8,0:0:0:0:
42,21,105825,1,0,0:0:0:0:
94,237,106002,2,0,P|167:224|211:222,1,96.5,2|0,0:0|0:0,0:0:0:0:
351,313,106355,2,0,P|303:308|255:298,1,96.5,8|0,0:0|0:0,0:0:0:0:
218,140,106708,5,6,0:0:0:0:
186,347,106884,1,0,0:0:0:0:
149,88,107061,1,10,0:0:0:0:
397,187,107237,1,0,0:0:0:0:
94,237,107414,1,10,0:0:0:0:
405,47,107590,1,0,0:0:0:0:
149,88,107767,2,0,B|81:80|81:134|1:115,1,144.75,10|0,0:0|0:0,0:0:0:0:
0,110,108120,5,6,0:0:0:0:
19,269,108296,1,0,0:0:0:0:
79,23,108473,1,10,0:0:0:0:
138,224,108649,1,0,0:0:0:0:
236,26,108825,1,8,0:0:0:0:
289,10,108913,1,8,0:0:0:0:
345,18,109001,1,8,0:0:0:0:
392,48,109089,1,8,0:0:0:0:
422,96,109178,2,8,P|427:131|431:175,1,48.25
398,249,109355,6,0,P|328:209|207:262,1,193,6|0,0:0|0:0,0:0:0:0:
263,309,109884,2,0,P|307:325|358:302,1,96.5,8|0,0:0|0:0,0:0:0:0:
154,171,110237,1,2,0:0:0:0:
131,266,110414,1,0,0:0:0:0:
225,239,110590,1,8,0:0:0:0:
69,149,110767,6,0,P|84:247|91:367,1,193,4|0,0:0|0:0,0:0:0:0:
