osu file format v14

[General]
AudioFilename: audio.mp3
AudioLeadIn: 0
PreviewTime: 65974
Countdown: 0
SampleSet: Soft
StackLeniency: 0.7
Mode: 0
LetterboxInBreaks: 0
WidescreenStoryboard: 0

[Editor]
Bookmarks: 8768,16768,20768,25518,28768,30768,34768,50768,64768,66768
DistanceSpacing: 2.3
BeatDivisor: 4
GridSize: 16
TimelineZoom: 2.599999

[Metadata]
Title:Deatta Koro no You ni
TitleUnicode:出逢った頃のように
Artist:Takagi-san (CV: Rie Takahashi)
ArtistUnicode:高木さん(CV:高橋李依)
Creator:hypercyte
Version:Thank You
Source:からかい上手の高木さん
Tags:karakai jouzu no takagi-san skilled teaser takagi-san ending ed 7 takagi nishikata like when we first met peter
BeatmapID:1596172
BeatmapSetID:755289

[Difficulty]
HPDrainRate:6.2
CircleSize:4.2
OverallDifficulty:7.5
ApproachRate:8.2
SliderMultiplier:1.7
SliderTickRate:1

[Events]
//Background and Video events
0,0,"bg.jpg",0,0
//Break Periods
//Storyboard Layer 0 (Background)
//Storyboard Layer 1 (Fail)
//Storyboard Layer 2 (Pass)
//Storyboard Layer 3 (Foreground)
//Storyboard Sound Samples

[TimingPoints]
849,500,4,2,0,30,1,0
849,-166.666666666667,4,2,0,30,0,0
8849,-142.857142857143,4,2,0,40,0,0
11974,-142.857142857143,4,2,0,5,0,0
12099,-142.857142857143,4,2,0,40,0,0
14849,-142.857142857143,4,2,0,35,0,0
16849,-125,4,2,0,50,0,0
20815,-111.111111111111,4,2,0,50,0,0
30974,-200,4,2,0,5,0,0
32849,-200,4,2,0,20,0,0
34815,-125,4,2,0,50,0,0
48849,-125,4,2,0,50,0,0
50849,-117.647058823529,4,2,0,50,0,0
64849,-117.647058823529,4,2,0,90,0,0
66849,-100,4,2,0,80,0,1
96849,-100,4,2,0,90,0,1
97349,-166.666666666667,4,2,0,90,0,0
98849,-166.666666666667,4,2,0,5,0,0

[Colours]
Combo1 : 242,189,140
Combo2 : 128,64,64
Combo3 : 122,95,95

[HitObjects]
431,209,849,6,0,P|406:239|341:245,1,101.999996887207,2|0,0:0|0:0,0:0:0:0:
231,155,1599,2,0,P|182:158|146:192,1,101.999996887207,2|0,0:0|0:0,0:0:0:0:
160,313,2349,1,2,0:0:0:0:
53,253,2599,1,2,0:0:0:0:
38,243,2724,1,2,0:0:0:0:
24,233,2849,6,0,L|29:117,1,101.999996887207,2|0,0:0|0:0,0:0:0:0:
89,25,3599,1,0,0:0:0:0:
239,107,3849,2,0,P|198:133|129:120,1,101.999996887207,2|0,0:0|0:0,0:0:0:0:
293,193,4599,1,2,0:0:0:0:
303,198,4724,1,2,0:0:0:0:
313,203,4849,5,2,0:0:0:0:
315,344,5099,1,0,0:0:0:0:
174,287,5349,2,0,P|184:318|181:343,1,50.9999984436036,0|0,0:0|0:0,0:0:0:0:
246,164,5849,2,0,P|236:195|239:220,1,50.9999984436036
164,59,6349,2,0,P|174:90|171:115,1,50.9999984436036,0|0,0:0|0:0,0:0:0:0:
363,61,6849,6,0,P|306:39|263:51,1,101.999996887207,2|0,0:0|0:0,0:0:0:0:
393,140,7599,1,0,0:0:0:0:
347,316,7849,2,0,L|342:251,1,50.9999984436036
305,203,8224,1,0,0:0:0:0:
303,193,8349,2,0,L|308:128,1,50.9999984436036
228,249,8849,6,0,B|210:274|210:274|105:273,1,118.999996368408,2|0,0:0|0:0,0:0:0:0:
14,375,9599,2,0,B|32:350|32:350|120:350,1,118.999996368408,2|2,0:0|0:0,0:0:0:0:
67,218,10349,2,0,P|47:248|44:287,1,59.4999981842042,0|0,0:0|0:0,0:0:0:0:
99,136,10849,6,0,P|83:103|50:81,2,59.4999981842042,2|0|0,0:0|0:0|0:0,0:0:0:0:
234,222,11599,2,0,B|211:204|211:204|125:203,1,89.2499972763062,2|0,0:0|0:0,0:0:0:0:
79,207,12099,1,2,0:0:0:0:
127,357,12349,1,0,0:0:0:0:
189,280,12599,1,0,0:0:0:0:
363,366,12849,6,0,P|325:385|248:366,1,118.999996368408,2|0,0:0|0:0,0:0:0:0:
189,280,13599,1,2,0:0:0:0:
69,247,13849,2,0,P|67:291|81:333,2,89.2499972763062,0|2|0,0:0|0:0|0:0,0:0:0:0:
111,178,14724,1,0,0:0:0:0:
117,188,14849,6,0,B|172:210|178:163|245:191,1,118.999996368408,2|0,0:0|0:0,0:0:0:0:
360,250,15724,1,2,0:0:0:0:
351,243,15849,2,0,P|329:192|353:117,1,118.999996368408,2|0,0:0|0:0,0:0:0:0:
462,48,16849,6,0,L|467:122,1,68,2|0,0:0|0:0,0:0:0:0:
469,250,17349,1,0,0:0:0:0:
269,214,17599,2,0,P|316:169|384:172,1,136,2|0,0:0|0:0,0:0:0:0:
469,250,18349,1,0,0:0:0:0:
335,357,18599,6,0,B|360:380|360:380|494:372,1,136,2|0,0:0|0:0,0:0:0:0:
371,273,19349,1,0,0:0:0:0:
371,273,19599,1,0,0:0:0:0:
230,341,19849,2,0,P|203:320|170:310,1,68
25,383,20349,2,0,P|55:370|80:347,1,68,2|0,0:0|0:0,0:0:0:0:
72,162,20849,6,0,P|67:198|86:241,1,76.4999976654053,2|0,0:0|0:0,0:0:0:0:
170,310,21349,1,0,0:0:0:0:
298,129,21599,2,0,P|236:126|183:195,1,152.999995330811,2|0,0:0|0:0,0:0:0:0:
170,310,22349,1,0,0:0:0:0:
60,110,22599,6,0,B|92:135|92:135|96:254,1,152.999995330811,2|0,0:0|0:0,0:0:0:0:
70,368,23349,1,0,0:0:0:0:
7,288,23599,1,0,0:0:0:0:
160,312,23849,2,0,P|169:355|158:390,1,76.4999976654053
240,275,24224,1,0,0:0:0:0:
234,270,24349,2,0,P|225:233|235:197,1,76.4999976654053
164,77,24849,6,0,P|167:115|161:154,1,76.4999976654053,2|0,0:0|0:0,0:0:0:0:
0,237,25349,1,0,0:0:0:0:
15,24,25599,2,0,P|67:56|73:156,1,152.999995330811,2|0,0:0|0:0,0:0:0:0:
0,237,26349,1,0,0:0:0:0:
266,251,26599,6,0,B|243:220|243:220|123:214,1,152.999995330811,2|0,0:0|0:0,0:0:0:0:
75,355,27349,1,0,0:0:0:0:
171,299,27599,1,0,0:0:0:0:
287,373,27849,2,0,L|372:366,1,76.4999976654053,0|0,0:0|0:0,0:0:0:0:
496,301,28349,2,0,L|419:294,1,76.4999976654053,2|0,0:0|0:0,0:0:0:0:
252,145,28849,6,0,L|327:136,1,76.4999976654053,2|0,0:0|0:0,0:0:0:0:
192,221,29349,1,0,0:0:0:0:
25,84,29599,2,0,P|96:60|158:104,1,152.999995330811,2|0,0:0|0:0,0:0:0:0:
192,221,30349,2,0,P|153:220|116:229,1,76.4999976654053
282,263,30849,5,2,0:0:0:0:
256,192,30974,12,0,32849,0:0:0:0:
266,108,34849,6,0,P|185:94|131:141,1,136,2|0,0:0|0:0,0:0:0:0:
283,200,35599,1,2,0:0:0:0:
373,134,35849,2,0,L|501:142,2,102
255,284,36849,6,0,P|351:257|369:219,1,136,2|0,0:0|0:0,0:0:0:0:
155,153,37599,2,0,B|124:180|124:180|132:286,1,136,2|0,0:0|0:0,0:0:0:0:
40,197,38349,1,0,0:0:0:0:
207,218,38599,1,0,0:0:0:0:
74,343,38849,6,0,P|151:361|209:313,1,136,2|0,0:0|0:0,0:0:0:0:
207,218,39599,1,2,0:0:0:0:
305,280,39849,2,0,L|431:267,2,102
457,199,40849,6,0,P|484:232|471:328,1,136,2|0,0:0|0:0,0:0:0:0:
366,155,41599,1,0,0:0:0:0:
365,145,41724,1,0,0:0:0:0:
364,135,41849,2,0,L|453:132,1,68,2|0,0:0|0:0,0:0:0:0:
291,42,42349,1,0,0:0:0:0:
171,73,42599,1,0,0:0:0:0:
92,271,42849,6,0,B|89:221|89:221|105:186|105:186|102:124,1,136,2|0,0:0|0:0,0:0:0:0:
187,244,43599,1,2,0:0:0:0:
237,142,43849,2,0,P|276:110|326:110,2,102,0|0|0,0:0|0:0|0:0,0:0:0:0:
306,192,44724,1,0,0:0:0:0:
314,201,44849,6,0,L|310:342,1,136,2|0,0:0|0:0,0:0:0:0:
96,265,45599,2,0,B|166:240|165:296|253:261,1,136,2|0,0:0|0:0,0:0:0:0:
129,338,46349,1,0,0:0:0:0:
200,191,46599,1,0,0:0:0:0:
202,181,46724,1,0,0:0:0:0:
204,171,46849,6,0,L|199:27,1,136,2|0,0:0|0:0,0:0:0:0:
387,36,47599,1,2,0:0:0:0:
357,28,47724,1,2,0:0:0:0:
328,38,47849,5,0,0:0:0:0:
310,205,48224,5,0,0:0:0:0:
417,59,48599,5,0,0:0:0:0:
431,233,48849,6,0,P|359:241|303:194,1,136,2|2,0:0|0:0,0:0:0:0:
279,96,49599,1,0,0:0:0:0:
103,216,49849,2,0,P|175:224|231:177,1,136,2|2,0:0|0:0,0:0:0:0:
145,0,50849,6,0,L|150:178,1,144.500002756119,2|0,0:0|0:0,0:0:0:0:
349,156,51599,2,0,P|301:143|212:216,1,144.500002756119,2|0,0:0|0:0,0:0:0:0:
215,304,52349,1,2,0:0:0:0:
70,160,52599,1,0,0:0:0:0:
66,150,52724,1,0,0:0:0:0:
63,141,52849,6,0,L|69:49,1,72.2500013780594,2|0,0:0|0:0,0:0:0:0:
119,238,53349,1,0,0:0:0:0:
218,60,53599,2,0,L|220:142,1,72.2500013780594,2|0,0:0|0:0,0:0:0:0:
285,247,54099,1,0,0:0:0:0:
348,63,54349,2,0,L|346:145,1,72.2500013780594,2|0,0:0|0:0,0:0:0:0:
296,327,54849,6,0,P|228:308|203:244,1,144.500002756119,2|0,0:0|0:0,0:0:0:0:
310,113,55599,1,0,0:0:0:0:
310,123,55724,1,0,0:0:0:0:
310,133,55849,2,0,B|277:152|277:152|169:146,1,144.500002756119,2|0,0:0|0:0,0:0:0:0:
8,249,56599,1,0,0:0:0:0:
7,240,56724,1,0,0:0:0:0:
6,230,56849,6,0,B|39:211|39:211|147:217,1,144.500002756119,2|0,0:0|0:0,0:0:0:0:
225,298,57599,1,0,0:0:0:0:
247,125,57849,2,0,P|240:162|237:206,1,72.2500013780594,2|0,0:0|0:0,0:0:0:0:
150,383,58349,2,0,P|143:346|140:302,1,72.2500013780594
61,214,58724,1,0,0:0:0:0:
66,225,58849,6,0,P|62:260|56:296,1,72.2500013780594,2|0,0:0|0:0,0:0:0:0:
25,131,59349,1,0,0:0:0:0:
183,29,59599,2,0,P|170:102|87:134,1,144.500002756119,2|0,0:0|0:0,0:0:0:0:
25,11,60349,1,2,0:0:0:0:
68,245,60599,1,0,0:0:0:0:
239,133,60849,6,0,P|175:104|105:146,1,144.500002756119,2|0,0:0|0:0,0:0:0:0:
279,233,61599,1,0,0:0:0:0:
324,75,61849,1,0,0:0:0:0:
178,191,62099,1,0,0:0:0:0:
326,164,62349,2,0,P|358:202|362:236,1,72.2500013780594,2|0,0:0|0:0,0:0:0:0:
326,371,62849,6,0,P|359:319|448:309,1,144.500002756119,2|0,0:0|0:0,0:0:0:0:
436,97,63599,2,0,P|403:149|314:159,1,144.500002756119,2|0,0:0|0:0,0:0:0:0:
203,77,64349,1,2,0:0:0:0:
206,208,64599,1,0,0:0:0:0:
81,16,64849,5,2,0:0:0:0:
308,3,65099,1,2,0:0:0:0:
206,208,65349,1,2,0:0:0:0:
145,131,66849,6,0,B|141:188|141:188|160:226|160:226|153:303,1,170,2|0,0:0|0:0,0:0:0:0:
214,71,67599,2,0,P|173:44|53:107,1,170,2|0,0:0|0:0,0:0:0:0:
74,246,68349,1,2,0:0:0:0:
226,166,68599,1,0,0:0:0:0:
233,328,68849,6,0,P|202:358|85:331,1,170,2|0,0:0|0:0,0:0:0:0:
225,165,69599,1,2,0:0:0:0:
323,218,69849,2,0,L|316:302,1,85
225,165,70349,2,0,L|232:251,1,85
380,42,70849,5,2,0:0:0:0:
393,146,71099,1,0,0:0:0:0:
225,165,71349,2,0,L|219:74,1,85,2|2,0:0|0:0,0:0:0:0:
126,267,71849,1,0,0:0:0:0:
33,113,72099,1,2,0:0:0:0:
36,211,72349,1,2,0:0:0:0:
125,59,72599,1,0,0:0:0:0:
205,215,72849,6,0,B|223:254|223:254|212:380,1,170,2|0,0:0|0:0,0:0:0:0:
108,275,73599,1,2,0:0:0:0:
145,131,73849,2,0,L|235:132,1,85,0|0,0:0|0:0,0:0:0:0:
305,166,74224,1,0,0:0:0:0:
312,174,74349,2,0,L|402:173,1,85,2|0,0:0|0:0,0:0:0:0:
463,366,74849,6,0,P|387:304|436:224,1,170,2|0,0:0|0:0,0:0:0:0:
512,139,75599,2,0,P|478:165|402:165,1,85,2|0,0:0|0:0,0:0:0:0:
293,104,76099,1,0,0:0:0:0:
451,83,76349,1,2,0:0:0:0:
403,245,76599,1,0,0:0:0:0:
293,104,76849,5,2,0:0:0:0:
315,252,77099,2,0,P|280:228|264:190,1,85,0|0,0:0|0:0,0:0:0:0:
434,355,77599,2,0,B|406:329|406:329|253:335,1,170,2|0,0:0|0:0,0:0:0:0:
205,364,78224,1,0,0:0:0:0:
195,369,78349,2,0,L|109:367,1,85,2|0,0:0|0:0,0:0:0:0:
138,170,78849,5,2,0:0:0:0:
207,270,79099,1,0,0:0:0:0:
293,84,79349,1,0,0:0:0:0:
224,184,79599,1,2,0:0:0:0:
141,0,79849,1,0,0:0:0:0:
210,100,80099,1,0,0:0:0:0:
27,116,80349,2,0,P|64:88|109:85,1,85,2|0,0:0|0:0,0:0:0:0:
213,184,80849,6,0,L|209:97,1,85,2|0,0:0|0:0,0:0:0:0:
318,275,81349,2,0,L|321:190,1,85,2|0,0:0|0:0,0:0:0:0:
224,366,81849,2,0,L|220:279,1,85,2|0,0:0|0:0,0:0:0:0:
405,307,82349,1,2,0:0:0:0:
321,368,82599,1,0,0:0:0:0:
150,229,82849,6,0,P|193:201|301:256,1,170,2|0,0:0|0:0,0:0:0:0:
80,301,83599,2,0,B|52:261|52:261|61:124,1,170,2|0,0:0|0:0,0:0:0:0:
122,42,84349,1,2,0:0:0:0:
169,142,84599,1,0,0:0:0:0:
378,83,84849,6,0,B|344:60|344:60|216:63,1,170,2|0,0:0|0:0,0:0:0:0:
294,256,85599,1,2,0:0:0:0:
436,196,85849,2,0,L|346:195,1,85
428,342,86349,2,0,L|512:342,1,85
436,196,86849,5,2,0:0:0:0:
341,341,87099,1,0,0:0:0:0:
273,166,87349,1,2,0:0:0:0:
270,267,87599,1,2,0:0:0:0:
338,92,87849,1,0,0:0:0:0:
361,190,88099,1,2,0:0:0:0:
293,15,88349,1,2,0:0:0:0:
204,206,88599,1,0,0:0:0:0:
2,168,88849,6,0,B|29:135|29:135|167:136,1,170,2|0,0:0|0:0,0:0:0:0:
68,216,89599,1,2,0:0:0:0:
80,54,89849,2,0,L|166:55,1,85,0|0,0:0|0:0,0:0:0:0:
228,110,90224,1,0,0:0:0:0:
238,115,90349,2,0,L|324:116,1,85,2|0,0:0|0:0,0:0:0:0:
447,30,90849,6,0,P|408:79|454:179,1,170,2|0,0:0|0:0,0:0:0:0:
512,311,91599,2,0,P|481:274|411:259,1,85,2|0,0:0|0:0,0:0:0:0:
273,243,92099,1,0,0:0:0:0:
348,384,92349,1,0,0:0:0:0:
273,243,92599,1,0,0:0:0:0:
86,343,92849,5,2,0:0:0:0:
159,274,93099,2,0,P|180:305|183:355,1,85
61,201,93599,2,0,B|90:171|90:171|227:171,1,170,2|0,0:0|0:0,0:0:0:0:
266,228,94224,1,0,0:0:0:0:
276,233,94349,2,0,L|372:233,1,85,2|0,0:0|0:0,0:0:0:0:
214,88,94849,6,0,L|38:88,1,170,2|0,0:0|0:0,0:0:0:0:
110,170,95599,1,2,0:0:0:0:
142,7,95849,2,0,L|274:9,2,127.5,0|0|0,0:0|0:0|0:0,0:0:0:0:
251,209,96849,5,2,0:0:0:0:
351,14,97099,1,2,0:0:0:0:
110,170,97349,1,2,0:0:0:0:
256,192,98849,12,0,102849,0:0:0:0:
