osu file format v14

[General]
AudioFilename: audio.mp3
AudioLeadIn: 0
PreviewTime: 65974
Countdown: 0
SampleSet: Soft
StackLeniency: 0.7
Mode: 0
LetterboxInBreaks: 0
WidescreenStoryboard: 0

[Editor]
Bookmarks: 8768,16768,20768,25518,28768,30768,34768,50768,64768,66768
DistanceSpacing: 1
BeatDivisor: 4
GridSize: 16
TimelineZoom: 1

[Metadata]
Title:Deatta Koro no You ni
TitleUnicode:出逢った頃のように
Artist:Takagi-san (CV: Rie Takahashi)
ArtistUnicode:高木さん(CV:高橋李依)
Creator:hypercyte
Version:Peter's Normal
Source:からかい上手の高木さん
Tags:karakai jouzu no takagi-san skilled teaser takagi-san ending ed 7 takagi nishikata like when we first met peter
BeatmapID:1591830
BeatmapSetID:755289

[Difficulty]
HPDrainRate:4
CircleSize:3.5
OverallDifficulty:4
ApproachRate:5
SliderMultiplier:1.1
SliderTickRate:1

[Events]
//Background and Video events
0,0,"bg.jpg",0,0
//Break Periods
//Storyboard Layer 0 (Background)
//Storyboard Layer 1 (Fail)
//Storyboard Layer 2 (Pass)
//Storyboard Layer 3 (Foreground)
//Storyboard Sound Samples

[TimingPoints]
849,500,4,2,0,30,1,0
849,-100,4,2,0,30,0,0
8849,-100,4,2,0,40,0,0
14849,-100,4,2,0,35,0,0
16849,-100,4,2,0,50,0,0
20349,-100,4,2,0,50,0,0
30849,-100,4,2,0,50,0,0
30974,-100,4,2,0,5,0,0
32849,-100,4,2,0,20,0,0
34849,-100,4,2,0,50,0,0
50849,-100,4,2,0,50,0,0
64849,-100,4,2,0,90,0,0
66849,-90.9090909090909,4,2,0,80,0,1
96849,-90.9090909090909,4,2,0,90,0,1
97349,-100,4,2,0,90,0,0
98849,-100,4,2,0,5,0,0

[Colours]
Combo1 : 242,189,140
Combo2 : 128,64,64
Combo3 : 122,95,95

[HitObjects]
102,55,849,6,0,P|157:70|228:55,1,110,2|0,0:0|0:0,0:0:0:0:
260,43,1599,2,0,P|312:28|366:34,1,110,2|0,0:0|0:0,0:0:0:0:
446,110,2599,1,2,0:0:0:0:
446,110,2849,2,0,L|457:231,1,110,2|0,0:0|0:0,0:0:0:0:
463,274,3599,1,0,0:0:0:0:
463,274,3849,2,0,P|410:256|343:268,1,110,2|0,0:0|0:0,0:0:0:0:
266,324,4849,6,0,P|244:257|262:208,1,110,2|0,0:0|0:0,0:0:0:0:
281,173,5599,2,0,L|169:177,1,110,0|0,0:0|0:0,0:0:0:0:
116,179,6349,1,0,0:0:0:0:
111,69,6849,2,0,L|230:73,1,110,2|0,0:0|0:0,0:0:0:0:
282,75,7599,1,0,0:0:0:0:
282,75,7849,2,0,P|269:131|310:192,1,110,0|0,0:0|0:0,0:0:0:0:
393,137,8849,6,0,P|406:193|365:254,1,110,2|0,0:0|0:0,0:0:0:0:
346,278,9599,2,0,L|479:287,1,110,2|2,0:0|0:0,0:0:0:0:
510,291,10349,1,0,0:0:0:0:
435,372,10849,2,0,L|313:366,1,110,2|0,0:0|0:0,0:0:0:0:
273,348,11599,2,0,L|151:354,1,110,2|2,0:0|0:0,0:0:0:0:
82,278,12599,1,0,0:0:0:0:
82,278,12849,6,0,P|101:213|79:164,1,110,2|0,0:0|0:0,0:0:0:0:
66,124,13599,1,2,0:0:0:0:
66,124,13849,2,0,L|198:120,1,110,0|0,0:0|0:0,0:0:0:0:
265,184,14849,2,0,L|397:188,1,110,2|0,0:0|0:0,0:0:0:0:
429,91,15849,1,2,0:0:0:0:
511,163,16349,2,0,L|510:238,1,55,0|0,0:0|0:0,0:0:0:0:
506,272,16849,6,0,P|460:258|381:273,1,110,2|0,0:0|0:0,0:0:0:0:
357,301,17599,2,0,P|311:315|232:300,1,110,2|0,0:0|0:0,0:0:0:0:
154,253,18599,2,0,L|142:122,1,110,2|0,0:0|0:0,0:0:0:0:
138,88,19349,1,0,0:0:0:0:
239,126,19849,2,0,P|267:126|294:122,1,55,0|0,0:0|0:0,0:0:0:0:
346,103,20349,2,0,P|373:103|400:107,1,55,2|0,0:0|0:0,0:0:0:0:
451,129,20849,5,2,0:0:0:0:
506,223,21349,1,0,0:0:0:0:
506,223,21599,2,0,P|485:280|510:347,1,110,2|0,0:0|0:0,0:0:0:0:
395,373,22599,2,0,L|278:364,1,110,2|0,0:0|0:0,0:0:0:0:
230,359,23349,1,0,0:0:0:0:
276,259,23849,2,0,P|278:234|270:185,1,55,0|0,0:0|0:0,0:0:0:0:
255,152,24349,2,0,P|253:127|261:78,1,55,0|0,0:0|0:0,0:0:0:0:
271,42,24849,6,0,B|212:22|212:57|140:37,1,110,2|0,0:0|0:0,0:0:0:0:
109,26,25599,2,0,P|60:11|-13:39,1,110,2|0,0:0|0:0,0:0:0:0:
58,117,26599,2,0,L|52:233,1,110,2|0,0:0|0:0,0:0:0:0:
48,281,27349,1,0,0:0:0:0:
155,260,27849,2,0,P|211:257|219:258,1,55,0|0,0:0|0:0,0:0:0:0:
263,268,28349,1,2,0:0:0:0:
355,328,28849,6,0,P|373:273|341:213,1,110,2|0,0:0|0:0,0:0:0:0:
319,184,29599,2,0,P|301:129|333:69,1,110,2|0,0:0|0:0,0:0:0:0:
356,41,30349,1,0,0:0:0:0:
413,134,30849,1,2,0:0:0:0:
256,192,30974,12,0,32849,0:0:0:0:
441,179,34849,6,0,P|383:163|321:174,1,110,2|0,0:0|0:0,0:0:0:0:
285,194,35599,2,0,P|232:209|178:203,1,110,2|0,0:0|0:0,0:0:0:0:
126,185,36349,1,0,0:0:0:0:
22,148,36849,2,0,L|34:267,1,110,2|0,0:0|0:0,0:0:0:0:
41,311,37599,2,0,B|100:297|104:328|153:312,1,110,2|0,0:0|0:0,0:0:0:0:
202,298,38349,1,0,0:0:0:0:
303,340,38849,6,0,P|315:285|279:227,1,110,2|0,0:0|0:0,0:0:0:0:
261,193,39599,2,0,L|261:75,1,110,2|0,0:0|0:0,0:0:0:0:
261,28,40349,1,0,0:0:0:0:
170,90,40849,2,0,B|117:73|118:116|42:88,1,110,2|0,0:0|0:0,0:0:0:0:
8,83,41599,1,0,0:0:0:0:
8,83,41849,2,0,L|17:192,1,110,2|0,0:0|0:0,0:0:0:0:
125,218,42849,6,0,P|183:204|250:221,1,110,2|0,0:0|0:0,0:0:0:0:
281,236,43599,2,0,P|339:250|406:233,1,110,2|0,0:0|0:0,0:0:0:0:
441,227,44349,1,0,0:0:0:0:
374,139,44849,2,0,L|373:13,1,110,2|0,0:0|0:0,0:0:0:0:
325,2,45599,2,0,P|274:27|210:17,1,110,2|0,0:0|0:0,0:0:0:0:
168,9,46349,1,0,0:0:0:0:
103,98,46849,6,0,L|116:223,1,110,2|0,0:0|0:0,0:0:0:0:
123,261,47599,1,2,0:0:0:0:
123,261,47849,2,0,P|81:252|23:260,2,82.5,0|0|0,0:0|0:0|0:0,0:0:0:0:
171,286,48849,2,0,P|216:300|294:282,1,110,2|2,0:0|0:0,0:0:0:0:
377,244,49849,2,0,L|379:122,1,110,2|2,0:0|0:0,0:0:0:0:
477,181,50849,6,0,L|479:303,1,110,2|0,0:0|0:0,0:0:0:0:
480,345,51599,2,0,P|432:321|372:327,1,110,2|0,0:0|0:0,0:0:0:0:
329,353,52349,1,2,0:0:0:0:
228,309,52849,2,0,L|106:307,1,110,2|0,0:0|0:0,0:0:0:0:
63,307,53599,2,0,P|76:251|51:187,1,110,2|0,0:0|0:0,0:0:0:0:
35,153,54349,1,2,0:0:0:0:
123,88,54849,6,0,B|184:73|186:110|249:83,1,110,2|0,0:0|0:0,0:0:0:0:
284,75,55599,1,0,0:0:0:0:
284,75,55849,1,2,0:0:0:0:
382,123,56349,2,0,L|385:184,1,55,0|0,0:0|0:0,0:0:0:0:
394,232,56849,2,0,P|350:215|286:226,1,110,2|0,0:0|0:0,0:0:0:0:
192,278,57849,2,0,L|114:273,2,55,2|0|0,0:0|0:0|0:0,0:0:0:0:
196,168,58849,6,0,L|188:42,1,110,2|0,0:0|0:0,0:0:0:0:
184,3,59599,2,0,P|242:19|311:5,1,110,2|0,0:0|0:0,0:0:0:0:
344,3,60349,1,2,0:0:0:0:
418,83,60849,2,0,P|407:131|441:201,1,110,2|0,0:0|0:0,0:0:0:0:
457,232,61599,2,0,L|521:227,2,55,0|0|0,0:0|0:0|0:0,0:0:0:0:
417,269,62349,1,2,0:0:0:0:
310,240,62849,6,0,P|267:258|186:235,1,110,2|0,0:0|0:0,0:0:0:0:
156,223,63599,2,0,P|113:205|32:228,1,110,2|0,0:0|0:0,0:0:0:0:
8,248,64349,1,2,0:0:0:0:
101,305,64849,2,0,L|98:364,2,55,2|2|2,0:0|0:0|0:0,0:0:0:0:
455,281,66849,6,0,L|434:143,1,121.000003692627,2|0,0:0|0:0,0:0:0:0:
427,101,67599,2,0,P|384:120|305:104,1,121.000003692627,2|0,0:0|0:0,0:0:0:0:
259,80,68349,1,2,0:0:0:0:
158,146,68849,2,0,L|170:278,1,121.000003692627,2|0,0:0|0:0,0:0:0:0:
177,326,69599,1,2,0:0:0:0:
177,326,69849,2,0,P|232:299|306:309,1,121.000003692627
392,368,70849,6,0,P|413:303|382:248,1,121.000003692627,2|2,0:0|0:0,0:0:0:0:
356,209,71599,2,0,P|335:144|366:89,1,121.000003692627,2|2,0:0|0:0,0:0:0:0:
396,53,72349,1,2,0:0:0:0:
281,14,72849,2,0,L|145:20,1,121.000003692627,2|0,0:0|0:0,0:0:0:0:
111,56,73599,2,0,L|33:52,2,60.5000018463135,2|0|0,0:0|0:0|0:0,0:0:0:0:
143,107,74349,1,2,0:0:0:0:
83,212,74849,6,0,P|69:271|103:341,1,121.000003692627,2|0,0:0|0:0,0:0:0:0:
134,367,75599,2,0,L|263:358,1,121.000003692627,2|0,0:0|0:0,0:0:0:0:
315,354,76349,1,2,0:0:0:0:
419,292,76849,2,0,L|501:300,2,60.5000018463135,2|0|0,0:0|0:0|0:0,0:0:0:0:
373,252,77599,2,0,P|395:196|371:116,1,121.000003692627,2|0,0:0|0:0,0:0:0:0:
360,81,78349,1,2,0:0:0:0:
259,149,78849,6,0,P|206:168|141:134,1,121.000003692627,2|0,0:0|0:0,0:0:0:0:
109,99,79599,2,0,P|56:80|-9:114,1,121.000003692627,2|0,0:0|0:0,0:0:0:0:
0,165,80349,1,2,0:0:0:0:
95,239,80849,2,0,L|89:385,1,121.000003692627,2|2,0:0|0:0,0:0:0:0:
211,364,81849,2,0,L|203:226,1,121.000003692627,2|2,0:0|0:0,0:0:0:0:
195,182,82599,1,0,0:0:0:0:
195,182,82849,6,0,P|260:200|323:182,1,121.000003692627,2|0,0:0|0:0,0:0:0:0:
362,157,83599,2,0,P|427:139|490:157,1,121.000003692627,2|0,0:0|0:0,0:0:0:0:
508,203,84349,1,2,0:0:0:0:
431,296,84849,2,0,L|296:284,1,121.000003692627,2|0,0:0|0:0,0:0:0:0:
253,263,85599,1,2,0:0:0:0:
253,263,85850,2,0,L|132:273,1,121.000003692627
54,181,86849,6,0,P|69:99|46:64,1,121.000003692627,2|2,0:0|0:0,0:0:0:0:
23,16,87599,2,0,L|164:10,1,121.000003692627,2|2,0:0|0:0,0:0:0:0:
204,7,88349,1,2,0:0:0:0:
317,49,88849,2,0,P|301:102|333:173,1,121.000003692627,2|0,0:0|0:0,0:0:0:0:
361,208,89599,2,0,P|377:261|345:332,1,121.000003692627,2|0,0:0|0:0,0:0:0:0:
328,374,90349,1,2,0:0:0:0:
217,324,90849,6,0,B|156:292|161:351|80:315,1,121.000003692627,2|0,0:0|0:0,0:0:0:0:
43,302,91599,2,0,L|57:154,1,121.000003692627,2|0,0:0|0:0,0:0:0:0:
62,121,92349,1,0,0:0:0:0:
175,162,92849,2,0,P|243:177|301:153,1,121.000003692627,2|0,0:0|0:0,0:0:0:0:
345,136,93599,2,0,P|413:121|471:145,1,121.000003692627,2|0,0:0|0:0,0:0:0:0:
506,176,94349,1,2,0:0:0:0:
489,295,94849,6,0,B|435:312|432:276|368:299,1,121.000003692627,2|0,0:0|0:0,0:0:0:0:
317,328,95599,1,2,0:0:0:0:
317,328,95849,2,0,L|173:322,1,121.000003692627,0|0,0:0|0:0,0:0:0:0:
135,320,96599,1,0,0:0:0:0:
135,320,96849,2,0,P|139:377|136:390,2,60.5000018463135,2|2|2,0:0|0:0|0:0,0:0:0:0:
256,192,98849,12,0,102849,0:0:0:0:
