osu file format v14

[General]
AudioFilename: audio.mp3
AudioLeadIn: 0
PreviewTime: 65974
Countdown: 0
SampleSet: Soft
StackLeniency: 0.7
Mode: 0
LetterboxInBreaks: 0
WidescreenStoryboard: 0

[Editor]
Bookmarks: 8768,16768,20768,25518,28768,30768,34768,50768,64768,66768
DistanceSpacing: 1
BeatDivisor: 4
GridSize: 16
TimelineZoom: 1

[Metadata]
Title:Deatta Koro no You ni
TitleUnicode:出逢った頃のように
Artist:Takagi-san (CV: Rie Takahashi)
ArtistUnicode:高木さん(CV:高橋李依)
Creator:hypercyte
Version:Easy
Source:からかい上手の高木さん
Tags:karakai jouzu no takagi-san skilled teaser takagi-san ending ed 7 takagi nishikata like when we first met peter
BeatmapID:1596171
BeatmapSetID:755289

[Difficulty]
HPDrainRate:3
CircleSize:3
OverallDifficulty:3
ApproachRate:3
SliderMultiplier:1
SliderTickRate:1

[Events]
//Background and Video events
0,0,"bg.jpg",0,0
//Break Periods
//Storyboard Layer 0 (Background)
//Storyboard Layer 1 (Fail)
//Storyboard Layer 2 (Pass)
//Storyboard Layer 3 (Foreground)
//Storyboard Sound Samples

[TimingPoints]
849,500,4,2,0,30,1,0
849,-100,4,2,0,30,0,0
8849,-100,4,2,0,40,0,0
14849,-100,4,2,0,35,0,0
16849,-100,4,2,0,50,0,0
20849,-100,4,2,0,50,0,0
30849,-100,4,2,0,5,0,0
32849,-100,4,2,0,20,0,0
34849,-100,4,2,0,50,0,0
50849,-100,4,2,0,50,0,0
64849,-100,4,2,0,90,0,0
66849,-90.9090909090909,4,2,0,80,0,1
96849,-90.9090909090909,4,2,0,90,0,1
97349,-100,4,2,0,90,0,0
98849,-100,4,2,0,5,0,0

[Colours]
Combo1 : 242,189,140
Combo2 : 128,64,64
Combo3 : 122,95,95

[HitObjects]
80,147,849,6,0,P|113:107|208:107,1,150,2|2,0:0|0:0,0:0:0:0:
288,230,2349,1,2,0:0:0:0:
329,139,2849,2,0,P|424:130|391:208,1,200,2|2,0:0|0:0,0:0:0:0:
314,239,4349,2,0,L|197:238,1,100,0|2,0:0|0:0,0:0:0:0:
113,241,5349,6,0,P|126:286|167:325,2,100
149,148,6849,2,0,P|145:76|56:122,1,200,2|2,0:0|0:0,0:0:0:0:
70,210,8349,1,0,0:0:0:0:
33,302,8849,6,0,P|88:310|162:238,2,150,2|2|0,0:0|0:0|0:0,0:0:0:0:
73,210,10849,2,0,P|126:160|198:165,2,150,2|2|0,0:0|0:0|0:0,0:0:0:0:
89,308,12849,6,0,L|205:302,1,100,2|0,0:0|0:0,0:0:0:0:
275,252,13849,2,0,L|391:258,1,100,0|2,0:0|0:0,0:0:0:0:
466,298,14849,1,2,0:0:0:0:
92,154,16849,5,2,0:0:0:0:
212,64,17599,2,0,B|251:96|251:96|239:261,1,200,2|2,0:0|0:0,0:0:0:0:
346,138,19349,2,0,P|395:115|451:118,2,100,0|0|2,0:0|0:0|0:0,0:0:0:0:
286,218,20849,5,2,0:0:0:0:
236,76,21599,2,0,P|139:86|180:132,1,200,2|2,0:0|0:0,0:0:0:0:
241,257,23349,2,0,L|234:380,2,100,0|0|0,0:0|0:0|0:0,0:0:0:0:
315,189,24849,5,2,0:0:0:0:
405,308,25599,2,0,B|445:279|445:279|451:115,1,200,2|2,0:0|0:0,0:0:0:0:
332,36,27349,2,0,P|291:30|230:55,2,100,0|0|2,0:0|0:0|0:0,0:0:0:0:
300,131,28849,5,2,0:0:0:0:
151,113,29599,2,0,P|87:149|120:208,1,150,2|0,0:0|0:0,0:0:0:0:
256,192,30849,12,0,32849,0:0:0:0:
86,173,34849,5,2,0:0:0:0:
178,291,35599,2,0,P|250:307|316:252,1,150,2|0,0:0|0:0,0:0:0:0:
380,195,36849,2,0,B|402:237|402:237|393:341,1,150,2|2,0:0|0:0,0:0:0:0:
490,224,38349,1,0,0:0:0:0:
463,127,38849,6,0,P|366:86|312:112,1,150,2|2,0:0|0:0,0:0:0:0:
274,238,40349,1,0,0:0:0:0:
218,154,40849,2,0,P|156:99|66:247,1,300,2|0,0:0|0:0,0:0:0:0:
136,293,42849,6,0,L|291:300,1,150,2|2,0:0|0:0,0:0:0:0:
426,351,44349,1,2,0:0:0:0:
406,252,44849,2,0,P|409:195|469:114,1,150,2|2,0:0|0:0,0:0:0:0:
321,61,46349,1,0,0:0:0:0:
257,138,46849,6,0,P|188:164|103:73,2,200,2|2|2,0:0|0:0|0:0,0:0:0:0:
306,51,49349,1,2,0:0:0:0:
384,112,49849,2,0,L|383:229,1,100,2|2,0:0|0:0,0:0:0:0:
402,310,50849,6,0,B|381:295|381:295|243:296,1,150,2|2,0:0|0:0,0:0:0:0:
111,335,52349,1,2,0:0:0:0:
148,242,52849,2,0,P|161:193|121:89,1,150,2|2,0:0|0:0,0:0:0:0:
256,17,54349,1,2,0:0:0:0:
344,62,54849,6,0,P|315:130|415:201,2,200,2|2|2,0:0|0:0|0:0,0:0:0:0:
444,61,57349,2,0,B|484:91|484:91|482:254,1,200,0|0,0:0|0:0,0:0:0:0:
416,316,58849,6,0,P|382:297|272:293,1,150,2|2,0:0|0:0,0:0:0:0:
137,357,60349,1,2,0:0:0:0:
70,282,60849,2,0,L|77:121,1,150,2|0,0:0|0:0,0:0:0:0:
196,41,62349,1,2,0:0:0:0:
230,134,62849,6,0,P|299:184|365:145,2,150,2|2|2,0:0|0:0|0:0,0:0:0:0:
302,64,64849,2,0,B|326:57|349:48|349:48|376:59|406:70,1,100,2|2,0:0|0:0,0:0:0:0:
201,333,66849,6,0,B|113:312|126:362|29:337,1,165.000005035401,2|2,0:0|0:0,0:0:0:0:
64,176,68349,1,2,0:0:0:0:
160,228,68849,2,0,P|216:242|316:176,1,165.000005035401,2|2,0:0|0:0,0:0:0:0:
304,83,70099,1,0,0:0:0:0:
464,121,70849,6,0,B|471:196|471:196|442:256|442:256|449:333,2,220.000006713867,2|0|2,0:0|0:0|0:0,0:0:0:0:
384,45,73349,1,0,0:0:0:0:
338,145,73849,2,0,L|226:140,1,110.000003356934,0|2,0:0|0:0,0:0:0:0:
120,115,74849,6,0,P|138:153|119:272,1,165.000005035401,2|2,0:0|0:0,0:0:0:0:
274,329,76349,1,2,0:0:0:0:
336,238,76849,2,0,B|409:211|427:287|508:243,1,165.000005035401,2|2,0:0|0:0,0:0:0:0:
469,86,78349,1,2,0:0:0:0:
375,143,78849,6,0,L|261:146,1,110.000003356934,2|0,0:0|0:0,0:0:0:0:
196,59,79849,2,0,L|305:56,1,110.000003356934,0|2,0:0|0:0,0:0:0:0:
406,101,80849,2,0,P|420:143|397:210,1,110.000003356934,2|2,0:0|0:0,0:0:0:0:
299,164,81849,2,0,P|285:206|308:273,1,110.000003356934,2|2,0:0|0:0,0:0:0:0:
238,356,82849,6,0,B|150:377|163:327|66:352,1,165.000005035401,2|2,0:0|0:0,0:0:0:0:
44,187,84349,1,2,0:0:0:0:
149,218,84849,2,0,L|321:199,1,165.000005035401,2|2,0:0|0:0,0:0:0:0:
298,90,86099,1,0,0:0:0:0:
138,133,86849,6,0,P|61:111|128:19,2,220.000006713867,2|0|2,0:0|0:0|0:0,0:0:0:0:
237,91,89349,1,0,0:0:0:0:
316,167,89849,2,0,L|425:162,1,110.000003356934,0|2,0:0|0:0,0:0:0:0:
480,257,90849,6,0,L|310:266,1,165.000005035401,2|2,0:0|0:0,0:0:0:0:
168,340,92349,1,0,0:0:0:0:
90,262,92849,2,0,B|88:202|88:202|104:160|104:160|102:91,1,165.000005035401,2|2,0:0|0:0,0:0:0:0:
256,40,94349,1,2,0:0:0:0:
348,98,94849,6,0,L|344:214,1,110.000003356934,2|0,0:0|0:0,0:0:0:0:
247,260,95849,2,0,L|243:144,1,110.000003356934,0|0,0:0|0:0,0:0:0:0:
158,79,96849,1,2,0:0:0:0:
78,139,97349,1,2,0:0:0:0:
256,192,98849,12,0,102849,0:0:0:0:
