osu file format v14

[General]
AudioFilename: audio.mp3
AudioLeadIn: 0
PreviewTime: 51948
Countdown: 0
SampleSet: Soft
StackLeniency: 0.7
Mode: 0
LetterboxInBreaks: 0
WidescreenStoryboard: 1

[Editor]
DistanceSpacing: 1
BeatDivisor: 6
GridSize: 4
TimelineZoom: 3.499999

[Metadata]
Title:Chiisana Koi no Uta
TitleUnicode:小さな恋のうた
Artist:Takagi-san (CV: Rie Takahashi)
ArtistUnicode:高木さん(CV:高橋李依)
Creator:_kotachi_
Version:Affection
Source:からかい上手の高木さん
Tags:karakai jouzu no takagi-san ending ed Little love song Yasaija 714
BeatmapID:1581349
BeatmapSetID:751065

[Difficulty]
HPDrainRate:6
CircleSize:4
OverallDifficulty:8.2
ApproachRate:9.2
SliderMultiplier:1.7
SliderTickRate:1

[Events]
//Background and Video events
0,0,"BG.jpg",0,0
//Break Periods
//Storyboard Layer 0 (Background)
//Storyboard Layer 1 (Fail)
//Storyboard Layer 2 (Pass)
//Storyboard Layer 3 (Foreground)
//Storyboard Sound Samples

[TimingPoints]
1093,292.682926829268,4,2,1,30,1,0
1093,-200,4,2,1,30,0,0
10458,-200,4,2,1,40,0,0
18507,-133.333333333333,4,2,1,40,0,0
19092,-133.333333333333,4,2,1,20,0,0
19239,-133.333333333333,4,2,1,30,0,0
19385,-133.333333333333,4,2,1,40,0,0
19824,-200,4,2,1,40,0,0
20995,-117.647058823529,4,2,1,60,0,0
39727,-111.111111111111,4,2,1,60,0,0
46092,-111.111111111111,4,2,1,5,0,0
46166,-111.111111111111,4,2,1,60,0,0
47775,-100,4,2,1,70,0,0
50946,-100,4,2,1,50,0,0
51044,-100,4,2,1,60,0,0
51141,-100,4,2,1,70,0,0
51288,-100,4,2,1,55,0,0
51434,-100,4,2,1,70,0,0
51727,-100,4,2,1,25,0,0
51763,-100,4,2,1,5,0,0
51873,-100,4,2,1,25,0,0
51910,-100,4,2,1,5,0,0
52019,-200,4,2,1,50,0,0
52458,-200,4,2,1,5,0,0
52605,-90.9090909090909,4,2,1,75,0,1
53995,-90.9090909090909,4,2,1,5,0,1
54068,-90.9090909090909,4,2,1,75,0,1
59263,-90.9090909090909,4,2,1,5,0,1
59336,-90.9090909090909,4,2,1,75,0,1
61604,-90.9090909090909,4,2,1,5,0,1
61678,-90.9090909090909,4,2,1,75,0,1
63361,-90.9090909090909,4,2,1,5,0,1
63434,-90.9090909090909,4,2,1,75,0,1
66434,-90.9090909090909,4,2,1,5,0,1
66507,-90.9090909090909,4,2,1,75,0,1
68629,-90.9090909090909,4,2,1,5,0,1
68702,-90.9090909090909,4,2,1,75,0,1
71336,-90.9090909090909,4,2,1,75,0,1
80702,-83.3333333333333,4,2,1,75,0,1
86995,-83.3333333333333,4,2,1,35,0,1
87032,-83.3333333333333,4,2,1,45,0,1
87141,-83.3333333333333,4,2,1,65,0,1
87727,-83.3333333333333,4,2,1,65,0,0
87873,-83.3333333333333,4,2,1,5,0,0

[Colours]
Combo1 : 255,165,121
Combo2 : 255,0,0
Combo3 : 255,128,0
Combo4 : 255,0,128
Combo5 : 128,0,0

[HitObjects]
230,89,507,5,2,0:0:0:0:
230,89,800,1,2,0:0:0:0:
230,89,1093,6,0,L|140:94,1,85
81,183,1678,2,0,L|171:178,1,85,2|0,0:0|0:0,0:0:0:0:
276,172,2263,2,0,P|257:210|252:252,1,85
310,347,2849,1,2,0:0:0:0:
335,239,3141,1,0,0:0:0:0:
441,268,3434,6,0,L|429:183,1,85
415,74,4019,2,0,P|373:64|331:69,1,85,2|0,0:0|0:0,0:0:0:0:
235,125,4605,2,0,P|193:130|151:120,1,85
82,34,5190,1,2,0:0:0:0:
39,135,5483,1,0,0:0:0:0:
116,213,5775,6,0,P|157:207|199:217,1,85
293,275,6361,2,0,L|293:186,1,85,2|0,0:0|0:0,0:0:0:0:
250,87,6946,2,0,P|293:78|340:89,1,85
402,172,7532,1,2,0:0:0:0:
293,190,7824,1,0,0:0:0:0:
188,153,8117,6,0,L|180:251,1,85
176,280,8556,2,0,L|118:275,1,42.5,0|2,0:0|0:0,0:0:0:0:
91,270,8849,1,0,0:0:0:0:
188,153,9141,6,0,L|194:68,1,85
197,25,9580,1,0,0:0:0:0:
299,67,9873,2,0,L|351:64,1,42.5,2|0,0:0|0:0,0:0:0:0:
383,73,10166,2,0,L|435:70,1,42.5
433,152,10458,6,0,L|428:236,1,85,2|0,1:2|0:0,0:0:0:0:
372,289,10897,1,0,0:0:0:0:
372,289,11044,2,0,B|314:285,1,42.5,2|0,1:2|0:0,0:0:0:0:
269,238,11336,2,0,B|211:234,1,42.5,0|0,0:2|0:0,0:0:0:0:
160,274,11629,6,0,P|149:234|164:189,1,85,2|0,1:2|0:0,0:0:0:0:
228,155,12068,1,0,0:0:0:0:
228,155,12214,2,0,P|240:114|229:74,1,85,2|0,1:2|0:0,0:0:0:0:
371,15,12800,6,0,P|360:55|372:95,1,85,2|0,1:2|0:0,0:0:0:0:
436,138,13239,1,0,0:0:0:0:
436,138,13385,2,0,L|432:194,1,42.5,2|0,1:2|0:0,0:0:0:0:
362,210,13678,2,0,L|358:167,1,42.5
298,119,13971,6,0,L|198:120,1,85,2|0,1:2|0:0,0:0:0:0:
145,156,14410,1,0,0:0:0:0:
145,156,14556,2,0,L|45:157,1,85,2|0,1:2|1:0,0:0:0:0:
197,224,15141,6,0,L|297:225,1,85,2|0,1:2|0:0,0:0:0:0:
346,183,15580,1,0,0:0:0:0:
346,183,15727,2,0,P|354:205|358:232,1,42.5,2|0,1:2|0:0,0:0:0:0:
430,244,16019,2,0,P|420:265|403:287,1,42.5,0|0,0:2|0:0,0:0:0:0:
335,300,16312,6,0,L|250:299,1,85,2|0,1:2|0:0,0:0:0:0:
183,337,16751,1,0,0:0:0:0:
183,337,16897,2,0,P|174:295|187:255,1,85,2|0,1:2|0:0,0:0:0:0:
118,118,17483,6,0,P|126:159|113:199,1,85,2|0,1:2|0:0,0:0:0:0:
50,155,17922,2,0,P|43:128|44:103,1,42.5,2|0,0:0|1:2,0:0:0:0:
88,4,18214,2,0,P|86:25|80:45,1,42.5,2|0,0:0|0:2,0:0:0:0:
185,70,18507,6,0,B|233:66|233:66|261:78|261:78|309:74,1,127.500004863739,2|0,1:2|0:0,0:0:0:0:
396,25,18946,1,0,1:0:0:0:
392,119,19092,1,8,0:0:0:0:
391,135,19166,1,8,0:0:0:0:
390,151,19239,1,8,0:0:0:0:
290,176,19385,1,8,0:0:0:0:
474,202,19532,1,4,0:3:0:0:
474,202,19824,6,0,B|457:257|457:257|478:309|478:309|470:343|434:363|392:361|357:328,1,255,4|0,1:2|0:0,0:0:0:0:
214,144,20995,6,0,P|281:136|366:133,1,144.500002756119,4|2,1:0|1:2,0:0:0:0:
263,228,21434,1,0,0:0:0:0:
136,170,21580,2,0,P|133:134|142:99,1,72.2500013780594,8|0,0:0|0:0,0:0:0:0:
263,228,21873,2,0,P|272:262|269:298,1,72.2500013780594,2|0,0:0|3:0,0:0:0:0:
53,259,22166,6,0,P|133:255|198:273,1,144.500002756119,2|0,1:2|0:0,0:0:0:0:
116,357,22605,1,0,0:0:0:0:
269,298,22751,2,0,P|305:288|341:292,1,72.2500013780594,8|0,0:0|0:0,0:0:0:0:
239,188,23044,2,0,P|203:178|167:182,1,72.2500013780594,2|0,0:0|3:0,0:0:0:0:
351,188,23336,6,0,P|350:116|357:44,1,144.500002756119,2|2,1:2|1:2,0:0:0:0:
490,39,23775,1,0,0:0:0:0:
490,39,23922,2,0,P|485:74|475:109,1,72.2500013780594,8|0,0:0|0:0,0:0:0:0:
475,286,24214,2,0,P|470:251|460:216,1,72.2500013780594,2|0,0:0|3:0,0:0:0:0:
321,279,24507,6,0,B|238:292|270:239|179:253,1,144.500002756119,2|0,1:2|0:0,0:0:0:0:
96,310,24946,1,0,0:0:0:0:
64,147,25092,2,0,P|91:181|101:215,1,72.2500013780594,8|0,0:0|0:0,0:0:0:0:
200,94,25385,2,0,P|195:137|178:168,1,72.2500013780594,2|0,0:0|3:0,0:0:0:0:
309,59,25678,6,0,P|356:60|452:103,1,144.500002756119,2|2,1:2|1:2,0:0:0:0:
488,217,26117,1,0,0:0:0:0:
488,217,26263,2,0,L|401:223,1,72.2500013780594,8|0,0:0|0:0,0:0:0:0:
281,147,26556,2,0,L|368:153,1,72.2500013780594,2|0,0:0|3:0,0:0:0:0:
389,304,26849,6,0,L|235:295,1,144.500002756119,2|2,1:2|0:2,0:0:0:0:
156,168,27288,1,0,0:0:0:0:
156,168,27434,2,0,L|168:241,1,72.2500013780594,8|0,0:0|0:0,0:0:0:0:
61,331,27727,2,0,L|72:259,1,72.2500013780594,2|0,0:0|3:0,0:0:0:0:
108,89,28019,6,0,P|142:79|178:82,1,72.2500013780594,2|0,1:2|0:0,0:0:0:0:
242,143,28312,1,2,1:2:0:0:
303,5,28458,2,0,P|275:28|258:59,1,72.2500013780594,2|8,0:2|0:0,0:0:0:0:
253,214,28751,2,0,L|241:141,1,72.2500013780594,2|0,0:2|0:0,0:0:0:0:
341,85,29044,1,2,0:0:0:0:
178,82,29190,6,0,B|152:127|152:127|168:224,1,144.500002756119,0|2,1:0|0:0,0:0:0:0:
167,218,29629,1,0,0:0:0:0:
340,185,29775,2,0,L|418:190,1,72.2500013780594,8|0,0:0|0:0,0:0:0:0:
218,302,30068,2,0,L|140:307,1,72.2500013780594,2|8,1:2|0:0,0:0:0:0:
337,354,30361,6,0,P|318:275|330:209,1,144.500002756119,4|2,1:0|1:2,0:0:0:0:
378,127,30800,1,0,0:0:0:0:
239,197,30946,2,0,L|161:191,1,72.2500013780594,8|0,0:0|0:0,0:0:0:0:
116,50,31239,2,0,P|123:85|119:120,1,72.2500013780594,2|0,0:0|3:0,0:0:0:0:
46,258,31532,6,0,P|85:216|169:191,1,144.500002756119,2|0,1:2|0:0,0:0:0:0:
265,221,31971,1,0,0:0:0:0:
205,114,32117,1,8,0:0:0:0:
188,283,32263,1,0,0:0:0:0:
345,220,32410,2,0,P|338:185|315:158,1,72.2500013780594,2|0,0:0|3:0,0:0:0:0:
306,298,32702,6,0,L|377:304,1,72.2500013780594,2|0,1:2|0:0,0:0:0:0:
188,283,32995,2,0,L|116:289,1,72.2500013780594,2|0,1:2|0:0,0:0:0:0:
307,205,33288,2,0,L|378:211,1,72.2500013780594,8|0,0:2|0:0,0:0:0:0:
189,190,33580,2,0,L|117:196,1,72.2500013780594,2|0,0:2|3:0,0:0:0:0:
308,115,33873,6,0,B|391:94|367:147|464:124,2,144.500002756119,2|0|8,1:2|0:0|0:0,0:0:0:0:
222,180,34605,1,0,0:0:0:0:
216,8,34751,2,0,P|221:43|216:79,1,72.2500013780594,2|0,0:0|3:0,0:0:0:0:
81,185,35044,6,0,P|150:168|221:179,1,144.500002756119,2|2,1:2|1:2,0:0:0:0:
156,271,35483,1,0,0:0:0:0:
317,206,35629,2,0,L|315:279,1,72.2500013780594,8|0,0:0|0:0,0:0:0:0:
308,115,35922,2,0,L|306:42,1,72.2500013780594,2|0,0:0|3:0,0:0:0:0:
409,211,36214,6,0,B|407:306|407:306|377:355,1,144.500002756119,2|0,1:2|0:0,0:0:0:0:
316,243,36653,1,0,0:0:0:0:
246,353,36800,2,0,L|157:350,1,72.2500013780594,8|0,0:0|0:0,0:0:0:0:
188,198,37092,2,0,P|203:230|205:266,1,72.2500013780594,2|0,0:0|3:0,0:0:0:0:
49,251,37385,6,0,L|138:254,1,72.2500013780594,2|0,1:2|0:0,0:0:0:0:
285,187,37678,1,2,1:2:0:0:
206,130,37824,2,0,P|190:162|188:198,1,72.2500013780594,2|8,0:0|0:0,0:0:0:0:
295,93,38117,2,0,P|293:57|277:24,1,72.2500013780594,2|0,0:0|3:0,0:0:0:0:
285,187,38410,6,0,P|357:183|429:183,1,144.500002756119,4|0,1:0|0:0,0:0:0:0:
335,336,38849,2,0,L|331:261,1,72.2500013780594,0|0,1:0|0:0,0:0:0:0:
206,130,39141,1,8,0:0:0:0:
245,275,39288,1,0,1:0:0:0:
167,216,39434,1,8,0:0:0:0:
128,361,39580,1,8,0:0:0:0:
76,154,39727,6,0,P|96:78|149:30,1,152.999995330811,4|0,1:0|1:0,0:0:0:0:
230,158,40166,1,8,0:0:0:0:
284,10,40312,2,0,L|368:26,1,76.4999976654053
230,158,40605,2,0,L|146:173,1,76.4999976654053,0|4,1:0|0:3,0:0:0:0:
284,10,40897,5,0,0:0:0:0:
339,178,41044,2,0,L|344:97,1,76.4999976654053,8|0,0:0|1:0,0:0:0:0:
258,240,41336,1,0,0:0:0:0:
258,240,41483,2,0,L|254:317,1,76.4999976654053,8|0,0:0|0:0,0:0:0:0:
423,198,41775,2,0,L|427:122,1,76.4999976654053,8|4,0:3|0:3,0:0:0:0:
205,182,42068,6,0,B|121:170|151:223|60:209,1,152.999995330811,8|0,0:0|0:0,0:0:0:0:
185,323,42507,2,0,P|232:327|271:320,1,76.4999976654053,8|0,0:0|0:0,0:0:0:0:
302,175,42800,2,0,P|255:171|216:178,1,76.4999976654053,0|4,1:0|0:3,0:0:0:0:
84,126,43092,6,0,P|84:87|95:48,1,76.4999976654053,4|0,0:3|0:0,0:0:0:0:
148,246,43385,1,8,0:0:0:0:
170,122,43532,2,0,P|197:94|232:74,1,76.4999976654053,0|0,1:0|0:0,0:0:0:0:
131,262,43824,2,0,L|47:254,1,76.4999976654053,8|0,0:0|0:0,0:0:0:0:
232,187,44117,2,0,L|316:195,1,76.4999976654053,4|0,0:3|0:0,0:0:0:0:
389,254,44410,5,4,1:2:0:0:
338,105,44556,1,0,0:0:0:0:
266,300,44702,1,0,1:0:0:0:
411,164,44849,1,8,0:0:0:0:
429,168,45141,1,8,0:0:0:0:
448,171,45434,6,0,P|442:112|477:23,1,152.999995330811,4|8,1:0|0:0,0:0:0:0:
261,113,45873,2,0,P|214:128|147:113,1,114.749996498108,0|0,1:0|0:0,0:0:0:0:
135,106,46166,2,0,P|148:156|145:183,1,76.4999976654053,8|0,0:0|0:0,0:0:0:0:
37,294,46458,1,8,0:3:0:0:
63,156,46605,1,4,0:3:0:0:
205,270,46751,5,4,1:0:0:0:
63,156,46897,1,0,0:3:0:0:
127,342,47044,1,0,1:0:0:0:
228,136,47190,1,8,0:0:0:0:
246,140,47483,1,8,0:0:0:0:
265,143,47775,6,0,B|381:155|381:155|434:126,1,170,4|8,1:0|0:0,0:0:0:0:
260,46,48214,2,0,L|172:36,1,85,8|0,0:3|0:0,0:0:0:0:
74,243,48507,2,0,P|110:222|136:188,1,85,0|0,1:0|0:0,0:0:0:0:
81,31,48800,2,0,P|80:73|96:111,1,85,8|0,0:0|0:0,0:0:0:0:
265,143,49092,6,0,P|228:121|187:116,1,85,4|0,1:2|0:0,0:0:0:0:
167,284,49385,1,8,0:0:0:0:
322,216,49532,1,0,0:0:0:0:
136,188,49678,2,0,P|95:190|51:187,1,85,4|0,0:3|1:0,0:0:0:0:
282,133,49971,2,0,P|323:131|366:133,1,85,8|0,0:0|0:0,0:0:0:0:
254,342,50263,6,0,L|248:257,1,85,4|0,1:0|0:0,0:0:0:0:
107,76,50556,2,0,B|155:66|155:66|187:76|187:76|231:68,1,127.5,12|0,0:0|0:0,0:0:0:0:
253,53,50849,1,8,0:3:0:0:
243,107,50946,1,8,0:0:0:0:
272,155,51044,1,8,0:0:0:0:
324,171,51141,1,8,0:0:0:0:
364,56,51288,1,8,0:0:0:0:
149,152,51434,1,8,0:0:0:0:
149,152,51727,6,0,L|182:157,1,21.25,0|0,3:0|0:0,0:0:0:0:
150,233,51873,2,0,L|183:238,1,21.25,0|0,3:0|0:0,0:0:0:0:
152,314,52019,6,0,L|281:332,1,127.5,2|0,0:0|0:0,0:0:0:0:
431,125,52605,6,0,P|340:132|286:205,1,187.000005706787,4|0,1:0|1:0,0:0:0:0:
395,230,53044,1,0,0:0:0:0:
184,182,53190,2,0,P|137:184|91:193,1,93.5000028533936,8|0,0:0|0:0,0:0:0:0:
226,293,53483,2,0,P|270:302|317:304,1,93.5000028533936,2|0,0:0|3:0,0:0:0:0:
287,42,53775,6,0,L|292:182,1,140.25000428009,2|0,1:2|0:0,0:0:0:0:
286,205,54068,1,2,1:2:0:0:
479,90,54214,2,0,P|432:90|387:102,1,93.5000028533936,2|8,0:0|0:0,0:0:0:0:
443,283,54507,2,0,L|444:189,1,93.5000028533936,2|0,0:0|0:0,0:0:0:0:
279,225,54800,1,0,3:0:0:0:
390,347,54946,6,0,P|300:320|207:318,1,187.000005706787,2|0,1:2|1:0,0:0:0:0:
87,351,55385,1,0,0:0:0:0:
114,181,55532,2,0,P|130:224|139:270,1,93.5000028533936,8|0,0:0|0:0,0:0:0:0:
36,38,55824,2,0,P|19:81|10:127,1,93.5000028533936,2|0,0:0|3:0,0:0:0:0:
194,43,56117,6,0,B|267:37|267:37|303:61|303:61|373:55,1,187.000005706787,2|2,1:2|1:2,0:0:0:0:
191,171,56556,2,0,P|145:160|98:157,1,93.5000028533936,12|0,0:0|0:0,0:0:0:0:
354,239,56849,2,0,P|399:228|446:225,1,93.5000028533936,12|0,0:0|0:0,0:0:0:0:
220,334,57141,1,8,0:0:0:0:
265,123,57288,6,0,P|276:172|266:220,1,93.5000028533936,4|2,1:0|0:0,0:0:0:0:
47,259,57580,2,0,P|136:250|198:316,1,187.000005706787,2|8,1:2|0:0,0:0:0:0:
99,353,58019,1,0,0:0:0:0:
286,297,58166,2,0,P|331:286|378:283,1,93.5000028533936,2|0,0:0|3:0,0:0:0:0:
277,107,58458,6,0,B|168:94|214:165|102:145,1,187.000005706787,2|0,1:2|1:0,0:0:0:0:
131,38,58897,1,0,0:0:0:0:
251,196,59044,2,0,P|315:189|393:193,1,140.25000428009,8|0,0:0|0:0,0:0:0:0:
413,200,59336,1,2,0:0:0:0:
318,277,59483,1,0,3:0:0:0:
254,85,59629,6,0,P|271:42|306:10,1,93.5000028533936,2|0,1:2|0:0,0:0:0:0:
318,277,59922,2,0,P|329:322|321:367,1,93.5000028533936,2|0,1:2|0:0,0:0:0:0:
153,159,60214,2,0,P|118:129|98:87,1,93.5000028533936,8|0,0:0|0:0,0:0:0:0:
356,157,60507,2,0,P|402:161|442:183,1,93.5000028533936,2|0,0:0|3:0,0:0:0:0:
193,278,60800,6,0,P|154:302|108:308,2,93.5000028533936,2|8|0,1:2|0:0|1:0,0:0:0:0:
254,85,61239,1,0,0:0:0:0:
288,348,61385,2,0,L|277:208,1,140.25000428009,8|0,0:0|0:0,0:0:0:0:
275,185,61678,1,0,1:0:0:0:
153,303,61824,1,8,0:0:0:0:
129,49,61971,6,0,P|42:76|2:158,1,187.000005706787,4|0,1:0|1:0,0:0:0:0:
118,169,62410,1,0,0:0:0:0:
52,352,62556,2,0,P|48:308|49:247,1,93.5000028533936,8|0,0:0|0:0,0:0:0:0:
226,117,62849,2,0,P|230:161|229:222,1,93.5000028533936,2|0,0:2|3:0,0:0:0:0:
470,274,63141,6,0,P|402:257|336:276,1,140.25000428009,2|0,1:2|0:0,0:0:0:0:
319,293,63434,1,2,1:2:0:0:
415,138,63580,2,0,P|412:91|419:45,1,93.5000028533936,2|8,0:0|0:0,0:0:0:0:
252,166,63873,2,0,P|217:134|189:97,1,93.5000028533936,2|0,0:0|0:0,0:0:0:0:
305,314,64166,1,0,3:0:0:0:
120,306,64312,6,0,P|212:297|304:313,1,187.000005706787,2|0,1:2|1:0,0:0:0:0:
156,204,64751,1,0,0:0:0:0:
327,125,64897,2,0,P|333:171|324:217,1,93.5000028533936,8|0,0:0|0:0,0:0:0:0:
113,127,65190,2,0,P|107:80|115:35,1,93.5000028533936,2|0,1:2|3:0,0:0:0:0:
252,166,65483,5,12,0:0:0:0:
71,203,65629,1,0,0:0:0:0:
220,6,65775,1,2,1:2:0:0:
244,259,65922,2,0,L|334:233,1,93.5000028533936,12|0,0:0|0:0,0:0:0:0:
30,134,66214,2,0,P|56:222|41:295,1,140.25000428009,12|0,0:0|0:0,0:0:0:0:
38,289,66507,1,0,1:0:0:0:
163,117,66653,6,0,L|170:22,1,93.5000028533936,4|0,1:0|0:0,0:0:0:0:
139,257,66946,2,0,B|247:276|210:206|315:220,1,187.000005706787,2|8,1:2|0:0,0:0:0:0:
418,297,67385,1,0,0:0:0:0:
426,109,67532,2,0,P|413:153|411:200,1,93.5000028533936,2|0,1:2|3:0,0:0:0:0:
329,28,67824,6,0,B|201:16|201:16|142:37,1,187.000005706787,2|0,1:2|1:0,0:0:0:0:
246,173,68263,1,0,0:0:0:0:
62,72,68410,2,0,P|72:139|71:211,1,140.25000428009,8|0,0:0|0:0,0:0:0:0:
66,234,68702,1,2,0:0:0:0:
200,101,68849,1,0,3:0:0:0:
173,271,68995,6,0,P|164:316|159:363,1,93.5000028533936,2|0,1:2|0:0,0:0:0:0:
335,208,69288,2,0,P|343:253|348:300,1,93.5000028533936,2|0,1:2|0:0,0:0:0:0:
145,156,69580,2,0,P|103:178|71:210,1,93.5000028533936,8|0,0:0|0:0,0:0:0:0:
354,98,69873,2,0,P|395:120|427:152,1,93.5000028533936,2|0,1:2|3:0,0:0:0:0:
173,271,70166,5,2,1:2:0:0:
224,70,70312,1,8,0:0:0:0:
335,208,70458,1,4,0:3:0:0:
167,159,70605,1,0,0:0:0:0:
354,98,70751,5,8,0:0:0:0:
405,298,70897,1,0,1:0:0:0:
252,72,71044,5,8,0:0:0:0:
193,289,71190,1,8,0:0:0:0:
8,97,71336,6,0,P|99:97|166:158,1,187.000005706787,4|2,1:0|1:2,0:0:0:0:
56,212,71775,1,0,0:0:0:0:
280,113,71922,2,0,P|284:159|280:206,1,93.5000028533936,8|0,0:0|0:0,0:0:0:0:
157,359,72214,2,0,P|153:312|157:265,1,93.5000028533936,2|8,0:0|0:0,0:0:0:0:
404,335,72507,6,0,P|331:358|229:306,1,187.000005706787,0|2,1:0|0:0,0:0:0:0:
396,215,72946,1,0,0:0:0:0:
246,100,73092,2,0,P|199:97|153:106,1,93.5000028533936,8|0,0:0|0:0,0:0:0:0:
396,215,73385,2,0,P|443:218|489:209,1,93.5000028533936,2|8,0:0|0:0,0:0:0:0:
206,181,73678,6,0,B|218:243|218:243|199:293|199:293|214:368,1,187.000005706787,0|2,1:0|1:2,0:0:0:0:
106,234,74117,1,0,0:0:0:0:
307,306,74263,2,0,B|354:312|354:312|403:293,1,93.5000028533936,8|0,0:0|0:0,0:0:0:0:
243,182,74556,5,2,0:0:0:0:
402,195,74702,1,8,0:0:0:0:
220,264,74849,5,0,1:0:0:0:
409,178,74995,1,8,0:0:0:0:
197,98,75141,6,0,P|151:90|94:103,1,93.5000028533936,2|0,1:2|0:0,0:0:0:0:
133,299,75434,2,0,P|199:247|148:179,1,187.000005706787,8|2,0:0|0:0,0:0:0:0:
35,304,75873,1,8,0:0:0:0:
241,344,76019,6,0,P|325:307|418:311,1,187.000005706787,4|2,1:2|0:0,0:0:0:0:
287,204,76458,1,0,0:0:0:0:
453,121,76605,2,0,P|466:166|470:213,1,93.5000028533936,8|0,0:0|0:0,0:0:0:0:
281,15,76897,2,0,P|268:59|264:106,1,93.5000028533936,2|8,0:0|0:0,0:0:0:0:
308,295,77190,6,0,B|260:307|221:271|221:271|198:314|143:315,1,187.000005706787,0|2,1:0|0:0,0:0:0:0:
287,204,77629,1,0,0:0:0:0:
129,131,77775,2,0,P|135:180|143:223,1,93.5000028533936,8|0,0:0|0:0,0:0:0:0:
353,134,78068,2,0,P|362:88|367:41,1,93.5000028533936,2|8,0:0|0:0,0:0:0:0:
28,56,78361,6,0,L|214:42,1,187.000005706787,4|2,1:2|0:0,0:0:0:0:
37,188,78800,1,0,0:0:0:0:
293,215,78946,2,0,L|213:165,1,93.5000028533936,8|0,0:0|0:0,0:0:0:0:
146,311,79239,5,2,1:2:0:0:
123,146,79385,1,8,0:0:0:0:
53,326,79532,5,0,1:0:0:0:
129,131,79678,1,8,0:0:0:0:
246,303,79824,6,0,P|291:313|337:306,1,93.5000028533936,0|0,1:0|0:0,0:0:0:0:
298,121,80117,2,0,L|292:214,1,93.5000028533936,8|0,0:0|0:0,0:0:0:0:
481,221,80410,2,0,P|435:214|389:224,1,93.5000028533936,2|8,0:0|0:0,0:0:0:0:
232,332,80702,6,0,B|156:318|156:318|109:338|109:338|33:325,1,203.999993774414,12|2,0:1|1:2,0:0:0:0:
337,305,81141,1,0,1:0:0:0:
217,126,81288,2,0,P|316:130|392:196,1,203.999993774414,8|2,0:0|1:2,0:0:0:0:
114,234,81727,1,0,3:0:0:0:
103,12,81873,6,0,P|96:70|102:126,1,101.999996887207,8|0,0:0|0:0,0:0:0:0:
283,321,82166,2,0,P|286:270|279:219,1,101.999996887207,2|0,1:2|1:0,0:0:0:0:
29,259,82458,2,0,P|86:266|142:259,1,101.999996887207,8|0,0:0|0:0,0:0:0:0:
337,79,82751,2,0,P|286:75|235:82,1,101.999996887207,2|0,1:2|3:0,0:0:0:0:
440,313,83044,6,0,P|447:211|469:111,1,203.999993774414,12|2,0:0|1:2,0:0:0:0:
235,81,83483,1,0,1:0:0:0:
299,322,83629,2,0,B|224:331|224:331|182:306|182:306|102:314,1,203.999993774414,8|2,0:0|1:2,0:0:0:0:
263,202,84068,1,0,1:0:0:0:
77,44,84214,6,0,L|87:148,1,101.999996887207,8|0,0:0|0:0,0:0:0:0:
329,124,84507,2,0,P|282:102|232:102,1,101.999996887207,2|0,1:2|0:0,0:0:0:0:
316,346,84800,1,8,0:0:0:0:
263,202,84946,1,8,0:0:0:0:
151,307,85092,2,0,P|103:288|50:282,1,101.999996887207,2|0,1:2|0:0,0:0:0:0:
316,346,85385,6,0,P|388:295|412:183,1,203.999993774414,4|2,1:0|1:2,0:0:0:0:
238,291,85824,1,0,0:0:0:0:
253,74,85971,2,0,L|259:175,1,101.999996887207,8|0,0:0|0:0,0:0:0:0:
143,337,86263,2,0,L|149:235,1,101.999996887207,2|0,1:2|0:0,0:0:0:0:
394,311,86556,5,8,0:0:0:0:
394,311,86995,6,0,L|400:281,1,25.4999992218018,8|8,0:0|0:0,0:0:0:0:
418,188,87141,1,8,0:0:0:0:
264,308,87288,1,8,0:0:0:0:
206,128,87434,1,4,0:3:0:0:
206,128,87727,6,0,L|104:133,1,101.999996887207,4|0,1:0|0:0,0:0:0:0:
