osu file format v14

[General]
AudioFilename: audio.mp3
AudioLeadIn: 0
PreviewTime: 52206
Countdown: 1
SampleSet: Soft
StackLeniency: 0.7
Mode: 2
LetterboxInBreaks: 0
WidescreenStoryboard: 0

[Editor]
Bookmarks: 10060,20597,39328,61572,70938
DistanceSpacing: 1
BeatDivisor: 2
GridSize: 8
TimelineZoom: 1

[Metadata]
Title:Chiisana Koi no Uta (TV Size)
TitleUnicode:小さな恋のうた (TV Size)
Artist:Takagi-san (CV: Rie Takahashi)
ArtistUnicode:高木さん(CV:高橋李依)
Creator:PokeSky
Version:Cup
Source:からかい上手の高木さん
Tags:Karakai Jouzu no Takagi-san Skilled Teaser Takagi-san ending ed 5 takagi nishikata little love song
BeatmapID:2025455
BeatmapSetID:967902

[Difficulty]
HPDrainRate:3
CircleSize:2.5
OverallDifficulty:5
ApproachRate:5
SliderMultiplier:1.4
SliderTickRate:1

[Events]
//Background and Video events
0,0,"907668 (2).png",0,0
//Break Periods
//Storyboard Layer 0 (Background)
//Storyboard Layer 1 (Fail)
//Storyboard Layer 2 (Pass)
//Storyboard Layer 3 (Foreground)
//Storyboard Sound Samples

[TimingPoints]
1280,292.682926829268,4,2,1,100,1,0
52792,-100,4,2,1,100,0,1
85572,-100,4,2,1,100,0,0

[Colours]
Combo1 : 43,43,43
Combo2 : 245,41,41
Combo3 : 162,81,0

[HitObjects]
221,169,694,6,0,L|251:24,1,140
390,171,1280,2,0,L|371:14,1,140
213,225,1865,1,0,0:0:0:0:
297,222,2157,1,0,0:0:0:0:
380,217,2450,1,0,0:0:0:0:
81,180,3036,38,0,L|118:26,1,140
258,182,3622,2,0,L|281:35,1,140
117,160,4207,1,0,0:0:0:0:
311,169,4499,1,0,0:0:0:0:
227,169,4792,1,0,0:0:0:0:
460,170,5377,38,0,L|432:21,1,140
348,176,5963,2,0,L|321:32,1,140
154,173,6548,1,0,0:0:0:0:
238,174,6840,1,0,0:0:0:0:
322,173,7133,1,0,0:0:0:0:
187,176,7719,38,0,L|135:21,1,140
288,173,8304,2,0,L|408:67,1,140
309,214,8743,1,0,0:0:0:0:
399,214,9036,1,0,0:0:0:0:
267,213,9328,1,0,0:0:0:0:
102,189,10060,6,0,L|125:42,1,140
264,183,10646,2,0,L|247:43,1,140
392,187,11231,1,0,0:0:0:0:
457,184,11524,1,0,0:0:0:0:
327,188,11816,1,0,0:0:0:0:
73,171,12401,6,0,L|63:31,1,140
200,174,12987,2,0,L|160:7,1,140
296,179,13572,1,0,0:0:0:0:
366,177,13865,1,0,0:0:0:0:
227,180,14157,1,0,0:0:0:0:
489,180,14743,6,0,L|459:43,1,140
323,182,15329,2,0,L|362:14,1,140
230,168,15914,1,0,0:0:0:0:
161,171,16207,1,0,0:0:0:0:
286,171,16499,1,0,0:0:0:0:
199,182,17084,6,0,L|269:22,1,140
150,167,17670,2,0,L|-1:50,1,140
99,225,18109,1,0,0:0:0:0:
223,222,18401,1,0,0:0:0:0:
149,226,18694,1,0,0:0:0:0:
291,169,20597,6,0,L|261:24,1,140
122,171,21183,2,0,L|141:14,1,140
278,223,21768,1,0,0:0:0:0:
215,222,22060,1,0,0:0:0:0:
151,220,22353,1,0,0:0:0:0:
431,180,22939,38,0,L|394:26,1,140
258,182,23523,2,0,L|281:35,1,140
139,172,24110,1,0,0:0:0:0:
200,173,24402,1,0,0:0:0:0:
268,173,24695,1,0,0:0:0:0:
52,170,25280,38,0,L|79:16,1,140
164,176,25866,2,0,L|150:24,1,140
308,175,26450,1,0,0:0:0:0:
249,173,26743,1,0,0:0:0:0:
183,172,27036,1,0,0:0:0:0:
325,176,27622,38,0,L|362:24,1,140
224,173,28207,2,0,L|95:50,1,140
203,214,28646,1,0,0:0:0:0:
113,214,28939,1,0,0:0:0:0:
245,213,29231,1,0,0:0:0:0:
410,189,29963,6,0,L|387:42,1,140
248,183,30549,2,0,L|265:43,1,140
120,187,31134,1,0,0:0:0:0:
55,184,31427,1,0,0:0:0:0:
185,188,31719,1,0,0:0:0:0:
439,171,32304,6,0,L|449:31,1,140
312,174,32890,2,0,L|352:7,1,140
216,179,33475,1,0,0:0:0:0:
146,177,33768,1,0,0:0:0:0:
285,180,34060,1,0,0:0:0:0:
23,180,34646,6,0,L|53:43,1,140
189,182,35232,2,0,L|150:14,1,140
282,168,35817,1,0,0:0:0:0:
351,171,36110,1,0,0:0:0:0:
226,171,36402,1,0,0:0:0:0:
313,182,36987,6,0,L|274:22,1,140
412,173,37573,2,0,L|523:52,1,140
413,225,38012,1,0,0:0:0:0:
289,222,38304,1,0,0:0:0:0:
363,226,38597,1,0,0:0:0:0:
73,160,39328,6,0,L|104:16,1,140
177,172,39914,2,0,L|213:17,1,140
285,174,40499,1,0,0:0:0:0:
342,174,40792,1,0,0:0:0:0:
239,175,41084,1,0,0:0:0:0:
400,163,41670,6,0,L|366:16,1,140
289,168,42255,2,0,L|257:22,1,140
292,218,42694,1,0,0:0:0:0:
367,222,42987,1,0,0:0:0:0:
292,218,43279,1,0,0:0:0:0:
136,161,44011,5,0,0:0:0:0:
136,161,44304,1,0,0:0:0:0:
136,161,44597,2,0,L|354:24,1,210
349,135,45328,1,0,0:0:0:0:
413,130,45621,1,0,0:0:0:0:
235,178,46353,6,0,L|208:28,1,140
132,187,46938,2,0,L|102:37,1,140
136,223,47377,1,0,0:0:0:0:
194,229,47670,1,0,0:0:0:0:
90,228,47962,1,0,0:0:0:0:
296,242,49865,6,0,L|392:110,2,140
414,283,52206,6,0,L|209:40,1,280
47,285,53670,6,0,L|168:142,1,140
259,177,54255,1,0,0:0:0:0:
194,178,54401,1,0,0:0:0:0:
325,180,54694,2,0,L|156:2,1,210
445,219,56011,6,0,L|359:92,1,140
242,112,56597,1,0,0:0:0:0:
308,111,56743,2,0,L|207:228,1,140
309,238,57328,1,0,0:0:0:0:
219,293,57621,1,0,0:0:0:0:
171,285,57767,1,0,0:0:0:0:
51,213,58353,5,0,0:0:0:0:
155,173,58645,2,0,L|396:16,1,280
307,216,59816,2,0,L|194:128,1,140
139,232,60401,1,0,0:0:0:0:
204,233,60694,1,0,0:0:0:0:
84,234,60987,1,0,0:0:0:0:
98,283,61572,6,0,L|303:40,1,280
465,285,63036,6,0,L|344:142,1,140
253,177,63621,1,0,0:0:0:0:
318,178,63767,1,0,0:0:0:0:
187,180,64060,2,0,L|356:2,1,210
67,219,65377,6,0,L|153:92,1,140
242,109,65963,1,0,0:0:0:0:
281,109,66109,2,0,L|427:109,1,140
237,230,66694,2,0,P|164:187|251:110,1,210
461,213,67719,5,0,0:0:0:0:
357,173,68011,2,0,L|116:16,1,280
205,216,69182,2,0,L|318:128,1,140
373,232,69767,1,0,0:0:0:0:
308,233,70060,1,0,0:0:0:0:
428,234,70353,1,0,0:0:0:0:
204,300,70938,5,0,0:0:0:0:
140,205,71523,2,0,P|249:130|354:222,2,280
247,223,73279,2,0,L|279:67,2,140
441,281,75621,6,0,L|338:8,1,280
321,244,76499,1,0,0:0:0:0:
344,277,76645,2,0,P|248:134|134:273,1,350
114,271,77962,2,0,L|186:131,2,140
357,303,80304,6,0,L|436:12,1,280
256,162,81475,1,0,0:0:0:0:
138,162,82060,1,0,0:0:0:0:
283,157,82645,1,0,0:0:0:0:
192,157,83231,1,0,0:0:0:0:
330,156,83816,1,0,0:0:0:0:
433,156,84401,1,0,0:0:0:0:
257,158,84987,1,0,0:0:0:0:
364,279,85279,6,0,L|303:152,1,140
343,128,85865,1,0,0:0:0:0:
219,251,86450,2,0,L|143:120,2,140
305,260,87328,2,0,L|150:-4,1,280
