osu file format v14

[General]
AudioFilename: audio.mp3
AudioLeadIn: 0
PreviewTime: 52125
Countdown: 0
SampleSet: Soft
StackLeniency: 0.7
Mode: 0
LetterboxInBreaks: 0
WidescreenStoryboard: 0

[Editor]
Bookmarks: 52784,87906
DistanceSpacing: 0.9
BeatDivisor: 2
GridSize: 4
TimelineZoom: 0.8999989

[Metadata]
Title:Chiisana Koi no Uta
TitleUnicode:小さな恋のうた
Artist:Takagi-san (CV: Rie Takahashi)
ArtistUnicode:高木さん(CV:高橋李依)
Creator:Kyuukai
Version:Normal
Source:からかい上手の高木さん
Tags:yaleufeu karakai jouzu no takagi-san ending ed little love song mongol800 cover
BeatmapID:1630033
BeatmapSetID:775591

[Difficulty]
HPDrainRate:3
CircleSize:3.2
OverallDifficulty:3.5
ApproachRate:4.5
SliderMultiplier:1
SliderTickRate:1

[Events]
//Background and Video events
0,0,"im quadruple autistic.jpg",0,0
//Break Periods
//Storyboard Layer 0 (Background)
//Storyboard Layer 1 (Fail)
//Storyboard Layer 2 (Pass)
//Storyboard Layer 3 (Foreground)
//Storyboard Sound Samples

[TimingPoints]
1272,292.682926829268,4,2,1,30,1,0
1272,-100,4,2,1,30,0,0
10637,-100,4,2,1,40,0,0
20003,-100,4,2,1,45,0,0
20589,-100,4,2,1,30,0,0
21174,-100,4,2,1,50,0,0
39906,-100,4,2,1,55,0,0
47954,-100,4,2,1,55,0,0
50442,-100,4,2,1,50,0,0
50662,-100,4,2,1,5,0,0
50735,-100,4,2,1,60,0,0
51759,-100,4,2,1,30,0,0
52198,-100,4,2,1,20,0,0
52711,-100,4,2,1,5,0,0
52784,-100,4,2,1,60,0,1
80296,-100,4,2,1,50,0,0
80881,-100,4,2,1,60,0,1
87832,-100,4,2,1,5,0,1
87906,-100,4,2,1,60,0,0

[Colours]
Combo1 : 192,192,192
Combo2 : 184,112,112
Combo3 : 0,128,255

[HitObjects]
304,60,1272,6,0,L|205:66,2,100,2|0|2,0:0|0:0|0:0,0:0:0:0:
380,12,2150,1,0,0:0:0:0:
448,72,2442,2,0,P|432:120|444:172,1,100,2|0,0:0|0:0,0:0:0:0:
484,248,3028,1,2,0:0:0:0:
440,328,3320,1,2,0:0:0:0:
364,280,3613,6,0,P|308:272|244:288,1,100,2|0,0:0|0:0,0:0:0:0:
196,335,4198,2,0,P|146:343|97:335,1,100,2|0,0:0|0:0,0:0:0:0:
36,268,4784,2,0,L|32:168,1,100,2|0,0:0|0:0,0:0:0:0:
28,80,5369,1,2,0:0:0:0:
108,36,5662,1,2,0:0:0:0:
187,80,5954,6,0,P|236:71|284:81,2,100,2|0|2,0:0|0:0|0:0,0:0:0:0:
140,156,6832,1,0,0:0:0:0:
212,208,7125,2,0,P|220:258|210:306,1,100,2|0,0:0|0:0,0:0:0:0:
160,380,7711,1,2,0:0:0:0:
72,368,8003,1,2,0:0:0:0:
56,280,8296,6,0,P|68:220|40:164,1,100,2|0,0:0|0:0,0:0:0:0:
24,152,8735,2,0,P|12:92|40:36,1,100,2|2,0:0|0:0,0:0:0:0:
100,104,9320,2,0,B|192:80|164:132|264:104,1,150,2|0,0:0|0:0,0:0:0:0:
319,56,10052,2,0,P|369:47|418:56,1,100,2|0,0:0|0:0,0:0:0:0:
492,108,10637,6,0,P|460:156|460:224,1,100,0|0,1:0|0:0,0:0:0:0:
464,288,11223,2,0,P|414:296|365:287,1,100,0|0,1:0|0:0,0:0:0:0:
288,244,11808,2,0,P|238:235|189:244,1,100,0|0,1:0|0:0,0:0:0:0:
112,288,12393,1,0,1:0:0:0:
36,332,12686,1,0,0:0:0:0:
8,248,12979,6,0,L|1:148,1,100,0|0,1:0|0:0,0:0:0:0:
68,88,13564,2,0,P|116:96|172:88,1,100,0|0,1:0|0:0,0:0:0:0:
244,40,14150,2,0,P|292:32|348:40,1,100,0|0,1:0|0:0,0:0:0:0:
412,96,14735,2,0,L|405:195,1,100,0|0,1:0|0:0,0:0:0:0:
400,284,15320,6,0,P|352:276|296:284,1,100,0|0,1:0|0:0,0:0:0:0:
228,332,15906,2,0,P|180:340|124:332,1,100,0|0,1:0|0:0,0:0:0:0:
44,312,16491,2,0,L|36:204,1,100,0|0,1:0|0:0,0:0:0:0:
28,124,17076,1,0,1:0:0:0:
108,80,17369,1,0,0:0:0:0:
188,124,17662,6,0,P|237:117|286:125,1,100,0|0,1:0|0:0,0:0:0:0:
316,160,18101,2,0,P|364:168|420:160,1,100,0|0,0:0|0:0,0:0:0:0:
476,228,18686,2,0,P|504:164|452:76,1,150,0|0,0:0|1:0,0:0:0:0:
400,44,19418,2,0,L|336:36,1,50,8|8,0:0|0:0,0:0:0:0:
312,12,19711,2,0,L|262:18,1,50,0|0,1:0|1:0,0:0:0:0:
216,24,20003,5,4,0:0:0:0:
76,140,20589,2,0,L|84:268,1,100,0|0,0:0|0:0,0:0:0:0:
136,312,21174,6,0,P|180:328|268:312,1,100,4|2,0:0|0:0,0:0:0:0:
308,276,21759,2,0,P|352:260|440:276,1,100,8|2,0:0|0:0,0:0:0:0:
448,272,22198,1,0,0:0:0:0:
448,272,22345,2,0,L|454:172,1,100,0|2,1:0|0:0,0:0:0:0:
460,84,22930,2,0,P|410:75|361:83,1,100,8|2,0:0|0:0,0:0:0:0:
288,132,23515,6,0,P|296:181|288:230,2,100,0|2|8,1:0|0:0|0:0,0:0:0:0:
212,80,24393,2,0,P|184:84|152:76,1,50,2|0,0:0|0:0,0:0:0:0:
120,64,24686,2,0,P|70:55|21:63,1,100,0|2,1:0|0:0,0:0:0:0:
4,152,25271,2,0,L|12:268,1,100,8|2,0:0|0:0,0:0:0:0:
16,344,25857,6,0,P|65:335|114:343,1,100,0|2,1:0|0:0,0:0:0:0:
200,368,26442,2,0,P|249:376|298:368,1,100,8|2,0:0|0:0,0:0:0:0:
340,356,26881,1,0,0:0:0:0:
340,356,27028,2,0,L|346:256,1,100,0|2,1:0|0:0,0:0:0:0:
420,208,27613,2,0,L|414:108,1,100,8|2,0:0|0:0,0:0:0:0:
352,40,28198,6,0,P|292:52|244:40,1,100,0|2,1:0|0:0,0:0:0:0:
212,28,28637,2,0,P|152:16|104:28,1,100,0|0,0:0|0:0,0:0:0:0:
44,80,29223,2,0,L|52:244,1,150,0|2,0:0|0:0,0:0:0:0:
52,320,29954,2,0,L|151:316,1,100,8|0,0:0|1:0,0:0:0:0:
196,316,30393,1,8,0:0:0:0:
196,316,30540,6,0,P|188:256|208:200,1,100,4|2,0:0|0:0,0:0:0:0:
264,156,31125,2,0,P|272:96|252:40,1,100,8|2,0:0|0:0,0:0:0:0:
336,4,31711,2,0,L|456:4,1,100,0|2,1:0|0:0,0:0:0:0:
507,60,32296,2,0,P|497:108|506:157,1,100,8|2,0:0|0:0,0:0:0:0:
512,204,32735,1,0,0:0:0:0:
512,204,32881,6,0,P|464:212|388:200,1,100,0|2,1:0|0:0,0:0:0:0:
328,176,33467,2,0,P|280:168|204:180,1,100,8|2,0:0|0:0,0:0:0:0:
148,208,34052,2,0,L|152:328,1,100,0|2,1:0|0:0,0:0:0:0:
224,360,34637,2,0,P|272:368|348:356,1,100,8|2,0:0|0:0,0:0:0:0:
392,308,35223,6,0,P|440:300|516:312,2,100,0|2|8,1:0|0:0|0:0,0:0:0:0:
308,276,36101,2,0,L|304:220,1,50,2|0,0:0|0:0,0:0:0:0:
268,204,36393,2,0,L|276:96,1,100,0|2,1:0|0:0,0:0:0:0:
212,40,36979,2,0,P|160:32|96:48,1,100,8|2,0:0|0:0,0:0:0:0:
48,104,37564,6,0,L|56:212,1,100,0|2,1:0|0:0,0:0:0:0:
92,228,38003,2,0,L|84:327,1,100,0|0,1:0|1:0,0:0:0:0:
160,376,38589,2,0,P|232:359|305:374,1,150,4|0,0:0|1:0,0:0:0:0:
380,328,39320,2,0,L|372:228,1,100,8|8,0:0|0:0,0:0:0:0:
340,196,39759,1,8,0:0:0:0:
340,196,39906,6,0,L|352:40,1,150,4|8,0:0|0:0,0:0:0:0:
356,0,40491,2,0,P|416:24|460:24,1,100,0|0,0:0|1:0,0:0:0:0:
508,92,41076,2,0,L|504:160,1,50,0|8,0:0|0:0,0:0:0:0:
500,188,41369,2,0,P|448:196|376:176,1,100,0|8,1:0|0:0,0:0:0:0:
320,152,41954,2,0,P|288:148|240:160,1,50,0|8,1:0|0:0,0:0:0:0:
228,168,42247,6,0,P|176:176|104:156,1,100,0|0,1:0|1:0,0:0:0:0:
88,152,42686,2,0,L|96:28,2,100,8|0|0,0:0|0:0|1:0,0:0:0:0:
20,208,43564,1,8,0:0:0:0:
20,208,43711,2,0,L|26:307,1,100,0|8,1:0|0:0,0:0:0:0:
84,380,44296,1,0,1:0:0:0:
156,328,44589,6,0,P|208:340|292:328,1,100,4|0,0:0|0:0,0:0:0:0:
296,324,45028,2,0,P|348:312|432:324,1,100,8|8,0:0|0:0,0:0:0:0:
480,336,45613,2,0,L|484:228,1,100,4|8,0:0|0:0,0:0:0:0:
488,192,46052,1,0,1:0:0:0:
436,120,46345,2,0,P|387:108|337:109,1,100,8|0,0:0|1:0,0:0:0:0:
300,136,46784,1,0,1:0:0:0:
300,136,46930,6,0,P|251:147|201:146,1,100,4|0,0:0|0:0,0:0:0:0:
156,136,47369,2,0,L|160:252,1,100,8|8,0:0|0:0,0:0:0:0:
160,328,47954,1,4,0:0:0:0:
288,280,48393,6,0,L|404:288,2,100,0|8|0,1:0|0:0|1:0,0:0:0:0:
212,232,49271,2,0,L|96:240,2,100,8|0|8,0:0|1:0|0:0,0:0:0:0:
292,188,50150,1,0,1:0:0:0:
260,104,50442,6,0,L|144:96,1,100,12|12,0:0|0:0,0:0:0:0:
72,88,51028,2,0,L|68:24,2,50,8|0|8,0:0|0:0|0:0,0:0:0:0:
76,132,51467,1,8,0:0:0:0:
76,132,51613,1,8,0:0:0:0:
20,304,52198,2,0,B|92:288|92:288|166:303,1,150,2|0,0:0|0:0,0:0:0:0:
200,332,52784,6,0,P|248:344|296:333,1,100,4|0,0:0|1:0,0:0:0:0:
384,360,53369,2,0,L|396:248,1,100,8|0,0:0|0:0,0:0:0:0:
426,228,53808,1,0,0:0:0:0:
460,200,53954,2,0,L|448:88,1,100,0|0,1:0|0:0,0:0:0:0:
444,56,54393,1,0,1:0:0:0:
364,92,54686,2,0,P|304:100|248:80,1,100,0|0,0:0|1:0,0:0:0:0:
224,72,55125,6,0,P|164:64|108:84,1,100,0|0,1:0|0:0,0:0:0:0:
52,128,55711,2,0,L|62:227,1,100,8|0,0:0|0:0,0:0:0:0:
24,308,56296,2,0,P|88:312|128:288,1,100,4|0,0:0|1:0,0:0:0:0:
152,268,56735,2,0,P|216:264|256:288,1,100,4|4,0:0|0:0,0:0:0:0:
304,348,57320,1,0,1:0:0:0:
304,348,57467,6,0,P|356:360|436:348,1,100,4|0,0:0|0:0,0:0:0:0:
460,288,58052,2,0,L|460:144,1,100,8|0,0:0|0:0,0:0:0:0:
428,104,58637,2,0,P|378:101|329:113,1,100,0|0,1:0|1:0,0:0:0:0:
248,152,59223,2,0,P|198:154|149:142,1,100,8|0,0:0|0:0,0:0:0:0:
76,92,59808,5,0,1:0:0:0:
0,140,60101,1,0,1:0:0:0:
8,228,60393,1,8,0:0:0:0:
16,316,60686,2,0,L|83:309,1,50,0|0,1:0|0:0,0:0:0:0:
104,284,60979,2,0,L|96:217,2,50,0|8|0,1:0|0:0|1:0,0:0:0:0:
136,368,61564,2,0,P|185:370|234:358,1,100,8|0,0:0|1:0,0:0:0:0:
272,332,62003,1,8,0:0:0:0:
272,332,62150,6,0,P|321:329|370:341,1,100,4|0,0:0|1:0,0:0:0:0:
436,280,62735,2,0,L|448:168,1,100,8|0,0:0|0:0,0:0:0:0:
452,136,63174,1,0,0:0:0:0:
456,92,63320,2,0,P|380:96|348:84,1,100,0|0,1:0|0:0,0:0:0:0:
316,72,63759,1,0,1:0:0:0:
236,36,64052,2,0,P|160:32|128:44,1,100,0|0,0:0|1:0,0:0:0:0:
100,60,64491,6,0,L|108:180,1,100,0|0,1:0|0:0,0:0:0:0:
172,224,65076,2,0,L|164:344,1,100,8|0,0:0|0:0,0:0:0:0:
240,376,65662,2,0,P|288:360|368:376,1,100,4|0,0:0|1:0,0:0:0:0:
380,372,66101,2,0,L|373:272,1,100,4|4,0:0|0:0,0:0:0:0:
440,208,66686,1,0,1:0:0:0:
440,208,66832,6,0,L|433:108,1,100,4|0,0:0|0:0,0:0:0:0:
352,64,67418,2,0,P|296:68|252:57,1,100,8|0,0:0|0:0,0:0:0:0:
212,40,67857,1,0,1:0:0:0:
172,24,68003,2,0,L|72:31,1,100,0|0,1:0|1:0,0:0:0:0:
12,100,68589,2,0,P|32:148|24:216,1,100,8|0,0:0|0:0,0:0:0:0:
16,284,69174,5,0,1:0:0:0:
84,344,69467,1,0,1:0:0:0:
124,264,69759,1,8,0:0:0:0:
160,180,70052,2,0,L|228:172,1,50,0|0,1:0|0:0,0:0:0:0:
256,172,70345,2,0,L|261:122,2,50,0|8|0,1:0|0:0|1:0,0:0:0:0:
248,260,70930,2,0,P|288:276|368:272,1,100,8|0,0:0|1:0,0:0:0:0:
388,272,71369,1,8,0:0:0:0:
388,272,71515,6,0,L|400:144,1,100,4|0,0:0|1:0,0:0:0:0:
452,100,72101,2,0,P|384:84|344:96,1,100,8|0,0:0|1:0,0:0:0:0:
316,112,72540,1,8,0:0:0:0:
280,136,72686,2,0,P|212:152|172:140,1,100,0|0,1:0|1:0,0:0:0:0:
96,124,73271,2,0,L|92:223,1,100,8|0,0:0|1:0,0:0:0:0:
92,268,73711,1,8,0:0:0:0:
92,268,73857,6,0,P|160:284|200:272,1,100,0|0,1:0|1:0,0:0:0:0:
268,232,74442,2,0,P|336:216|376:228,1,100,8|0,0:0|1:0,0:0:0:0:
408,240,74881,1,8,0:0:0:0:
448,260,75028,2,0,L|445:309,2,50,0|8|0,1:0|0:0|1:0,0:0:0:0:
504,188,75613,2,0,L|501:62,1,100,8|0,0:0|0:0,0:0:0:0:
500,44,76052,1,0,1:0:0:0:
500,44,76198,6,0,P|448:32|380:40,1,100,4|0,0:0|0:0,0:0:0:0:
340,100,76784,2,0,P|288:112|220:104,1,100,8|0,0:0|0:0,0:0:0:0:
196,104,77223,1,8,0:0:0:0:
152,96,77369,2,0,L|156:196,1,100,0|8,1:0|0:0,0:0:0:0:
156,284,77954,2,0,P|104:296|36:288,1,100,0|0,1:0|1:0,0:0:0:0:
12,284,78393,1,8,0:0:0:0:
12,284,78540,6,0,L|8:184,1,100,4|0,0:0|1:0,0:0:0:0:
53,105,79125,2,0,P|105:93|173:101,1,100,8|0,0:0|1:0,0:0:0:0:
192,112,79564,1,8,0:0:0:0:
236,128,79711,2,0,L|244:72,2,50,0|8|0,1:0|0:0|1:0,0:0:0:0:
176,196,80296,2,0,L|184:304,1,100,8|0,0:0|1:0,0:0:0:0:
188,340,80735,1,8,0:0:0:0:
188,340,80881,6,0,P|240:324|296:328,1,100,4|0,0:0|1:0,0:0:0:0:
368,360,81467,2,0,P|417:360|465:345,1,100,8|0,0:0|1:0,0:0:0:0:
508,268,82052,2,0,L|500:152,1,100,0|8,1:0|0:0,0:0:0:0:
416,144,82637,2,0,L|409:243,1,100,0|8,1:0|0:0,0:0:0:0:
332,292,83223,6,0,P|272:300|212:284,1,100,4|8,0:0|0:0,0:0:0:0:
160,244,83808,2,0,P|152:184|168:124,1,100,0|8,1:0|0:0,0:0:0:0:
192,64,84393,2,0,P|140:56|76:72,2,100,0|0|8,1:0|1:0|0:0,0:0:0:0:
272,108,85271,2,0,L|336:108,1,50,8|0,0:0|1:0,0:0:0:0:
356,80,85564,6,0,L|476:80,1,100,4|0,0:0|1:0,0:0:0:0:
508,152,86150,2,0,P|520:200|512:249,1,100,12|0,0:0|1:0,0:0:0:0:
456,320,86735,2,0,L|336:320,1,100,4|0,0:0|0:0,0:0:0:0:
292,256,87320,2,0,L|228:260,1,50,8|8,0:0|0:0,0:0:0:0:
196,260,87613,1,0,1:0:0:0:
104,264,87906,5,4,0:0:0:0:
