osu file format v14

[General]
AudioFilename: audio.mp3
AudioLeadIn: 0
PreviewTime: 52125
Countdown: 0
SampleSet: Soft
StackLeniency: 0.7
Mode: 0
LetterboxInBreaks: 0
WidescreenStoryboard: 1

[Editor]
Bookmarks: 87906
DistanceSpacing: 1
BeatDivisor: 4
GridSize: 4
TimelineZoom: 1.199999

[Metadata]
Title:Chiisana Koi no Uta
TitleUnicode:小さな恋のうた
Artist:Takagi-san (CV: Rie Takahashi)
ArtistUnicode:高木さん(CV:高橋李依)
Creator:Kyuukai
Version:Hard
Source:からかい上手の高木さん
Tags:yaleufeu karakai jouzu no takagi-san ending ed little love song mongol800 cover
BeatmapID:1632570
BeatmapSetID:775591

[Difficulty]
HPDrainRate:5.5
CircleSize:3.6
OverallDifficulty:6.5
ApproachRate:8
SliderMultiplier:1.4
SliderTickRate:1

[Events]
//Background and Video events
0,0,"4head.jpg",0,0
//Break Periods
//Storyboard Layer 0 (Background)
//Storyboard Layer 1 (Fail)
//Storyboard Layer 2 (Pass)
//Storyboard Layer 3 (Foreground)
//Storyboard Sound Samples

[TimingPoints]
1272,292.682926829268,4,2,1,30,1,0
1272,-125,4,2,1,30,0,0
10637,-117.647058823529,4,2,1,40,0,0
20003,-125,4,2,1,45,0,0
20589,-125,4,2,1,30,0,0
21174,-111.111111111111,4,2,1,50,0,0
39906,-111.111111111111,4,2,1,55,0,0
45247,-111.111111111111,4,2,1,5,0,0
45320,-111.111111111111,4,2,1,55,0,0
45540,-111.111111111111,4,2,1,5,0,0
45613,-111.111111111111,4,2,1,55,0,0
47589,-111.111111111111,4,2,1,5,0,0
47662,-111.111111111111,4,2,1,55,0,0
47881,-111.111111111111,4,2,1,5,0,0
47954,-105.263157894737,4,2,1,55,0,0
50442,-105.263157894737,4,2,1,50,0,0
50662,-105.263157894737,4,2,1,5,0,0
50735,-105.263157894737,4,2,1,60,0,0
50954,-105.263157894737,4,2,1,5,0,0
51028,-105.263157894737,4,2,1,60,0,0
51759,-105.263157894737,4,2,1,30,0,0
52198,-125,4,2,1,20,0,0
52711,-105.263157894737,4,2,1,5,0,0
52784,-100,4,2,1,60,0,1
80296,-100,4,2,1,50,0,0
80881,-100,4,2,1,60,0,1
87832,-100,4,2,1,5,0,1
87906,-100,4,2,1,60,0,0

[Colours]
Combo1 : 192,192,192
Combo2 : 184,112,112
Combo3 : 0,128,255

[HitObjects]
404,200,1272,6,0,L|410:311,2,112,2|0|2,0:0|0:0|0:0,0:0:0:0:
392,88,2150,1,0,0:0:0:0:
288,44,2442,2,0,P|232:39|183:63,1,112,2|0,0:0|0:0,0:0:0:0:
188,212,3028,1,2,0:0:0:0:
252,136,3320,1,2,0:0:0:0:
328,272,3613,6,0,P|382:284|436:271,2,112,2|0|2,0:0|0:0|0:0,0:0:0:0:
240,228,4491,1,0,0:0:0:0:
383,176,4784,2,0,P|396:121|384:67,1,112,2|0,0:0|0:0,0:0:0:0:
256,20,5369,1,2,0:0:0:0:
292,124,5662,1,2,0:0:0:0:
128,176,5954,6,0,P|115:121|127:67,2,112,2|0|2,0:0|0:0|0:0,0:0:0:0:
180,260,6832,1,0,0:0:0:0:
252,136,7125,2,0,P|308:128|384:144,1,112,2|0,0:0|0:0,0:0:0:0:
484,176,7711,1,2,0:0:0:0:
448,84,8003,1,2,0:0:0:0:
368,216,8296,6,0,L|380:344,1,112,2|0,0:0|0:0,0:0:0:0:
380,360,8735,1,2,0:0:0:0:
468,328,9028,1,2,0:0:0:0:
288,328,9320,2,0,B|196:296|212:364|112:328,1,168,2|0,0:0|0:0,0:0:0:0:
160,128,10052,2,0,L|164:240,1,112,2|0,0:0|0:0,0:0:0:0:
288,328,10637,6,0,L|291:209,1,119.000002269745,0|0,1:0|0:0,0:0:0:0:
296,80,11223,1,0,1:0:0:0:
220,140,11515,1,0,0:0:0:0:
372,148,11808,2,0,P|392:88|392:20,1,119.000002269745,0|0,1:0|0:0,0:0:0:0:
480,144,12393,2,0,P|460:204|460:272,1,119.000002269745,0|0,1:0|0:0,0:0:0:0:
364,352,12979,6,0,P|420:368|492:344,1,119.000002269745,0|0,1:0|0:0,0:0:0:0:
364,252,13564,1,0,1:0:0:0:
280,300,13857,1,0,0:0:0:0:
172,192,14150,2,0,P|116:176|44:200,1,119.000002269745,0|0,1:0|0:0,0:0:0:0:
28,72,14735,1,0,1:0:0:0:
116,24,15028,1,0,0:0:0:0:
224,120,15320,6,0,P|280:136|352:112,1,119.000002269745,0|0,1:0|0:0,0:0:0:0:
456,48,15906,1,0,1:0:0:0:
360,24,16198,1,0,0:0:0:0:
488,144,16491,2,0,L|484:272,1,119.000002269745,0|0,1:0|0:0,0:0:0:0:
368,352,17076,1,0,1:0:0:0:
376,244,17369,1,0,0:0:0:0:
252,348,17662,6,0,L|120:348,1,119.000002269745,0|0,1:0|0:0,0:0:0:0:
96,348,18101,1,0,0:0:0:0:
28,264,18393,1,0,0:0:0:0:
136,143,18686,2,0,P|196:194|136:244,1,178.500003404617,0|0,0:0|1:0,0:0:0:0:
64,196,19271,5,8,0:0:0:0:
64,196,19345,1,8,0:0:0:0:
64,196,19418,2,0,P|48:160|48:128,1,59.5000011348725,8|8,0:0|0:0,0:0:0:0:
0,64,19711,2,0,P|23:32|50:16,1,59.5000011348725,0|0,1:0|1:0,0:0:0:0:
176,20,20003,1,4,0:0:0:0:
176,20,20589,2,0,B|232:36|232:36|296:20,1,112,0|0,0:0|0:0,0:0:0:0:
412,24,21174,6,0,P|388:68|384:108,1,62.9999980773926,4|0,0:0|0:0,0:0:0:0:
328,148,21467,2,0,P|329:198|345:234,1,62.9999980773926,2|0,0:0|0:0,0:0:0:0:
371,288,21759,2,0,P|432:271|491:288,1,125.999996154785,8|2,0:0|0:0,0:0:0:0:
432,380,22198,1,0,0:0:0:0:
296,336,22345,2,0,P|235:319|176:336,1,125.999996154785,0|2,1:0|0:0,0:0:0:0:
16,236,22930,2,0,P|76:252|136:236,1,125.999996154785,8|2,0:0|0:0,0:0:0:0:
208,184,23369,1,0,0:0:0:0:
208,184,23515,6,0,L|212:112,1,62.9999980773926,0|0,1:0|0:0,0:0:0:0:
292,88,23808,2,0,L|288:16,1,62.9999980773926,2|0,0:0|0:0,0:0:0:0:
384,44,24101,2,0,L|377:169,1,125.999996154785,8|2,0:0|0:0,0:0:0:0:
268,232,24686,2,0,P|204:244|132:228,1,125.999996154785,0|2,1:0|0:0,0:0:0:0:
12,80,25271,2,0,P|76:68|148:84,1,125.999996154785,8|2,0:0|0:0,0:0:0:0:
216,116,25711,1,0,0:0:0:0:
216,116,25857,6,0,P|252:120|300:112,1,62.9999980773926,0|0,1:0|0:0,0:0:0:0:
352,68,26150,2,0,P|388:64|436:72,1,62.9999980773926,2|0,0:0|0:0,0:0:0:0:
492,108,26442,2,0,L|484:260,1,125.999996154785,8|2,0:0|0:0,0:0:0:0:
360,280,27028,2,0,P|296:272|200:280,1,125.999996154785,0|2,1:0|0:0,0:0:0:0:
42,341,27613,2,0,P|105:343|168:336,1,125.999996154785,8|2,0:0|0:0,0:0:0:0:
234,274,28052,1,0,0:0:0:0:
234,274,28198,6,0,L|232:196,1,62.9999980773926,0|0,1:0|0:0,0:0:0:0:
156,160,28491,1,2,0:0:0:0:
156,160,28637,2,0,L|162:6,1,125.999996154785,0|0,0:0|0:0,0:0:0:0:
324,48,29223,1,0,0:0:0:0:
324,48,29369,2,0,L|328:173,1,125.999996154785,0|2,1:0|0:0,0:0:0:0:
392,332,29954,1,8,0:0:0:0:
456,236,30247,1,0,1:0:0:0:
456,236,30393,1,8,0:0:0:0:
456,236,30540,6,0,L|372:244,1,62.9999980773926,4|0,0:0|0:0,0:0:0:0:
316,284,30832,2,0,L|253:278,1,62.9999980773926,2|0,0:0|0:0,0:0:0:0:
188,220,31125,2,0,P|120:216|62:233,1,125.999996154785,8|2,0:0|0:0,0:0:0:0:
124,372,31711,2,0,P|192:376|250:359,1,125.999996154785,0|2,1:0|0:0,0:0:0:0:
439,295,32296,2,0,P|371:299|313:282,1,125.999996154785,8|2,0:0|0:0,0:0:0:0:
244,228,32735,1,0,0:0:0:0:
244,228,32881,6,0,L|240:152,1,62.9999980773926,0|0,1:0|0:0,0:0:0:0:
160,124,33174,2,0,L|156:48,1,62.9999980773926,2|0,0:0|0:0,0:0:0:0:
228,8,33467,2,0,L|380:8,1,125.999996154785,8|2,0:0|0:0,0:0:0:0:
396,128,34052,2,0,P|380:200|400:280,1,125.999996154785,0|2,1:0|0:0,0:0:0:0:
256,356,34637,2,0,P|272:284|252:204,1,125.999996154785,8|2,0:0|0:0,0:0:0:0:
228,152,35076,1,0,0:0:0:0:
228,152,35223,6,0,L|148:148,1,62.9999980773926,0|0,1:0|0:0,0:0:0:0:
100,88,35515,2,0,L|37:91,1,62.9999980773926,2|0,0:0|0:0,0:0:0:0:
12,180,35808,2,0,L|28:328,1,125.999996154785,8|2,0:0|0:0,0:0:0:0:
172,300,36393,2,0,B|208:284|208:284|328:308,1,125.999996154785,0|2,1:0|0:0,0:0:0:0:
472,368,36979,2,0,B|436:384|436:384|351:367,1,125.999996154785,8|2,0:0|0:0,0:0:0:0:
292,300,37418,1,0,0:0:0:0:
292,300,37564,6,0,L|280:212,1,62.9999980773926,0|0,1:0|0:0,0:0:0:0:
224,176,37857,1,2,0:0:0:0:
224,176,38003,2,0,L|244:32,1,125.999996154785,0|0,1:0|1:0,0:0:0:0:
396,16,38589,2,0,L|413:140,1,125.999996154785,4|0,0:0|0:0,0:0:0:0:
428,228,39028,1,0,1:0:0:0:
332,328,39320,2,0,P|288:332|256:324,1,62.9999980773926,8|0,0:0|0:0,0:0:0:0:
192,284,39613,1,8,0:0:0:0:
192,284,39759,1,8,0:0:0:0:
80,360,39906,6,0,L|68:212,1,125.999996154785,4|0,0:0|0:0,0:0:0:0:
0,144,40345,1,8,0:0:0:0:
0,144,40491,2,0,P|76:144|132:100,1,125.999996154785,0|0,0:0|1:0,0:0:0:0:
176,52,40930,1,0,1:0:0:0:
176,52,41076,2,0,L|252:48,1,62.9999980773926,0|8,0:0|0:0,0:0:0:0:
328,44,41369,1,0,1:0:0:0:
452,168,41662,2,0,L|326:161,1,125.999996154785,8|0,0:0|1:0,0:0:0:0:
196,156,42101,1,8,0:0:0:0:
196,156,42247,6,0,P|224:220|232:316,1,125.999996154785,0|0,1:0|1:0,0:0:0:0:
304,372,42686,2,0,P|368:344|464:336,1,125.999996154785,8|0,0:0|0:0,0:0:0:0:
503,372,43125,1,0,1:0:0:0:
503,372,43271,2,0,P|511:341|509:310,1,62.9999980773926,0|0,1:0|0:0,0:0:0:0:
436,212,43564,2,0,P|374:200|316:174,1,125.999996154785,8|0,0:0|0:0,0:0:0:0:
208,100,44003,2,0,L|220:192,1,62.9999980773926,8|0,0:0|0:0,0:0:0:0:
136,200,44296,2,0,L|127:137,1,62.9999980773926,0|0,1:0|0:0,0:0:0:0:
8,84,44589,6,0,L|25:208,1,125.999996154785,4|0,0:0|0:0,0:0:0:0:
40,320,45028,2,0,P|92:312|144:324,1,94.499997116089,8|0,0:0|0:0,0:0:0:0:
160,332,45320,2,0,P|212:340|264:328,1,94.499997116089,8|0,0:0|0:0,0:0:0:0:
284,320,45613,2,0,P|336:312|420:340,1,125.999996154785,4|8,0:0|0:0,0:0:0:0:
405,331,46052,1,0,1:0:0:0:
385,137,46345,2,0,L|376:200,1,62.9999980773926,8|0,0:0|0:0,0:0:0:0:
295,162,46638,2,0,L|304:100,1,62.9999980773926,0|0,1:0|1:0,0:0:0:0:
200,24,46931,6,0,L|183:148,1,125.999996154785,4|0,0:0|0:0,0:0:0:0:
80,104,47369,2,0,L|96:224,1,94.499997116089,8|0,0:0|0:0,0:0:0:0:
64,212,47662,2,0,L|80:332,1,94.499997116089,8|0,0:0|0:0,0:0:0:0:
52,328,47954,5,4,0:0:0:0:
188,380,48247,1,0,1:0:0:0:
188,380,48393,2,0,L|272:360,1,66.4999982242585,0|0,1:0|0:0,0:0:0:0:
356,299,48686,2,0,L|292:284,2,66.4999982242585,8|0|0,0:0|0:0|1:0,0:0:0:0:
508,336,49271,6,0,L|500:244,1,66.4999982242585,8|0,0:0|0:0,0:0:0:0:
430,137,49564,2,0,L|436:204,1,66.4999982242585,0|0,1:0|0:0,0:0:0:0:
346,185,49857,2,0,L|352:252,1,66.4999982242585,8|0,0:0|0:0,0:0:0:0:
262,233,50150,2,0,L|268:300,1,66.4999982242585,0|0,1:0|2:0,0:0:0:0:
168,368,50442,6,0,L|160:268,1,99.7499973363877,12|0,0:0|0:0,0:0:0:0:
132,252,50735,2,0,L|140:152,1,99.7499973363877,12|0,0:0|0:0,0:0:0:0:
144,120,51028,1,8,0:0:0:0:
152,28,51174,1,8,0:0:0:0:
240,80,51320,2,0,L|233:164,2,66.4999982242585,8|8|8,0:0|0:0|0:0,0:0:0:0:
444,44,52198,6,0,B|440:104|440:104|468:164|468:164|464:240,1,196,2|0,0:0|0:0,0:0:0:0:
460,268,52784,6,0,P|424:276|372:260,1,70,4|0,0:0|0:0,0:0:0:0:
320,216,53076,2,0,P|284:208|232:224,1,70,0|0,1:0|0:0,0:0:0:0:
144,308,53369,2,0,L|284:300,1,140,8|0,0:0|0:0,0:0:0:0:
376,292,53808,1,0,0:0:0:0:
251,213,53954,2,0,L|111:205,1,140,0|0,1:0|0:0,0:0:0:0:
28,248,54393,2,0,L|16:168,1,70,0|8,1:0|0:0,0:0:0:0:
64,76,54686,2,0,P|104:96|208:76,1,140,0|0,0:0|1:0,0:0:0:0:
300,16,55125,6,0,P|367:0|431:24,1,140,0|0,1:0|0:0,0:0:0:0:
488,100,55564,1,0,0:0:0:0:
488,100,55711,2,0,P|460:140|452:184,1,70,8|0,0:0|0:0,0:0:0:0:
384,216,56003,2,0,L|392:296,1,70,0|0,0:0|0:0,0:0:0:0:
264,356,56296,2,0,L|276:212,1,140,4|0,0:0|1:0,0:0:0:0:
332,128,56735,1,4,0:0:0:0:
390,285,57028,1,4,0:0:0:0:
232,124,57320,1,0,1:0:0:0:
232,124,57467,6,0,P|156:112|76:136,1,140,4|0,0:0|0:0,0:0:0:0:
20,176,57906,1,0,1:0:0:0:
20,176,58052,2,0,P|44:224|44:260,1,70,8|0,0:0|0:0,0:0:0:0:
24,340,58345,2,0,L|104:320,1,70,0|0,0:0|1:0,0:0:0:0:
208,284,58637,2,0,L|343:319,1,140,0|0,1:0|1:0,0:0:0:0:
480,192,59223,2,0,L|344:227,1,140,8|0,0:0|0:0,0:0:0:0:
272,172,59662,1,0,0:0:0:0:
272,172,59808,6,0,P|272:120|260:84,1,70,0|0,1:0|0:0,0:0:0:0:
204,36,60101,2,0,L|128:44,1,70,0|0,1:0|0:0,0:0:0:0:
76,112,60393,2,0,P|76:164|88:200,1,70,8|0,0:0|0:0,0:0:0:0:
143,247,60686,2,0,L|213:240,1,70,0|0,1:0|0:0,0:0:0:0:
272,172,60979,2,0,L|341:179,2,70,0|8|0,1:0|0:0|1:0,0:0:0:0:
136,76,61564,2,0,L|275:59,1,140,8|0,0:0|1:0,0:0:0:0:
352,8,62003,1,8,0:0:0:0:
352,8,62150,6,0,L|444:20,1,70,4|0,0:0|0:0,0:0:0:0:
496,72,62442,2,0,L|484:164,1,70,0|0,1:0|0:0,0:0:0:0:
392,244,62735,2,0,P|400:180|360:108,1,140,8|0,0:0|0:0,0:0:0:0:
300,52,63174,1,0,0:0:0:0:
204,144,63320,2,0,L|216:283,1,140,0|0,1:0|0:0,0:0:0:0:
260,364,63759,2,0,P|220:376|168:360,1,70,0|8,1:0|0:0,0:0:0:0:
92,320,64052,2,0,P|112:244|100:164,1,140,0|0,0:0|1:0,0:0:0:0:
68,64,64491,6,0,P|144:84|224:72,1,140,0|0,1:0|0:0,0:0:0:0:
280,24,64930,1,0,0:0:0:0:
280,24,65076,2,0,P|312:20|360:28,1,70,8|0,0:0|0:0,0:0:0:0:
432,60,65369,2,0,L|428:152,1,70,0|0,0:0|0:0,0:0:0:0:
330,247,65662,2,0,L|316:108,1,140,4|0,0:0|1:0,0:0:0:0:
210,23,66101,2,0,P|244:27|279:23,1,70,4|0,0:0|0:0,0:0:0:0:
156,96,66393,2,0,P|121:91|86:95,1,70,4|0,0:0|0:0,0:0:0:0:
120,184,66686,1,0,1:0:0:0:
120,184,66832,6,0,L|296:184,1,140,4|0,0:0|0:0,0:0:0:0:
340,228,67271,1,0,1:0:0:0:
340,228,67418,2,0,P|352:184|348:144,1,70,8|0,0:0|0:0,0:0:0:0:
436,120,67711,2,0,L|444:200,1,70,0|0,0:0|1:0,0:0:0:0:
472,320,68003,2,0,B|404:300|404:300|336:324,1,140,0|0,1:0|1:0,0:0:0:0:
120,272,68589,2,0,B|188:292|188:292|256:268,1,140,8|0,0:0|0:0,0:0:0:0:
340,228,69028,1,0,1:0:0:0:
340,228,69174,6,0,P|352:184|348:144,1,70,0|0,1:0|0:0,0:0:0:0:
324,72,69467,2,0,P|291:39|255:23,1,70,0|0,1:0|0:0,0:0:0:0:
180,28,69759,2,0,P|150:45|126:71,1,70,8|0,0:0|0:0,0:0:0:0:
99,159,70052,2,0,P|99:193|110:227,1,70,0|0,1:0|0:0,0:0:0:0:
184,280,70345,2,0,P|183:314|172:348,2,70,0|8|0,1:0|0:0|1:0,0:0:0:0:
347,213,70930,2,0,P|326:280|340:348,1,140,8|0,0:0|1:0,0:0:0:0:
432,376,71369,1,8,0:0:0:0:
432,376,71515,6,0,L|440:304,1,70,4|0,0:0|0:0,0:0:0:0:
508,248,71808,2,0,L|500:176,1,70,0|0,1:0|0:0,0:0:0:0:
484,68,72101,2,0,B|392:96|392:96|324:68,1,140,8|0,0:0|1:0,0:0:0:0:
252,28,72540,1,8,0:0:0:0:
252,28,72686,2,0,B|160:0|160:0|92:28,1,140,0|0,1:0|1:0,0:0:0:0:
81,154,73271,2,0,P|78:119|63:88,1,70,8|0,0:0|0:0,0:0:0:0:
0,144,73564,1,0,1:0:0:0:
0,144,73711,1,8,0:0:0:0:
8,240,73857,6,0,P|72:256|168:240,1,140,0|0,1:0|1:0,0:0:0:0:
332,180,74442,2,0,P|263:188|196:172,1,140,8|0,0:0|1:0,0:0:0:0:
116,124,74881,1,8,0:0:0:0:
116,124,75028,2,0,L|100:48,2,70,0|8|0,1:0|0:0|1:0,0:0:0:0:
152,272,75613,1,8,0:0:0:0:
262,181,75906,2,0,P|297:175|332:180,1,70,0|0,0:0|1:0,0:0:0:0:
440,164,76198,6,0,P|420:224|424:244,1,70,4|0,0:0|0:0,0:0:0:0:
448,316,76491,2,0,P|413:310|378:314,1,70,0|0,0:0|1:0,0:0:0:0:
276,364,76784,2,0,P|220:376|108:352,1,140,8|0,0:0|0:0,0:0:0:0:
56,292,77223,1,8,0:0:0:0:
56,292,77369,2,0,P|68:236|44:124,1,140,0|8,1:0|0:0,0:0:0:0:
180,24,77954,2,0,L|172:128,1,70,0|0,1:0|0:0,0:0:0:0:
168,184,78247,1,0,1:0:0:0:
168,184,78393,1,8,0:0:0:0:
264,128,78540,6,0,B|300:108|300:108|432:132,1,140,4|0,0:0|1:0,0:0:0:0:
476,260,79125,2,0,B|378:277|378:277|342:257,1,140,8|0,0:0|1:0,0:0:0:0:
264,208,79564,1,8,0:0:0:0:
264,208,79711,2,0,L|276:120,2,70,0|8|0,1:0|0:0|1:0,0:0:0:0:
240,360,80296,1,8,0:0:0:0:
144,260,80589,2,0,P|108:256|72:260,1,70,0|8,1:0|0:0,0:0:0:0:
8,168,80881,6,0,P|44:172|80:168,1,70,4|0,0:0|0:0,0:0:0:0:
140,104,81174,2,0,P|176:100|212:104,1,70,0|0,1:0|0:0,0:0:0:0:
292,64,81467,2,0,P|308:136|288:220,1,140,8|0,0:0|1:0,0:0:0:0:
264,304,81906,1,0,0:0:0:0:
264,304,82052,2,0,P|300:296|348:300,1,70,0|0,1:0|0:0,0:0:0:0:
404,356,82345,2,0,P|438:363|472:363,1,70,8|0,0:0|0:0,0:0:0:0:
512,280,82637,2,0,L|496:132,1,140,0|8,1:0|0:0,0:0:0:0:
484,52,83076,1,0,0:0:0:0:
484,52,83223,6,0,L|400:44,1,70,4|0,0:0|0:0,0:0:0:0:
336,0,83515,2,0,L|266:6,1,70,8|0,0:0|0:0,0:0:0:0:
224,88,83808,2,0,L|140:80,1,70,0|0,1:0|0:0,0:0:0:0:
76,36,84100,2,0,L|6:42,1,70,8|0,0:0|0:0,0:0:0:0:
52,128,84393,2,0,P|72:204|60:292,1,140,0|0,1:0|1:0,0:0:0:0:
192,356,84979,2,0,P|188:286|207:219,1,140,8|8,0:0|0:0,0:0:0:0:
268,152,85418,1,0,1:0:0:0:
348,260,85564,6,0,P|384:264|428:252,1,70,4|0,0:0|0:0,0:0:0:0:
480,192,85857,2,0,P|484:156|472:112,1,70,0|0,1:0|0:0,0:0:0:0:
340,68,86150,2,0,L|344:160,1,70,12|0,0:0|0:0,0:0:0:0:
276,200,86442,2,0,L|184:204,1,70,0|0,1:0|0:0,0:0:0:0:
72,208,86735,1,4,0:0:0:0:
216,336,87174,1,0,1:0:0:0:
292,280,87320,1,8,0:0:0:0:
356,344,87467,2,0,P|392:352|436:340,1,70,8|0,0:0|1:0,0:0:0:0:
496,192,87906,5,4,0:0:0:0:
