osu file format v14

[General]
AudioFilename: audio.mp3
AudioLeadIn: 0
PreviewTime: 52125
Countdown: 0
SampleSet: Soft
StackLeniency: 0.7
Mode: 0
LetterboxInBreaks: 0
WidescreenStoryboard: 0

[Editor]
Bookmarks: 87906
DistanceSpacing: 1
BeatDivisor: 2
GridSize: 4
TimelineZoom: 0.8999989

[Metadata]
Title:Chiisana Koi no Uta
TitleUnicode:小さな恋のうた
Artist:Takagi-san (CV: Rie Takahashi)
ArtistUnicode:高木さん(CV:高橋李依)
Creator:Kyuukai
Version:Easy
Source:からかい上手の高木さん
Tags:yaleufeu karakai jouzu no takagi-san ending ed little love song mongol800 cover
BeatmapID:1630032
BeatmapSetID:775591

[Difficulty]
HPDrainRate:2
CircleSize:2.8
OverallDifficulty:2.5
ApproachRate:3
SliderMultiplier:0.8
SliderTickRate:1

[Events]
//Background and Video events
0,0,"my dad takagi san.jpg",0,0
//Break Periods
//Storyboard Layer 0 (Background)
//Storyboard Layer 1 (Fail)
//Storyboard Layer 2 (Pass)
//Storyboard Layer 3 (Foreground)
//Storyboard Sound Samples

[TimingPoints]
1272,292.682926829268,4,2,1,30,1,0
1272,-100,4,2,1,30,0,0
10637,-100,4,2,1,40,0,0
20003,-100,4,2,1,45,0,0
20589,-100,4,2,1,30,0,0
21174,-100,4,2,1,50,0,0
39906,-100,4,2,1,55,0,0
47954,-100,4,2,1,55,0,0
50442,-100,4,2,1,50,0,0
50662,-100,4,2,1,5,0,0
50735,-100,4,2,1,60,0,0
51759,-100,4,2,1,30,0,0
52198,-100,4,2,1,20,0,0
52711,-100,4,2,1,5,0,0
52784,-100,4,2,1,60,0,1
80296,-100,4,2,1,50,0,0
80881,-100,4,2,1,60,0,1
87832,-100,4,2,1,5,0,1
87906,-100,4,2,1,60,0,0

[Colours]
Combo1 : 192,192,192
Combo2 : 184,112,112
Combo3 : 0,128,255

[HitObjects]
108,328,1272,6,0,P|183:351|258:329,1,160,2|2,0:0|0:0,0:0:0:0:
336,188,2442,2,0,P|260:165|185:188,1,160,2|2,0:0|0:0,0:0:0:0:
44,112,3613,2,0,L|36:284,1,160,2|2,0:0|0:0,0:0:0:0:
177,348,4784,2,0,L|184:188,1,160,2|2,0:0|0:0,0:0:0:0:
304,80,5954,6,0,B|384:80|384:80|456:40,1,160,2|2,0:0|0:0,0:0:0:0:
492,196,7125,2,0,B|412:196|412:196|340:236,1,160,2|2,0:0|0:0,0:0:0:0:
196,304,8296,2,0,B|196:188|196:188|244:136,1,160,2|0,0:0|0:0,0:0:0:0:
84,80,9467,2,0,B|84:196|84:196|36:248,1,160,0|2,0:0|0:0,0:0:0:0:
180,328,10637,6,0,P|254:303|329:327,1,160,0|0,1:0|1:0,0:0:0:0:
480,384,11808,2,0,L|472:216,1,160,0|0,1:0|1:0,0:0:0:0:
464,64,12979,2,0,P|389:88|314:64,1,160,0|0,1:0|1:0,0:0:0:0:
156,28,14150,2,0,P|180:103|156:177,1,160,0|0,1:0|1:0,0:0:0:0:
60,304,15320,6,0,B|136:284|136:284|214:304,1,160,0|0,1:0|1:0,0:0:0:0:
356,232,16491,2,0,B|432:252|432:252|510:231,1,160,0|0,1:0|1:0,0:0:0:0:
491,72,17662,2,0,L|332:88,1,160,0|0,1:0|1:0,0:0:0:0:
216,64,18686,1,0,0:0:0:0:
148,252,19418,2,0,L|244:260,1,80,8|0,0:0|1:0,0:0:0:0:
308,264,20003,1,4,0:0:0:0:
472,300,21174,6,0,P|456:232|464:136,1,160,4|8,0:0|0:0,0:0:0:0:
488,68,22052,1,2,0:0:0:0:
420,28,22345,2,0,P|352:44|256:36,1,160,0|8,1:0|0:0,0:0:0:0:
104,44,23515,2,0,P|120:112|112:208,1,160,0|8,1:0|0:0,0:0:0:0:
160,352,24686,2,0,P|228:336|324:344,1,160,0|8,1:0|0:0,0:0:0:0:
404,208,25857,6,0,P|324:215|246:198,1,160,0|8,1:0|0:0,0:0:0:0:
200,132,26735,1,2,0:0:0:0:
204,52,27028,2,0,P|283:44|361:61,1,160,0|8,1:0|0:0,0:0:0:0:
508,128,28198,2,0,L|500:300,1,160,0|8,1:0|0:0,0:0:0:0:
364,372,29369,2,0,L|356:200,1,160,0|8,1:0|0:0,0:0:0:0:
228,120,30540,6,0,L|52:120,1,160,4|8,0:0|0:0,0:0:0:0:
28,188,31418,1,2,0:0:0:0:
64,260,31711,2,0,L|240:260,1,160,0|8,1:0|0:0,0:0:0:0:
384,260,32881,2,0,B|384:368|384:368|440:324,1,160,0|8,1:0|0:0,0:0:0:0:
464,180,34052,2,0,B|464:72|464:72|408:116,1,160,0|8,1:0|0:0,0:0:0:0:
316,224,35223,6,0,P|232:208|136:236,1,160,0|8,1:0|0:0,0:0:0:0:
100,276,36101,1,2,0:0:0:0:
40,224,36393,2,0,L|48:48,1,160,0|8,1:0|0:0,0:0:0:0:
204,32,37564,2,0,B|252:44|300:32|300:32|360:56|360:56|412:36|492:56,1,280,0|4,1:0|0:0,0:0:0:0:
476,252,39320,2,0,P|428:256|372:244,1,80,8|8,0:0|0:0,0:0:0:0:
316,244,39906,6,0,L|324:376,2,120,4|8|0,0:0|0:0|1:0,0:0:0:0:
312,164,41076,1,0,0:0:0:0:
188,268,41662,1,8,0:0:0:0:
76,156,42247,2,0,L|68:24,2,120,0|8|0,1:0|0:0|1:0,0:0:0:0:
28,268,43564,2,0,P|88:276|156:248,1,120,8|8,0:0|0:0,0:0:0:0:
304,260,44589,6,0,P|368:248|423:256,1,120,4|8,0:0|0:0,0:0:0:0:
492,220,45320,2,0,L|496:132,1,80,8|4,0:0|0:0,0:0:0:0:
320,40,46345,1,8,0:0:0:0:
160,40,46930,2,0,P|136:104|144:180,1,120,4|8,0:0|0:0,0:0:0:0:
200,204,47662,2,0,P|204:276|196:312,1,80,8|4,0:0|0:0,0:0:0:0:
392,344,48686,6,0,L|400:176,1,160,8|8,0:0|0:0,0:0:0:0:
404,24,49857,2,0,L|236:16,1,160,8|12,0:0|0:0,0:0:0:0:
92,64,51028,2,0,B|132:136|132:136|116:240,1,160,8|8,0:0|0:0,0:0:0:0:
88,368,52198,1,2,0:0:0:0:
228,292,52784,6,0,P|308:276|408:304,1,160,4|8,0:0|0:0,0:0:0:0:
452,332,53662,1,0,0:0:0:0:
508,276,53954,2,0,L|504:172,1,80,0|0,1:0|1:0,0:0:0:0:
500,116,54540,1,8,0:0:0:0:
356,48,55125,2,0,P|276:64|176:36,1,160,0|8,1:0|0:0,0:0:0:0:
132,8,56003,1,0,0:0:0:0:
56,36,56295,2,0,L|64:172,1,120,4|4,0:0|0:0,0:0:0:0:
204,296,57467,6,0,L|220:124,1,160,4|8,0:0|0:0,0:0:0:0:
228,56,58345,1,0,0:0:0:0:
304,76,58637,2,0,P|392:60|484:88,1,160,0|8,1:0|0:0,0:0:0:0:
408,228,59808,2,0,P|392:316|420:408,2,160,0|8|0,1:0|0:0|1:0,0:0:0:0:
440,156,61271,1,0,1:0:0:0:
384,96,61564,1,8,0:0:0:0:
244,172,62150,6,0,P|156:188|64:160,1,160,4|8,0:0|0:0,0:0:0:0:
68,96,63028,1,0,0:0:0:0:
92,20,63320,2,0,P|152:17|196:29,1,80,0|0,1:0|1:0,0:0:0:0:
248,37,63906,1,8,0:0:0:0:
404,72,64491,2,0,L|396:256,1,160,0|8,1:0|0:0,0:0:0:0:
376,308,65369,1,0,0:0:0:0:
332,376,65662,2,0,P|272:364|212:368,1,120,4|4,0:0|0:0,0:0:0:0:
16,380,66832,6,0,L|24:208,1,160,4|8,0:0|0:0,0:0:0:0:
28,140,67711,1,0,0:0:0:0:
96,96,68003,2,0,P|176:80|272:104,1,160,0|8,1:0|0:0,0:0:0:0:
396,168,69174,2,0,P|380:88|404:-8,2,160,0|8|0,1:0|0:0|1:0,0:0:0:0:
424,244,70637,1,0,1:0:0:0:
460,316,70930,1,8,0:0:0:0:
307,263,71515,6,0,P|231:244|154:262,1,160,4|8,0:0|0:0,0:0:0:0:
96,316,72393,1,0,1:0:0:0:
20,292,72686,2,0,L|16:132,1,160,0|8,1:0|0:0,0:0:0:0:
156,56,73857,2,0,P|232:75|309:57,1,160,0|8,1:0|0:0,0:0:0:0:
367,3,74735,1,0,1:0:0:0:
443,27,75028,2,0,L|447:187,1,160,0|8,1:0|0:0,0:0:0:0:
448,348,76198,6,0,P|370:329|294:348,1,160,4|8,0:0|0:0,0:0:0:0:
220,376,77076,1,0,0:0:0:0:
144,348,77369,2,0,L|136:188,1,160,0|0,1:0|1:0,0:0:0:0:
256,80,78540,2,0,L|264:240,1,160,4|8,0:0|0:0,0:0:0:0:
324,292,79418,1,0,1:0:0:0:
400,268,79711,2,0,L|408:108,1,160,0|8,1:0|0:0,0:0:0:0:
264,40,80881,6,0,L|72:48,1,160,4|8,0:0|0:0,0:0:0:0:
16,180,82052,2,0,L|208:188,1,160,0|0,1:0|1:0,0:0:0:0:
244,228,82930,1,0,1:0:0:0:
312,272,83223,2,0,P|336:184|312:100,1,160,4|0,0:0|1:0,0:0:0:0:
185,33,84393,2,0,P|161:108|175:186,1,160,0|8,1:0|0:0,0:0:0:0:
204,260,85271,1,8,0:0:0:0:
232,336,85564,6,0,B|312:352|312:352|424:332,1,160,4|12,0:0|0:0,0:0:0:0:
360,264,86442,1,0,1:0:0:0:
332,188,86735,2,0,B|252:172|252:172|140:192,1,160,4|8,0:0|0:0,0:0:0:0:
16,212,87906,1,4,0:0:0:0:
