osu file format v14

[General]
AudioFilename: audio.mp3
AudioLeadIn: 0
PreviewTime: 52125
Countdown: 0
SampleSet: Soft
StackLeniency: 0.2
Mode: 0
LetterboxInBreaks: 0
WidescreenStoryboard: 0

[Editor]
Bookmarks: 87906
DistanceSpacing: 0.5
BeatDivisor: 4
GridSize: 4
TimelineZoom: 1.199999

[Metadata]
Title:Chiisana Koi no Uta
TitleUnicode:小さな恋のうた
Artist:Takagi-san (CV: Rie Takahashi)
ArtistUnicode:高木さん(CV:高橋李依)
Creator:Kyuukai
Version:\(>w<)/ !!!
Source:からかい上手の高木さん
Tags:yaleufeu karakai jouzu no takagi-san ending ed little love song mongol800 cover
BeatmapID:1629800
BeatmapSetID:775591

[Difficulty]
HPDrainRate:6.2
CircleSize:4.7
OverallDifficulty:8.5
ApproachRate:9
SliderMultiplier:1.6
SliderTickRate:1

[Events]
//Background and Video events
0,0,"police car.jpg",0,0
//Break Periods
//Storyboard Layer 0 (Background)
//Storyboard Layer 1 (Fail)
//Storyboard Layer 2 (Pass)
//Storyboard Layer 3 (Foreground)
//Storyboard Sound Samples

[TimingPoints]
1272,292.682926829268,4,2,1,30,1,0
1272,-133.333333333333,4,2,1,30,0,0
10637,-125,4,2,1,40,0,0
20003,-166.666666666667,4,2,1,45,0,0
20589,-166.666666666667,4,2,1,30,0,0
21174,-117.647058823529,4,2,1,50,0,0
39906,-111.111111111111,4,2,1,55,0,0
41589,-111.111111111111,4,2,1,5,0,0
41662,-111.111111111111,4,2,1,55,0,0
43930,-111.111111111111,4,2,1,5,0,0
44003,-111.111111111111,4,2,1,55,0,0
47954,-105.263157894737,4,2,1,55,0,0
50442,-133.333333333333,4,2,1,50,0,0
50662,-133.333333333333,4,2,1,5,0,0
50735,-100,4,2,1,60,0,0
51759,-100,4,2,1,30,0,0
52198,-200,4,2,1,20,0,0
52711,-200,4,2,1,5,0,0
52784,-90.9090909090909,4,2,1,60,0,1
80296,-100,4,2,1,50,0,0
80881,-83.3333333333333,4,2,1,60,0,1
87832,-83.3333333333333,4,2,1,5,0,1
87906,-66.6666666666667,4,2,1,60,0,0

[Colours]
Combo1 : 192,192,192
Combo2 : 184,112,112
Combo3 : 0,128,255
Combo4 : 255,128,128

[HitObjects]
56,96,686,5,0,0:0:0:0:
60,80,979,1,0,0:0:0:0:
64,64,1272,6,0,L|200:56,1,120.000004577637,2|0,0:0|0:0,0:0:0:0:
312,156,1857,2,0,L|192:148,1,120.000004577637,2|0,0:0|0:0,0:0:0:0:
368,80,2442,2,0,P|401:128|401:187,1,120.000004577637,2|0,0:0|0:0,0:0:0:0:
336,308,3028,1,2,0:0:0:0:
401,187,3320,1,2,0:0:0:0:
264,372,3613,6,0,L|244:236,1,120.000004577637,2|0,0:0|0:0,0:0:0:0:
147,143,4198,2,0,L|127:279,1,120.000004577637,2|0,0:0|0:0,0:0:0:0:
75,83,4784,2,0,P|127:51|203:67,1,120.000004577637,2|0,0:0|0:0,0:0:0:0:
308,120,5369,1,2,0:0:0:0:
183,56,5662,1,2,0:0:0:0:
171,216,5954,6,0,B|232:216|232:216|283:188,1,120.000004577637,2|0,0:0|0:0,0:0:0:0:
412,272,6540,2,0,B|351:272|351:272|299:299,1,120.000004577637,2|0,0:0|0:0,0:0:0:0:
99,333,7125,2,0,B|160:333|160:333|212:360,1,120.000004577637,2|0,0:0|0:0,0:0:0:0:
300,228,7711,1,2,0:0:0:0:
208,264,8003,1,2,0:0:0:0:
276,136,8296,6,0,P|236:96|168:92,1,120.000004577637,2|0,0:0|0:0,0:0:0:0:
75,51,8735,2,0,P|87:79|89:109,1,60.0000022888184,2|0,0:0|0:0,0:0:0:0:
8,228,9028,2,0,P|26:203|57:185,1,60.0000022888184,2|0,0:0|0:0,0:0:0:0:
205,273,9320,2,0,P|146:283|88:272,1,120.000004577637,2|0,0:0|0:0,0:0:0:0:
87,271,9759,1,0,0:0:0:0:
87,271,10052,6,0,P|145:282|204:272,1,120.000004577637,2|0,0:0|0:0,0:0:0:0:
204,271,10637,6,0,L|206:207,1,64,0|0,1:0|0:0,0:0:0:0:
144,140,10930,2,0,L|146:76,1,64,0|0,0:0|0:0,0:0:0:0:
283,14,11223,2,0,P|251:12|220:15,1,64,0|0,1:0|0:0,0:0:0:0:
352,80,11515,2,0,P|383:82|415:78,1,64,0|0,0:0|0:0,0:0:0:0:
444,188,11808,6,0,P|381:176|318:187,1,128,0|0,1:0|0:0,0:0:0:0:
318,187,12393,2,0,P|312:224|320:264,1,64,0|0,1:0|0:0,0:0:0:0:
405,335,12686,2,0,P|411:303|408:272,1,64,0|0,0:0|0:0,0:0:0:0:
248,347,12979,2,0,L|312:344,1,64,0|0,1:0|0:0,0:0:0:0:
220,256,13271,2,0,L|156:252,1,64,0|0,0:0|0:0,0:0:0:0:
60,287,13564,2,0,P|58:255|52:224,1,64,0|0,1:0|0:0,0:0:0:0:
124,164,13857,2,0,P|126:132|132:100,1,64,0|0,0:0|0:0,0:0:0:0:
220,256,14150,6,0,P|224:180|236:108,1,128,0|0,1:0|0:0,0:0:0:0:
231,128,14735,2,0,P|264:132|308:124,1,64,0|0,1:0|0:0,0:0:0:0:
380,164,15028,2,0,P|410:150|444:122,1,64,0|0,0:0|0:0,0:0:0:0:
364,4,15320,2,0,L|368:68,1,64,0|0,1:0|0:0,0:0:0:0:
297,192,15613,2,0,L|294:129,1,64,0|0,0:0|0:0,0:0:0:0:
368,256,15906,2,0,P|332:280|292:288,1,64,0|0,1:0|0:0,0:0:0:0:
240,344,16198,2,0,P|196:346|158:333,1,64,0|0,0:0|0:0,0:0:0:0:
21,286,16491,6,0,P|84:286|140:256,1,128,0|0,1:0|0:0,0:0:0:0:
139,256,17076,2,0,L|135:180,1,64,0|0,1:0|0:0,0:0:0:0:
64,132,17369,2,0,L|68:56,1,64,0|0,0:0|0:0,0:0:0:0:
226,20,17662,2,0,L|220:148,1,128,0|0,1:0|0:0,0:0:0:0:
139,256,18101,2,0,P|176:240|219:240,1,64,0|0,0:0|1:0,0:0:0:0:
288,212,18393,2,0,P|319:216|348:230,1,64,0|0,0:0|0:0,0:0:0:0:
460,328,18686,1,0,0:0:0:0:
468,336,19125,5,0,1:0:0:0:
452,228,19271,1,8,0:0:0:0:
452,228,19345,1,8,0:0:0:0:
452,228,19418,1,8,0:0:0:0:
292,324,19564,1,8,0:0:0:0:
476,344,19711,1,0,1:0:0:0:
332,212,19857,1,0,1:0:0:0:
380,384,20003,1,4,0:0:0:0:
380,384,20589,6,0,B|332:372|332:372|284:384,1,95.9999970703126,0|0,0:0|0:0,0:0:0:0:
286,383,21174,6,0,L|280:304,1,68.0000012969971,4|0,0:0|0:0,0:0:0:0:
204,260,21467,2,0,L|210:181,1,68.0000012969971,2|0,0:0|0:0,0:0:0:0:
152,72,21759,2,0,P|217:88|282:72,1,136.000002593994,8|2,0:0|0:0,0:0:0:0:
368,8,22198,1,0,0:0:0:0:
510,116,22345,2,0,P|445:100|380:116,1,136.000002593994,0|2,1:0|0:0,0:0:0:0:
380,116,22930,2,0,P|376:152|380:196,1,68.0000012969971,8|0,0:0|0:0,0:0:0:0:
284,196,23223,2,0,P|297:227|316:256,1,68.0000012969971,2|0,0:0|0:0,0:0:0:0:
479,283,23515,6,0,L|412:272,1,68.0000012969971,0|0,1:0|0:0,0:0:0:0:
284,355,23808,2,0,L|352:344,1,68.0000012969971,2|0,0:0|0:0,0:0:0:0:
511,207,24101,2,0,L|359:179,1,136.000002593994,8|2,0:0|0:0,0:0:0:0:
194,145,24540,1,0,0:0:0:0:
265,210,24686,2,0,P|288:147|268:84,1,136.000002593994,0|2,1:0|0:0,0:0:0:0:
268,84,25271,2,0,L|192:56,1,68.0000012969971,8|0,0:0|0:0,0:0:0:0:
130,121,25564,2,0,L|194:145,1,68.0000012969971,2|0,0:0|0:0,0:0:0:0:
60,56,25857,6,0,P|40:83|35:116,1,68.0000012969971,0|0,1:0|0:0,0:0:0:0:
134,189,26150,2,0,L|130:121,1,68.0000012969971,2|0,0:0|0:0,0:0:0:0:
72,264,26442,2,0,P|135:284|199:264,1,136.000002593994,8|2,0:0|0:0,0:0:0:0:
280,208,26881,1,0,0:0:0:0:
431,312,27028,2,0,P|365:328|300:312,1,136.000002593994,0|2,1:0|0:0,0:0:0:0:
300,312,27613,2,0,L|300:232,1,68.0000012969971,8|0,0:0|0:0,0:0:0:0:
392,160,27906,2,0,L|392:228,1,68.0000012969971,2|0,0:0|0:0,0:0:0:0:
324,80,28198,6,0,P|389:64|455:80,1,136.000002593994,0|2,1:0|0:0,0:0:0:0:
256,12,28637,1,0,0:0:0:0:
232,104,28784,2,0,P|166:88|100:104,1,136.000002593994,8|2,0:0|0:0,0:0:0:0:
0,256,29223,1,0,0:0:0:0:
35,168,29369,2,0,L|80:220,1,68.0000012969971,0|0,1:0|0:0,0:0:0:0:
0,324,29662,2,0,L|0:248,1,68.0000012969971,2|0,0:0|0:0,0:0:0:0:
139,284,29954,2,0,P|110:301|77:305,1,68.0000012969971,8|0,0:0|0:0,0:0:0:0:
196,180,30247,1,0,1:0:0:0:
256,360,30393,1,8,0:0:0:0:
332,236,30540,6,0,P|365:231|399:235,1,68.0000012969971,4|0,0:0|0:0,0:0:0:0:
462,165,30832,2,0,P|482:192|496:224,1,68.0000012969971,2|0,0:0|0:0,0:0:0:0:
432,360,31125,2,0,P|366:376|300:360,1,136.000002593994,8|2,0:0|0:0,0:0:0:0:
139,284,31564,1,0,0:0:0:0:
256,132,31711,2,0,L|248:268,1,136.000002593994,0|2,1:0|0:0,0:0:0:0:
248,267,32296,2,0,P|214:271|180:267,1,68.0000012969971,8|0,0:0|0:0,0:0:0:0:
92,300,32589,2,0,P|87:266|91:232,1,68.0000012969971,2|0,0:0|0:0,0:0:0:0:
164,104,32881,6,0,P|168:138|164:172,1,68.0000012969971,0|0,1:0|0:0,0:0:0:0:
8,140,33174,2,0,P|42:135|76:140,1,68.0000012969971,2|0,0:0|0:0,0:0:0:0:
295,169,33467,2,0,P|229:155|164:171,1,136.000002593994,8|2,0:0|0:0,0:0:0:0:
76,356,33906,1,0,0:0:0:0:
8,268,34052,2,0,P|74:254|139:269,1,136.000002593994,0|2,1:0|0:0,0:0:0:0:
139,269,34637,2,0,P|172:265|206:269,1,68.0000012969971,8|0,0:0|0:0,0:0:0:0:
284,320,34930,2,0,P|317:324|351:320,1,68.0000012969971,2|0,0:0|0:0,0:0:0:0:
452,352,35223,6,0,L|460:208,1,136.000002593994,0|2,1:0|0:0,0:0:0:0:
428,48,35662,1,0,0:0:0:0:
511,139,35808,2,0,L|444:132,1,68.0000012969971,8|0,0:0|0:0,0:0:0:0:
361,56,36101,2,0,L|428:48,1,68.0000012969971,2|0,0:0|0:0,0:0:0:0:
295,251,36393,2,0,L|288:116,1,136.000002593994,0|2,1:0|0:0,0:0:0:0:
287,115,36979,2,0,L|220:107,1,68.0000012969971,8|0,0:0|0:0,0:0:0:0:
156,40,37271,2,0,L|89:48,1,68.0000012969971,2|0,0:0|0:0,0:0:0:0:
8,156,37564,6,0,P|72:144|144:200,1,136.000002593994,0|2,1:0|0:0,0:0:0:0:
176,276,38003,1,0,1:0:0:0:
56,236,38150,1,8,0:0:0:0:
184,256,38296,1,0,1:0:0:0:
48,252,38442,1,2,0:0:0:0:
224,168,38589,2,0,B|272:148|272:148|384:168,1,136.000002593994,4|0,0:0|0:0,0:0:0:0:
424,112,39028,2,0,P|440:156|436:192,1,68.0000012969971,0|0,1:0|0:0,0:0:0:0:
290,311,39320,2,0,L|284:244,1,68.0000012969971,8|0,0:0|0:0,0:0:0:0:
354,162,39613,1,8,0:0:0:0:
380,372,39759,1,8,0:0:0:0:
184,336,39906,6,0,L|169:184,1,143.999995605469,4|0,0:0|0:0,0:0:0:0:
292,76,40345,1,8,0:0:0:0:
261,176,40491,2,0,L|268:248,1,71.9999978027344
360,233,40784,2,0,L|352:145,1,71.9999978027344,0|0,1:0|1:0,0:0:0:0:
200,92,41076,1,0,0:0:0:0:
268,248,41223,1,8,0:0:0:0:
353,161,41369,2,0,P|405:150|458:163,1,107.999996704102,0|0,1:0|0:0,0:0:0:0:
512,224,41662,6,0,L|505:295,1,71.9999978027344,8|0,0:0|0:0,0:0:0:0:
392,376,41954,1,0,1:0:0:0:
404,256,42101,1,8,0:0:0:0:
232,332,42247,6,0,P|266:340|301:331,1,71.9999978027344,0|0,1:0|0:0,0:0:0:0:
268,248,42540,1,0,1:0:0:0:
144,364,42686,2,0,P|109:372|74:363,1,71.9999978027344,8|0,0:0|0:0,0:0:0:0:
108,204,42979,2,0,L|108:276,1,71.9999978027344,0|0,0:0|1:0,0:0:0:0:
20,240,43271,1,0,1:0:0:0:
20,240,43418,1,0,0:0:0:0:
180,132,43564,1,8,0:0:0:0:
0,100,43711,2,0,P|51:87|104:98,1,107.999996704102,0|0,1:0|0:0,0:0:0:0:
180,132,44003,6,0,P|214:139|250:133,1,71.9999978027344,8|0,0:0|0:0,0:0:0:0:
336,168,44296,2,0,P|343:133|337:98,1,71.9999978027344,0|0,1:0|0:0,0:0:0:0:
224,260,44589,6,0,B|312:228|300:288|380:252,1,143.999995605469,4|0,0:0|0:0,0:0:0:0:
426,122,45028,2,0,P|420:157|428:192,1,71.9999978027344,8|0,0:0|0:0,0:0:0:0:
493,329,45320,2,0,P|499:294|492:260,1,71.9999978027344,8|0,0:0|0:0,0:0:0:0:
364,348,45613,2,0,B|275:379|288:320|207:355,1,143.999995605469,4|8,0:0|0:0,0:0:0:0:
223,349,46052,1,0,1:0:0:0:
223,349,46345,6,0,P|188:356|153:349,1,71.9999978027344,8|0,0:0|0:0,0:0:0:0:
9,287,46637,2,0,P|44:294|80:288,1,71.9999978027344,0|0,1:0|1:0,0:0:0:0:
259,203,46930,6,0,P|189:219|120:204,1,143.999995605469,4|0,0:0|0:0,0:0:0:0:
276,40,47369,2,0,B|284:76|284:76|276:110,1,71.9999978027344,8|0,0:0|0:0,0:0:0:0:
120,76,47662,2,0,B|156:68|156:68|190:75,1,71.9999978027344,8|0,0:0|0:0,0:0:0:0:
348,172,47954,6,0,B|420:192|420:192|494:171,1,151.999995941162,4|0,0:0|1:0,0:0:0:0:
420,20,48393,2,0,L|420:96,1,75.9999979705811,0|0,1:0|0:0,0:0:0:0:
494,247,48686,2,0,L|494:171,1,75.9999979705811,8|0,0:0|0:0,0:0:0:0:
434,34,48979,2,0,L|427:110,1,75.9999979705811,0|0,1:0|0:0,0:0:0:0:
488,267,49272,2,0,L|494:191,1,75.9999979705811,8|0,0:0|0:0,0:0:0:0:
447,51,49564,2,0,L|434:125,1,75.9999979705811,0|0,1:0|0:0,0:0:0:0:
480,287,49857,2,0,L|494:212,1,75.9999979705811,8|0,0:0|0:0,0:0:0:0:
458,68,50150,2,0,L|439:141,1,75.9999979705811,0|0,1:0|2:0,0:0:0:0:
400,288,50442,6,0,B|356:296|356:296|312:288,1,90.0000034332277,12|0,0:0|0:0,0:0:0:0:
311,287,50735,6,0,B|272:280|272:280|232:287,1,80,12|0,0:0|0:0,0:0:0:0:
132,324,51028,1,8,0:0:0:0:
132,324,51125,1,8,0:0:0:0:
132,324,51223,1,8,0:0:0:0:
132,324,51320,2,0,L|135:363,1,40,8|0,0:0|0:0,0:0:0:0:
234,247,51467,2,0,L|232:286,1,40,8|0,0:0|0:0,0:0:0:0:
118,104,51613,6,0,L|124:184,1,80,8|2,0:0|0:0,0:0:0:0:
204,64,51906,1,2,0:0:0:0:
204,64,52052,1,2,0:0:0:0:
240,152,52198,6,0,B|320:128|310:180|386:156,1,140,2|0,0:0|0:0,0:0:0:0:
376,158,52784,6,0,L|384:62,1,88.000002685547,4|0,0:0|0:0,0:0:0:0:
484,36,53076,2,0,L|476:123,1,88.000002685547,0|0,1:0|0:0,0:0:0:0:
456,240,53369,2,0,P|374:268|292:239,1,176.000005371094,8|0,0:0|0:0,0:0:0:0:
176,176,53808,1,0,0:0:0:0:
214,362,53954,2,0,P|214:318|203:275,1,88.000002685547,0|0,1:0|0:0,0:0:0:0:
79,175,54247,1,0,0:0:0:0:
128,328,54393,1,0,1:0:0:0:
176,152,54540,1,8,0:0:0:0:
52,275,54686,2,0,P|41:317|41:361,2,88.000002685547,0|0|0,0:0|1:0|1:0,0:0:0:0:
79,175,55125,6,0,P|79:131|69:89,1,88.000002685547,0|0,1:0|0:0,0:0:0:0:
128,16,55418,2,0,P|170:26|214:26,1,88.000002685547,0|0,0:0|0:0,0:0:0:0:
345,161,55711,2,0,P|258:148|176:175,1,176.000005371094,8|0,0:0|0:0,0:0:0:0:
52,275,56150,1,0,0:0:0:0:
69,89,56296,2,0,P|79:131|79:175,1,88.000002685547,4|0,0:0|0:0,0:0:0:0:
52,275,56589,1,0,1:0:0:0:
186,88,56735,2,0,P|175:131|175:175,1,88.000002685547,4|0,0:0|0:0,0:0:0:0:
144,308,57028,2,0,P|186:296|230:297,1,88.000002685547,4|0,0:0|0:0,0:0:0:0:
424,340,57320,1,0,1:0:0:0:
324,384,57467,6,0,B|300:280|352:316|328:200,1,176.000005371094,4|0,0:0|0:0,0:0:0:0:
308,120,57906,1,0,1:0:0:0:
424,208,58052,2,0,P|429:251|424:296,1,88.000002685547,8|0,0:0|0:0,0:0:0:0:
230,265,58345,1,0,0:0:0:0:
330,211,58491,1,0,1:0:0:0:
232,368,58637,2,0,P|188:368|145:357,1,88.000002685547,0|0,1:0|1:0,0:0:0:0:
165,183,58930,2,0,P|188:221|200:264,1,88.000002685547,0|0,1:0|0:0,0:0:0:0:
32,324,59223,2,0,P|24:236|72:156,1,176.000005371094,8|0,0:0|0:0,0:0:0:0:
168,68,59662,1,0,0:0:0:0:
252,184,59808,6,0,B|209:191|209:191|165:183,1,88.000002685547,0|0,1:0|0:0,0:0:0:0:
283,53,60101,2,0,B|250:80|250:80|208:96,1,88.000002685547,0|0,1:0|0:0,0:0:0:0:
418,131,60393,2,0,B|376:124|376:124|332:132,1,88.000002685547,8|0,0:0|0:0,0:0:0:0:
451,262,60686,2,0,B|418:235|418:235|376:220,1,88.000002685547,0|0,1:0|0:0,0:0:0:0:
208,328,60979,1,0,1:0:0:0:
256,192,61125,1,8,0:0:0:0:
304,376,61271,1,0,1:0:0:0:
340,297,61418,1,0,0:0:0:0:
208,328,61564,2,0,B|120:348|120:348|36:328,1,176.000005371094,8|0,0:0|1:0,0:0:0:0:
121,239,62003,1,8,0:0:0:0:
28,132,62150,6,0,L|32:220,1,88.000002685547,4|0,0:0|0:0,0:0:0:0:
116,132,62442,2,0,L|112:44,1,88.000002685547,0|0,1:0|0:0,0:0:0:0:
121,239,62735,2,0,B|209:259|209:259|293:239,1,176.000005371094,8|0,0:0|0:0,0:0:0:0:
420,200,63174,1,0,0:0:0:0:
331,53,63320,2,0,B|324:96|324:96|332:140,1,88.000002685547,0|0,1:0|0:0,0:0:0:0:
376,284,63613,1,0,0:0:0:0:
500,200,63759,1,0,1:0:0:0:
464,360,63906,1,8,0:0:0:0:
504,184,64052,2,0,B|512:140|512:140|504:97,2,88.000002685547,0|0|0,0:0|1:0|1:0,0:0:0:0:
462,284,64491,6,0,B|418:276|418:276|375:283,1,88.000002685547,0|0,1:0|0:0,0:0:0:0:
296,336,64784,2,0,B|252:344|252:344|209:336,1,88.000002685547,0|0,0:0|0:0,0:0:0:0:
68,384,65076,2,0,L|52:192,1,176.000005371094,8|0,0:0|0:0,0:0:0:0:
112,76,65515,1,0,0:0:0:0:
245,207,65662,2,0,P|202:208|160:196,1,88.000002685547,4|0,0:0|0:0,0:0:0:0:
44,124,65954,1,0,1:0:0:0:
216,100,66101,2,0,P|258:89|295:66,1,88.000002685547,4|0,0:0|0:0,0:0:0:0:
245,207,66393,2,0,P|202:208|160:196,1,88.000002685547,4|0,0:0|0:0,0:0:0:0:
44,124,66686,1,0,1:0:0:0:
60,303,66832,6,0,P|143:280|227:301,1,176.000005371094,4|0,0:0|0:0,0:0:0:0:
312,352,67271,1,0,1:0:0:0:
398,271,67418,2,0,P|406:228|398:184,1,88.000002685547,8|0,0:0|0:0,0:0:0:0:
229,183,67711,1,0,0:0:0:0:
313,227,67857,1,0,1:0:0:0:
272,56,68003,2,0,P|229:47|185:55,1,88.000002685547,0|0,1:0|1:0,0:0:0:0:
60,140,68296,2,0,P|102:131|146:139,1,88.000002685547,0|0,1:0|0:0,0:0:0:0:
270,279,68589,2,0,P|187:304|104:280,1,176.000005371094,8|0,0:0|0:0,0:0:0:0:
188,156,69028,1,0,1:0:0:0:
355,322,69174,6,0,P|363:279|356:236,1,88.000002685547,0|0,1:0|0:0,0:0:0:0:
447,161,69467,2,0,P|439:205|448:248,1,88.000002685547,0|0,1:0|0:0,0:0:0:0:
263,310,69759,2,0,P|271:267|264:224,1,88.000002685547,8|0,0:0|0:0,0:0:0:0:
355,149,70052,2,0,P|347:192|355:235,1,88.000002685547,0|0,1:0|0:0,0:0:0:0:
488,376,70345,1,0,1:0:0:0:
448,248,70491,1,8,0:0:0:0:
263,310,70637,1,0,1:0:0:0:
262,310,70930,6,0,P|178:332|94:309,1,176.000005371094,8|0,0:0|1:0,0:0:0:0:
4,256,71369,1,8,0:0:0:0:
120,120,71515,6,0,B|127:162|127:162|119:206,1,88.000002685547,4|0,0:0|0:0,0:0:0:0:
4,256,71808,2,0,B|-4:212|-4:212|3:169,1,88.000002685547,0|0,1:0|0:0,0:0:0:0:
72,36,72101,2,0,B|168:0|160:72|264:36,1,176.000005371094,8|0,0:0|1:0,0:0:0:0:
384,8,72540,1,8,0:0:0:0:
336,116,72686,2,0,P|328:159|335:202,1,88.000002685547,0|0,1:0|0:0,0:0:0:0:
435,250,72979,2,0,P|443:207|436:164,1,88.000002685547,0|0,1:0|0:0,0:0:0:0:
300,328,73271,2,0,P|381:356|463:327,1,176.000005371094,8|0,0:0|1:0,0:0:0:0:
256,244,73711,5,8,0:0:0:0:
212,328,73857,2,0,P|130:356|48:327,1,176.000005371094,0|0,1:0|1:0,0:0:0:0:
4,244,74296,1,0,0:0:0:0:
132,148,74442,2,0,L|132:236,1,88.000002685547,8|0,0:0|0:0,0:0:0:0:
48,327,74735,1,0,1:0:0:0:
4,244,74881,1,8,0:0:0:0:
132,148,75028,1,0,1:0:0:0:
88,65,75174,1,8,0:0:0:0:
256,148,75320,1,0,1:0:0:0:
256,148,75613,6,0,P|337:176|419:147,1,176.000005371094,8|0,0:0|0:0,0:0:0:0:
496,100,76052,1,0,1:0:0:0:
496,304,76198,6,0,P|414:275|332:304,1,176.000005371094,4|0,0:0|0:0,0:0:0:0:
256,380,76637,1,0,1:0:0:0:
144,288,76784,2,0,L|152:112,1,176.000005371094,8|0,0:0|0:0,0:0:0:0:
304,28,77223,1,8,0:0:0:0:
339,127,77369,2,0,L|251:119,1,88.000002685547,0|0,1:0|0:0,0:0:0:0:
391,35,77662,2,0,L|303:27,1,88.000002685547,8|0,0:0|0:0,0:0:0:0:
444,136,77954,2,0,L|436:312,1,176.000005371094,0|0,1:0|1:0,0:0:0:0:
352,368,78393,1,8,0:0:0:0:
220,280,78540,6,0,P|262:271|305:281,1,88.000002685547,4|0,0:0|0:0,0:0:0:0:
176,368,78832,2,0,P|133:376|90:366,1,88.000002685547,0|0,1:0|0:0,0:0:0:0:
56,180,79125,2,0,P|139:156|222:180,1,176.000005371094,8|0,0:0|1:0,0:0:0:0:
305,281,79564,1,8,0:0:0:0:
328,176,79711,1,0,1:0:0:0:
199,75,79857,1,8,0:0:0:0:
222,180,80004,1,0,1:0:0:0:
222,180,80296,6,0,P|296:204|372:181,1,160,8|0,0:0|1:0,0:0:0:0:
452,108,80735,1,8,0:0:0:0:
512,284,80881,6,0,P|465:274|418:284,1,95.9999970703126,4|0,0:0|0:0,0:0:0:0:
340,344,81174,2,0,P|293:353|246:343,1,95.9999970703126,0|0,1:0|0:0,0:0:0:0:
64,220,81467,2,0,B|156:252|156:252|244:220,1,191.999994140625,8|0,0:0|1:0,0:0:0:0:
340,168,81906,1,0,0:0:0:0:
233,28,82052,6,0,L|240:124,1,95.9999970703126,0|0,1:0|0:0,0:0:0:0:
333,263,82345,2,0,L|340:168,1,95.9999970703126,8|0,0:0|0:0,0:0:0:0:
138,80,82637,2,0,L|144:175,1,95.9999970703126,0|0,1:0|0:0,0:0:0:0:
238,315,82930,2,0,L|244:219,1,95.9999970703126,8|0,0:0|0:0,0:0:0:0:
426,124,83223,6,0,L|432:219,1,95.9999970703126,4|0,0:0|0:0,0:0:0:0:
326,359,83515,2,0,L|332:263,1,95.9999970703126,8|0,0:0|0:0,0:0:0:0:
508,317,83808,2,0,P|461:328|416:316,1,95.9999970703126,0|0,1:0|0:0,0:0:0:0:
247,166,84101,2,0,P|293:155|339:167,1,95.9999970703126,8|0,0:0|0:0,0:0:0:0:
186,359,84393,1,0,1:0:0:0:
186,359,84686,5,8,0:0:0:0:
331,263,84832,1,0,1:0:0:0:
136,212,84978,1,8,0:0:0:0:
136,212,85271,5,8,0:0:0:0:
186,359,85418,1,0,1:0:0:0:
136,212,85564,6,0,L|144:96,1,95.9999970703126,4|0,0:0|0:0,0:0:0:0:
253,70,85857,2,0,L|246:165,1,95.9999970703126,0|0,1:0|0:0,0:0:0:0:
32,228,86150,2,0,L|40:112,1,95.9999970703126,12|0,0:0|0:0,0:0:0:0:
356,40,86443,2,0,L|349:135,1,95.9999970703126,0|0,1:0|0:0,0:0:0:0:
100,312,86735,1,4,0:0:0:0:
100,312,87174,5,0,1:0:0:0:
160,140,87320,1,8,0:0:0:0:
164,164,87393,1,0,0:0:0:0:
168,188,87467,1,8,0:0:0:0:
172,212,87540,1,0,0:0:0:0:
176,236,87613,2,0,B|224:216|224:216|313:235,1,143.999995605469,0|0,1:0|0:0,0:0:0:0:
290,317,87906,6,0,L|232:304,1,60.0000022888184,4|0,0:0|0:0,0:0:0:0:
