osu file format v14

[General]
AudioFilename: audio.MP3
AudioLeadIn: 0
PreviewTime: 61455
Countdown: 0
SampleSet: Normal
StackLeniency: 0.7
Mode: 1
LetterboxInBreaks: 0
WidescreenStoryboard: 1

[Editor]
Bookmarks: 2546,11274,22183,39637,48365,61455,81092,89819
DistanceSpacing: 1.2
BeatDivisor: 4
GridSize: 32
TimelineZoom: 1.6

[Metadata]
Title:Waga Na wa Shougakusei (TV Size)
TitleUnicode:わが名は小学生 (TV Size)
Artist:Takagaki Ayahi, Akesaka Satomi, Tomatsu Haruka
ArtistUnicode:高垣彩陽, 明坂聡美, 戸松遥
Creator:marksman666
Version:Muzukashii
Source:みつどもえ 増量中!
Tags:mitsudomoe zouryouchuu 丸井 ひとは ふたば みつば marui hitoha futaba mitsuba maeyamada kenichi 前山田健一 Hyadain ヒャダイン japanese anime arien666
BeatmapID:2455062
BeatmapSetID:1177128

[Difficulty]
HPDrainRate:6
CircleSize:2
OverallDifficulty:5
ApproachRate:10
SliderMultiplier:1.4
SliderTickRate:1

[Events]
//Background and Video events
0,0,"bg.png",0,70
//Break Periods
//Storyboard Layer 0 (Background)
//Storyboard Layer 1 (Fail)
//Storyboard Layer 2 (Pass)
//Storyboard Layer 3 (Foreground)
//Storyboard Layer 4 (Overlay)
//Storyboard Sound Samples

[TimingPoints]
370,272.727272727273,4,1,0,85,1,0
39642,272.727272727273,6,1,0,85,1,0
47823,272.727272727273,5,1,0,85,1,8
48368,272.727272727273,4,1,0,85,1,0
61458,-100,4,1,0,85,0,1
81095,-100,4,1,0,85,0,0

[HitObjects]
256,192,2551,1,0,0:0:0:0:
256,192,2688,1,8,0:0:0:0:
256,192,2824,1,0,0:0:0:0:
256,192,3097,1,0,0:0:0:0:
256,192,3370,1,0,0:0:0:0:
256,192,3642,1,8,0:0:0:0:
256,192,3779,1,0,0:0:0:0:
256,192,3915,1,8,0:0:0:0:
256,192,4188,1,8,0:0:0:0:
256,192,4460,1,8,0:0:0:0:
256,192,4733,1,0,0:0:0:0:
256,192,5006,1,8,0:0:0:0:
256,192,5279,1,0,0:0:0:0:
256,192,5551,1,8,0:0:0:0:
256,192,5688,1,0,0:0:0:0:
256,192,5960,1,0,0:0:0:0:
256,192,6233,1,8,0:0:0:0:
256,192,6370,1,8,0:0:0:0:
256,192,6915,1,0,0:0:0:0:
256,192,7188,1,8,0:0:0:0:
256,192,7460,1,0,0:0:0:0:
256,192,7597,1,0,0:0:0:0:
256,192,7733,1,8,0:0:0:0:
256,192,8006,1,0,0:0:0:0:
256,192,8142,1,0,0:0:0:0:
256,192,8279,1,8,0:0:0:0:
256,192,8415,1,8,0:0:0:0:
256,192,8551,1,0,0:0:0:0:
256,192,8688,1,0,0:0:0:0:
256,192,8824,1,8,0:0:0:0:
256,192,9097,1,0,0:0:0:0:
256,192,9642,1,0,0:0:0:0:
256,192,10051,1,0,0:0:0:0:
256,192,10324,1,0,0:0:0:0:
256,192,10460,1,0,0:0:0:0:
256,192,10597,1,0,0:0:0:0:
256,192,10733,1,8,0:0:0:0:
256,192,11006,1,12,0:0:0:0:
256,192,11279,1,0,0:0:0:0:
256,192,11551,1,8,0:0:0:0:
256,192,11824,1,0,0:0:0:0:
256,192,11960,1,0,0:0:0:0:
256,192,12097,1,8,0:0:0:0:
256,192,12370,1,0,0:0:0:0:
256,192,12642,1,8,0:0:0:0:
256,192,12779,1,0,0:0:0:0:
256,192,13324,1,0,0:0:0:0:
256,192,13597,1,8,0:0:0:0:
256,192,13870,1,8,0:0:0:0:
256,192,14006,1,0,0:0:0:0:
256,192,14279,1,0,0:0:0:0:
256,192,14551,1,12,0:0:0:0:
256,192,14824,1,12,0:0:0:0:
256,192,15097,1,4,0:0:0:0:
256,192,15370,1,12,0:0:0:0:
256,192,15642,1,0,0:0:0:0:
256,192,15915,1,8,0:0:0:0:
256,192,16188,1,0,0:0:0:0:
256,192,16324,1,0,0:0:0:0:
256,192,16460,1,8,0:0:0:0:
256,192,16733,1,0,0:0:0:0:
256,192,17006,1,8,0:0:0:0:
256,192,17142,1,0,0:0:0:0:
256,192,17688,1,0,0:0:0:0:
256,192,17960,1,8,0:0:0:0:
256,192,18233,1,8,0:0:0:0:
256,192,18370,1,0,0:0:0:0:
256,192,18642,1,0,0:0:0:0:
256,192,18915,1,12,0:0:0:0:
256,192,19324,1,12,0:0:0:0:
256,192,20006,1,8,0:0:0:0:
256,192,20142,1,8,0:0:0:0:
256,192,20279,1,8,0:0:0:0:
256,192,20551,1,0,0:0:0:0:
256,192,20688,1,0,0:0:0:0:
256,192,20824,1,0,0:0:0:0:
256,192,21097,8,0,21642,0:0:0:0:
256,192,21915,5,12,0:0:0:0:
256,192,22188,1,4,0:0:0:0:
256,192,22460,1,8,0:0:0:0:
256,192,22597,1,0,0:0:0:0:
256,192,22870,1,0,0:0:0:0:
256,192,23006,1,8,0:0:0:0:
256,192,23142,1,0,0:0:0:0:
256,192,23415,1,0,0:0:0:0:
256,192,23688,1,0,0:0:0:0:
256,192,23824,1,0,0:0:0:0:
256,192,24097,1,8,0:0:0:0:
256,192,24370,1,0,0:0:0:0:
256,192,24642,1,8,0:0:0:0:
256,192,24915,1,0,0:0:0:0:
256,192,25188,1,8,0:0:0:0:
256,192,25324,1,0,0:0:0:0:
256,192,25597,1,0,0:0:0:0:
256,192,25870,1,0,0:0:0:0:
256,192,26006,1,0,0:0:0:0:
256,192,26279,1,12,0:0:0:0:
256,192,26551,1,4,0:0:0:0:
256,192,26824,1,8,0:0:0:0:
256,192,27097,1,0,0:0:0:0:
256,192,27233,1,0,0:0:0:0:
256,192,27370,1,8,0:0:0:0:
256,192,27642,1,0,0:0:0:0:
256,192,28051,1,8,0:0:0:0:
256,192,28597,1,8,0:0:0:0:
256,192,28870,1,0,0:0:0:0:
256,192,29142,1,0,0:0:0:0:
256,192,29279,1,8,0:0:0:0:
256,192,29551,1,0,0:0:0:0:
256,192,29824,1,0,0:0:0:0:
256,192,30233,1,0,0:0:0:0:
256,192,30642,1,12,0:0:0:0:
256,192,30915,1,4,0:0:0:0:
256,192,31188,1,8,0:0:0:0:
256,192,31324,1,0,0:0:0:0:
256,192,31597,1,0,0:0:0:0:
256,192,31733,1,8,0:0:0:0:
256,192,31870,1,0,0:0:0:0:
256,192,32142,1,0,0:0:0:0:
256,192,32415,1,0,0:0:0:0:
256,192,32551,1,0,1:0:0:0:
256,192,32824,1,8,0:0:0:0:
256,192,33097,1,0,0:0:0:0:
256,192,33370,1,8,0:0:0:0:
256,192,33506,1,0,0:0:0:0:
256,192,33779,1,0,0:0:0:0:
256,192,33915,1,8,0:0:0:0:
256,192,34188,1,8,0:0:0:0:
256,192,34324,1,0,0:0:0:0:
256,192,34597,1,0,0:0:0:0:
256,192,34733,1,8,0:0:0:0:
256,192,35006,1,12,0:0:0:0:
256,192,35279,1,0,0:0:0:0:
256,192,35551,1,8,0:0:0:0:
256,192,35824,1,0,0:0:0:0:
256,192,35960,1,0,0:0:0:0:
256,192,36097,1,8,0:0:0:0:
256,192,36370,1,0,0:0:0:0:
256,192,36779,1,8,0:0:0:0:
256,192,37324,1,8,0:0:0:0:
256,192,37597,1,0,0:0:0:0:
256,192,37870,1,0,0:0:0:0:
256,192,38006,1,8,0:0:0:0:
256,192,38279,1,0,0:0:0:0:
256,192,38551,1,4,0:0:0:0:
256,192,38960,1,12,0:0:0:0:
256,192,39642,1,0,0:0:0:0:
256,192,39914,1,0,0:0:0:0:
256,192,40187,1,8,0:0:0:0:
256,192,40460,1,0,0:0:0:0:
256,192,40732,1,8,0:0:0:0:
256,192,41005,1,8,0:0:0:0:
256,192,41278,1,0,0:0:0:0:
256,192,41551,1,0,0:0:0:0:
256,192,41823,1,8,0:0:0:0:
256,192,42096,1,0,0:0:0:0:
256,192,42369,1,8,0:0:0:0:
256,192,42642,1,8,0:0:0:0:
256,192,42914,1,8,0:0:0:0:
256,192,43187,1,8,0:0:0:0:
256,192,43460,1,0,0:0:0:0:
256,192,43732,1,0,0:0:0:0:
256,192,44005,1,0,0:0:0:0:
256,192,44278,1,8,0:0:0:0:
256,192,44551,1,0,0:0:0:0:
256,192,44823,1,8,0:0:0:0:
256,192,45096,1,8,0:0:0:0:
256,192,45369,1,0,0:0:0:0:
256,192,45642,1,8,0:0:0:0:
256,192,45914,1,8,0:0:0:0:
256,192,46187,1,0,0:0:0:0:
256,192,46460,1,0,0:0:0:0:
256,192,46732,1,8,0:0:0:0:
256,192,47005,8,0,48095,0:0:0:0:
256,192,48368,5,8,0:0:0:0:
256,192,48913,1,8,0:0:0:0:
256,192,49186,1,0,0:0:0:0:
256,192,49458,1,8,0:0:0:0:
256,192,49868,1,8,0:0:0:0:
256,192,50277,1,0,0:0:0:0:
256,192,50549,1,0,0:0:0:0:
256,192,50958,1,0,0:0:0:0:
256,192,51368,1,0,0:0:0:0:
256,192,51640,1,8,0:0:0:0:
256,192,51913,1,0,0:0:0:0:
256,192,52186,1,8,0:0:0:0:
256,192,52458,1,12,0:0:0:0:
256,192,52731,1,0,0:0:0:0:
256,192,53004,1,8,0:0:0:0:
256,192,53277,1,0,0:0:0:0:
256,192,53413,1,0,0:0:0:0:
256,192,53549,1,8,0:0:0:0:
256,192,53822,1,0,0:0:0:0:
256,192,53958,1,0,0:0:0:0:
256,192,54095,1,8,0:0:0:0:
256,192,54368,1,0,0:0:0:0:
256,192,54640,1,8,0:0:0:0:
256,192,54913,1,0,0:0:0:0:
256,192,55049,1,0,0:0:0:0:
256,192,55186,1,12,0:0:0:0:
256,192,55458,1,8,0:0:0:0:
256,192,55595,1,0,0:0:0:0:
256,192,55731,1,12,0:0:0:0:
256,192,56004,1,0,0:0:0:0:
256,192,56140,1,0,0:0:0:0:
256,192,56277,1,12,0:0:0:0:
256,192,56549,1,8,0:0:0:0:
256,192,56686,1,0,0:0:0:0:
256,192,56822,1,12,0:0:0:0:
256,192,57095,1,8,0:0:0:0:
256,192,57368,1,0,0:0:0:0:
256,192,57504,1,8,0:0:0:0:
256,192,57777,1,0,0:0:0:0:
256,192,57913,1,8,0:0:0:0:
256,192,58049,1,0,0:0:0:0:
256,192,58186,1,8,0:0:0:0:
256,192,58458,1,0,0:0:0:0:
256,192,58595,1,8,0:0:0:0:
256,192,58868,1,0,0:0:0:0:
256,192,59004,1,8,0:0:0:0:
256,192,59140,1,0,0:0:0:0:
256,192,59277,1,12,0:0:0:0:
256,192,59822,1,12,0:0:0:0:
256,192,60368,1,4,0:0:0:0:
256,192,60640,1,4,0:0:0:0:
256,192,60913,1,0,0:0:0:0:
256,192,61049,1,0,0:0:0:0:
256,192,61186,1,12,0:0:0:0:
256,192,61458,1,0,0:0:0:0:
256,192,61595,1,8,0:0:0:0:
256,192,61731,1,0,0:0:0:0:
256,192,61868,1,8,0:0:0:0:
256,192,62140,1,0,0:0:0:0:
256,192,62413,1,0,0:0:0:0:
256,192,62822,1,8,0:0:0:0:
256,192,62958,1,0,0:0:0:0:
256,192,63095,1,8,0:0:0:0:
256,192,63368,1,8,0:0:0:0:
256,192,63640,1,0,0:0:0:0:
256,192,63777,1,0,0:0:0:0:
256,192,63913,1,8,0:0:0:0:
256,192,64049,1,8,0:0:0:0:
256,192,64322,1,0,0:0:0:0:
256,192,64595,1,0,0:0:0:0:
256,192,65004,1,0,0:0:0:0:
256,192,65140,1,0,0:0:0:0:
256,192,65277,1,8,0:0:0:0:
256,192,65549,1,8,0:0:0:0:
256,192,65686,1,0,0:0:0:0:
256,192,66504,1,0,0:0:0:0:
256,192,66777,1,0,0:0:0:0:
256,192,66913,1,8,0:0:0:0:
256,192,67049,1,0,0:0:0:0:
256,192,67186,1,8,0:0:0:0:
256,192,67322,1,8,0:0:0:0:
256,192,67458,1,0,0:0:0:0:
256,192,67731,1,8,0:0:0:0:
256,192,67868,1,0,0:0:0:0:
256,192,68140,1,0,0:0:0:0:
256,192,68277,1,8,0:0:0:0:
256,192,68413,1,8,0:0:0:0:
256,192,68549,1,0,0:0:0:0:
256,192,68822,1,8,0:0:0:0:
256,192,68958,1,0,0:0:0:0:
256,192,69231,1,0,0:0:0:0:
256,192,69368,1,8,0:0:0:0:
256,192,69504,1,8,0:0:0:0:
256,192,69640,1,8,0:0:0:0:
256,192,69913,1,12,0:0:0:0:
256,192,70186,1,0,0:0:0:0:
256,192,70322,1,0,0:0:0:0:
256,192,70458,1,8,0:0:0:0:
256,192,70595,1,8,0:0:0:0:
256,192,70868,1,0,0:0:0:0:
256,192,71140,1,0,0:0:0:0:
256,192,71549,1,0,0:0:0:0:
256,192,71686,1,0,0:0:0:0:
256,192,71822,1,8,0:0:0:0:
256,192,72095,1,8,0:0:0:0:
256,192,72368,1,0,0:0:0:0:
256,192,72504,1,8,0:0:0:0:
256,192,72640,1,8,0:0:0:0:
256,192,72777,1,8,0:0:0:0:
256,192,73049,1,0,0:0:0:0:
256,192,73322,1,0,0:0:0:0:
256,192,73731,1,8,0:0:0:0:
256,192,73868,1,0,0:0:0:0:
256,192,74004,1,8,0:0:0:0:
256,192,74277,1,8,0:0:0:0:
256,192,74413,1,0,0:0:0:0:
256,192,74549,1,0,0:0:0:0:
256,192,74958,1,0,0:0:0:0:
256,192,75095,1,0,0:0:0:0:
256,192,75368,1,8,0:0:0:0:
256,192,75640,1,0,0:0:0:0:
256,192,76049,1,0,0:0:0:0:
256,192,76186,1,0,0:0:0:0:
256,192,76458,1,8,0:0:0:0:
256,192,76731,1,0,0:0:0:0:
256,192,77004,1,8,0:0:0:0:
256,192,77277,1,0,0:0:0:0:
256,192,77413,1,0,0:0:0:0:
256,192,77549,1,8,0:0:0:0:
256,192,77822,1,0,0:0:0:0:
256,192,77958,1,0,0:0:0:0:
256,192,78095,1,8,0:0:0:0:
256,192,78368,1,0,0:0:0:0:
256,192,78640,1,8,0:0:0:0:
256,192,78777,1,8,0:0:0:0:
256,192,78913,1,4,0:0:0:0:
256,192,79458,1,4,0:0:0:0:
256,192,80004,1,12,0:0:0:0:
256,192,80277,1,12,0:0:0:0:
256,192,80549,1,0,0:0:0:0:
256,192,80686,1,0,0:0:0:0:
256,192,80822,1,12,0:0:0:0:
256,192,81095,1,0,0:0:0:0:
256,192,81232,1,8,0:0:0:0:
256,192,81368,1,0,0:0:0:0:
256,192,81641,1,0,0:0:0:0:
256,192,81914,1,0,0:0:0:0:
256,192,82186,1,8,0:0:0:0:
256,192,82323,1,0,0:0:0:0:
256,192,82459,1,8,0:0:0:0:
256,192,82732,1,8,0:0:0:0:
256,192,83004,1,8,0:0:0:0:
256,192,83277,1,0,0:0:0:0:
256,192,83550,1,8,0:0:0:0:
256,192,83823,1,0,0:0:0:0:
256,192,84095,1,8,0:0:0:0:
256,192,84232,1,0,0:0:0:0:
256,192,84504,1,0,0:0:0:0:
256,192,84777,1,8,0:0:0:0:
256,192,84914,1,8,0:0:0:0:
256,192,85459,1,0,0:0:0:0:
256,192,85732,1,8,0:0:0:0:
256,192,86004,1,0,0:0:0:0:
256,192,86141,1,0,0:0:0:0:
256,192,86277,1,8,0:0:0:0:
256,192,86550,1,0,0:0:0:0:
256,192,86686,1,0,0:0:0:0:
256,192,86823,1,8,0:0:0:0:
256,192,86959,1,8,0:0:0:0:
256,192,87095,1,0,0:0:0:0:
256,192,87232,1,0,0:0:0:0:
256,192,87368,1,8,0:0:0:0:
256,192,87641,1,0,0:0:0:0:
256,192,88186,1,0,0:0:0:0:
256,192,88595,1,0,0:0:0:0:
256,192,88868,1,0,0:0:0:0:
256,192,89004,1,0,0:0:0:0:
256,192,89140,1,0,0:0:0:0:
256,192,89277,1,8,0:0:0:0:
