osu file format v14

[General]
AudioFilename: audio.MP3
AudioLeadIn: 0
PreviewTime: 61455
Countdown: 0
SampleSet: Normal
StackLeniency: 0.7
Mode: 1
LetterboxInBreaks: 0
WidescreenStoryboard: 1

[Editor]
Bookmarks: 2551,11279,22188,39642,48368,61458,81095,89822
DistanceSpacing: 1.2
BeatDivisor: 4
GridSize: 32
TimelineZoom: 2.599999

[Metadata]
Title:Waga Na wa Shougakusei (TV Size)
TitleUnicode:わが名は小学生 (TV Size)
Artist:Takagaki Ayahi, Akesaka Satomi, Tomatsu Haruka
ArtistUnicode:高垣彩陽, 明坂聡美, 戸松遥
Creator:marksman666
Version:Inner Oni
Source:みつどもえ 増量中!
Tags:mitsudomoe zouryouchuu 丸井 ひとは ふたば みつば marui hitoha futaba mitsuba maeyamada kenichi 前山田健一 Hyadain ヒャダイン japanese anime arien666
BeatmapID:2455064
BeatmapSetID:1177128

[Difficulty]
HPDrainRate:6.5
CircleSize:2
OverallDifficulty:6
ApproachRate:0
SliderMultiplier:1.4
SliderTickRate:1

[Events]
//Background and Video events
0,0,"bg.png",0,70
//Break Periods
//Storyboard Layer 0 (Background)
//Storyboard Layer 1 (Fail)
//Storyboard Layer 2 (Pass)
//Storyboard Layer 3 (Foreground)
//Storyboard Layer 4 (Overlay)
//Storyboard Sound Samples

[TimingPoints]
370,272.727272727273,4,1,0,85,1,0
39642,272.727272727273,6,1,0,85,1,0
47823,272.727272727273,5,1,0,85,1,8
48368,272.727272727273,4,1,0,85,1,0
48368,-125,4,1,0,85,0,0
52730,-100,4,1,0,85,0,0
61458,-100,4,1,0,85,0,1
81095,-100,4,1,0,85,0,0

[HitObjects]
256,192,2551,1,0,0:0:0:0:
256,192,2688,1,8,0:0:0:0:
256,192,2824,1,0,0:0:0:0:
256,192,2960,1,8,0:0:0:0:
256,192,3097,1,0,0:0:0:0:
256,192,3165,1,0,0:0:0:0:
256,192,3233,1,0,0:0:0:0:
256,192,3301,1,0,0:0:0:0:
256,192,3370,1,8,0:0:0:0:
256,192,3506,1,0,0:0:0:0:
256,192,3642,1,8,0:0:0:0:
256,192,3779,1,0,0:0:0:0:
256,192,3915,1,8,0:0:0:0:
256,192,4051,1,0,0:0:0:0:
256,192,4188,1,0,0:0:0:0:
256,192,4256,1,0,0:0:0:0:
256,192,4324,1,0,0:0:0:0:
256,192,4392,1,0,0:0:0:0:
256,192,4460,1,8,0:0:0:0:
256,192,4597,1,0,0:0:0:0:
256,192,4733,1,8,0:0:0:0:
256,192,5006,1,0,0:0:0:0:
256,192,5279,1,8,0:0:0:0:
256,192,5347,1,8,0:0:0:0:
256,192,5415,1,0,0:0:0:0:
256,192,5483,1,0,0:0:0:0:
256,192,5551,1,8,0:0:0:0:
256,192,5688,1,0,0:0:0:0:
256,192,5824,1,0,0:0:0:0:
256,192,5960,1,8,0:0:0:0:
256,192,6097,1,8,0:0:0:0:
256,192,6233,1,0,0:0:0:0:
256,192,6370,1,0,0:0:0:0:
256,192,6438,1,0,0:0:0:0:
256,192,6506,1,0,0:0:0:0:
256,192,6642,1,8,0:0:0:0:
256,192,6915,1,8,0:0:0:0:
256,192,7051,1,0,0:0:0:0:
256,192,7188,1,8,0:0:0:0:
256,192,7324,1,0,0:0:0:0:
256,192,7460,1,8,0:0:0:0:
256,192,7529,1,8,0:0:0:0:
256,192,7597,1,0,0:0:0:0:
256,192,7665,1,0,0:0:0:0:
256,192,7733,1,8,0:0:0:0:
256,192,7870,1,0,0:0:0:0:
256,192,8006,1,0,0:0:0:0:
256,192,8074,1,0,0:0:0:0:
256,192,8142,1,8,0:0:0:0:
256,192,8210,1,0,0:0:0:0:
256,192,8279,1,8,0:0:0:0:
256,192,8415,1,0,0:0:0:0:
256,192,8551,1,8,0:0:0:0:
256,192,8620,1,8,0:0:0:0:
256,192,8688,1,0,0:0:0:0:
256,192,8824,1,8,0:0:0:0:
256,192,8960,1,0,0:0:0:0:
256,192,9097,1,0,0:0:0:0:
256,192,9370,1,8,0:0:0:0:
256,192,9642,1,0,0:0:0:0:
256,192,9915,1,8,0:0:0:0:
256,192,10051,1,0,0:0:0:0:
256,192,10324,1,0,0:0:0:0:
256,192,10392,1,0,0:0:0:0:
256,192,10460,1,0,0:0:0:0:
256,192,10529,1,0,0:0:0:0:
256,192,10597,1,8,0:0:0:0:
256,192,10665,1,8,0:0:0:0:
256,192,10733,1,8,0:0:0:0:
256,192,11006,1,12,0:0:0:0:
256,192,11279,1,0,0:0:0:0:
256,192,11551,1,8,0:0:0:0:
256,192,11824,1,0,0:0:0:0:
256,192,11960,1,0,0:0:0:0:
256,192,12097,1,8,0:0:0:0:
256,192,12233,1,0,0:0:0:0:
256,192,12301,1,0,0:0:0:0:
256,192,12370,1,8,0:0:0:0:
256,192,12506,1,0,0:0:0:0:
256,192,12642,1,0,0:0:0:0:
256,192,12779,1,8,0:0:0:0:
256,192,12915,1,0,0:0:0:0:
256,192,13051,1,0,0:0:0:0:
256,192,13120,1,0,0:0:0:0:
256,192,13188,1,8,0:0:0:0:
256,192,13324,1,8,0:0:0:0:
256,192,13392,1,8,0:0:0:0:
256,192,13460,1,0,0:0:0:0:
256,192,13529,1,0,0:0:0:0:
256,192,13597,1,8,0:0:0:0:
256,192,13665,1,8,0:0:0:0:
256,192,13733,1,0,0:0:0:0:
256,192,13870,1,8,0:0:0:0:
256,192,14006,1,0,0:0:0:0:
256,192,14074,1,0,0:0:0:0:
256,192,14142,1,0,0:0:0:0:
256,192,14210,1,0,0:0:0:0:
256,192,14279,1,8,0:0:0:0:
256,192,14415,1,0,0:0:0:0:
256,192,14551,1,0,0:0:0:0:
256,192,14620,1,0,0:0:0:0:
256,192,14688,1,0,0:0:0:0:
256,192,14824,1,4,0:0:0:0:
256,192,15097,1,8,0:0:0:0:
256,192,15165,1,8,0:0:0:0:
256,192,15233,1,8,0:0:0:0:
256,192,15370,1,12,0:0:0:0:
256,192,15642,1,0,0:0:0:0:
256,192,15915,1,8,0:0:0:0:
256,192,16188,1,0,0:0:0:0:
256,192,16324,1,0,0:0:0:0:
256,192,16460,1,8,0:0:0:0:
256,192,16597,1,0,0:0:0:0:
256,192,16665,1,0,0:0:0:0:
256,192,16733,1,8,0:0:0:0:
256,192,16870,1,0,0:0:0:0:
256,192,17006,1,0,0:0:0:0:
256,192,17074,1,0,0:0:0:0:
256,192,17142,1,8,0:0:0:0:
256,192,17210,1,0,0:0:0:0:
256,192,17279,1,0,0:0:0:0:
256,192,17415,1,0,0:0:0:0:
256,192,17483,1,0,0:0:0:0:
256,192,17551,1,8,0:0:0:0:
256,192,17688,1,8,0:0:0:0:
256,192,17756,1,8,0:0:0:0:
256,192,17824,1,0,0:0:0:0:
256,192,17892,1,0,0:0:0:0:
256,192,17960,1,0,0:0:0:0:
256,192,18029,1,8,0:0:0:0:
256,192,18097,1,8,0:0:0:0:
256,192,18233,1,8,0:0:0:0:
256,192,18301,1,8,0:0:0:0:
256,192,18370,1,0,0:0:0:0:
256,192,18642,1,0,0:0:0:0:
256,192,18915,1,8,0:0:0:0:
256,192,19051,1,8,0:0:0:0:
256,192,19120,1,8,0:0:0:0:
256,192,19188,1,0,0:0:0:0:
256,192,19256,1,0,0:0:0:0:
256,192,19324,1,8,0:0:0:0:
256,192,20006,1,0,0:0:0:0:
256,192,20142,1,0,0:0:0:0:
256,192,20279,1,8,0:0:0:0:
256,192,20415,1,0,0:0:0:0:
256,192,20551,1,8,0:0:0:0:
256,192,20688,1,8,0:0:0:0:
256,192,20824,1,0,0:0:0:0:
256,192,20960,1,0,0:0:0:0:
256,192,21097,8,0,21642,0:0:0:0:
256,192,21915,5,12,0:0:0:0:
256,192,22188,1,4,0:0:0:0:
256,192,22460,1,8,0:0:0:0:
256,192,22597,1,0,0:0:0:0:
256,192,22665,1,8,0:0:0:0:
256,192,22733,1,0,0:0:0:0:
256,192,22870,1,8,0:0:0:0:
256,192,23006,1,0,0:0:0:0:
256,192,23074,1,8,0:0:0:0:
256,192,23142,1,0,0:0:0:0:
256,192,23279,1,8,0:0:0:0:
256,192,23415,1,0,0:0:0:0:
256,192,23551,1,8,0:0:0:0:
256,192,23688,1,8,0:0:0:0:
256,192,23756,1,8,0:0:0:0:
256,192,23824,1,0,0:0:0:0:
256,192,23892,1,0,0:0:0:0:
256,192,23960,1,8,0:0:0:0:
256,192,24097,1,8,0:0:0:0:
256,192,24370,1,0,0:0:0:0:
256,192,24506,1,0,0:0:0:0:
256,192,24642,1,8,0:0:0:0:
256,192,24915,1,0,0:0:0:0:
256,192,24983,1,0,0:0:0:0:
256,192,25051,1,0,0:0:0:0:
256,192,25120,1,0,0:0:0:0:
256,192,25188,1,8,0:0:0:0:
256,192,25324,1,0,0:0:0:0:
256,192,25597,1,8,0:0:0:0:
256,192,25665,1,8,0:0:0:0:
256,192,25733,1,0,0:0:0:0:
256,192,25870,1,8,0:0:0:0:
256,192,26006,1,0,0:0:0:0:
256,192,26074,1,0,0:0:0:0:
256,192,26142,1,0,0:0:0:0:
256,192,26279,1,12,0:0:0:0:
256,192,26551,1,4,0:0:0:0:
256,192,26688,1,0,0:0:0:0:
256,192,26756,1,0,0:0:0:0:
256,192,26824,1,8,0:0:0:0:
256,192,27097,1,0,0:0:0:0:
256,192,27165,1,0,0:0:0:0:
256,192,27233,1,0,0:0:0:0:
256,192,27301,1,0,0:0:0:0:
256,192,27370,1,8,0:0:0:0:
256,192,27506,1,0,0:0:0:0:
256,192,27642,1,0,0:0:0:0:
256,192,27779,1,8,0:0:0:0:
256,192,27847,1,8,0:0:0:0:
256,192,27915,1,8,0:0:0:0:
256,192,28051,1,8,0:0:0:0:
256,192,28324,1,0,0:0:0:0:
256,192,28460,1,8,0:0:0:0:
256,192,28597,1,0,0:0:0:0:
256,192,28733,1,8,0:0:0:0:
256,192,28870,1,8,0:0:0:0:
256,192,29006,1,0,0:0:0:0:
256,192,29142,1,0,0:0:0:0:
256,192,29279,1,8,0:0:0:0:
256,192,29347,1,8,0:0:0:0:
256,192,29415,1,0,0:0:0:0:
256,192,29483,1,0,0:0:0:0:
256,192,29551,1,8,0:0:0:0:
256,192,29688,1,0,0:0:0:0:
256,192,29824,1,8,0:0:0:0:
256,192,30097,1,0,0:0:0:0:
256,192,30165,1,0,0:0:0:0:
256,192,30233,1,8,0:0:0:0:
256,192,30370,1,0,0:0:0:0:
256,192,30506,1,0,0:0:0:0:
256,192,30642,1,12,0:0:0:0:
256,192,30915,1,4,0:0:0:0:
256,192,31188,1,8,0:0:0:0:
256,192,31324,1,0,0:0:0:0:
256,192,31392,1,0,0:0:0:0:
256,192,31460,1,0,0:0:0:0:
256,192,31597,1,0,0:0:0:0:
256,192,31733,1,8,0:0:0:0:
256,192,31870,1,0,0:0:0:0:
256,192,31938,1,0,0:0:0:0:
256,192,32006,1,8,0:0:0:0:
256,192,32142,1,0,0:0:0:0:
256,192,32279,1,0,0:0:0:0:
256,192,32347,1,8,0:0:0:0:
256,192,32415,1,0,0:0:0:0:
256,192,32551,1,0,0:0:0:0:
256,192,32620,1,8,0:0:0:0:
256,192,32688,1,0,0:0:0:0:
256,192,32756,1,0,0:0:0:0:
256,192,32824,1,8,0:0:0:0:
256,192,33097,1,0,0:0:0:0:
256,192,33165,1,0,0:0:0:0:
256,192,33233,1,0,0:0:0:0:
256,192,33301,1,0,0:0:0:0:
256,192,33370,1,8,0:0:0:0:
256,192,33506,1,0,0:0:0:0:
256,192,33574,1,0,0:0:0:0:
256,192,33642,1,0,0:0:0:0:
256,192,33710,1,8,0:0:0:0:
256,192,33779,1,8,0:0:0:0:
256,192,33915,1,0,0:0:0:0:
256,192,33983,1,0,0:0:0:0:
256,192,34051,1,8,0:0:0:0:
256,192,34120,1,8,0:0:0:0:
256,192,34188,1,8,0:0:0:0:
256,192,34324,1,0,0:0:0:0:
256,192,34392,1,8,0:0:0:0:
256,192,34460,1,8,0:0:0:0:
256,192,34529,1,8,0:0:0:0:
256,192,34597,1,8,0:0:0:0:
256,192,34733,1,0,0:0:0:0:
256,192,34801,1,0,0:0:0:0:
256,192,34870,1,0,0:0:0:0:
256,192,35006,1,12,0:0:0:0:
256,192,35279,1,0,0:0:0:0:
256,192,35551,1,8,0:0:0:0:
256,192,35824,1,0,0:0:0:0:
256,192,35892,1,0,0:0:0:0:
256,192,35960,1,0,0:0:0:0:
256,192,36029,1,0,0:0:0:0:
256,192,36097,1,8,0:0:0:0:
256,192,36233,1,0,0:0:0:0:
256,192,36370,1,0,0:0:0:0:
256,192,36438,1,0,0:0:0:0:
256,192,36506,1,8,0:0:0:0:
256,192,36574,1,0,0:0:0:0:
256,192,36642,1,0,0:0:0:0:
256,192,36779,1,8,0:0:0:0:
256,192,36915,1,0,0:0:0:0:
256,192,37188,1,8,0:0:0:0:
256,192,37324,1,0,0:0:0:0:
256,192,37597,1,0,0:0:0:0:
256,192,37665,1,0,0:0:0:0:
256,192,37733,1,8,0:0:0:0:
256,192,37870,1,0,0:0:0:0:
256,192,38006,1,0,0:0:0:0:
256,192,38074,1,8,0:0:0:0:
256,192,38142,1,8,0:0:0:0:
256,192,38210,1,0,0:0:0:0:
256,192,38279,1,8,0:0:0:0:
256,192,38415,1,0,0:0:0:0:
256,192,38551,1,12,0:0:0:0:
256,192,38960,1,12,0:0:0:0:
256,192,39642,1,8,0:0:0:0:
256,192,39823,1,0,0:0:0:0:
256,192,39914,1,0,0:0:0:0:
256,192,40096,1,0,0:0:0:0:
256,192,40187,1,8,0:0:0:0:
256,192,40460,1,8,0:0:0:0:
256,192,40551,1,0,0:0:0:0:
256,192,40642,1,0,0:0:0:0:
256,192,40732,1,8,0:0:0:0:
256,192,40823,1,0,0:0:0:0:
256,192,40914,1,0,0:0:0:0:
256,192,41005,1,8,0:0:0:0:
256,192,41278,1,0,0:0:0:0:
256,192,41460,1,8,0:0:0:0:
256,192,41551,1,0,0:0:0:0:
256,192,41732,1,8,0:0:0:0:
256,192,41823,1,8,0:0:0:0:
256,192,42096,1,0,0:0:0:0:
256,192,42187,1,0,0:0:0:0:
256,192,42278,1,8,0:0:0:0:
256,192,42369,1,0,0:0:0:0:
256,192,42460,1,0,0:0:0:0:
256,192,42551,1,8,0:0:0:0:
256,192,42642,1,8,0:0:0:0:
256,192,42914,1,8,0:0:0:0:
256,192,43096,1,8,0:0:0:0:
256,192,43187,1,8,0:0:0:0:
256,192,43369,1,8,0:0:0:0:
256,192,43460,1,0,0:0:0:0:
256,192,43732,1,8,0:0:0:0:
256,192,43823,1,8,0:0:0:0:
256,192,43914,1,0,0:0:0:0:
256,192,44005,1,8,0:0:0:0:
256,192,44096,1,0,0:0:0:0:
256,192,44187,1,0,0:0:0:0:
256,192,44278,1,8,0:0:0:0:
256,192,44551,1,0,0:0:0:0:
256,192,44732,1,0,0:0:0:0:
256,192,44823,1,0,0:0:0:0:
256,192,45005,1,0,0:0:0:0:
256,192,45096,1,8,0:0:0:0:
256,192,45369,1,0,0:0:0:0:
256,192,45460,1,0,0:0:0:0:
256,192,45551,1,0,0:0:0:0:
256,192,45642,1,8,0:0:0:0:
256,192,45732,1,8,0:0:0:0:
256,192,45823,1,8,0:0:0:0:
256,192,45914,1,0,0:0:0:0:
256,192,46187,1,8,0:0:0:0:
256,192,46369,1,8,0:0:0:0:
256,192,46460,1,8,0:0:0:0:
256,192,46642,1,0,0:0:0:0:
256,192,46732,1,0,0:0:0:0:
256,192,47005,8,0,48096,0:0:0:0:
256,192,48368,5,0,0:0:0:0:
256,192,48640,1,8,0:0:0:0:
256,192,48913,1,8,0:0:0:0:
256,192,49186,1,0,0:0:0:0:
256,192,49322,1,8,0:0:0:0:
256,192,49458,1,0,0:0:0:0:
256,192,49731,1,8,0:0:0:0:
256,192,50004,1,8,0:0:0:0:
256,192,50277,1,8,0:0:0:0:
256,192,50413,1,8,0:0:0:0:
256,192,50549,1,0,0:0:0:0:
256,192,50822,1,8,0:0:0:0:
256,192,50958,1,0,0:0:0:0:
256,192,51231,1,8,0:0:0:0:
256,192,51368,1,0,0:0:0:0:
256,192,51640,1,0,0:0:0:0:
256,192,51913,1,0,0:0:0:0:
256,192,52186,1,0,0:0:0:0:
256,192,52458,1,12,0:0:0:0:
256,192,52731,1,0,0:0:0:0:
256,192,52868,1,8,0:0:0:0:
256,192,53004,1,0,0:0:0:0:
256,192,53140,1,8,0:0:0:0:
256,192,53277,1,0,0:0:0:0:
256,192,53345,1,0,0:0:0:0:
256,192,53413,1,0,0:0:0:0:
256,192,53481,1,8,0:0:0:0:
256,192,53549,1,8,0:0:0:0:
256,192,53618,1,0,0:0:0:0:
256,192,53686,1,0,0:0:0:0:
256,192,53822,1,0,0:0:0:0:
256,192,53958,1,0,0:0:0:0:
256,192,54095,1,8,0:0:0:0:
256,192,54231,1,8,0:0:0:0:
256,192,54368,1,0,0:0:0:0:
256,192,54436,1,0,0:0:0:0:
256,192,54504,1,8,0:0:0:0:
256,192,54572,1,8,0:0:0:0:
256,192,54640,1,8,0:0:0:0:
256,192,54708,1,0,0:0:0:0:
256,192,54777,1,0,0:0:0:0:
256,192,54913,1,0,0:0:0:0:
256,192,54981,1,0,0:0:0:0:
256,192,55049,1,0,0:0:0:0:
256,192,55118,1,0,0:0:0:0:
256,192,55186,1,8,0:0:0:0:
256,192,55458,1,0,0:0:0:0:
256,192,55527,1,0,0:0:0:0:
256,192,55595,1,0,0:0:0:0:
256,192,55663,1,8,0:0:0:0:
256,192,55731,1,8,0:0:0:0:
256,192,56004,1,0,0:0:0:0:
256,192,56072,1,0,0:0:0:0:
256,192,56140,1,8,0:0:0:0:
256,192,56208,1,8,0:0:0:0:
256,192,56277,1,8,0:0:0:0:
256,192,56549,1,0,0:0:0:0:
256,192,56618,1,8,0:0:0:0:
256,192,56686,1,8,0:0:0:0:
256,192,56754,1,8,0:0:0:0:
256,192,56822,1,8,0:0:0:0:
256,192,57095,1,0,0:0:0:0:
256,192,57368,1,8,0:0:0:0:
256,192,57436,1,8,0:0:0:0:
256,192,57504,1,0,0:0:0:0:
256,192,57777,1,8,0:0:0:0:
256,192,57845,1,0,0:0:0:0:
256,192,57913,1,0,0:0:0:0:
256,192,57981,1,8,0:0:0:0:
256,192,58049,1,8,0:0:0:0:
256,192,58186,1,0,0:0:0:0:
256,192,58458,1,0,0:0:0:0:
256,192,58527,1,0,0:0:0:0:
256,192,58595,1,0,0:0:0:0:
256,192,58868,1,8,0:0:0:0:
256,192,58936,1,8,0:0:0:0:
256,192,59004,1,0,0:0:0:0:
256,192,59072,1,0,0:0:0:0:
256,192,59140,1,8,0:0:0:0:
256,192,59277,1,4,0:0:0:0:
256,192,59822,1,4,0:0:0:0:
256,192,60368,1,4,0:0:0:0:
256,192,60640,1,4,0:0:0:0:
256,192,60913,1,0,0:0:0:0:
256,192,60981,1,8,0:0:0:0:
256,192,61049,1,0,0:0:0:0:
256,192,61118,1,0,0:0:0:0:
256,192,61186,1,8,0:0:0:0:
256,192,61458,1,0,0:0:0:0:
256,192,61595,1,8,0:0:0:0:
256,192,61731,1,0,0:0:0:0:
256,192,61868,1,8,0:0:0:0:
256,192,61936,1,8,0:0:0:0:
256,192,62004,1,0,0:0:0:0:
256,192,62140,1,8,0:0:0:0:
256,192,62277,1,0,0:0:0:0:
256,192,62345,1,0,0:0:0:0:
256,192,62413,1,8,0:0:0:0:
256,192,62481,1,8,0:0:0:0:
256,192,62549,1,0,0:0:0:0:
256,192,62686,1,8,0:0:0:0:
256,192,62822,1,0,0:0:0:0:
256,192,62958,1,8,0:0:0:0:
256,192,63095,1,8,0:0:0:0:
256,192,63163,1,8,0:0:0:0:
256,192,63231,1,0,0:0:0:0:
256,192,63299,1,0,0:0:0:0:
256,192,63368,1,8,0:0:0:0:
256,192,63504,1,0,0:0:0:0:
256,192,63640,1,0,0:0:0:0:
256,192,63708,1,0,0:0:0:0:
256,192,63777,1,8,0:0:0:0:
256,192,63845,1,8,0:0:0:0:
256,192,63913,1,0,0:0:0:0:
256,192,64049,1,8,0:0:0:0:
256,192,64186,1,0,0:0:0:0:
256,192,64254,1,0,0:0:0:0:
256,192,64322,1,8,0:0:0:0:
256,192,64390,1,0,0:0:0:0:
256,192,64458,1,0,0:0:0:0:
256,192,64595,1,8,0:0:0:0:
256,192,64868,1,8,0:0:0:0:
256,192,65004,1,0,0:0:0:0:
256,192,65072,1,8,0:0:0:0:
256,192,65140,1,0,0:0:0:0:
256,192,65208,1,0,0:0:0:0:
256,192,65277,1,8,0:0:0:0:
256,192,65413,1,8,0:0:0:0:
256,192,65549,1,0,0:0:0:0:
256,192,65686,1,8,0:0:0:0:
256,192,65754,1,8,0:0:0:0:
256,192,65822,1,0,0:0:0:0:
256,192,65958,1,0,0:0:0:0:
256,192,66027,1,0,0:0:0:0:
256,192,66095,1,8,0:0:0:0:
256,192,66231,1,8,0:0:0:0:
256,192,66368,1,0,0:0:0:0:
256,192,66504,1,8,0:0:0:0:
256,192,66572,1,8,0:0:0:0:
256,192,66640,1,0,0:0:0:0:
256,192,66777,1,8,0:0:0:0:
256,192,66913,1,0,0:0:0:0:
256,192,67049,1,0,0:0:0:0:
256,192,67118,1,0,0:0:0:0:
256,192,67186,1,8,0:0:0:0:
256,192,67322,1,8,0:0:0:0:
256,192,67458,1,8,0:0:0:0:
256,192,67527,1,8,0:0:0:0:
256,192,67595,1,0,0:0:0:0:
256,192,67663,1,0,0:0:0:0:
256,192,67731,1,8,0:0:0:0:
256,192,67868,1,8,0:0:0:0:
256,192,67936,1,8,0:0:0:0:
256,192,68004,1,0,0:0:0:0:
256,192,68140,1,0,0:0:0:0:
256,192,68277,1,8,0:0:0:0:
256,192,68413,1,0,0:0:0:0:
256,192,68481,1,0,0:0:0:0:
256,192,68549,1,8,0:0:0:0:
256,192,68686,1,8,0:0:0:0:
256,192,68822,1,0,0:0:0:0:
256,192,68958,1,8,0:0:0:0:
256,192,69027,1,8,0:0:0:0:
256,192,69095,1,0,0:0:0:0:
256,192,69231,1,0,0:0:0:0:
256,192,69368,1,8,0:0:0:0:
256,192,69504,1,8,0:0:0:0:
256,192,69640,1,0,0:0:0:0:
256,192,69708,1,8,0:0:0:0:
256,192,69777,1,0,0:0:0:0:
256,192,69845,1,0,0:0:0:0:
256,192,69913,1,8,0:0:0:0:
256,192,70186,1,0,0:0:0:0:
256,192,70322,1,8,0:0:0:0:
256,192,70458,1,0,0:0:0:0:
256,192,70595,1,8,0:0:0:0:
256,192,70663,1,8,0:0:0:0:
256,192,70731,1,0,0:0:0:0:
256,192,70868,1,8,0:0:0:0:
256,192,71004,1,0,0:0:0:0:
256,192,71072,1,0,0:0:0:0:
256,192,71140,1,8,0:0:0:0:
256,192,71208,1,8,0:0:0:0:
256,192,71277,1,0,0:0:0:0:
256,192,71413,1,8,0:0:0:0:
256,192,71549,1,0,0:0:0:0:
256,192,71686,1,8,0:0:0:0:
256,192,71822,1,8,0:0:0:0:
256,192,71890,1,8,0:0:0:0:
256,192,71958,1,0,0:0:0:0:
256,192,72027,1,0,0:0:0:0:
256,192,72095,1,8,0:0:0:0:
256,192,72231,1,0,0:0:0:0:
256,192,72368,1,0,0:0:0:0:
256,192,72436,1,0,0:0:0:0:
256,192,72504,1,8,0:0:0:0:
256,192,72572,1,8,0:0:0:0:
256,192,72640,1,0,0:0:0:0:
256,192,72777,1,8,0:0:0:0:
256,192,72913,1,0,0:0:0:0:
256,192,72981,1,0,0:0:0:0:
256,192,73049,1,8,0:0:0:0:
256,192,73118,1,0,0:0:0:0:
256,192,73186,1,0,0:0:0:0:
256,192,73322,1,8,0:0:0:0:
256,192,73595,1,8,0:0:0:0:
256,192,73731,1,0,0:0:0:0:
256,192,73799,1,8,0:0:0:0:
256,192,73868,1,0,0:0:0:0:
256,192,73936,1,0,0:0:0:0:
256,192,74004,1,8,0:0:0:0:
256,192,74140,1,8,0:0:0:0:
256,192,74277,1,0,0:0:0:0:
256,192,74413,1,8,0:0:0:0:
256,192,74481,1,8,0:0:0:0:
256,192,74549,1,8,0:0:0:0:
256,192,74686,1,0,0:0:0:0:
256,192,74822,1,0,0:0:0:0:
256,192,74958,1,8,0:0:0:0:
256,192,75095,1,8,0:0:0:0:
256,192,75231,1,0,0:0:0:0:
256,192,75368,1,0,0:0:0:0:
256,192,75640,1,8,0:0:0:0:
256,192,75913,1,8,0:0:0:0:
256,192,76004,1,8,0:0:0:0:
256,192,76095,1,8,0:0:0:0:
256,192,76186,1,0,0:0:0:0:
256,192,76458,1,8,0:0:0:0:
256,192,76731,1,0,0:0:0:0:
256,192,77004,1,8,0:0:0:0:
256,192,77277,1,0,0:0:0:0:
256,192,77413,1,0,0:0:0:0:
256,192,77549,1,8,0:0:0:0:
256,192,77822,1,0,0:0:0:0:
256,192,77958,1,0,0:0:0:0:
256,192,78095,1,8,0:0:0:0:
256,192,78231,1,8,0:0:0:0:
256,192,78368,1,0,0:0:0:0:
256,192,78640,1,8,0:0:0:0:
256,192,78777,1,8,0:0:0:0:
256,192,78913,1,0,0:0:0:0:
256,192,79458,1,0,0:0:0:0:
256,192,80004,1,8,0:0:0:0:
256,192,80277,1,8,0:0:0:0:
256,192,80549,1,4,0:0:0:0:
256,192,80686,1,4,0:0:0:0:
256,192,80822,1,12,0:0:0:0:
256,192,81095,1,0,0:0:0:0:
256,192,81231,1,8,0:0:0:0:
256,192,81368,1,0,0:0:0:0:
256,192,81504,1,8,0:0:0:0:
256,192,81640,1,0,0:0:0:0:
256,192,81708,1,0,0:0:0:0:
256,192,81777,1,0,0:0:0:0:
256,192,81845,1,0,0:0:0:0:
256,192,81913,1,8,0:0:0:0:
256,192,82049,1,0,0:0:0:0:
256,192,82186,1,8,0:0:0:0:
256,192,82322,1,0,0:0:0:0:
256,192,82458,1,8,0:0:0:0:
256,192,82595,1,0,0:0:0:0:
256,192,82731,1,0,0:0:0:0:
256,192,82799,1,0,0:0:0:0:
256,192,82868,1,0,0:0:0:0:
256,192,82936,1,0,0:0:0:0:
256,192,83004,1,8,0:0:0:0:
256,192,83140,1,0,0:0:0:0:
256,192,83277,1,8,0:0:0:0:
256,192,83549,1,0,0:0:0:0:
256,192,83822,1,8,0:0:0:0:
256,192,83890,1,8,0:0:0:0:
256,192,83958,1,0,0:0:0:0:
256,192,84027,1,0,0:0:0:0:
256,192,84095,1,8,0:0:0:0:
256,192,84231,1,0,0:0:0:0:
256,192,84368,1,0,0:0:0:0:
256,192,84504,1,8,0:0:0:0:
256,192,84640,1,8,0:0:0:0:
256,192,84777,1,0,0:0:0:0:
256,192,84913,1,0,0:0:0:0:
256,192,84981,1,0,0:0:0:0:
256,192,85049,1,0,0:0:0:0:
256,192,85186,1,8,0:0:0:0:
256,192,85458,1,8,0:0:0:0:
256,192,85595,1,0,0:0:0:0:
256,192,85731,1,8,0:0:0:0:
256,192,85868,1,0,0:0:0:0:
256,192,86004,1,8,0:0:0:0:
256,192,86072,1,8,0:0:0:0:
256,192,86140,1,0,0:0:0:0:
256,192,86208,1,0,0:0:0:0:
256,192,86277,1,8,0:0:0:0:
256,192,86413,1,0,0:0:0:0:
256,192,86549,1,0,0:0:0:0:
256,192,86618,1,0,0:0:0:0:
256,192,86686,1,8,0:0:0:0:
256,192,86754,1,0,0:0:0:0:
256,192,86822,1,8,0:0:0:0:
256,192,86958,1,0,0:0:0:0:
256,192,87095,1,8,0:0:0:0:
256,192,87163,1,8,0:0:0:0:
256,192,87231,1,0,0:0:0:0:
256,192,87368,1,8,0:0:0:0:
256,192,87504,1,0,0:0:0:0:
256,192,87640,1,0,0:0:0:0:
256,192,87913,1,8,0:0:0:0:
256,192,88186,1,0,0:0:0:0:
256,192,88458,1,8,0:0:0:0:
256,192,88595,1,0,0:0:0:0:
256,192,88868,1,4,0:0:0:0:
256,192,89004,1,4,0:0:0:0:
256,192,89140,1,4,0:0:0:0:
256,192,89277,1,12,0:0:0:0:
