osu file format v14

[General]
AudioFilename: audio.MP3
AudioLeadIn: 0
PreviewTime: 61455
Countdown: 0
SampleSet: Normal
StackLeniency: 0.7
Mode: 1
LetterboxInBreaks: 0
WidescreenStoryboard: 1

[Editor]
Bookmarks: 2546,11274,22183,39637,48365,61455,81092,89819
DistanceSpacing: 1.2
BeatDivisor: 2
GridSize: 32
TimelineZoom: 1

[Metadata]
Title:Waga Na wa Shougakusei (TV Size)
TitleUnicode:わが名は小学生 (TV Size)
Artist:Takagaki Ayahi, Akesaka Satomi, Tomatsu Haruka
ArtistUnicode:高垣彩陽, 明坂聡美, 戸松遥
Creator:marksman666
Version:Beginner
Source:みつどもえ 増量中!
Tags:mitsudomoe zouryouchuu 丸井 ひとは ふたば みつば marui hitoha futaba mitsuba maeyamada kenichi 前山田健一 Hyadain ヒャダイン japanese anime arien666
BeatmapID:2455061
BeatmapSetID:1177128

[Difficulty]
HPDrainRate:9
CircleSize:2
OverallDifficulty:2
ApproachRate:10
SliderMultiplier:1.4
SliderTickRate:1

[Events]
//Background and Video events
0,0,"bg.png",0,70
//Break Periods
//Storyboard Layer 0 (Background)
//Storyboard Layer 1 (Fail)
//Storyboard Layer 2 (Pass)
//Storyboard Layer 3 (Foreground)
//Storyboard Layer 4 (Overlay)
//Storyboard Sound Samples

[TimingPoints]
370,272.727272727273,4,1,0,85,1,0
1460,-125,4,1,0,85,0,0
39642,272.727272727273,6,1,0,85,1,0
39642,-125,6,1,0,85,0,0
47823,272.727272727273,5,1,0,85,1,8
47823,-125,5,1,0,85,0,0
48368,272.727272727273,4,1,0,85,1,0
48368,-125,4,1,0,85,0,0
61458,-125,4,1,0,85,0,1
81095,-125,4,1,0,85,0,0

[HitObjects]
256,192,2551,5,0,0:0:0:0:
256,192,3097,1,0,0:0:0:0:
256,192,3642,1,8,0:0:0:0:
256,192,4188,1,8,0:0:0:0:
256,192,4733,1,0,0:0:0:0:
256,192,5688,1,0,0:0:0:0:
256,192,6915,1,8,0:0:0:0:
256,192,7460,1,8,0:0:0:0:
256,192,8006,1,0,0:0:0:0:
256,192,8551,1,0,0:0:0:0:
256,192,9097,1,8,0:0:0:0:
256,192,10051,1,8,0:0:0:0:
256,192,11279,1,0,0:0:0:0:
256,192,11824,1,0,0:0:0:0:
256,192,12370,1,8,0:0:0:0:
256,192,13460,1,0,0:0:0:0:
256,192,14006,1,8,0:0:0:0:
256,192,14551,1,8,0:0:0:0:
256,192,15642,1,0,0:0:0:0:
256,192,16188,1,0,0:0:0:0:
256,192,16733,1,8,0:0:0:0:
256,192,17824,1,0,0:0:0:0:
256,192,18370,1,8,0:0:0:0:
256,192,18915,1,8,0:0:0:0:
256,192,20006,8,0,21097,0:0:0:0:
256,192,22188,5,4,0:0:0:0:
256,192,23279,1,0,0:0:0:0:
256,192,23824,1,8,0:0:0:0:
256,192,24370,1,0,0:0:0:0:
256,192,24915,1,0,0:0:0:0:
256,192,25460,1,8,0:0:0:0:
256,192,26551,1,0,0:0:0:0:
256,192,27097,1,0,0:0:0:0:
256,192,27642,1,8,0:0:0:0:
256,192,28733,1,0,0:0:0:0:
256,192,29279,1,8,0:0:0:0:
256,192,29824,1,8,0:0:0:0:
256,192,30915,1,0,0:0:0:0:
256,192,32006,1,0,0:0:0:0:
256,192,32551,1,8,0:0:0:0:
256,192,33097,1,0,0:0:0:0:
256,192,33915,1,0,0:0:0:0:
256,192,35279,1,0,0:0:0:0:
256,192,35824,1,0,0:0:0:0:
256,192,36370,1,8,0:0:0:0:
256,192,37460,1,0,0:0:0:0:
256,192,38006,1,8,0:0:0:0:
256,192,38551,1,8,0:0:0:0:
256,192,39642,1,0,0:0:0:0:
256,192,40460,1,8,0:0:0:0:
256,192,41278,1,0,0:0:0:0:
256,192,42096,1,8,0:0:0:0:
256,192,42914,1,0,0:0:0:0:
256,192,43732,1,8,0:0:0:0:
256,192,44551,1,0,0:0:0:0:
256,192,45369,1,8,0:0:0:0:
256,192,46187,1,0,0:0:0:0:
256,192,47005,8,0,47823,0:0:0:0:
256,192,48368,5,8,0:0:0:0:
256,192,49458,1,8,0:0:0:0:
256,192,50549,1,8,0:0:0:0:
256,192,51640,1,8,0:0:0:0:
256,192,52731,1,0,0:0:0:0:
256,192,53277,1,0,0:0:0:0:
256,192,53822,1,8,0:0:0:0:
256,192,54368,1,8,0:0:0:0:
256,192,54913,1,4,0:0:0:0:
256,192,56004,1,4,0:0:0:0:
256,192,57095,1,8,0:0:0:0:
256,192,58186,1,8,0:0:0:0:
256,192,59277,1,4,0:0:0:0:
256,192,59822,1,4,0:0:0:0:
256,192,60368,1,4,0:0:0:0:
256,192,61458,1,0,0:0:0:0:
256,192,62549,1,8,0:0:0:0:
256,192,63095,1,8,0:0:0:0:
256,192,63640,1,0,0:0:0:0:
256,192,64731,1,8,0:0:0:0:
256,192,65277,1,0,0:0:0:0:
256,192,65822,1,0,0:0:0:0:
256,192,66913,1,0,0:0:0:0:
256,192,67458,1,0,0:0:0:0:
256,192,68004,1,8,0:0:0:0:
256,192,69095,1,8,0:0:0:0:
256,192,70186,1,0,0:0:0:0:
256,192,71277,1,8,0:0:0:0:
256,192,71823,1,8,0:0:0:0:
256,192,72368,1,0,0:0:0:0:
256,192,73459,1,8,0:0:0:0:
256,192,74005,1,0,0:0:0:0:
256,192,74549,1,0,0:0:0:0:
256,192,75640,1,8,0:0:0:0:
256,192,76731,1,0,0:0:0:0:
256,192,77277,1,0,0:0:0:0:
256,192,77822,1,8,0:0:0:0:
256,192,78368,1,8,0:0:0:0:
256,192,78913,1,0,0:0:0:0:
256,192,80004,1,0,0:0:0:0:
256,192,81095,1,0,0:0:0:0:
256,192,81641,1,0,0:0:0:0:
256,192,82186,1,8,0:0:0:0:
256,192,82732,1,8,0:0:0:0:
256,192,83277,1,0,0:0:0:0:
256,192,84231,1,0,0:0:0:0:
256,192,85459,1,8,0:0:0:0:
256,192,86004,1,8,0:0:0:0:
256,192,86550,1,0,0:0:0:0:
256,192,87095,1,0,0:0:0:0:
256,192,87641,1,8,0:0:0:0:
256,192,88595,1,8,0:0:0:0:
256,192,89277,1,8,0:0:0:0:
