osu file format v14

[General]
AudioFilename: audio.mp3
AudioLeadIn: 0
PreviewTime: 6482
Countdown: 0
SampleSet: Soft
StackLeniency: 0.7
Mode: 0
LetterboxInBreaks: 0
WidescreenStoryboard: 0

[Editor]
DistanceSpacing: 1
BeatDivisor: 4
GridSize: 8
TimelineZoom: 1.5

[Metadata]
Title:Welcome DANGAN IsLand!!
TitleUnicode:Welcome DANGAN IsLand!!
Artist:Takada Masafumi
ArtistUnicode:高田雅史
Creator:AYE1337
Version:Normal
Source:スーパーダンガンロンパ2 さよなら絶望学園
Tags:super danganronpa goodbye despair dnb drum and bass instrumental videogame visual novel ost electronic
BeatmapID:2268024
BeatmapSetID:1084533

[Difficulty]
HPDrainRate:3
CircleSize:3
OverallDifficulty:4
ApproachRate:5
SliderMultiplier:1.1
SliderTickRate:1

[Events]
//Background and Video events
0,0,"946577.jpg",0,0
//Break Periods
//Storyboard Layer 0 (Background)
//Storyboard Layer 1 (Fail)
//Storyboard Layer 2 (Pass)
//Storyboard Layer 3 (Foreground)
//Storyboard Layer 4 (Overlay)
//Storyboard Sound Samples

[TimingPoints]
311,342.857142857143,4,2,1,50,1,0
996,-100,4,2,1,60,0,0
1682,-100,4,2,1,70,0,0
2882,-100,4,2,1,60,0,0
17453,-100,4,2,4,70,0,0
18139,-100,4,2,1,70,0,0
27396,-100,4,2,4,70,0,0
29111,-100,4,2,1,70,0,0
49682,-100,4,2,1,70,0,0
50368,-100,4,2,4,70,0,0
51053,-100,4,2,1,70,0,0
55853,-100,4,2,4,70,0,0
56539,-100,4,2,1,70,0,0
60311,-100,4,2,4,70,0,0
62025,-100,4,2,1,70,0,0
62368,-100,4,2,3,70,0,0
72996,-100,4,2,1,70,0,0
73338,-100,4,2,3,70,0,0
83968,-100,4,2,1,70,0,0
94253,-100,4,2,4,70,0,0
94939,-100,4,2,1,70,0,0
104368,-100,4,2,4,70,0,0
105911,-100,4,2,1,70,0,0

[Colours]
Combo1 : 242,186,250
Combo2 : 247,119,122
Combo3 : 115,206,255
Combo4 : 221,209,162
Combo5 : 206,214,219
Combo6 : 128,255,128
SliderTrackOverride : 48,36,22
SliderBorder : 240,225,220

[HitObjects]
256,192,311,12,12,1682,2:3:0:0:
354,217,2882,5,12,2:1:0:0:
158,167,4253,1,12,2:3:0:0:
158,167,5625,2,0,L|283:189,1,110,8|0,2:1|2:0,2:0:0:0:
310,219,6139,2,0,L|372:230,1,55,8|2,2:1|2:1,2:0:0:0:
409,259,6482,1,2,2:1:0:0:
455,288,6653,2,0,L|524:275,2,55,0|0|8,2:0|2:0|2:1,2:0:0:0:
440,341,7168,5,12,2:3:0:0:
279,350,7682,1,8,2:1:0:0:
279,350,7853,1,0,2:0:0:0:
207,207,8368,1,2,2:3:0:0:
207,207,8539,2,0,P|173:205|145:208,1,55,8|2,2:1|2:3,2:0:0:0:
104,234,8882,2,0,P|70:236|42:233,1,55,8|10,2:0|2:1,2:0:0:0:
1,205,9225,1,2,2:0:0:0:
19,44,9739,1,0,2:0:0:0:
19,44,9911,5,8,2:1:0:0:
183,45,10425,1,10,2:1:0:0:
183,45,10596,2,0,L|213:210,1,165,2|2,2:0|2:3,2:0:0:0:
226,260,11282,2,0,P|266:262|299:255,1,55,0|8,2:0|2:1,2:0:0:0:
324,226,11625,2,0,P|364:224|397:231,1,55,8|8,2:0|2:1,2:0:0:0:
431,243,11968,2,0,B|475:231|475:231|488:158,1,110,8|8,2:0|2:0,2:0:0:0:
459,60,12653,6,0,L|346:40,1,110,14|8,2:1|2:0,2:0:0:0:
296,53,13168,1,2,2:0:0:0:
242,41,13339,2,0,L|129:60,1,110,2|8,2:0|2:0,2:0:0:0:
84,84,13853,1,2,2:3:0:0:
84,84,14025,2,0,P|78:120|77:139,1,55,8|0,2:1|2:0,2:0:0:0:
109,182,14368,2,0,P|115:218|116:237,1,55,8|2,2:0|2:0,2:0:0:0:
97,288,14711,1,2,2:0:0:0:
251,346,15225,1,0,2:0:0:0:
251,346,15396,6,0,P|313:346|378:320,1,110,8|8,2:1|2:0,2:0:0:0:
401,296,15911,1,10,2:1:0:0:
401,296,16082,2,0,P|432:242|432:133,1,165,2|2,2:0|2:3,2:0:0:0:
409,93,16768,2,0,P|385:63|364:46,1,55,0|8,2:0|2:1,2:0:0:0:
318,42,17111,2,0,P|281:51|257:63,1,55,8|8,2:0|2:1,2:0:0:0:
228,98,17453,1,8,2:0:0:0:
139,31,17796,1,8,2:0:0:0:
62,125,18139,6,0,L|39:251,1,110,14|8,2:3|2:0,2:0:0:0:
32,287,18653,1,8,2:1:0:0:
22,341,18825,2,0,P|70:355|143:338,1,110,0|8,2:0|2:0,2:0:0:0:
168,307,19339,1,2,2:3:0:0:
168,307,19511,2,0,P|213:302|245:304,1,55,8|0,2:1|2:0,2:0:0:0:
269,330,19853,2,0,P|314:335|346:333,1,55,8|10,2:0|2:1,2:0:0:0:
375,316,20196,1,2,2:0:0:0:
450,168,20711,1,0,2:0:0:0:
450,168,20882,5,8,2:1:0:0:
387,15,21396,1,10,2:1:0:0:
387,15,21568,1,2,2:0:0:0:
222,27,22082,1,0,2:0:0:0:
222,27,22253,2,0,L|161:16,1,55,0|10,2:0|2:3,2:0:0:0:
114,32,22596,2,0,L|53:43,1,55,8|10,2:0|2:3,2:0:0:0:
4,36,22939,1,8,2:0:0:0:
7,145,23282,1,8,2:0:0:0:
16,254,23625,6,0,B|53:266|53:266|132:254,1,110,10|0,2:3|2:0,2:0:0:0:
285,221,24482,1,10,2:3:0:0:
338,208,24653,1,8,2:0:0:0:
392,197,24825,2,0,L|414:71,1,110,2|2,2:3|2:3,2:0:0:0:
377,44,25339,1,8,2:0:0:0:
328,18,25511,2,0,P|272:7|218:20,1,110,10|10,2:3|2:3,2:0:0:0:
173,46,26025,2,0,P|143:50|113:44,1,55,8|2,2:0|2:3,2:0:0:0:
70,19,26368,5,0,2:0:0:0:
42,181,26882,1,8,2:1:0:0:
150,305,27396,1,8,2:0:0:0:
259,296,27739,5,8,2:0:0:0:
259,296,28596,2,0,L|319:285,2,55,0|8|8,2:0|2:0|2:0,2:0:0:0:
210,325,29111,6,0,L|85:303,1,110,12|8,2:3|2:0,2:0:0:0:
72,199,29796,2,0,L|131:209,1,55,0|0,2:0|2:0,2:0:0:0:
234,231,30311,1,8,2:1:0:0:
341,255,30653,1,8,2:1:0:0:
341,255,30825,1,8,2:0:0:0:
448,277,31168,1,0,2:0:0:0:
483,172,31511,1,0,2:0:0:0:
473,62,31853,6,0,L|355:41,1,110,0|8,2:0|2:0,2:0:0:0:
258,72,32539,2,0,L|140:51,1,110,0|0,2:0|2:0,2:0:0:0:
94,57,33053,1,8,2:1:0:0:
65,163,33396,2,0,P|62:211|66:234,2,55,8|8|0,2:1|2:0|2:0,2:0:0:0:
115,185,33911,2,0,L|239:206,1,110,8|0,2:1|2:0,2:0:0:0:
333,204,34596,6,0,L|392:193,2,55,0|0|8,2:0|2:0|2:0,2:0:0:0:
298,247,35111,1,0,2:0:0:0:
196,288,35453,1,0,2:0:0:0:
89,258,35796,2,0,P|80:200|87:140,1,110,0|0,2:0|2:0,2:0:0:0:
118,105,36311,2,0,P|158:100|193:110,1,55,8|0,2:0|2:0,2:0:0:0:
224,119,36653,2,0,P|264:124|299:114,1,55,0|0,2:0|2:0,2:0:0:0:
320,86,36996,2,0,P|360:81|395:91,1,55,8|0,2:1|2:0,2:0:0:0:
427,96,37339,5,0,2:0:0:0:
493,185,37682,1,8,2:0:0:0:
463,290,38025,1,8,2:0:0:0:
362,333,38368,1,8,2:0:0:0:
362,278,38539,5,8,2:0:0:0:
160,194,39396,1,8,2:1:0:0:
170,248,39568,2,0,L|105:236,2,55,0|0|8,2:0|2:0|2:1,2:0:0:0:
210,285,40082,5,12,2:3:0:0:
370,322,40596,1,10,2:3:0:0:
370,322,40768,1,0,2:0:0:0:
464,187,41282,1,2,2:3:0:0:
464,187,41453,2,0,P|469:152|466:120,1,55,8|2,2:1|2:3,2:0:0:0:
429,92,41796,2,0,P|424:57|427:25,1,55,8|10,2:0|2:1,2:0:0:0:
469,4,42139,1,2,2:0:0:0:
304,16,42653,1,0,2:0:0:0:
304,16,42825,5,8,2:1:0:0:
144,58,43339,1,10,2:1:0:0:
144,58,43511,1,2,2:0:0:0:
46,190,44025,1,2,2:3:0:0:
46,190,44196,2,0,L|102:199,1,55,0|8,2:0|2:1,2:0:0:0:
148,226,44539,2,0,L|204:216,1,55,8|10,2:0|2:3,2:0:0:0:
255,231,44882,2,0,P|323:240|360:210,1,110,8|8,2:0|2:0,2:0:0:0:
395,115,45568,6,0,L|278:94,1,110,12|8,2:1|2:0,2:0:0:0:
232,83,46082,1,10,2:1:0:0:
232,83,46253,1,2,2:0:0:0:
67,99,46768,1,2,2:3:0:0:
67,99,46939,2,0,P|60:138|63:169,1,55,8|0,2:1|2:0,2:0:0:0:
100,191,47282,2,0,P|107:230|104:261,1,55,8|10,2:0|2:1,2:0:0:0:
80,294,47625,2,0,P|136:319|199:302,1,110,2|8,2:0|2:0,2:0:0:0:
226,277,48139,1,0,2:0:0:0:
226,277,48311,5,8,2:1:0:0:
390,279,48825,1,10,2:1:0:0:
390,279,48996,2,0,L|420:104,1,165,2|2,2:0|2:3,2:0:0:0:
418,61,49682,2,0,P|378:56|349:61,1,55,0|8,2:0|2:1,2:0:0:0:
314,83,50025,2,0,P|274:88|245:83,1,55,8|8,2:0|2:1,2:0:0:0:
210,61,50368,1,8,2:0:0:0:
115,117,50711,1,8,2:0:0:0:
151,220,51053,6,0,L|272:241,1,110,14|8,2:3|2:0,2:0:0:0:
313,250,51568,1,8,2:1:0:0:
313,250,51739,2,0,P|331:195|328:132,1,110,0|8,2:0|2:0,2:0:0:0:
310,91,52253,1,2,2:3:0:0:
359,66,52425,2,0,P|396:65|429:72,1,55,8|0,2:1|2:0,2:0:0:0:
449,109,52768,2,0,P|452:146|445:176,1,55,8|10,2:0|2:1,2:0:0:0:
428,214,53111,1,2,2:0:0:0:
270,184,53625,1,0,2:0:0:0:
270,184,53796,5,8,2:1:0:0:
108,150,54311,1,10,2:1:0:0:
108,150,54482,1,2,2:0:0:0:
263,96,54996,1,0,2:0:0:0:
263,96,55168,2,0,L|333:108,1,55,0|10,2:0|2:3,2:0:0:0:
366,130,55511,2,0,L|436:117,1,55,8|10,2:0|2:3,2:0:0:0:
475,120,55853,2,0,P|482:75|474:56,2,55,8|8|8,2:0|2:0|2:0,2:0:0:0:
440,224,56539,6,0,B|401:240|401:240|311:224,1,110,8|0,2:1|2:0,2:0:0:0:
170,247,57396,1,8,2:1:0:0:
141,199,57568,1,8,2:0:0:0:
146,144,57739,2,0,P|213:133|258:144,1,110,0|2,2:0|2:3,2:0:0:0:
308,144,58253,1,8,2:0:0:0:
325,196,58425,2,0,P|334:249|323:303,1,110,8|10,2:1|2:3,2:0:0:0:
276,334,58939,2,0,L|210:345,1,55,8|2,2:0|2:3,2:0:0:0:
167,339,59282,5,0,2:0:0:0:
67,207,59796,1,8,2:1:0:0:
124,51,60311,1,8,2:0:0:0:
233,49,60653,5,8,2:0:0:0:
233,49,62025,5,4,2:3:0:0:
268,153,62368,2,0,P|272:214|263:274,1,110,8|8,2:1|2:1,2:0:0:0:
170,317,63053,2,0,L|105:305,1,55,8|8,2:1|2:0,2:0:0:0:
95,256,63396,2,0,L|30:244,1,55,8|8,2:0|2:0,2:0:0:0:
13,198,63739,1,8,2:0:0:0:
92,121,64082,2,0,P|143:112|215:122,1,110,8|10,2:1|2:1,2:0:0:0:
247,147,64596,1,2,2:0:0:0:
298,128,64768,6,0,P|352:122|406:131,1,110,8|8,2:0|2:0,2:0:0:0:
453,230,65453,2,0,L|441:293,1,55,8|0,2:1|2:0,2:0:0:0:
405,323,65796,2,0,L|352:359,1,55,8|8,2:1|2:0,2:0:0:0:
305,362,66139,2,0,L|241:350,2,55,8|8|8,2:1|2:0|2:0,2:0:0:0:
276,255,66825,2,0,P|272:190|283:128,1,110,10|8,2:1|2:1,2:0:0:0:
300,95,67339,1,8,2:0:0:0:
294,40,67511,6,0,L|167:17,1,110,8|8,2:0|2:1,2:0:0:0:
81,54,68196,2,0,L|70:113,1,55,8|0,2:1|2:0,2:0:0:0:
92,159,68539,2,0,L|81:218,1,55,8|0,2:1|2:0,2:0:0:0:
98,265,68882,1,8,2:1:0:0:
192,321,69225,2,0,P|225:326|257:322,1,55,8|0,2:1|2:0,2:0:0:0:
287,287,69568,2,0,P|320:282|352:286,1,55,8|0,2:1|2:0,2:0:0:0:
384,318,69911,2,0,P|417:323|449:319,1,55,10|2,2:1|2:0,2:0:0:0:
482,289,70253,5,8,2:1:0:0:
509,181,70596,2,0,P|509:116|483:61,1,110,8|8,2:1|2:1,2:0:0:0:
392,28,71282,2,0,P|354:27|317:31,1,55,8|0,2:1|2:0,2:0:0:0:
284,45,71625,1,8,2:0:0:0:
203,119,71968,1,8,2:0:0:0:
131,35,72311,1,8,2:0:0:0:
50,109,72653,2,0,L|36:186,1,55,10|2,2:0|2:0,2:0:0:0:
38,218,72996,6,0,P|112:237|168:224,1,110,12|8,2:0|2:1,2:0:0:0:
251,206,73682,1,8,2:0:0:0:
335,261,74025,2,0,L|401:272,1,55,8|0,2:1|2:0,2:0:0:0:
429,308,74368,1,8,2:0:0:0:
466,267,74539,1,8,2:0:0:0:
503,226,74711,1,8,2:0:0:0:
490,115,75053,2,0,L|478:52,2,55,8|0|10,2:0|2:0|2:1,2:0:0:0:
449,153,75568,1,2,2:0:0:0:
397,170,75739,6,0,L|334:159,2,55,8|8|8,2:0|2:0|2:0,2:0:0:0:
369,63,76425,2,0,P|304:58|250:65,1,110,8|8,2:0|2:1,2:0:0:0:
210,88,76939,1,0,2:0:0:0:
156,103,77111,2,0,P|118:105|91:100,2,55,8|8|8,2:0|2:0|2:0,2:0:0:0:
213,196,77796,2,0,P|217:256|204:310,1,110,8|10,2:0|2:1,2:0:0:0:
164,341,78311,1,10,2:0:0:0:
112,360,78482,6,0,L|47:371,2,55,8|0|8,2:0|2:0|2:0,2:0:0:0:
76,255,79168,2,0,L|98:127,1,110,8|8,2:0|2:0,2:0:0:0:
104,92,79682,1,0,2:0:0:0:
147,58,79853,2,0,P|195:49|222:52,2,55,8|0|8,2:0|2:0|2:0,2:0:0:0:
208,149,80539,2,0,P|247:150|270:147,1,55,8|8,2:0|2:0,2:0:0:0:
308,116,80882,2,0,P|347:115|370:118,1,55,10|10,2:0|2:1,2:0:0:0:
408,147,81225,5,8,2:1:0:0:
256,192,81568,12,12,83968,2:3:0:0:
325,241,84653,5,0,2:0:0:0:
243,96,85168,1,8,2:1:0:0:
243,96,85339,2,0,P|201:93|178:93,1,55,2|2,2:3|2:3,2:0:0:0:
144,128,85682,2,0,P|103:131|80:131,1,55,8|10,2:0|2:1,2:0:0:0:
42,101,86025,1,2,2:0:0:0:
39,266,86539,1,0,2:0:0:0:
39,266,86711,5,8,2:1:0:0:
198,305,87225,1,10,2:1:0:0:
198,305,87396,2,0,L|364:275,1,165,2|2,2:0|2:3,2:0:0:0:
408,246,88082,2,0,P|411:210|406:182,1,55,0|8,2:0|2:1,2:0:0:0:
379,143,88425,2,0,P|376:107|381:80,1,55,8|10,2:0|2:3,2:0:0:0:
386,33,88768,2,0,B|358:9|358:9|269:23,1,110,8|8,2:0|2:0,2:0:0:0:
184,65,89453,5,14,2:1:0:0:
213,228,89968,1,10,2:1:0:0:
213,228,90139,1,2,2:0:0:0:
86,334,90653,1,2,2:3:0:0:
86,334,90825,2,0,P|54:333|19:328,1,55,8|0,2:1|2:0,2:0:0:0:
6,281,91168,2,0,P|7:249|12:213,1,55,8|0,2:0|2:0,2:0:0:0:
31,175,91511,1,0,2:0:0:0:
105,28,92025,1,0,2:0:0:0:
105,28,92196,5,8,2:1:0:0:
271,28,92711,1,10,2:1:0:0:
271,28,92882,2,0,L|301:199,1,165,2|2,2:0|2:3,2:0:0:0:
322,241,93568,2,0,P|364:246|386:243,1,55,2|8,2:3|2:1,2:0:0:0:
412,202,93911,2,0,P|453:196|475:200,1,55,8|8,2:0|2:1,2:3:0:0:
509,231,94253,1,8,2:0:0:0:
480,337,94596,1,8,2:0:0:0:
371,346,94939,6,0,L|257:326,1,110,14|8,2:3|2:0,2:0:0:0:
209,309,95453,1,8,2:1:0:0:
209,309,95625,2,0,L|95:328,1,110,0|8,2:0|2:0,2:0:0:0:
58,301,96139,1,2,2:3:0:0:
58,301,96311,2,0,P|49:267|50:238,1,55,8|0,2:1|2:0,2:0:0:0:
79,201,96653,2,0,P|88:166|87:137,1,55,8|10,2:0|2:1,2:0:0:0:
68,94,96996,1,2,2:0:0:0:
222,35,97511,1,2,2:3:0:0:
222,35,97682,5,8,2:1:0:0:
378,89,98196,1,8,2:1:0:0:
378,89,98368,2,0,P|390:141|361:262,1,165,0|0,2:3|2:0,2:3:0:0:
320,277,99053,2,0,L|255:288,1,55,8|0,2:1|2:0,2:0:0:0:
217,257,99396,2,0,L|152:268,1,55,0|2,2:1|2:3,2:0:0:0:
111,246,99739,1,8,2:0:0:0:
127,136,100082,1,8,2:0:0:0:
238,138,100425,5,10,2:1:0:0:
291,128,100596,2,0,B|298:101|298:101|293:73,2,55,0|8|10,2:0|2:0|2:3,2:0:0:0:
343,146,101111,2,0,B|371:154|371:154|398:148,1,55,0|10,2:0|2:3,2:0:0:0:
450,139,101453,1,8,2:0:0:0:
502,159,101625,1,0,2:0:0:0:
390,348,102310,1,2,2:1:0:0:
336,343,102482,1,2,2:1:0:0:
282,338,102653,2,0,L|271:272,1,55,8|8,2:1|2:0,2:0:0:0:
272,228,102996,6,0,B|211:216|211:216|141:230,1,110,8|8,2:1|2:1,2:0:0:0:
78,288,103682,1,10,2:3:0:0:
27,269,103853,2,0,P|18:241|14:199,1,55,10|10,2:3|2:3,2:0:0:0:
46,109,104368,1,8,2:0:0:0:
256,192,104539,12,12,105911,2:3:0:0:
318,246,107111,5,12,2:1:0:0:
205,139,108482,1,8,2:0:0:0:
256,192,108653,12,8,111225,2:1:0:0:
357,126,112082,5,4,2:3:0:0:
