osu file format v14

[General]
AudioFilename: audio.mp3
AudioLeadIn: 0
PreviewTime: 6482
Countdown: 0
SampleSet: Soft
StackLeniency: 0.7
Mode: 0
LetterboxInBreaks: 0
WidescreenStoryboard: 0

[Editor]
DistanceSpacing: 2.2
BeatDivisor: 4
GridSize: 32
TimelineZoom: 2.1

[Metadata]
Title:Welcome DANGAN IsLand!!
TitleUnicode:Welcome DANGAN IsLand!!
Artist:Takada Masafumi
ArtistUnicode:高田雅史
Creator:AYE1337
Version:Last Trial Of Your Life
Source:スーパーダンガンロンパ2 さよなら絶望学園
Tags:super danganronpa goodbye despair dnb drum and bass instrumental videogame visual novel ost electronic
BeatmapID:2268023
BeatmapSetID:1084533

[Difficulty]
HPDrainRate:6.2
CircleSize:4.2
OverallDifficulty:8.7
ApproachRate:9.2
SliderMultiplier:1.7
SliderTickRate:1

[Events]
//Background and Video events
0,0,"aaa8303.jpg",0,0
//Break Periods
//Storyboard Layer 0 (Background)
//Storyboard Layer 1 (Fail)
//Storyboard Layer 2 (Pass)
//Storyboard Layer 3 (Foreground)
//Storyboard Layer 4 (Overlay)
//Storyboard Sound Samples

[TimingPoints]
311,342.857142857143,4,2,1,70,1,0
311,-100,4,2,1,50,0,0
996,-100,4,2,1,60,0,0
1682,-50,4,2,1,70,0,0
2025,-50,4,2,1,60,0,0
2368,-133.333333333333,4,2,1,60,0,0
2882,-50,4,2,1,60,0,0
3911,-133.333333333333,4,2,1,60,0,0
4253,-50,4,2,1,60,0,0
4768,-100,4,2,1,60,0,0
5111,-111.111111111111,4,2,1,60,0,0
5625,-50,4,2,1,60,0,0
6653,-100,4,2,1,60,0,0
6739,-100,4,2,2,5,0,0
6825,-100,4,2,1,70,0,0
6911,-100,4,2,2,5,0,0
6996,-100,4,2,1,70,0,0
7082,-100,4,2,2,5,0,0
7168,-62.5,4,2,1,70,0,0
7425,-62.5,4,2,2,5,0,0
7511,-62.5,4,2,1,70,0,0
7682,-133.333333333333,4,2,1,70,0,0
7768,-62.5,4,2,2,5,0,0
7853,-62.5,4,2,1,70,0,0
8368,-133.333333333333,4,2,1,70,0,0
8453,-133.333333333333,4,2,2,5,0,0
8539,-133.333333333333,4,2,1,70,0,0
8625,-133.333333333333,4,2,2,5,0,0
8711,-133.333333333333,4,2,1,70,0,0
8796,-133.333333333333,4,2,2,5,0,0
8882,-133.333333333333,4,2,1,70,0,0
8968,-133.333333333333,4,2,2,5,0,0
9053,-133.333333333333,4,2,1,70,0,0
9225,-62.5,4,2,1,70,0,0
10168,-62.5,4,2,2,5,0,0
10253,-62.5,4,2,1,70,0,0
11111,-133.333333333333,4,2,1,70,0,0
11196,-133.333333333333,4,2,1,20,0,0
11282,-62.5,4,2,1,70,0,0
11796,-133.333333333333,4,2,1,70,0,0
11882,-133.333333333333,4,2,2,5,0,0
11968,-133.333333333333,4,2,1,70,0,0
12139,-133.333333333333,4,2,4,70,0,0
12311,-133.333333333333,4,2,1,70,0,0
12396,-133.333333333333,4,2,2,5,0,0
12482,-133.333333333333,4,2,1,70,0,0
12653,-62.5,4,2,1,70,0,0
13168,-133.333333333333,4,2,1,70,0,0
13339,-62.5,4,2,1,70,0,0
13596,-62.5,4,2,2,5,0,0
13682,-62.5,4,2,1,70,0,0
13853,-133.333333333333,4,2,1,70,0,0
13939,-133.333333333333,4,2,2,5,0,0
14025,-62.5,4,2,1,70,0,0
15911,-133.333333333333,4,2,1,70,0,0
16082,-62.5,4,2,1,70,0,0
16596,-133.333333333333,4,2,1,70,0,0
16682,-133.333333333333,4,2,1,20,0,0
16768,-62.5,4,2,1,70,0,0
17282,-133.333333333333,4,2,1,70,0,0
17368,-133.333333333333,4,2,2,5,0,0
17453,-133.333333333333,4,2,4,70,0,0
17796,-100,4,2,4,70,0,0
17882,-100,4,2,2,5,0,0
17968,-100,4,2,1,70,0,0
18139,-62.5,4,2,1,70,0,0
19339,-133.333333333333,4,2,1,70,0,0
19425,-133.333333333333,4,2,2,5,0,0
19511,-62.5,4,2,1,70,0,0
19853,-133.333333333333,4,2,1,70,0,0
19939,-133.333333333333,4,2,2,5,0,0
20025,-133.333333333333,4,2,1,70,0,0
20196,-62.5,4,2,1,70,0,0
22082,-133.333333333333,4,2,1,70,0,0
22168,-133.333333333333,4,2,2,5,0,0
22253,-100,4,2,1,70,0,0
22511,-100,4,2,2,5,0,0
22596,-83.3333333333333,4,2,1,70,0,0
22682,-83.3333333333333,4,2,2,5,0,0
22768,-71.4285714285714,4,2,1,70,0,0
22853,-71.4285714285714,4,2,2,5,0,0
22939,-71.4285714285714,4,2,1,70,0,0
24053,-71.4285714285714,4,2,2,5,0,0
24139,-71.4285714285714,4,2,1,70,0,0
24482,-133.333333333333,4,2,1,70,0,0
24568,-133.333333333333,4,2,2,5,0,0
24653,-133.333333333333,4,2,1,70,0,0
24739,-133.333333333333,4,2,2,5,0,0
24825,-100,4,2,1,70,0,0
25082,-100,4,2,2,5,0,0
25168,-105.263157894737,4,2,1,70,0,0
25253,-105.263157894737,4,2,2,5,0,0
25339,-105.263157894737,4,2,1,70,0,0
25425,-105.263157894737,4,2,2,5,0,0
25511,-76.9230769230769,4,2,1,70,0,0
25768,-76.9230769230769,4,2,2,5,0,0
25853,-86.9565217391304,4,2,1,70,0,0
25939,-86.9565217391304,4,2,2,5,0,0
26025,-86.9565217391304,4,2,1,70,0,0
26111,-86.9565217391304,4,2,2,5,0,0
26196,-86.9565217391304,4,2,1,70,0,0
26282,-86.9565217391304,4,2,2,5,0,0
26368,-62.5,4,2,1,70,0,0
27396,-62.5,4,2,4,70,0,0
28596,-133.333333333333,4,2,4,70,0,0
28939,-90.9090909090909,4,2,4,70,0,0
29111,-90.9090909090909,4,2,1,70,0,0
29968,-111.111111111111,4,2,1,70,0,0
31511,-97.0873786407767,4,2,1,70,0,0
35453,-111.111111111111,4,2,1,70,0,0
38025,-117.647058823529,4,2,1,70,0,0
39568,-133.333333333333,4,2,1,70,0,0
39653,-133.333333333333,4,2,2,5,0,0
39739,-133.333333333333,4,2,1,70,0,0
39825,-133.333333333333,4,2,2,5,0,0
39911,-133.333333333333,4,2,1,70,0,0
39996,-133.333333333333,4,2,2,5,0,0
40082,-62.5,4,2,1,70,0,0
40339,-62.5,4,2,2,5,0,0
40425,-62.5,4,2,1,70,0,0
40596,-133.333333333333,4,2,1,70,0,0
40682,-133.333333333333,4,2,2,5,0,0
40768,-62.5,4,2,1,70,0,0
41025,-62.5,4,2,2,5,0,0
41111,-62.5,4,2,1,70,0,0
41282,-133.333333333333,4,2,1,70,0,0
41368,-133.333333333333,4,2,2,5,0,0
41453,-133.333333333333,4,2,1,70,0,0
41539,-133.333333333333,4,2,2,5,0,0
41625,-133.333333333333,4,2,1,70,0,0
41711,-133.333333333333,4,2,2,5,0,0
41796,-133.333333333333,4,2,1,70,0,0
41882,-133.333333333333,4,2,2,5,0,0
41968,-133.333333333333,4,2,1,70,0,0
42053,-133.333333333333,4,2,1,35,0,0
42139,-62.5,4,2,1,70,0,0
43082,-62.5,4,2,2,5,0,0
43168,-62.5,4,2,1,70,0,0
44025,-133.333333333333,4,2,1,70,0,0
44111,-133.333333333333,4,2,2,5,0,0
44196,-62.5,4,2,1,70,0,0
44711,-133.333333333333,4,2,1,70,0,0
44796,-133.333333333333,4,2,2,5,0,0
44882,-133.333333333333,4,2,1,70,0,0
45053,-133.333333333333,4,2,4,70,0,0
45225,-133.333333333333,4,2,1,70,0,0
45311,-133.333333333333,4,2,2,5,0,0
45396,-133.333333333333,4,2,1,70,0,0
45568,-62.5,4,2,1,70,0,0
46082,-133.333333333333,4,2,1,70,0,0
46253,-62.5,4,2,1,70,0,0
46511,-62.5,4,2,2,5,0,0
46596,-62.5,4,2,1,70,0,0
46768,-133.333333333333,4,2,1,70,0,0
46853,-133.333333333333,4,2,2,5,0,0
46939,-62.5,4,2,1,70,0,0
48825,-133.333333333333,4,2,1,70,0,0
48996,-62.5,4,2,1,70,0,0
49511,-133.333333333333,4,2,1,70,0,0
49596,-133.333333333333,4,2,1,20,0,0
49682,-62.5,4,2,1,70,0,0
50196,-100,4,2,1,70,0,0
50282,-100,4,2,2,5,0,0
50368,-100,4,2,4,70,0,0
50796,-100,4,2,2,5,0,0
50882,-100,4,2,1,70,0,0
51053,-62.5,4,2,1,70,0,0
52253,-133.333333333333,4,2,1,70,0,0
52339,-133.333333333333,4,2,2,5,0,0
52425,-62.5,4,2,1,70,0,0
52768,-133.333333333333,4,2,1,70,0,0
52853,-133.333333333333,4,2,2,5,0,0
52939,-62.5,4,2,1,70,0,0
54996,-133.333333333333,4,2,1,70,0,0
55082,-133.333333333333,4,2,2,5,0,0
55168,-100,4,2,1,70,0,0
55425,-100,4,2,2,5,0,0
55511,-83.3333333333333,4,2,1,70,0,0
55596,-83.3333333333333,4,2,2,5,0,0
55682,-71.4285714285714,4,2,1,70,0,0
55768,-71.4285714285714,4,2,2,5,0,0
55853,-133.333333333333,4,2,4,70,0,0
56282,-133.333333333333,4,2,2,5,0,0
56368,-133.333333333333,4,2,1,70,0,0
56453,-133.333333333333,4,2,2,5,0,0
56539,-62.5,4,2,1,70,0,0
56968,-62.5,4,2,2,5,0,0
57053,-62.5,4,2,1,70,0,0
57739,-100,4,2,1,70,0,0
57996,-100,4,2,2,5,0,0
58082,-105.263157894737,4,2,1,70,0,0
58168,-105.263157894737,4,2,2,5,0,0
58253,-105.263157894737,4,2,1,70,0,0
58339,-105.263157894737,4,2,2,5,0,0
58425,-76.9230769230769,4,2,1,70,0,0
58682,-76.9230769230769,4,2,2,5,0,0
58768,-86.9565217391304,4,2,1,70,0,0
58853,-86.9565217391304,4,2,2,5,0,0
58939,-86.9565217391304,4,2,1,70,0,0
59025,-86.9565217391304,4,2,2,5,0,0
59111,-86.9565217391304,4,2,1,70,0,0
59196,-86.9565217391304,4,2,2,5,0,0
59282,-62.5,4,2,1,70,0,0
59968,-62.5,4,2,1,70,0,0
60053,-62.5,4,2,4,70,0,0
60139,-62.5,4,2,1,70,0,0
60311,-62.5,4,2,4,70,0,0
61682,-100,4,2,1,70,0,0
61853,-71.4285714285714,4,2,1,70,0,0
62025,-133.333333333333,4,2,1,70,0,0
62111,-133.333333333333,4,2,3,70,0,0
63396,-76.9230769230769,4,2,3,70,0,0
65111,-100,4,2,3,70,0,0
67511,-133.333333333333,4,2,3,70,0,0
68882,-76.9230769230769,4,2,3,70,0,0
70253,-100,4,2,3,70,0,0
71282,-76.9230769230769,4,2,3,70,0,0
72996,-76.9230769230769,4,2,1,70,0,0
73082,-76.9230769230769,4,2,3,70,0,0
78482,-100,4,2,3,70,0,0
79853,-76.9230769230769,4,2,3,70,0,0
80196,-62.5,4,2,3,70,0,0
81568,-76.9230769230769,4,2,3,70,0,0
83282,-133.333333333333,4,2,3,70,0,0
83539,-133.333333333333,4,2,2,5,0,0
83625,-133.333333333333,4,2,1,70,0,0
83711,-133.333333333333,4,2,2,5,0,0
83796,-133.333333333333,4,2,1,70,0,0
83882,-133.333333333333,4,2,2,5,0,0
83968,-62.5,4,2,1,70,0,0
84225,-62.5,4,2,2,5,0,0
84311,-62.5,4,2,1,70,0,0
84482,-133.333333333333,4,2,1,70,0,0
84568,-133.333333333333,4,2,2,5,0,0
84653,-62.5,4,2,1,70,0,0
84911,-62.5,4,2,2,5,0,0
84996,-62.5,4,2,1,70,0,0
85168,-133.333333333333,4,2,1,70,0,0
85253,-133.333333333333,4,2,2,5,0,0
85339,-133.333333333333,4,2,1,70,0,0
85425,-133.333333333333,4,2,2,5,0,0
85511,-133.333333333333,4,2,1,70,0,0
85596,-133.333333333333,4,2,2,5,0,0
85682,-133.333333333333,4,2,1,70,0,0
85768,-133.333333333333,4,2,2,5,0,0
85853,-62.5,4,2,1,70,0,0
86968,-62.5,4,2,2,5,0,0
87053,-62.5,4,2,1,70,0,0
87225,-133.333333333333,4,2,1,70,0,0
87396,-62.5,4,2,1,70,0,0
87653,-62.5,4,2,2,5,0,0
87739,-62.5,4,2,1,70,0,0
87911,-133.333333333333,4,2,1,70,0,0
87996,-133.333333333333,4,2,2,5,0,0
88082,-62.5,4,2,1,70,0,0
88596,-100,4,2,1,70,0,0
88682,-100,4,2,2,5,0,0
88768,-100,4,2,1,70,0,0
88939,-100,4,2,4,70,0,0
89111,-100,4,2,1,70,0,0
89196,-100,4,2,2,5,0,0
89282,-62.5,4,2,1,70,0,0
90396,-62.5,4,2,2,5,0,0
90482,-62.5,4,2,1,70,0,0
90653,-133.333333333333,4,2,1,70,0,0
90739,-133.333333333333,4,2,2,5,0,0
90825,-62.5,4,2,1,70,0,0
91853,-62.5,4,2,1,70,0,0
93139,-62.5,4,2,2,5,0,0
93225,-62.5,4,2,1,70,0,0
93396,-133.333333333333,4,2,1,70,0,0
93482,-133.333333333333,4,2,2,5,0,0
93568,-62.5,4,2,1,70,0,0
93911,-133.333333333333,4,2,1,70,0,0
93996,-133.333333333333,4,2,2,5,0,0
94082,-133.333333333333,4,2,1,70,0,0
94168,-133.333333333333,4,2,2,5,0,0
94253,-133.333333333333,4,2,4,70,0,0
94596,-133.333333333333,4,2,4,70,0,0
94682,-133.333333333333,4,2,2,5,0,0
94768,-133.333333333333,4,2,1,70,0,0
94939,-62.5,4,2,1,70,0,0
96139,-133.333333333333,4,2,1,70,0,0
96225,-133.333333333333,4,2,2,5,0,0
96311,-62.5,4,2,1,70,0,0
97253,-62.5,4,2,2,5,0,0
97339,-62.5,4,2,1,70,0,0
97511,-133.333333333333,4,2,1,70,0,0
97596,-133.333333333333,4,2,2,5,0,0
97682,-62.5,4,2,1,70,0,0
97939,-62.5,4,2,2,5,0,0
98025,-62.5,4,2,1,70,0,0
99396,-133.333333333333,4,2,1,70,0,0
99482,-133.333333333333,4,2,2,5,0,0
99568,-133.333333333333,4,2,1,70,0,0
99653,-133.333333333333,4,2,1,20,0,0
99739,-62.5,4,2,1,70,0,0
100768,-133.333333333333,4,2,1,70,0,0
101025,-133.333333333333,4,2,2,5,0,0
101111,-133.333333333333,4,2,1,70,0,0
101368,-133.333333333333,4,2,2,5,0,0
101453,-133.333333333333,4,2,1,70,0,0
101625,-58.8235294117647,4,2,1,70,0,0
102311,-133.333333333333,4,2,1,70,0,0
102568,-133.333333333333,4,2,2,5,0,0
102653,-133.333333333333,4,2,1,70,0,0
102739,-133.333333333333,4,2,4,70,0,0
102825,-133.333333333333,4,2,1,70,0,0
102996,-62.5,4,2,1,70,0,0
103682,-133.333333333333,4,2,1,70,0,0
103768,-133.333333333333,4,2,2,5,0,0
103853,-133.333333333333,4,2,1,70,0,0
103939,-133.333333333333,4,2,2,5,0,0
104025,-133.333333333333,4,2,1,70,0,0
104111,-133.333333333333,4,2,2,5,0,0
104196,-133.333333333333,4,2,4,70,0,0
105225,-133.333333333333,4,2,1,70,0,0
105568,-133.333333333333,4,2,4,70,0,0
105911,-50,4,2,1,70,0,0
106596,-133.333333333333,4,2,1,70,0,0
107111,-50,4,2,1,70,0,0
108139,-133.333333333333,4,2,1,70,0,0
111225,-50,4,2,1,70,0,0
111482,-50,4,2,2,5,0,0
111568,-100,4,2,1,70,0,0
111653,-100,4,2,2,5,0,0
111739,-76.9230769230769,4,2,1,70,0,0
111825,-76.9230769230769,4,2,2,5,0,0
111911,-62.5,4,2,1,70,0,0
111996,-62.5,4,2,2,5,0,0
112082,-90.9090909090909,4,2,1,70,0,0
112425,-90.9090909090909,4,2,2,5,0,0

[Colours]
Combo1 : 75,167,105
Combo2 : 255,111,114
Combo3 : 100,170,255
Combo4 : 220,188,163
Combo5 : 206,214,219
SliderTrackOverride : 0,20,15
SliderBorder : 210,220,210

[HitObjects]
62,180,311,5,0,0:0:0:0:
96,198,425,1,0,0:0:0:0:
135,196,539,1,0,0:0:0:0:
193,136,653,5,0,0:0:0:0:
227,118,767,1,0,0:0:0:0:
266,120,881,1,0,0:0:0:0:
326,185,996,6,0,L|322:222,1,28.3333333333333
360,203,1111,2,0,L|356:165,1,28.3333333333333
399,201,1225,2,0,L|402:238,1,28.3333333333333
460,155,1339,6,0,L|493:152,2,28.3333333333333
408,102,1511,1,0,0:0:0:0:
400,84,1568,1,0,0:0:0:0:
398,64,1625,1,0,0:0:0:0:
400,44,1682,6,0,B|274:23|274:23|202:72|202:72|26:43,1,340,12|0,0:3|0:0,0:0:0:0:
78,51,2368,2,0,L|92:143,1,63.7500024318696
123,327,2882,6,0,B|35:392|-21:314|-21:314|90:202|122:391|327:300,1,510,12|0,0:1|0:0,0:0:0:0:
302,311,3739,1,0,0:0:0:0:
502,370,3911,2,0,P|466:385|435:383,1,63.7500024318696
383,330,4168,1,0,0:0:0:0:
383,330,4253,6,0,P|330:243|279:390,1,340,12|0,0:3|0:0,0:0:0:0:
125,255,4768,2,0,P|174:270|210:315,1,85,8|0,0:1|0:0,0:0:0:0:
223,371,5111,2,0,P|219:351|183:292,1,76.4999976654053,8|0,0:0|0:0,0:0:0:0:
223,371,5453,1,8,0:1:0:0:
183,144,5625,6,0,B|170:66|170:66|89:56|89:56|118:235,1,340,8|0,0:1|0:0,0:0:0:0:
141,326,6139,1,8,0:1:0:0:
117,233,6311,1,2,0:1:0:0:
117,233,6396,1,2,0:0:0:0:
117,233,6482,1,2,0:1:0:0:
440,264,6653,6,0,L|471:225,1,42.5
368,306,6825,2,0,L|319:298,1,42.5
441,347,6996,2,0,L|458:394,1,42.5,8|0,0:1|0:0,0:0:0:0:
306,123,7168,6,0,B|264:104|205:125|203:131|203:137|152:167|60:134,1,204,12|0,0:3|0:0,0:0:0:0:
74,140,7511,1,8,0:0:0:0:
255,199,7682,2,0,L|265:256,1,31.8750012159348,8|0,0:1|0:0,0:0:0:0:
146,65,7853,2,0,P|80:80|76:144,1,136,0|8,0:0|0:1,0:0:0:0:
237,71,8196,1,8,0:0:0:0:
73,139,8368,6,0,L|64:186,1,31.8750012159348,2|0,0:3|0:0,0:0:0:0:
163,220,8540,2,0,L|154:171,1,31.8750012159348,8|0,0:1|0:0,0:0:0:0:
87,322,8711,6,0,L|81:290,1,31.8750012159348,2|0,0:3|0:0,0:0:0:0:
178,340,8882,2,0,L|172:370,1,31.8750012159348,8|0,0:0|0:0,0:0:0:0:
10,236,9053,5,10,0:1:0:0:
10,236,9139,1,2,0:0:0:0:
10,236,9225,2,0,P|-8:316|7:376,2,136,2|8|8,0:0|0:1|0:0,0:0:0:0:
229,270,9739,1,0,0:0:0:0:
387,104,9911,6,0,B|304:129|304:129|190:80,1,204,8|0,0:1|0:0,0:0:0:0:
168,65,10253,1,8,0:0:0:0:
335,202,10425,1,10,0:1:0:0:
351,231,10511,1,2,0:0:0:0:
380,248,10596,2,0,P|355:157|381:103,1,136,2|8,0:0|0:1,0:0:0:0:
275,301,10939,1,8,0:0:0:0:
172,214,11111,2,0,L|168:248,1,31.8750012159348,2|0,0:3|0:0,0:0:0:0:
241,27,11282,5,0,0:0:0:0:
335,202,11453,1,8,0:1:0:0:
172,214,11625,1,8,0:0:0:0:
334,116,11796,2,0,L|302:120,1,31.8750012159348,8|0,0:1|0:0,0:0:0:0:
172,214,11968,1,8,0:0:0:0:
351,310,12139,1,8,0:0:0:0:
351,341,12224,1,8,0:0:0:0:
345,372,12311,2,0,P|366:359|390:356,1,31.8750012159348,8|0,0:0|0:0,0:0:0:0:
118,361,12482,1,10,0:1:0:0:
118,361,12568,1,2,0:0:0:0:
118,361,12653,6,0,P|146:257|205:348,1,272,14|8,0:1|0:0,0:0:0:0:
0,257,13168,2,0,L|45:249,1,31.8750012159348,2|2,0:0|0:0,0:0:0:0:
135,161,13339,2,0,B|171:124|171:124|14:149,1,204,2|0,0:0|0:0,0:0:0:0:
0,151,13682,1,8,0:0:0:0:
120,19,13853,2,0,P|93:32|80:43,1,31.8750012159348,2|0,0:3|0:0,0:0:0:0:
258,143,14025,5,8,0:1:0:0:
391,144,14196,1,0,0:0:0:0:
249,270,14368,1,8,0:0:0:0:
432,336,14540,1,2,0:0:0:0:
405,355,14625,1,2,0:0:0:0:
384,382,14711,2,0,P|311:365|228:390,2,136,2|8|8,0:0|0:1|0:0,0:0:0:0:
475,212,15224,1,0,0:0:0:0:
292,82,15396,6,0,B|256:105|256:105|245:232,1,136,8|0,0:1|0:0,0:0:0:0:
393,66,15739,1,8,0:0:0:0:
179,94,15911,2,0,L|124:85,1,31.8750012159348,10|2,0:1|0:0,0:0:0:0:
349,214,16082,6,0,B|384:237|384:237|395:364,1,136,2|8,0:0|0:1,0:0:0:0:
248,198,16425,1,8,0:0:0:0:
462,226,16597,2,0,L|515:217,1,31.8750012159348,2|0,0:3|0:0,0:0:0:0:
292,82,16768,5,0,0:0:0:0:
166,233,16939,1,8,0:1:0:0:
0,156,17111,1,8,0:0:0:0:
129,48,17282,2,0,L|122:89,1,31.8750012159348,8|0,0:1|0:0,0:0:0:0:
212,227,17453,5,8,0:0:0:0:
248,198,17538,1,8,0:0:0:0:
293,191,17624,1,8,0:0:0:0:
336,211,17710,1,8,0:0:0:0:
360,251,17796,2,0,P|368:276|368:293,1,42.5,8|0,0:0|0:0,0:0:0:0:
506,155,17968,2,0,P|499:183|490:200,1,42.5,10|2,0:1|0:0,0:0:0:0:
463,344,18139,6,0,P|334:375|285:258,1,272,14|8,0:3|0:0,0:0:0:0:
282,268,18653,1,8,0:1:0:0:
41,310,18825,2,0,P|112:279|172:305,2,136,0|8|8,0:0|0:1|0:0,0:0:0:0:
135,82,19339,2,0,L|130:31,1,31.8750012159348,2|0,0:3|0:0,0:0:0:0:
137,176,19511,5,8,0:1:0:0:
277,184,19682,1,0,0:0:0:0:
327,29,19853,2,0,P|342:27|358:29,1,31.8750012159348,8|0,0:0|0:0,0:0:0:0:
458,209,20026,1,10,0:1:0:0:
453,177,20111,1,2,0:0:0:0:
454,146,20196,2,0,P|365:119|324:268,1,272,2|8,0:0|0:0,0:0:0:0:
206,367,20711,1,0,0:0:0:0:
188,252,20882,6,0,B|243:278|243:278|334:252,1,136,8|0,0:1|0:0,0:0:0:0:
315,257,21225,1,8,0:0:0:0:
136,97,21396,1,10,0:1:0:0:
160,120,21481,1,2,0:0:0:0:
174,151,21567,1,2,0:0:0:0:
0,166,21739,1,10,0:3:0:0:
0,166,21825,1,0,0:0:0:0:
0,166,21911,1,8,0:0:0:0:
83,190,22082,2,0,P|98:168|115:157,1,31.8750012159348
0,249,22253,5,0,0:0:0:0:
126,273,22425,2,0,L|84:267,1,42.5,10|0,0:3|0:0,0:0:0:0:
209,353,22596,2,0,L|258:344,1,50.9999984436036,8|0,0:0|0:0,0:0:0:0:
330,232,22768,2,0,L|271:222,1,59.4999981842042,10|0,0:3|0:0,0:0:0:0:
425,376,22939,2,0,B|436:296|436:296|500:248|500:248|518:134,1,237.999992736817,8|8,0:0|0:0,0:0:0:0:
512,171,23453,1,8,0:1:0:0:
294,113,23625,5,10,0:3:0:0:
317,100,23711,1,2,0:3:0:0:
328,76,23796,2,0,B|280:64|246:76|244:83|243:90|207:102|152:82,1,178.499994552612,2|0,0:3|0:0,0:0:0:0:
128,67,24139,1,8,0:1:0:0:
202,12,24311,1,0,0:0:0:0:
164,256,24482,6,0,L|106:265,1,31.8750012159348,10|0,0:3|0:0,0:0:0:0:
215,200,24653,2,0,L|236:144,1,31.8750012159348,8|0,0:0|0:0,0:0:0:0:
245,277,24825,2,0,L|344:399,1,127.5,2|0,0:3|0:0,0:0:0:0:
473,347,25168,6,0,L|499:403,1,40.3749989218712,2|0,0:3|0:0,0:0:0:0:
490,273,25339,2,0,L|524:222,1,40.3749989218712,8|0,0:0|0:0,0:0:0:0:
410,292,25511,2,0,L|232:276,1,165.749992412568,10|0,0:3|0:0,0:0:0:0:
95,360,25853,6,0,P|97:325|85:284,1,48.8750009322167,10|0,0:3|0:0,0:0:0:0:
158,234,26025,2,0,P|154:209|145:187,1,48.8750009322167,8|0,0:0|0:0,0:0:0:0:
188,97,26196,2,0,P|172:65|141:36,1,48.8750009322167,2|0,0:3|0:0,0:0:0:0:
46,261,26368,6,0,P|107:278|157:234,1,136,0|8,0:0|0:1,0:0:0:0:
42,48,26711,1,8,0:0:0:0:
17,134,26882,1,8,0:1:0:0:
188,97,27053,1,0,0:0:0:0:
102,108,27225,1,8,0:1:0:0:
169,254,27396,1,8,0:0:0:0:
193,210,27481,1,8,0:0:0:0:
238,186,27567,1,8,0:0:0:0:
288,190,27653,1,8,0:0:0:0:
328,220,27738,5,8,0:0:0:0:
328,220,28425,1,8,0:0:0:0:
366,155,28596,6,0,P|380:147|395:142,1,31.8750012159348
422,77,28768,2,0,P|429:75|437:74,2,15.9375006079674,8|0|8,0:0|0:0|0:0,0:0:0:0:
490,26,28939,2,0,P|497:24|516:20,2,23.3750007133484,8|0|8,0:0|0:0|0:0,0:0:0:0:
512,104,29111,5,12,0:3:0:0:
367,22,29453,1,8,0:0:0:0:
260,94,29796,1,0,0:0:0:0:
191,57,29968,2,0,L|121:116,1,76.4999976654053
72,57,30311,5,8,0:1:0:0:
132,106,30653,1,8,0:1:0:0:
191,57,30825,1,8,0:0:0:0:
260,94,31168,1,0,0:0:0:0:
367,22,31511,2,0,L|464:73,1,87.5499992652512,0|8,0:0|0:1,0:0:0:0:
509,8,31853,5,0,0:0:0:0:
442,61,32025,1,8,0:1:0:0:
367,22,32196,1,8,0:0:0:0:
260,94,32539,1,0,0:0:0:0:
191,57,32882,1,0,0:0:0:0:
132,106,33053,5,8,0:1:0:0:
191,57,33396,1,8,0:1:0:0:
132,106,33568,1,8,0:0:0:0:
119,181,33739,1,0,0:0:0:0:
132,106,33911,1,8,0:1:0:0:
119,181,34253,1,0,0:0:0:0:
297,113,34596,5,0,0:0:0:0:
284,188,34768,1,0,0:0:0:0:
132,106,34939,1,8,0:0:0:0:
119,181,35111,1,0,0:0:0:0:
132,106,35453,2,0,L|196:49,1,76.4999976654053,0|8,0:0|0:1,0:0:0:0:
284,188,35796,5,0,0:0:0:0:
297,113,36139,1,0,0:0:0:0:
297,113,36225,1,0,0:0:0:0:
297,113,36311,1,8,0:0:0:0:
119,181,36482,1,0,0:0:0:0:
284,188,36653,1,0,0:0:0:0:
225,237,36825,1,0,0:0:0:0:
132,106,36996,1,8,0:1:0:0:
119,181,37168,1,0,0:0:0:0:
30,293,37339,5,0,0:0:0:0:
92,331,37682,1,8,0:0:0:0:
163,319,38025,2,0,L|87:331,1,72.2500013780594,8|0,0:0|0:0,0:0:0:0:
30,293,38368,1,8,0:0:0:0:
119,181,38539,5,8,0:0:0:0:
236,80,38882,1,8,0:1:0:0:
19,32,39053,1,8,0:1:0:0:
123,95,39225,1,8,0:1:0:0:
123,95,39311,1,2,0:3:0:0:
123,95,39396,1,8,0:1:0:0:
409,86,39568,6,0,L|416:40,1,31.8750012159348
346,139,39739,2,0,L|302:155,1,31.8750012159348
424,167,39911,2,0,L|459:195,1,31.8750012159348,8|0,0:1|0:0,0:0:0:0:
397,305,40082,6,0,B|355:337|302:322|302:318|301:313|256:295|199:316,1,204,12|0,0:3|0:0,0:0:0:0:
169,332,40425,1,8,0:0:0:0:
273,269,40596,2,0,L|278:233,1,31.8750012159348,10|0,0:3|0:0,0:0:0:0:
123,267,40768,2,0,P|103:356|170:321,1,204
168,331,41111,1,8,0:0:0:0:
65,183,41282,6,0,L|105:176,1,31.8750012159348,2|0,0:3|0:0,0:0:0:0:
111,275,41453,2,0,L|79:269,1,31.8750012159348,8|0,0:1|0:0,0:0:0:0:
276,154,41625,6,0,L|234:147,1,31.8750012159348,2|0,0:3|0:0,0:0:0:0:
230,246,41796,2,0,L|260:240,1,31.8750012159348,8|0,0:0|0:0,0:0:0:0:
213,69,41968,5,10,0:1:0:0:
213,69,42053,1,2,0:0:0:0:
213,69,42139,2,0,B|167:105|167:105|172:210,2,136,2|8|8,0:0|0:1|0:0,0:0:0:0:
54,178,42653,1,0,0:0:0:0:
277,137,42825,6,0,P|413:150|470:103,1,204,8|0,0:1|0:0,0:0:0:0:
477,93,43168,1,8,0:0:0:0:
449,291,43339,1,10,0:1:0:0:
420,308,43424,1,2,0:0:0:0:
408,339,43511,2,0,P|384:269|275:227,1,136,2|8,0:0|0:1,0:0:0:0:
501,384,43853,1,8,0:0:0:0:
402,196,44025,2,0,L|397:244,1,31.8750012159348,2|0,0:3|0:0,0:0:0:0:
477,93,44196,5,0,0:0:0:0:
481,188,44368,1,8,0:1:0:0:
400,21,44539,1,8,0:0:0:0:
305,142,44711,2,0,L|298:98,1,31.8750012159348,10|0,0:3|0:0,0:0:0:0:
196,17,44882,5,8,0:0:0:0:
117,193,45053,1,8,0:0:0:0:
113,161,45138,1,8,0:0:0:0:
96,134,45225,2,0,P|84:124|62:114,1,31.8750012159348,8|0,0:0|0:0,0:0:0:0:
195,321,45396,1,10,0:1:0:0:
226,322,45481,1,2,0:0:0:0:
256,311,45568,6,0,P|188:245|26:334,1,272,12|8,0:1|0:0,0:0:0:0:
216,87,46082,2,0,L|207:136,1,31.8750012159348,10|2,0:1|0:0,0:0:0:0:
223,215,46253,2,0,B|270:187|322:202|323:208|322:214|368:246|452:217,1,204,2|0,0:0|0:0,0:0:0:0:
453,218,46596,1,8,0:0:0:0:
390,116,46768,2,0,P|381:132|374:155,1,31.8750012159348,2|0,0:3|0:0,0:0:0:0:
512,1,46939,5,8,0:1:0:0:
485,102,47111,1,0,0:0:0:0:
341,0,47282,1,8,0:0:0:0:
285,200,47454,1,10,0:1:0:0:
272,168,47539,1,2,0:0:0:0:
269,134,47625,2,0,P|187:143|116:119,2,136,2|8|8,0:0|0:1|0:0,0:0:0:0:
262,279,48139,1,0,0:0:0:0:
119,323,48311,6,0,B|95:286|95:286|112:175,1,136,8|0,0:1|0:0,0:0:0:0:
180,266,48653,1,8,0:0:0:0:
0,327,48825,2,0,L|46:318,1,31.8750012159348,10|2,0:1|0:0,0:0:0:0:
243,204,48996,6,0,B|267:167|267:167|250:56,1,136,2|8,0:0|0:1,0:0:0:0:
182,147,49338,1,8,0:0:0:0:
362,208,49511,2,0,L|314:199,1,31.8750012159348,2|0,0:3|0:0,0:0:0:0:
377,13,49682,5,0,0:0:0:0:
512,0,49853,1,8,0:1:0:0:
511,158,50025,1,8,0:0:0:0:
327,127,50196,2,0,L|394:138,1,42.5,8|0,0:1|0:0,0:0:0:0:
436,239,50368,5,8,0:0:0:0:
418,190,50453,1,8,0:0:0:0:
378,159,50539,1,8,0:0:0:0:
326,154,50625,1,8,0:0:0:0:
280,179,50711,2,0,P|258:198|248:215,1,42.5,8|0,0:0|0:0,0:0:0:0:
356,340,50882,2,0,P|350:311|340:294,1,42.5,10|2,0:1|0:0,0:0:0:0:
184,383,51053,6,0,B|115:371|115:371|96:142,1,272,14|8,0:3|0:0,0:0:0:0:
98,169,51568,1,8,0:1:0:0:
307,61,51739,2,0,P|235:84|180:53,2,136,0|8|8,0:0|0:1|0:0,0:0:0:0:
293,251,52253,2,0,L|298:210,1,31.8750012159348,2|0,0:3|0:0,0:0:0:0:
231,317,52425,5,8,0:1:0:0:
353,167,52596,1,0,0:0:0:0:
375,321,52768,2,0,P|391:320|407:322,1,31.8750012159348,8|0,0:0|0:0,0:0:0:0:
231,181,52939,1,10,0:1:0:0:
253,156,53024,1,2,0:0:0:0:
265,124,53111,2,0,B|195:106|126:134|125:140|124:146|58:172|-9:148,1,272,2|8,0:0|0:0,0:0:0:0:
52,60,53625,1,0,0:0:0:0:
43,263,53796,6,0,B|5:244|5:244|-2:132,1,136,8|0,0:1|0:0,0:0:0:0:
0,150,54139,1,8,0:0:0:0:
167,227,54311,1,10,0:1:0:0:
174,260,54396,1,2,0:0:0:0:
171,293,54482,1,2,0:0:0:0:
43,263,54653,1,10,0:3:0:0:
43,263,54739,1,2,0:3:0:0:
43,263,54825,1,10,0:3:0:0:
137,144,54996,2,0,P|132:128|133:108,1,31.8750012159348
176,52,55168,5,0,0:0:0:0:
342,58,55339,2,0,L|333:112,1,42.5,10|0,0:3|0:0,0:0:0:0:
235,224,55511,2,0,L|226:173,1,50.9999984436036,8|0,0:0|0:0,0:0:0:0:
334,325,55682,2,0,L|323:394,1,59.4999981842042,10|0,0:3|0:0,0:0:0:0:
512,167,55853,5,8,0:0:0:0:
476,183,55938,1,8,0:0:0:0:
451,214,56024,1,8,0:0:0:0:
440,253,56110,1,8,0:0:0:0:
448,291,56196,2,0,P|458:309|479:332,1,31.8750012159348,8|0,0:0|0:0,0:0:0:0:
357,224,56368,2,0,P|336:223|305:230,1,31.8750012159348,8|0,0:1|0:0,0:0:0:0:
414,31,56539,5,8,0:1:0:0:
428,57,56624,1,0,0:0:0:0:
426,91,56711,2,0,B|476:80|476:80|296:64,1,204
291,60,57053,1,8,0:1:0:0:
84,96,57225,2,0,P|162:85|234:125,1,136,0|8,0:0|0:1,0:0:0:0:
104,315,57568,1,8,0:0:0:0:
139,245,57739,6,0,L|284:267,1,127.5
381,211,58082,2,0,L|421:206,1,40.3749989218712,2|0,0:3|0:0,0:0:0:0:
430,276,58253,2,0,L|390:283,1,40.3749989218712,8|0,0:0|0:0,0:0:0:0:
501,104,58425,2,0,L|305:72,1,165.749992412568,8|0,0:1|0:0,0:0:0:0:
194,54,58768,6,0,P|192:89|204:130,1,48.8750009322167,10|0,0:3|0:0,0:0:0:0:
131,180,58940,2,0,P|135:205|144:227,1,48.8750009322167,8|0,0:0|0:0,0:0:0:0:
101,317,59111,2,0,P|117:349|148:378,1,48.8750009322167,2|0,0:3|0:0,0:0:0:0:
240,158,59282,6,0,P|172:138|128:195,1,136,0|8,0:0|0:1,0:0:0:0:
231,358,59625,1,8,0:0:0:0:
256,280,59796,1,8,0:1:0:0:
417,347,59968,1,8,0:0:0:0:
417,347,60053,1,8,0:0:0:0:
417,347,60139,1,8,0:0:0:0:
499,125,60311,1,8,0:0:0:0:
477,170,60396,1,8,0:0:0:0:
437,200,60482,1,8,0:0:0:0:
386,206,60568,1,8,0:0:0:0:
340,186,60653,5,8,0:0:0:0:
340,186,61339,1,8,0:0:0:0:
332,39,61511,1,0,0:1:0:0:
348,68,61596,1,0,0:0:0:0:
352,101,61682,2,0,P|338:104|320:104,2,21.25,8|0|8,0:0|0:0|0:0,0:0:0:0:
251,60,61853,2,0,P|237:57|219:58,2,29.7499990921021,8|0|8,0:0|0:0|0:0,0:0:0:0:
134,89,62025,6,0,P|130:114|133:140,3,31.8750012159348,4|0|0|0,0:3|0:0|0:0|0:0,0:0:0:0:
178,194,62368,2,0,P|182:219|178:242,3,31.8750012159348,8|0|0|0,0:1|0:0|0:0|0:0,0:0:0:0:
185,311,62711,5,8,0:1:0:0:
205,317,62796,1,0,0:0:0:0:
235,310,62882,1,0,0:0:0:0:
256,309,62968,1,0,0:0:0:0:
293,324,63053,5,8,0:1:0:0:
313,319,63139,1,0,0:0:0:0:
340,295,63225,1,8,0:0:0:0:
362,295,63311,1,0,0:0:0:0:
393,321,63396,6,0,B|422:327|422:327|449:317,3,55.2499974708558,8|0|8|0,0:0|0:0|0:0|0:0,0:0:0:0:
465,249,63739,1,8,0:0:0:0:
443,235,63825,1,0,0:0:0:0:
443,205,63911,1,0,0:0:0:0:
433,181,63996,1,0,0:0:0:0:
414,150,64082,5,8,0:1:0:0:
412,124,64168,1,0,0:0:0:0:
418,86,64253,1,0,0:0:0:0:
398,57,64339,1,0,0:0:0:0:
357,44,64425,5,10,0:1:0:0:
316,57,64511,1,0,0:0:0:0:
275,52,64596,1,2,0:0:0:0:
244,35,64682,1,0,0:0:0:0:
215,25,64768,6,0,L|151:33,3,55.2499974708558,8|0|0|0,0:0|0:0|0:0|0:0,0:0:0:0:
94,76,65111,2,0,L|27:65,3,42.5,8|0|0|0,0:0|0:0|0:0|0:0,0:0:0:0:
77,150,65453,5,8,0:1:0:0:
80,170,65538,1,0,0:0:0:0:
81,192,65624,1,0,0:0:0:0:
77,213,65710,1,0,0:0:0:0:
71,233,65796,1,8,0:1:0:0:
66,265,65882,1,0,0:0:0:0:
67,299,65968,1,8,0:0:0:0:
77,333,66053,1,0,0:0:0:0:
101,362,66139,6,0,P|127:367|168:366,3,42.5,8|0|8|0,0:1|0:0|0:0|0:0,0:0:0:0:
212,315,66482,1,8,0:0:0:0:
236,308,66568,1,0,0:0:0:0:
265,307,66653,1,0,0:0:0:0:
297,316,66739,1,0,0:0:0:0:
327,338,66825,1,10,0:1:0:0:
358,351,66911,1,0,0:0:0:0:
387,354,66996,1,2,0:0:0:0:
416,350,67082,1,0,0:0:0:0:
439,339,67168,1,8,0:1:0:0:
454,324,67253,1,0,0:0:0:0:
461,308,67339,1,8,0:0:0:0:
462,295,67425,1,0,0:0:0:0:
461,286,67511,6,0,L|471:228,3,31.8750012159348,8|0|0|0,0:0|0:0|0:0|0:0,0:0:0:0:
496,172,67853,2,0,L|489:123,3,31.8750012159348,8|0|0|0,0:1|0:0|0:0|0:0,0:0:0:0:
467,57,68196,5,8,0:1:0:0:
447,51,68281,1,0,0:0:0:0:
420,56,68367,1,0,0:0:0:0:
399,57,68453,1,0,0:0:0:0:
372,44,68539,5,8,0:1:0:0:
352,49,68624,1,0,0:0:0:0:
332,73,68710,1,0,0:0:0:0:
310,73,68796,1,0,0:0:0:0:
287,58,68882,6,0,B|259:55|259:55|231:60,3,55.2499974708558,8|0|0|0,0:1|0:0|0:0|0:0,0:0:0:0:
195,129,69225,1,8,0:1:0:0:
170,135,69311,1,0,0:0:0:0:
144,135,69396,1,0,0:0:0:0:
119,127,69482,1,0,0:0:0:0:
89,108,69568,5,8,0:1:0:0:
98,140,69653,1,0,0:0:0:0:
98,174,69739,1,0,0:0:0:0:
87,206,69825,1,0,0:0:0:0:
110,250,69911,5,10,0:1:0:0:
103,287,69996,1,0,0:0:0:0:
89,329,70082,1,2,0:0:0:0:
96,357,70168,1,0,0:0:0:0:
143,366,70253,6,0,L|208:375,3,42.5,8|0|0|0,0:1|0:0|0:0|0:0,0:0:0:0:
227,312,70596,2,0,L|292:301,3,42.5,8|0|0|0,0:1|0:0|0:0|0:0,0:0:0:0:
338,268,70939,5,8,0:1:0:0:
358,265,71024,1,0,0:0:0:0:
375,278,71110,1,0,0:0:0:0:
396,282,71196,1,0,0:0:0:0:
421,274,71282,6,0,P|441:276|484:274,3,55.2499974708558,8|0|0|0,0:1|0:0|0:0|0:0,0:0:0:0:
498,207,71625,1,8,0:0:0:0:
497,181,71711,1,0,0:0:0:0:
487,153,71796,1,0,0:0:0:0:
470,123,71882,1,0,0:0:0:0:
470,74,71968,5,8,0:0:0:0:
449,42,72053,1,0,0:0:0:0:
461,1,72139,1,0,0:0:0:0:
480,19,72225,1,0,0:0:0:0:
428,20,72311,5,8,0:0:0:0:
387,36,72396,1,0,0:0:0:0:
344,26,72482,1,0,0:0:0:0:
301,35,72568,1,0,0:0:0:0:
263,62,72653,5,10,0:0:0:0:
215,55,72739,1,0,0:0:0:0:
176,62,72825,5,2,0:0:0:0:
145,52,72911,1,0,0:0:0:0:
79,83,72996,6,0,P|73:103|75:151,3,55.2499974708558,12|0|0|0,0:0|0:0|0:0|0:0,0:0:0:0:
135,173,73339,2,0,P|141:193|143:237,3,55.2499974708558,8|0|0|0,0:1|0:0|0:0|0:0,0:0:0:0:
135,298,73682,5,8,0:0:0:0:
155,303,73767,1,0,0:0:0:0:
196,286,73853,1,0,0:0:0:0:
217,284,73939,1,0,0:0:0:0:
249,259,74025,5,8,0:1:0:0:
269,253,74110,1,0,0:0:0:0:
307,270,74196,1,0,0:0:0:0:
328,272,74282,1,0,0:0:0:0:
367,289,74368,6,0,P|366:316|355:361,3,55.2499974708558,8|0|8|0,0:0|0:0|0:0|0:0,0:0:0:0:
430,230,74711,2,0,P|457:231|501:246,3,55.2499974708558,8|0|0|0,0:0|0:0|0:0|0:0,0:0:0:0:
471,143,75053,5,8,0:0:0:0:
471,108,75139,1,0,0:0:0:0:
485,70,75225,1,0,0:0:0:0:
473,37,75311,1,0,0:0:0:0:
475,0,75396,5,10,0:1:0:0:
440,0,75482,1,0,0:0:0:0:
403,16,75568,1,2,0:0:0:0:
370,4,75654,1,0,0:0:0:0:
320,12,75739,6,0,L|249:2,3,55.2499974708558,8|0|8|0,0:0|0:0|0:0|0:0,0:0:0:0:
326,104,76082,2,0,L|394:92,3,55.2499974708558,8|0|0|0,0:0|0:0|0:0|0:0,0:0:0:0:
438,159,76425,5,8,0:0:0:0:
441,186,76510,1,0,0:0:0:0:
456,230,76596,1,0,0:0:0:0:
446,255,76682,1,0,0:0:0:0:
421,280,76768,5,8,0:1:0:0:
417,307,76853,1,0,0:0:0:0:
451,325,76939,1,0,0:0:0:0:
460,351,77025,1,0,0:0:0:0:
426,377,77111,6,0,B|401:382|401:382|367:373,3,55.2499974708558,8|0|8|0,0:0|0:0|0:0|0:0,0:0:0:0:
326,315,77453,1,8,0:0:0:0:
301,302,77538,1,0,0:0:0:0:
281,318,77624,1,0,0:0:0:0:
254,326,77710,1,0,0:0:0:0:
223,318,77796,5,8,0:0:0:0:
198,330,77881,1,0,0:0:0:0:
175,306,77967,1,0,0:0:0:0:
147,305,78053,1,0,0:0:0:0:
149,253,78139,5,10,0:1:0:0:
140,212,78224,1,0,0:0:0:0:
168,169,78311,1,10,0:0:0:0:
169,141,78397,1,0,0:0:0:0:
146,102,78482,6,0,P|116:101|92:104,3,42.5,8|0|0|0,0:0|0:0|0:0|0:0,0:0:0:0:
225,65,78825,2,0,P|255:64|279:67,3,42.5,8|0|0|0,0:0|0:0|0:0|0:0,0:0:0:0:
339,115,79168,5,8,0:0:0:0:
334,135,79253,1,0,0:0:0:0:
351,176,79339,1,0,0:0:0:0:
353,197,79425,1,0,0:0:0:0:
378,229,79511,5,8,0:0:0:0:
384,249,79596,1,0,0:0:0:0:
367,287,79682,1,0,0:0:0:0:
365,308,79768,1,0,0:0:0:0:
348,347,79854,6,0,P|321:346|276:335,3,55.2499974708558,8|0|0|0,0:0|0:0|0:0|0:0,0:0:0:0:
435,336,80196,2,0,P|476:334|512:341,3,68,8|0|0|0,0:0|0:0|0:0|0:0,0:0:0:0:
414,265,80539,5,8,0:0:0:0:
384,249,80624,1,0,0:0:0:0:
340,259,80710,1,8,0:0:0:0:
306,258,80796,1,0,0:0:0:0:
272,215,80882,5,10,0:0:0:0:
232,237,80967,1,0,0:0:0:0:
179,232,81053,2,0,L|170:284,1,34,10|0,0:1|0:0,0:0:0:0:
133,235,81139,2,0,L|125:188,1,34,8|0,0:1|0:0,0:0:0:0:
94,230,81225,5,8,0:1:0:0:
61,240,81310,1,0,0:0:0:0:
22,241,81396,1,0,0:0:0:0:
39,270,81482,1,0,0:0:0:0:
30,312,81568,6,0,B|61:320|61:320|93:316,5,55.2499974708558,8|0|0|0|0|0,0:0|0:0|0:0|0:0|0:0|0:0,0:0:0:0:
164,307,82082,1,8,0:0:0:0:
179,304,82167,1,0,0:0:0:0:
222,303,82253,1,0,0:0:0:0:
249,306,82339,1,0,0:0:0:0:
261,309,82424,1,0,0:0:0:0:
300,325,82510,1,0,0:0:0:0:
326,344,82596,5,8,0:0:0:0:
444,314,82768,1,0,0:0:0:0:
287,215,82939,5,8,0:0:0:0:
438,197,83111,1,0,0:0:0:0:
256,54,83282,6,0,L|230:59,1,15.9375006079674,8|0,0:1|2:0,2:0:0:0:
256,54,83368,2,0,L|265:29,1,15.9375006079674,8|0,2:1|2:0,2:0:0:0:
256,54,83453,6,0,L|285:90,1,31.8750012159348,8|0,0:1|2:0,2:0:0:0:
371,26,83625,2,0,L|325:33,1,31.8750012159348,8|0,0:1|2:0,2:0:0:0:
337,139,83796,2,0,L|353:95,1,31.8750012159348,8|0,0:1|2:0,2:0:0:0:
246,299,83968,6,0,B|293:324|346:299|346:293|346:287|392:264|456:289,1,204,12|0,0:3|0:0,0:0:0:0:
474,298,84311,1,8,0:0:0:0:
401,384,84482,2,0,P|398:361|402:343,1,31.8750012159348,10|0,0:3|0:0,0:0:0:0:
234,198,84653,2,0,P|236:283|159:247,1,204
157,231,84996,1,8,0:0:0:0:
4,126,85168,6,0,L|13:73,1,31.8750012159348,8|0,0:1|0:0,0:0:0:0:
94,110,85339,2,0,L|103:162,1,31.8750012159348,2|0,0:3|0:0,0:0:0:0:
273,69,85511,6,0,L|282:121,1,31.8750012159348,2|0,0:3|0:0,0:0:0:0:
183,85,85682,2,0,L|192:32,1,31.8750012159348,8|0,0:0|0:0,0:0:0:0:
212,281,85853,5,10,0:1:0:0:
179,271,85938,1,2,0:0:0:0:
153,249,86025,2,0,B|116:341|116:341|12:283,1,204,2|0,0:0|0:0,0:0:0:0:
0,273,86368,1,8,0:0:0:0:
88,358,86539,1,0,0:0:0:0:
261,266,86711,6,0,B|332:277|332:277|378:315|378:315|449:326,1,204,8|0,0:1|0:0,0:0:0:0:
483,330,87053,1,8,0:0:0:0:
294,384,87225,2,0,L|302:332,1,31.8750012159348,10|2,0:1|0:0,0:0:0:0:
160,233,87396,2,0,B|144:132|144:132|148:128|148:128|132:27,1,204,2|0,0:0|0:0,0:0:0:0:
131,0,87739,1,8,0:0:0:0:
345,54,87911,2,0,L|377:48,1,31.8750012159348,2|0,0:3|0:0,0:0:0:0:
234,154,88082,5,0,0:0:0:0:
346,63,88253,1,8,0:1:0:0:
507,166,88425,1,8,0:0:0:0:
366,232,88596,2,0,L|419:223,1,42.5,10|0,0:3|0:0,0:0:0:0:
503,276,88768,1,8,0:0:0:0:
328,322,88939,1,8,0:0:0:0:
354,289,89024,1,8,0:0:0:0:
358,248,89111,2,0,P|341:268|332:307,1,42.5,8|0,0:0|0:0,0:0:0:0:
85,341,89282,1,10,0:1:0:0:
74,302,89367,1,8,0:0:0:0:
88,263,89453,6,0,B|99:310|99:310|174:219|174:219|67:167,1,272,14|8,0:1|0:0,0:0:0:0:
88,14,89968,1,10,0:1:0:0:
55,22,90053,1,2,0:0:0:0:
29,44,90139,2,0,B|80:30|123:45|123:50|122:56|159:74|241:61,1,204,2|0,0:0|0:0,0:0:0:0:
261,54,90482,1,8,0:0:0:0:
427,73,90653,2,0,L|382:65,1,31.8750012159348,2|0,0:3|0:0,0:0:0:0:
417,255,90825,5,8,0:1:0:0:
371,144,90996,1,0,0:0:0:0:
325,308,91168,1,8,0:0:0:0:
174,294,91339,1,0,0:0:0:0:
174,294,91425,1,0,0:0:0:0:
174,294,91511,1,0,0:0:0:0:
161,119,91682,1,8,0:1:0:0:
371,144,91853,2,0,B|321:175|321:175|218:158,1,136,8|0,0:0|0:0,0:0:0:0:
226,342,92196,6,0,P|236:255|97:303,1,272,8|8,0:1|0:0,0:0:0:0:
80,18,92711,1,10,0:1:0:0:
50,32,92796,1,2,0:0:0:0:
29,59,92882,2,0,B|69:36|122:49|122:57|123:64|170:98|264:65,1,204,2|0,0:0|0:0,0:0:0:0:
259,64,93225,1,8,0:0:0:0:
407,145,93396,2,0,L|373:139,1,31.8750012159348,2|0,0:3|0:0,0:0:0:0:
202,164,93568,5,2,0:3:0:0:
256,270,93739,1,8,0:1:0:0:
82,367,93911,2,0,L|90:322,1,31.8750012159348,8|0,0:0|0:3,0:3:0:0:
40,260,94082,2,0,L|36:228,1,31.8750012159348,8|0,0:1|0:3,0:3:0:0:
126,129,94253,5,8,0:0:0:0:
83,147,94338,1,8,0:0:0:0:
37,135,94424,1,8,0:0:0:0:
8,97,94510,1,8,0:0:0:0:
8,49,94596,2,0,P|20:34|54:24,1,31.8750012159348,8|0,0:0|0:0,0:0:0:0:
179,30,94768,2,0,P|186:47|178:82,1,31.8750012159348,10|2,0:1|0:0,0:0:0:0:
151,230,94939,6,0,B|158:153|158:153|368:119,1,272,14|8,0:3|0:0,0:0:0:0:
351,121,95453,1,8,0:1:0:0:
456,259,95625,2,0,B|365:244|365:244|363:193,1,136,0|8,0:0|0:1,0:0:0:0:
351,121,95968,1,8,0:0:0:0:
291,208,96139,2,0,L|283:258,1,31.8750012159348,2|0,0:3|0:0,0:0:0:0:
137,87,96311,5,8,0:1:0:0:
201,178,96482,1,0,0:0:0:0:
49,268,96653,1,8,0:0:0:0:
211,361,96825,1,10,0:1:0:0:
244,367,96910,1,2,0:0:0:0:
277,361,96996,2,0,B|311:349|311:349|133:321,1,204,2|0,0:0|0:0,0:0:0:0:
114,312,97339,1,8,0:0:0:0:
53,181,97511,2,0,L|43:119,1,31.8750012159348,2|0,0:3|0:3,0:3:0:0:
193,57,97682,6,0,P|104:84|135:19,1,204,8|0,0:1|0:0,0:0:0:0:
132,20,98025,1,8,0:0:0:0:
251,136,98196,1,8,0:1:0:0:
419,81,98368,2,0,P|344:74|347:-1,1,136,0|8,0:3|0:1,0:3:0:0:
359,3,98625,1,0,0:0:0:0:
359,3,98711,1,8,0:0:0:0:
482,190,98882,1,0,0:0:0:0:
340,279,99053,5,8,0:1:0:0:
376,187,99225,1,0,0:0:0:0:
200,192,99396,2,0,L|208:248,1,31.8750012159348,8|0,0:0|0:0,0:0:0:0:
138,287,99568,2,0,L|129:343,1,31.8750012159348,2|0,0:3|0:0,0:0:0:0:
0,64,99739,6,0,B|46:79|46:79|18:253|18:253|64:268,1,272,8|8,0:0|0:0,0:0:0:0:
169,186,100253,1,2,0:0:0:0:
139,170,100338,1,2,0:0:0:0:
119,142,100425,6,0,P|194:116|270:141,1,136,10|0,0:1|0:0,0:0:0:0:
419,231,100768,1,8,0:0:0:0:
435,161,100939,2,8,L|391:154,1,31.8750012159348,10|0,0:3|0:1,0:1:0:0:
255,295,101111,5,0,0:0:0:0:
239,225,101282,2,0,L|282:218,1,31.8750012159348,10|0,0:3|0:0,0:3:0:0:
435,301,101453,5,8,0:0:0:0:
284,125,101625,6,0,B|196:109|196:109|239:316,1,289.000005512238
256,384,102139,1,8,0:0:0:0:
157,281,102311,2,0,L|114:274,1,31.8750012159348,2|2,0:1|0:1,0:3:0:0:
177,165,102482,2,0,L|134:158,1,31.8750012159348,2|0,0:1|0:3,0:3:0:0:
44,206,102653,1,8,0:1:0:0:
44,206,102739,1,8,0:0:0:0:
44,206,102825,1,8,0:0:0:0:
0,19,102996,6,0,B|47:-8|94:14|94:20|94:25|138:55|200:24,1,204,8|0,0:1|0:0,0:0:0:0:
223,7,103339,1,8,0:1:0:0:
177,165,103511,1,8,0:0:0:0:
346,95,103682,6,0,L|303:88,1,31.8750012159348,10|0,0:3|0:0,0:0:0:0:
373,174,103853,2,0,L|330:180,1,31.8750012159348,10|0,0:3|0:0,0:0:0:0:
504,132,104025,2,0,L|462:126,1,31.8750012159348,10|0,0:3|0:0,0:0:0:0:
510,281,104196,5,8,0:0:0:0:
467,260,104281,1,8,0:0:0:0:
421,270,104367,1,8,0:0:0:0:
390,305,104453,1,8,0:0:0:0:
388,352,104539,6,0,L|326:362,2,42.5000016212464,8|0|0,0:0|0:0|0:0,0:0:0:0:
291,295,104882,5,0,0:0:0:0:
257,277,104996,1,0,0:0:0:0:
218,279,105110,1,0,0:0:0:0:
160,339,105225,5,8,0:0:0:0:
126,357,105339,1,0,0:0:0:0:
92,353,105453,1,0,0:0:0:0:
27,304,105568,6,0,L|-8:298,2,21.2500008106232,8|8|8,0:0|0:0|0:0,0:0:0:0:
74,246,105739,1,8,0:0:0:0:
82,228,105796,1,8,0:0:0:0:
84,208,105853,1,8,0:0:0:0:
82,188,105911,6,0,B|208:167|208:167|280:216|280:216|456:187,1,340,12|0,0:3|0:0,0:0:0:0:
403,195,106596,2,0,L|390:115,1,63.75
405,10,107111,6,0,B|332:78|119:113|80:42|127:-26|233:-29|302:164,1,510,12|0,0:1|0:0,0:0:0:0:
295,147,107968,1,0,0:0:0:0:
146,237,108139,2,0,P|187:254|228:253,1,63.7500024318696
275,225,108396,1,0,0:0:0:0:
275,225,108482,6,0,L|325:232,1,31.8750012159348,8|0,0:0|0:0,0:0:0:0:
374,293,108653,2,0,L|424:285,1,31.8750012159348
475,222,108825,1,0,0:0:0:0:
475,222,108911,1,0,0:0:0:0:
475,222,108996,2,0,L|467:177,3,31.8750012159348,8|0|0|0,0:0|0:0|0:0|0:0,0:0:0:0:
392,109,109339,6,0,L|399:58,1,31.8750012159348,8|0,0:0|0:0,0:0:0:0:
508,5,109511,2,0,L|512:36,3,31.8750012159348,8|0|0|0,0:0|0:0|0:0|0:0,0:0:0:0:
512,79,109853,6,0,L|451:70,1,42.5000016212464,8|8,0:0|0:0,0:0:0:0:
256,192,110025,12,0,111053,0:0:0:0:
258,346,111225,6,0,B|285:363|318:347|318:347|203:305|250:392|128:361,1,255,8|0,0:1|0:0,0:0:0:0:
59,285,111568,2,0,B|52:319|52:319|66:301,1,42.5,10|0,0:1|0:0,0:0:0:0:
165,191,111739,2,0,B|170:235|170:235|162:221,1,55.2499974708558,10|0,0:1|0:0,0:0:0:0:
78,77,111911,2,0,B|69:130|69:130|78:113,1,68,10|0,0:1|0:0,0:0:0:0:
315,113,112082,6,0,P|359:123|313:109,1,187.000005706787,4|0,0:3|0:0,0:0:0:0:
