osu file format v14

[General]
AudioFilename: audio.mp3
AudioLeadIn: 0
PreviewTime: 6482
Countdown: 0
SampleSet: Soft
StackLeniency: 0.7
Mode: 0
LetterboxInBreaks: 0
WidescreenStoryboard: 1

[Editor]
DistanceSpacing: 1
BeatDivisor: 4
GridSize: 8
TimelineZoom: 1.5

[Metadata]
Title:Welcome DANGAN IsLand!!
TitleUnicode:Welcome DANGAN IsLand!!
Artist:Takada Masafumi
ArtistUnicode:高田雅史
Creator:AYE1337
Version:Hard
Source:スーパーダンガンロンパ2 さよなら絶望学園
Tags:super danganronpa goodbye despair dnb drum and bass instrumental videogame visual novel ost electronic
BeatmapID:2268021
BeatmapSetID:1084533

[Difficulty]
HPDrainRate:4.5
CircleSize:3.5
OverallDifficulty:6
ApproachRate:7.7
SliderMultiplier:1.4
SliderTickRate:0.5

[Events]
//Background and Video events
0,0,"df21959a612abc095c1d325fb45071b2c318196c_s2_n1.jpg",0,0
//Break Periods
//Storyboard Layer 0 (Background)
//Storyboard Layer 1 (Fail)
//Storyboard Layer 2 (Pass)
//Storyboard Layer 3 (Foreground)
//Storyboard Layer 4 (Overlay)
//Storyboard Sound Samples

[TimingPoints]
311,342.857142857143,4,2,1,50,1,0
996,-100,4,2,1,60,0,0
1682,-100,4,2,1,70,0,0
2882,-100,4,2,1,60,0,0
5625,-125,4,2,1,60,0,0
6653,-166.666666666667,4,2,1,60,0,0
7168,-100,4,2,1,70,0,0
12139,-100,4,2,4,70,0,0
12311,-100,4,2,1,70,0,0
17453,-100,4,2,4,70,0,0
17968,-100,4,2,1,70,0,0
27396,-100,4,2,4,70,0,0
29111,-100,4,2,1,70,0,0
39568,-166.666666666667,4,2,1,70,0,0
40082,-100,4,2,1,70,0,0
45053,-100,4,2,4,70,0,0
45225,-100,4,2,1,70,0,0
49682,-100,4,2,1,70,0,0
50368,-100,4,2,4,70,0,0
50882,-100,4,2,1,70,0,0
55853,-100,4,2,4,70,0,0
56368,-100,4,2,1,70,0,0
60053,-100,4,2,4,70,0,0
60139,-100,4,2,1,70,0,0
60311,-100,4,2,4,70,0,0
62025,-166.666666666667,4,2,1,70,0,0
62368,-166.666666666667,4,2,3,70,0,0
63396,-111.111111111111,4,2,3,70,0,0
63739,-166.666666666667,4,2,3,70,0,0
64082,-111.111111111111,4,2,3,70,0,0
64425,-83.3333333333333,4,2,3,70,0,0
65111,-111.111111111111,4,2,3,70,0,0
65453,-166.666666666666,4,2,3,70,0,0
65796,-142.857142857143,4,2,3,70,0,0
66139,-125,4,2,3,70,0,0
66482,-111.111111111111,4,2,3,70,0,0
66825,-100,4,2,3,70,0,0
67168,-90.9090909090909,4,2,3,70,0,0
67853,-100,4,2,3,70,0,0
68882,-166.666666666667,4,2,3,70,0,0
69225,-125,4,2,3,70,0,0
69568,-100,4,2,3,70,0,0
69911,-83.3333333333333,4,2,3,70,0,0
70596,-100,4,2,3,70,0,0
71968,-83.3333333333333,4,2,3,70,0,0
72311,-71.4285714285714,4,2,3,70,0,0
72996,-90.9090909090909,4,2,1,70,0,0
73339,-90.9090909090909,4,2,3,70,0,0
75053,-83.3333333333333,4,2,3,70,0,0
75396,-76.9230769230769,4,2,3,70,0,0
76082,-90.9090909090909,4,2,3,70,0,0
77453,-142.857142857143,4,2,3,70,0,0
77796,-111.111111111111,4,2,3,70,0,0
78139,-90.9090909090909,4,2,3,70,0,0
79853,-125,4,2,3,70,0,0
80196,-100,4,2,3,70,0,0
80539,-83.3333333333333,4,2,3,70,0,0
80882,-71.4285714285714,4,2,3,70,0,0
81568,-90.9090909090909,4,2,3,70,0,0
83453,-166.666666666667,4,2,3,70,0,0
83624,-166.666666666667,4,2,1,70,0,0
83968,-90.909090909091,4,2,1,70,0,0
88939,-90.909090909091,4,2,4,70,0,0
89111,-90.909090909091,4,2,1,70,0,0
94253,-90.909090909091,4,2,4,70,0,0
94768,-90.909090909091,4,2,1,70,0,0
104196,-90.909090909091,4,2,4,70,0,0
105911,-90.909090909091,4,2,1,70,0,0

[Colours]
Combo1 : 176,255,176
Combo2 : 254,135,138
Combo3 : 166,132,255
Combo4 : 220,220,163
SliderTrackOverride : 48,36,38
SliderBorder : 240,220,220

[HitObjects]
256,192,311,12,12,1682,2:3:0:0:
156,133,2882,5,12,2:1:0:0:
156,133,4253,5,12,2:3:0:0:
361,57,4768,1,8,2:1:0:0:
467,156,5111,1,8,2:0:0:0:
425,295,5453,1,8,2:1:0:0:
357,242,5625,6,0,L|223:218,1,112,8|0,2:1|2:0,2:0:0:0:
196,258,6139,1,8,2:1:0:0:
148,297,6311,1,2,2:1:0:0:
68,275,6482,5,2,2:1:0:0:
68,275,6653,2,0,L|58:333,2,41.9999987182618,0|0|8,2:0|2:0|2:1,2:0:0:0:
37,186,7168,6,0,B|12:145|12:145|33:27,1,140,12|8,2:3|2:0,2:0:0:0:
100,24,7682,1,8,2:1:0:0:
177,78,7853,2,0,L|326:51,1,140,0|8,2:0|2:0,2:0:0:0:
385,16,8368,1,2,2:3:0:0:
484,32,8539,5,8,2:1:0:0:
484,32,8711,1,2,2:3:0:0:
449,102,8882,1,8,2:0:0:0:
488,168,9053,1,10,2:1:0:0:
432,238,9225,2,0,B|400:282|400:282|417:378,1,140,2|8,2:0|2:0,2:0:0:0:
341,384,9739,1,0,2:0:0:0:
286,317,9911,6,0,L|312:168,1,140,8|8,2:1|2:0,2:0:0:0:
307,101,10425,1,10,2:1:0:0:
307,101,10596,2,0,P|235:110|169:67,1,140,2|8,2:0|2:0,2:0:0:0:
136,12,11111,1,2,2:3:0:0:
136,12,11282,6,0,P|107:49|99:92,1,70,0|8,2:0|2:1,2:0:0:0:
131,141,11625,2,0,P|160:178|168:221,1,70,8|8,2:0|2:1,2:0:0:0:
123,263,11968,1,8,2:0:0:0:
153,344,12139,1,8,2:0:0:0:
153,344,12225,1,8,2:0:0:0:
153,344,12311,1,8,2:0:0:0:
220,306,12482,1,10,2:1:0:0:
298,349,12653,6,0,L|460:377,1,140,14|8,2:1|2:0,2:0:0:0:
497,318,13168,1,2,2:0:0:0:
497,318,13253,1,2,2:0:0:0:
497,318,13339,2,0,P|510:253|474:174,1,140,2|8,2:0|2:0,2:0:0:0:
415,151,13853,1,2,2:3:0:0:
328,101,14025,6,0,L|233:84,1,70,8|0,2:1|2:0,2:0:0:0:
194,130,14368,2,0,L|99:146,1,70,8|2,2:0|2:0,2:0:0:0:
60,200,14711,2,0,P|41:253|79:349,1,140,2|8,2:0|2:0,2:0:0:0:
129,369,15225,1,0,2:0:0:0:
223,356,15396,6,0,L|250:200,1,140,8|8,2:1|2:0,2:0:0:0:
303,161,15911,1,10,2:1:0:0:
303,161,15996,1,2,2:0:0:0:
303,161,16082,2,0,P|350:167|399:153,1,70,2|8,2:0|2:1,2:0:0:0:
435,119,16425,1,8,2:0:0:0:
459,46,16596,1,2,2:3:0:0:
364,42,16768,6,0,L|281:27,1,70,0|8,2:0|2:1,2:0:0:0:
228,69,17111,2,0,L|145:54,1,70,8|8,2:0|2:1,2:0:0:0:
83,76,17453,1,8,2:0:0:0:
83,76,17539,1,8,2:0:0:0:
83,76,17625,1,8,2:0:0:0:
122,141,17796,1,8,2:0:0:0:
76,203,17968,1,10,2:1:0:0:
114,281,18139,6,0,B|150:275|183:285|183:291|183:298|219:307|258:298,1,140,14|8,2:3|2:0,2:0:0:0:
318,263,18653,1,8,2:1:0:0:
318,263,18825,2,0,L|471:290,1,140,0|8,2:0|2:0,2:0:0:0:
495,220,19339,1,2,2:3:0:0:
495,220,19511,6,0,L|479:134,1,70,8|0,2:1|2:0,2:0:0:0:
419,104,19853,2,0,L|434:18,1,70,8|10,2:0|2:1,2:0:0:0:
420,20,20111,1,2,2:0:0:0:
403,15,20196,2,0,P|340:28|258:3,1,140,2|8,2:0|2:0,2:0:0:0:
200,42,20711,1,0,2:0:0:0:
200,42,20882,6,0,L|173:191,1,140,8|8,2:1|2:0,2:0:0:0:
244,233,21396,1,10,2:1:0:0:
244,233,21482,1,2,2:0:0:0:
244,233,21568,2,0,L|273:64,1,140,2|10,2:0|2:0,2:0:0:0:
276,18,22082,1,0,2:0:0:0:
194,49,22253,6,0,P|151:53|113:43,1,70,0|10,2:0|2:3,2:0:0:0:
70,101,22596,2,0,P|27:97|-11:107,1,70,8|10,2:0|2:3,2:0:0:0:
5,179,22939,1,8,2:0:0:0:
77,204,23111,1,0,2:0:0:0:
56,289,23282,1,8,2:0:0:0:
128,314,23454,1,8,2:1:0:0:
218,276,23625,6,0,L|260:268,1,35,10|2,2:3|2:3,2:0:0:0:
269,239,23796,2,0,P|346:225|424:244,1,140,2|8,2:3|2:1,2:0:0:0:
464,377,24482,1,10,2:3:0:0:
512,316,24653,1,8,2:0:0:0:
501,224,24825,6,0,L|474:75,1,140,2|2,2:3|2:3,2:0:0:0:
423,29,25339,1,8,2:0:0:0:
365,95,25511,2,0,P|322:111|226:85,1,140,10|10,2:3|2:3,2:0:0:0:
178,35,26025,1,8,2:0:0:0:
102,48,26196,1,2,2:3:0:0:
47,125,26368,6,0,B|86:163|86:163|200:143,1,140,0|8,2:0|2:0,2:0:0:0:
220,207,26882,2,0,B|303:221|303:221|343:182,1,140,8|8,2:1|2:1,2:0:0:0:
384,117,27396,1,8,2:0:0:0:
384,117,27482,1,8,2:0:0:0:
384,117,27568,1,8,2:0:0:0:
345,38,27739,5,8,2:0:0:0:
345,38,28596,1,0,2:0:0:0:
285,87,28768,1,8,2:0:0:0:
209,72,28939,1,8,2:0:0:0:
144,144,29111,5,12,2:3:0:0:
170,293,29453,1,8,2:0:0:0:
320,267,29796,1,0,2:0:0:0:
306,188,29968,1,0,2:0:0:0:
455,162,30311,5,8,2:1:0:0:
482,311,30653,1,8,2:1:0:0:
403,325,30825,1,8,2:0:0:0:
253,352,31168,1,0,2:0:0:0:
104,378,31511,1,0,2:0:0:0:
80,224,31853,5,0,2:0:0:0:
229,250,32196,1,8,2:0:0:0:
256,101,32539,1,0,2:0:0:0:
405,127,32882,1,0,2:0:0:0:
391,206,33053,5,8,2:1:0:0:
241,179,33396,1,8,2:1:0:0:
228,258,33568,1,8,2:0:0:0:
149,245,33739,1,0,2:0:0:0:
135,322,33911,1,8,2:1:0:0:
285,349,34253,1,0,2:0:0:0:
424,280,34596,5,0,2:0:0:0:
408,200,34768,1,0,2:0:0:0:
330,214,34939,1,8,2:0:0:0:
316,135,35111,1,0,2:0:0:0:
167,162,35453,1,0,2:0:0:0:
18,189,35796,5,0,2:0:0:0:
44,338,36139,1,0,2:0:0:0:
123,324,36311,2,0,L|201:310,1,70,8|0,2:0|2:0,2:0:0:0:
259,357,36653,2,0,L|353:340,1,70,0|0,2:0|2:0,2:0:0:0:
400,332,36996,1,8,2:1:0:0:
386,255,37168,1,0,2:0:0:0:
384,176,37339,5,0,2:0:0:0:
229,149,37682,1,8,2:0:0:0:
255,0,38025,1,8,2:0:0:0:
334,13,38196,1,0,2:0:0:0:
320,92,38368,1,8,2:0:0:0:
415,109,38539,5,8,2:0:0:0:
388,259,38882,1,8,2:1:0:0:
467,272,39053,1,8,2:1:0:0:
460,361,39225,1,8,2:1:0:0:
460,361,39311,1,0,2:0:0:0:
460,361,39396,5,8,2:1:0:0:
379,368,39568,2,0,L|334:376,2,41.9999987182618,0|0|8,2:0|2:0|2:1,2:0:0:0:
302,300,40082,6,0,B|263:274|263:274|152:293,1,140,12|8,2:3|2:0,2:0:0:0:
96,308,40596,1,10,2:3:0:0:
16,255,40768,2,0,L|43:97,1,140,0|8,2:0|2:0,2:0:0:0:
84,53,41282,1,2,2:3:0:0:
183,36,41453,5,8,2:1:0:0:
183,36,41625,1,2,2:3:0:0:
223,101,41796,1,8,2:0:0:0:
298,82,41968,1,10,2:1:0:0:
352,11,42139,2,0,B|398:30|398:30|381:126,1,140,2|8,2:0|2:0,2:0:0:0:
362,193,42653,1,0,2:0:0:0:
290,265,42825,6,0,L|140:291,1,140,8|8,2:1|2:0,2:0:0:0:
77,275,43339,1,10,2:1:0:0:
77,275,43425,1,2,2:0:0:0:
77,275,43511,2,0,P|45:228|52:125,1,140,2|8,2:0|2:0,2:0:0:0:
100,81,44025,1,2,2:3:0:0:
100,81,44196,6,0,L|194:64,1,70,0|8,2:0|2:1,2:0:0:0:
227,118,44539,2,0,L|321:134,1,70,8|10,2:0|2:3,2:0:0:0:
345,189,44882,1,8,2:0:0:0:
299,251,45053,1,8,2:0:0:0:
299,251,45139,1,8,2:0:0:0:
299,251,45225,1,8,2:0:0:0:
347,310,45396,1,10,2:1:0:0:
259,369,45568,6,0,B|214:380|214:380|99:360,1,140,12|8,2:1|2:0,2:0:0:0:
65,312,46082,1,10,2:1:0:0:
65,312,46168,1,2,2:0:0:0:
65,312,46253,2,0,L|37:156,1,140,2|8,2:0|2:0,2:0:0:0:
90,102,46768,1,2,2:3:0:0:
90,102,46939,6,0,L|105:15,1,70,8|0,2:1|2:0,2:0:0:0:
193,27,47282,2,0,L|177:113,1,70,8|10,2:0|2:1,2:0:0:0:
256,169,47625,2,0,L|415:140,1,140,2|8,2:0|2:0,2:0:0:0:
459,103,48139,1,0,2:0:0:0:
422,16,48311,6,0,P|363:1|275:38,1,140,8|8,2:1|2:0,2:0:0:0:
232,88,48825,1,10,2:1:0:0:
232,88,48911,1,2,2:0:0:0:
232,88,48996,2,0,P|173:103|85:66,1,140,2|8,2:0|2:0,2:0:0:0:
53,16,49511,1,2,2:3:0:0:
2,100,49682,6,0,P|-4:146|8:189,1,70,0|8,2:0|2:1,2:0:0:0:
62,214,50025,2,0,P|68:260|56:303,1,70,8|8,2:0|2:1,2:0:0:0:
3,339,50368,1,8,2:0:0:0:
3,339,50453,1,8,2:0:0:0:
3,339,50539,1,8,2:0:0:0:
77,368,50711,1,8,2:0:0:0:
137,321,50882,1,10,2:1:0:0:
230,369,51053,6,0,B|278:385|278:385|395:364,1,140,14|8,2:3|2:0,2:0:0:0:
440,347,51568,1,8,2:1:0:0:
381,264,51739,2,0,L|406:117,1,140,0|8,2:0|2:0,2:0:0:0:
364,42,52253,1,2,2:3:0:0:
364,42,52425,6,0,P|299:38|274:48,1,70,8|0,2:1|2:0,2:0:0:0:
245,98,52768,2,0,P|180:102|155:92,1,70,8|10,2:0|2:1,2:0:0:0:
113,146,53111,2,0,B|145:176|145:176|126:284,1,140,2|8,2:0|2:0,2:0:0:0:
116,361,53625,1,0,2:0:0:0:
116,361,53796,6,0,L|279:332,1,140,8|8,2:1|2:0,2:0:0:0:
315,266,54311,1,10,2:1:0:0:
315,266,54482,2,0,L|151:237,1,140,2|10,2:0|2:3,2:0:0:0:
116,171,54997,1,0,2:0:0:0:
116,171,55168,6,0,L|197:156,1,70,0|10,2:0|2:3,2:0:0:0:
260,173,55511,2,0,L|341:187,1,70,8|10,2:0|2:3,2:0:0:0:
399,145,55853,1,8,2:0:0:0:
399,145,55939,1,8,2:0:0:0:
399,145,56025,1,8,2:0:0:0:
466,181,56196,1,8,2:0:0:0:
512,116,56368,1,8,2:1:0:0:
482,32,56539,6,0,L|444:25,1,35,8|0,2:1|2:0,2:0:0:0:
412,29,56711,2,0,B|370:14|370:14|254:35,1,140,0|8,2:0|2:1,2:0:0:0:
144,0,57396,1,8,2:1:0:0:
89,55,57568,1,8,2:0:0:0:
0,39,57739,6,0,P|0:98|47:178,1,140,0|2,2:0|2:3,2:0:0:0:
105,205,58253,1,8,2:0:0:0:
191,182,58425,2,0,P|246:173|331:211,1,140,8|10,2:1|2:3,2:0:0:0:
358,271,58939,1,8,2:0:0:0:
432,249,59111,1,2,2:3:0:0:
482,341,59282,6,0,L|401:326,1,70,0|8,2:0|2:1,2:0:0:0:
344,363,59625,1,8,2:0:0:0:
269,342,59796,1,8,2:1:0:0:
195,384,59968,2,0,L|187:334,2,35,8|8|8,2:0|2:0|2:0,2:0:0:0:
113,364,60311,1,8,2:0:0:0:
110,288,60482,1,8,2:0:0:0:
110,288,60568,1,8,2:0:0:0:
110,288,60653,5,8,2:0:0:0:
153,268,62025,6,0,L|182:273,3,20.9999993591309,4|0|0|0,2:3|2:0|2:0|2:0,2:0:0:0:
217,255,62368,2,0,L|240:237,3,20.9999993591309,8|0|0|0,2:1|2:0|2:0|2:0,2:0:0:0:
253,200,62711,2,0,L|257:170,3,20.9999993591309,8|0|0|0,2:1|2:0|2:0|2:0,2:0:0:0:
235,138,63053,1,8,2:1:0:0:
166,186,63225,1,8,2:0:0:0:
114,94,63396,6,0,L|49:83,1,62.9999980773926,8|8,2:0|2:0,2:0:0:0:
37,5,63739,2,0,L|73:-1,3,20.9999993591309,8|0|0|0,2:0|2:0|2:0|2:0,2:0:0:0:
117,10,64082,2,0,L|171:0,3,31.4999990386963,8|0|0|0,2:1|2:0|2:0|2:0,2:0:0:0:
204,22,64425,2,0,L|269:10,3,41.9999987182618,10|0|2|0,2:1|2:0|2:0|2:0,2:0:0:0:
272,26,64768,5,8,2:0:0:0:
272,26,64939,1,0,2:0:0:0:
339,73,65111,2,0,L|350:137,1,62.9999980773926,8|0,2:0|2:0,2:0:0:0:
387,203,65453,2,0,L|381:239,3,20.9999993591309,8|0|0|0,2:1|2:0|2:0|2:0,2:0:0:0:
346,247,65796,2,0,L|312:258,3,24.4999992523194,8|0|8|0,2:1|2:0|2:0|2:0,2:0:0:0:
301,218,66139,6,0,L|254:209,3,28,8|0|8|0,2:1|2:0|2:0|2:0,2:0:0:0:
283,166,66482,2,0,L|257:129,3,31.4999990386963,8|0|0|0,2:0|2:0|2:0|2:0,2:0:0:0:
306,108,66825,2,0,L|313:62,3,35,10|0|2|0,2:1|2:0|2:0|2:0,2:0:0:0:
369,75,67168,2,0,L|406:48,3,38.5000011749268,8|0|8|0,2:1|2:0|2:0|2:0,2:0:0:0:
447,78,67511,5,8,2:0:0:0:
447,78,67682,1,0,2:0:0:0:
436,168,67853,2,0,P|407:205|375:224,1,70,8|0,2:1|2:0,2:0:0:0:
419,295,68196,2,0,P|372:300|336:291,1,70,8|0,2:1|2:0,2:0:0:0:
275,270,68539,1,8,2:1:0:0:
211,314,68711,1,0,2:0:0:0:
125,303,68882,6,0,L|131:270,3,20.9999993591309,8|0|0|0,2:1|2:0|2:0|2:0,2:0:0:0:
136,247,69225,2,0,L|130:211,3,28,8|0|0|0,2:1|2:0|2:0|2:0,2:0:0:0:
119,176,69568,2,0,L|125:137,3,35,8|0|0|0,2:1|2:0|2:0|2:0,2:0:0:0:
133,88,69911,2,0,L|127:45,3,41.9999987182618,10|0|2|0,2:1|2:0|2:0|2:0,2:0:0:0:
145,6,70253,5,8,2:1:0:0:
145,6,70425,1,0,2:0:0:0:
230,35,70596,2,0,P|250:77|253:120,1,70,8|0,2:1|2:0,2:0:0:0:
339,102,70939,2,0,P|324:146|294:177,1,70,8|0,2:1|2:0,2:0:0:0:
296,175,71196,1,0,2:0:0:0:
280,182,71282,2,0,L|232:189,3,35,8|0|0|0,2:1|2:0|2:0|2:0,2:0:0:0:
218,214,71625,6,0,L|191:252,3,35,8|0|0|0,2:0|2:0|2:0|2:0,2:0:0:0:
225,282,71968,2,0,L|233:332,3,41.9999987182618,8|0|0|0,2:0|2:0|2:0|2:0,2:0:0:0:
286,324,72311,2,0,L|345:366,3,48.9999985046387,8|0|0|0,2:0|2:0|2:0|2:0,2:0:0:0:
374,330,72653,1,10,2:0:0:0:
442,253,72825,1,2,2:0:0:0:
442,253,72911,1,0,2:0:0:0:
442,253,72996,6,0,L|425:161,1,77.0000023498536,12|0,2:0|2:0,2:0:0:0:
352,108,73339,2,0,L|335:201,1,77.0000023498536,8|0,2:1|2:0,2:0:0:0:
340,260,73682,1,8,2:0:0:0:
374,330,73853,1,0,2:0:0:0:
298,379,74025,2,0,P|259:381|218:370,1,77.0000023498536,8|0,0:1|0:0,0:0:0:0:
174,304,74368,5,8,2:0:0:0:
174,304,74539,1,8,2:0:0:0:
92,263,74711,2,0,L|9:248,1,77.0000023498536,8|0,2:0|2:0,2:0:0:0:
27,340,75053,2,0,L|65:366,3,41.9999987182618,8|0|0|0,2:0|2:0|2:0|2:0,2:0:0:0:
110,352,75396,2,0,L|161:342,3,45.4999979171754,10|0|2|0,2:1|2:0|2:0|2:0,2:0:0:0:
174,304,75739,5,8,2:0:0:0:
174,304,75911,1,8,2:0:0:0:
252,240,76082,2,0,L|343:223,1,77.0000023498536,8|0,2:0|2:0,2:0:0:0:
394,187,76425,1,8,2:0:0:0:
440,125,76596,1,0,2:0:0:0:
416,39,76768,2,0,P|367:33|337:38,1,77.0000023498536,8|0,0:1|0:0,0:0:0:0:
271,94,77111,5,8,2:0:0:0:
271,94,77282,1,8,2:0:0:0:
178,114,77453,2,0,L|137:106,3,24.4999992523194,8|0|0|0,2:0|2:0|2:0|2:0,2:0:0:0:
129,76,77796,2,0,L|79:67,3,31.4999990386963,8|0|0|0,2:0|2:0|2:0|2:0,2:0:0:0:
75,25,78139,2,0,L|24:16,3,38.5000011749268,10|0|10|0,2:1|2:0|2:0|2:0,2:0:0:0:
4,49,78482,6,0,P|-4:95|1:131,1,77.0000023498536,8|0,2:0|2:0,2:0:0:0:
64,167,78825,2,0,P|72:213|67:249,1,77.0000023498536,8|0,2:0|2:0,2:0:0:0:
35,312,79168,2,0,L|126:328,1,77.0000023498536,8|0,2:0|2:0,2:0:0:0:
175,282,79511,2,0,L|266:298,1,77.0000023498536,8|0,2:0|2:0,2:0:0:0:
315,339,79853,6,0,L|353:332,3,28,8|0|0|0,2:0|2:0|2:0|2:0,2:0:0:0:
360,288,80196,2,0,L|385:251,3,35,8|0|0|0,2:0|2:0|2:0|2:0,2:0:0:0:
364,211,80539,2,0,L|355:164,3,41.9999987182618,8|0|8|0,2:0|2:0|2:0|2:0,2:0:0:0:
320,135,80882,2,0,L|264:95,3,48.9999985046387,10|0|10|8,2:0|2:0|2:1|2:1,2:0:0:0:
234,125,81225,5,8,2:1:0:0:
142,285,81568,2,0,P|202:313|312:294,1,154.000004699707,8|0,2:0|2:0,2:0:0:0:
325,238,82082,2,0,P|385:210|495:229,1,154.000004699707,8|0,2:0|2:0,2:0:0:0:
505,297,82596,5,8,2:0:0:0:
450,352,82768,1,0,2:0:0:0:
369,316,82939,1,8,2:0:0:0:
310,367,83111,1,0,2:0:0:0:
236,340,83282,1,8,2:1:0:0:
236,340,83368,1,8,2:1:0:0:
236,340,83453,2,0,L|245:286,2,41.9999987182618,8|8|8,2:1|2:1|2:1,2:0:0:0:
143,357,83968,6,0,B|104:312|104:312|123:200,1,154.000004699707,12|8,2:3|2:0,2:0:0:0:
137,135,84482,1,10,2:3:0:0:
224,77,84653,2,0,L|398:107,1,154.000004699707,0|8,2:0|2:0,2:0:0:0:
463,127,85168,1,8,2:1:0:0:
464,227,85339,5,2,2:3:0:0:
464,227,85511,1,2,2:3:0:0:
509,298,85682,1,8,2:0:0:0:
446,354,85853,1,10,2:1:0:0:
359,294,86025,2,0,L|191:265,1,154.000004699707,2|8,2:0|2:0,2:0:0:0:
124,249,86539,1,0,2:0:0:0:
26,297,86711,6,0,P|13:234|29:127,1,154.000004699707,8|8,2:1|2:0,2:0:0:0:
63,70,87225,1,10,2:1:0:0:
63,70,87311,1,2,2:0:0:0:
63,70,87396,2,0,B|104:90|104:90|233:67,1,154.000004699707,2|8,2:0|2:0,2:0:0:0:
294,57,87911,1,2,2:3:0:0:
294,57,88082,6,0,P|309:102|302:141,1,77.0000023498536,0|8,2:0|2:1,2:0:0:0:
234,176,88425,2,0,P|219:221|226:260,1,77.0000023498536,8|10,2:0|2:3,2:0:0:0:
275,316,88768,1,8,2:0:0:0:
355,277,88939,1,8,2:0:0:0:
355,277,89025,1,8,2:0:0:0:
355,277,89111,1,8,2:0:0:0:
425,323,89282,1,10,2:1:0:0:
485,239,89453,6,0,L|518:55,1,154.000004699707,14|8,2:1|2:0,2:0:0:0:
459,19,89968,1,10,2:1:0:0:
459,19,90053,1,2,2:0:0:0:
459,19,90139,2,0,P|387:56|299:36,1,154.000004699707,2|8,2:0|2:0,2:0:0:0:
244,1,90653,1,2,2:3:0:0:
244,1,90825,6,0,L|226:99,1,77.0000023498536,8|0,2:1|2:0,2:0:0:0:
274,149,91168,2,0,L|291:247,1,77.0000023498536,8|0,2:0|2:0,2:0:0:0:
254,303,91511,2,0,B|207:325|207:325|94:305,1,154.000004699707,0|8,2:0|2:0,2:0:0:0:
23,291,92025,1,0,2:0:0:0:
84,206,92196,6,0,P|93:150|57:38,1,154.000004699707,8|8,2:1|2:0,2:0:0:0:
146,15,92711,1,10,2:1:0:0:
146,15,92796,1,2,2:0:0:0:
146,15,92882,2,0,P|202:24|314:-12,1,154.000004699707,2|8,2:0|2:0,2:0:0:0:
337,73,93396,1,2,2:3:0:0:
278,134,93568,6,0,L|295:226,1,77.0000023498536,2|8,2:3|2:1,2:0:0:0:
364,253,93911,2,0,L|381:345,1,77.0000023498536,8|8,2:0|2:1,2:3:0:0:
455,384,94253,1,8,2:0:0:0:
455,384,94339,1,8,2:0:0:0:
455,384,94425,1,8,2:0:0:0:
508,318,94596,1,8,2:0:0:0:
455,251,94768,1,10,2:1:0:0:
511,154,94939,6,0,B|530:98|530:98|509:-12,1,154.000004699707,14|8,2:3|2:0,2:0:0:0:
432,22,95453,1,8,2:1:0:0:
432,22,95625,2,0,L|274:49,1,154.000004699707,0|8,2:0|2:0,2:0:0:0:
199,41,96139,1,2,2:3:0:0:
199,41,96311,6,0,P|190:86|198:122,1,77.0000023498536,8|0,2:1|2:0,2:0:0:0:
245,184,96653,2,0,P|254:229|246:265,1,77.0000023498536,8|10,2:0|2:1,2:0:0:0:
200,329,96996,2,0,L|38:300,1,154.000004699707,2|8,2:0|2:0,2:0:0:0:
13,230,97511,1,2,2:3:0:0:
13,230,97682,6,0,L|182:200,1,154.000004699707,8|8,2:1|2:0,2:0:0:0:
213,135,98196,1,8,2:1:0:0:
213,135,98368,2,0,L|43:105,1,154.000004699707,0|8,2:3|2:0,2:3:0:0:
13,37,98882,1,0,2:0:0:0:
13,37,99053,6,0,P|65:27|108:36,1,77.0000023498536,8|0,2:1|2:0,2:0:0:0:
172,45,99396,2,0,P|224:55|267:46,1,77.0000023498536,8|2,2:0|2:3,2:0:0:0:
326,21,99739,1,8,2:0:0:0:
357,91,99911,1,0,2:0:0:0:
447,88,100082,1,8,2:0:0:0:
483,156,100254,1,2,2:0:0:0:
416,220,100425,5,10,2:1:0:0:
346,182,100596,1,0,2:0:0:0:
346,182,100768,2,0,L|260:197,1,77.0000023498536,8|10,2:0|2:3,2:0:0:0:
230,273,101111,2,0,L|144:258,1,77.0000023498536,0|10,2:0|2:3,2:0:0:0:
106,190,101453,1,8,2:0:0:0:
48,102,101625,6,0,P|21:148|26:263,1,154.000004699707,0|0,2:0|2:0,2:0:0:0:
60,320,102139,1,8,2:0:0:0:
135,357,102311,1,2,2:1:0:0:
139,361,102396,1,2,2:1:0:0:
143,365,102482,2,0,L|235:381,1,77.0000023498536,2|8,2:1|2:1,2:3:0:0:
300,360,102825,1,8,2:0:0:0:
392,315,102996,6,0,B|432:285|432:285|412:174,1,154.000004699707,8|8,2:1|2:1,2:0:0:0:
395,99,103511,1,8,2:0:0:0:
395,99,103682,1,10,2:3:0:0:
297,95,103853,1,10,2:3:0:0:
297,95,104025,1,10,2:3:0:0:
222,134,104196,1,8,2:0:0:0:
163,88,104368,1,8,2:0:0:0:
163,88,104453,1,8,2:0:0:0:
163,88,104539,5,8,2:0:0:0:
256,192,104653,12,12,105911,2:3:0:0:
448,118,107111,5,12,2:1:0:0:
448,118,108482,5,8,2:0:0:0:
256,192,108568,12,8,111225,2:1:0:0:
163,267,112082,5,4,2:3:0:0:
