osu file format v14

[General]
AudioFilename: audio.mp3
AudioLeadIn: 0
PreviewTime: 51930
Countdown: 1
SampleSet: None
StackLeniency: 0.8
Mode: 0
LetterboxInBreaks: 0
WidescreenStoryboard: 1

[Editor]
Bookmarks: 700,13623,22853,30238,37623,45007,50084,51930,64853,74084,81468,88853,96238,101315
DistanceSpacing: 1
BeatDivisor: 4
GridSize: 16
TimelineZoom: 1.3

[Metadata]
Title:Trial Underground
TitleUnicode:開廷アンダーグラウンド
Artist:Takada Masafumi
ArtistUnicode:高田 雅史
Creator:R1ku
Version:Hard
Source:ダンガンロンパ 希望の学園と絶望の高校生
Tags:Danganronpa monokuma class trial stream streams jump jumps dt
BeatmapID:1460634
BeatmapSetID:690110

[Difficulty]
HPDrainRate:5
CircleSize:3.4
OverallDifficulty:6
ApproachRate:7
SliderMultiplier:1.6
SliderTickRate:1

[Events]
//Background and Video events
0,0,"thumb-1920-838144.png",0,0
//Break Periods
2,50284,51030
//Storyboard Layer 0 (Background)
//Storyboard Layer 1 (Fail)
//Storyboard Layer 2 (Pass)
//Storyboard Layer 3 (Foreground)
//Storyboard Sound Samples

[TimingPoints]
700,461.538461538462,4,3,0,50,1,0
13623,-100,4,3,0,55,0,0
22853,-100,4,3,0,60,0,1
50084,-100,4,3,0,60,0,1
50200,-100,4,3,0,5,0,0
51930,461.538461538462,4,3,0,50,1,0
64853,-100,4,3,0,55,0,0
74083,-100,4,3,0,60,0,1
101314,-100,4,3,0,60,0,0
101430,-100,4,3,0,5,0,0

[Colours]
Combo1 : 212,212,212
Combo2 : 74,74,74
Combo3 : 255,0,0

[HitObjects]
76,149,700,5,8,0:0:0:0:
143,192,930,1,0,0:0:0:0:
211,150,1161,1,0,0:0:0:0:
278,193,1392,1,0,0:0:0:0:
346,150,1623,6,0,P|336:99|310:75,1,80,8|0,0:0|0:0,0:0:0:0:
244,47,2084,1,0,0:0:0:0:
244,47,2200,1,0,0:0:0:0:
244,47,2315,1,0,0:0:0:0:
164,57,2546,6,0,B|86:83|86:83|65:165,1,160,8|0,0:0|0:0,0:0:0:0:
66,238,3238,1,0,0:0:0:0:
66,238,3469,2,0,P|88:286|114:306,1,80,8|0,0:0|0:0,0:0:0:0:
144,231,3930,2,0,P|191:253|224:252,1,80
198,175,4392,6,0,P|130:154|69:212,1,160,8|0,0:0|0:0,0:0:0:0:
145,234,5084,1,0,0:0:0:0:
223,251,5315,1,8,0:0:0:0:
280,195,5546,1,0,0:0:0:0:
280,195,5661,1,0,0:0:0:0:
280,195,5776,1,0,0:0:0:0:
252,119,6007,1,0,0:0:0:0:
182,78,6238,6,0,B|138:54|138:54|184:5|249:16,1,160,8|0,0:0|0:0,0:0:0:0:
266,88,6930,2,0,P|236:144|201:152,1,80,0|8,0:0|0:0,0:0:0:0:
143,157,7392,2,0,P|173:213|208:221,1,80
263,232,7853,1,0,0:0:0:0:
322,178,8084,6,0,P|341:252|254:312,1,160,8|0,0:0|0:0,0:0:0:0:
208,305,8776,1,0,0:0:0:0:
134,273,9007,1,8,0:0:0:0:
89,206,9238,1,0,0:0:0:0:
89,206,9353,1,0,0:0:0:0:
89,206,9469,1,0,0:0:0:0:
95,126,9700,1,0,0:0:0:0:
44,64,9930,6,0,B|93:20|168:54|146:96|226:76,1,160,8|0,0:0|0:0,0:0:0:0:
256,33,10623,2,0,P|270:83|255:126,1,80,0|8,0:0|0:0,0:0:0:0:
198,155,11084,2,0,P|254:189|295:183,1,80
331,142,11546,1,0,0:0:0:0:
342,220,11776,6,0,B|307:289|226:275|176:242,1,160,8|0,0:0|0:0,0:0:0:0:
133,215,12469,1,0,0:0:0:0:
70,165,12700,1,8,0:0:0:0:
57,243,12930,1,0,0:0:0:0:
57,243,13046,1,0,0:0:0:0:
57,243,13161,1,0,0:0:0:0:
116,296,13392,1,0,0:0:0:0:
191,321,13623,6,0,P|269:338|361:335,2,160,8|0|8,0:0|0:0|0:0,0:0:0:0:
117,290,14776,2,0,P|70:260|49:237,1,80
10,174,15238,1,0,0:0:0:0:
10,174,15353,1,0,0:0:0:0:
10,174,15469,6,0,P|47:144|78:133,1,80,8|0,0:0|0:0,0:0:0:0:
85,53,15930,2,0,P|140:85|157:126,1,80
161,176,16392,1,8,0:0:0:0:
127,248,16623,2,0,P|104:289|104:323,2,80
193,203,17315,6,0,P|277:194|359:206,2,160,8|0|8,0:0|0:0|0:0,0:0:0:0:
114,218,18469,2,0,P|68:205|46:167,1,80
24,104,18930,1,0,0:0:0:0:
24,104,19046,1,0,0:0:0:0:
24,104,19161,6,0,P|65:83|106:83,1,80,8|0,0:0|0:0,0:0:0:0:
91,161,19623,2,0,P|146:147|166:121,1,80
196,59,20084,1,8,0:0:0:0:
260,105,20315,2,0,P|274:52|264:21,2,80
184,130,21007,6,0,P|228:177|278:184,1,80,8|0,0:0|0:0,0:0:0:0:
320,170,21469,1,0,0:0:0:0:
320,170,21584,1,0,0:0:0:0:
320,170,21700,1,0,0:0:0:0:
388,129,21930,6,0,P|398:174|385:215,1,80,8|0,0:0|0:0,0:0:0:0:
336,266,22392,2,0,P|337:293|350:316,2,40
390,159,22853,6,0,P|361:126|320:111,1,80,8|0,0:0|0:0,0:0:0:0:
347,34,23315,2,0,P|303:35|265:56,1,80
199,126,23776,1,8,0:0:0:0:
195,230,24007,1,0,0:0:0:0:
287,181,24238,1,0,0:0:0:0:
278,77,24469,1,0,0:0:0:0:
173,72,24700,6,0,P|185:128|212:155,1,80,8|0,0:0|0:0,0:0:0:0:
141,201,25161,2,0,P|191:227|229:224,1,80
216,308,25623,2,0,P|269:286|290:255,1,80,8|0,0:0|0:0,0:0:0:0:
310,194,26084,1,0,0:0:0:0:
310,194,26200,1,0,0:0:0:0:
310,194,26315,1,0,0:0:0:0:
233,123,26546,6,0,P|204:167|203:201,1,80,8|0,0:0|0:0,0:0:0:0:
134,236,27007,2,0,P|175:268|211:274,1,80
300,241,27469,1,8,0:0:0:0:
362,157,27700,1,0,0:0:0:0:
259,145,27930,1,0,0:0:0:0:
197,229,28161,1,0,0:0:0:0:
301,231,28392,6,0,P|269:179|269:151,1,80,8|0,0:0|0:0,0:0:0:0:
347,167,28853,2,0,P|374:206|376:253,1,80
458,244,29315,2,0,P|430:300|409:311,1,80,8|0,0:0|0:0,0:0:0:0:
338,322,29776,1,0,0:0:0:0:
338,322,29892,1,0,0:0:0:0:
338,322,30007,1,0,0:0:0:0:
241,283,30238,6,0,L|165:248,1,80,8|0,0:0|0:0,0:0:0:0:
160,145,30700,2,0,L|236:180,1,80
314,114,31161,2,0,L|238:79,1,80,8|0,0:0|0:0,0:0:0:0:
147,35,31623,1,0,0:0:0:0:
164,137,31853,1,0,0:0:0:0:
127,234,32084,5,8,0:0:0:0:
64,317,32315,1,0,0:0:0:0:
164,288,32546,1,0,0:0:0:0:
267,294,32776,1,0,0:0:0:0:
350,355,33007,1,8,0:0:0:0:
332,252,33238,1,0,0:0:0:0:
348,149,33469,2,0,P|364:129|372:111,2,40
249,183,33930,5,8,0:0:0:0:
155,229,34161,1,0,0:0:0:0:
78,299,34392,2,0,P|75:323|68:340,4,40,0|0|0|0|8,0:0|0:0|0:0|0:0|0:0,0:0:0:0:
57,196,35084,1,0,0:0:0:0:
12,102,35315,2,0,P|2:84|1:60,4,40,0|0|0|0|8,0:0|0:0|0:0|0:0|0:0,0:0:0:0:
104,150,36007,5,0,0:0:0:0:
199,193,36238,1,0,0:0:0:0:
153,287,36469,1,0,0:0:0:0:
59,244,36700,1,8,0:0:0:0:
151,197,36930,1,0,0:0:0:0:
254,189,37161,1,0,0:0:0:0:
254,189,37276,1,0,0:0:0:0:
254,189,37392,1,0,0:0:0:0:
358,193,37623,6,0,P|343:244|321:270,1,80,8|0,0:0|0:0,0:0:0:0:
254,189,38084,2,0,L|215:119,1,80
184,19,38546,2,0,P|141:45|121:75,1,80,8|0,0:0|0:0,0:0:0:0:
73,159,39007,1,0,0:0:0:0:
79,262,39238,1,0,0:0:0:0:
31,354,39469,6,0,P|66:365|139:350,1,80,8|0,0:0|0:0,0:0:0:0:
195,304,39930,1,0,0:0:0:0:
251,216,40161,1,0,0:0:0:0:
216,117,40392,2,0,P|175:145|156:175,2,80,8|0|0,0:0|0:0|0:0,0:0:0:0:
254,105,40969,1,0,0:0:0:0:
293,105,41084,1,0,0:0:0:0:
320,205,41315,6,0,L|379:139,1,80,8|0,0:0|0:0,0:0:0:0:
239,169,41776,2,0,P|234:227|252:264,1,80
359,271,42238,2,0,P|329:224|299:204,1,80,8|0,0:0|0:0,0:0:0:0:
201,209,42700,2,0,P|171:235|153:271,2,80,0|0|8,0:0|0:0|0:0,0:0:0:0:
307,152,43392,5,0,0:0:0:0:
377,249,43623,1,0,0:0:0:0:
258,261,43853,1,0,0:0:0:0:
307,152,44084,2,0,P|273:122|240:116,1,80,8|0,0:0|0:0,0:0:0:0:
135,127,44546,1,0,0:0:0:0:
135,127,44661,1,0,0:0:0:0:
135,127,44776,1,0,0:0:0:0:
68,227,45007,6,0,L|57:308,1,80,8|0,0:0|0:0,0:0:0:0:
152,232,45469,2,0,L|152:313,1,80
236,226,45930,5,8,0:0:0:0:
255,336,46161,1,0,0:0:0:0:
339,229,46392,5,0,3:0:0:0:
339,341,46623,1,0,3:0:0:0:
416,201,46853,6,0,L|428:118,1,80,8|0,0:0|0:0,0:0:0:0:
331,195,47315,2,0,L|326:111,1,80
222,203,47776,5,8,0:0:0:0:
234,91,48007,1,0,0:0:0:0:
142,192,48238,5,0,0:0:0:0:
144,79,48469,1,0,0:0:0:0:
204,227,48700,6,0,L|121:236,1,80,8|0,0:0|0:0,0:0:0:0:
308,227,49161,2,0,L|387:235,1,80
315,129,49623,5,8,0:0:0:0:
251,9,49853,1,0,0:0:0:0:
187,129,50084,1,0,0:0:0:0:
287,208,51930,5,8,0:0:0:0:
288,288,52160,1,0,0:0:0:0:
368,288,52391,1,0,0:0:0:0:
368,208,52622,1,0,0:0:0:0:
369,127,52853,2,0,P|336:88|290:72,1,80,8|0,0:0|0:0,0:0:0:0:
230,69,53314,1,0,0:0:0:0:
230,69,53430,1,0,0:0:0:0:
230,69,53545,1,0,0:0:0:0:
158,105,53776,6,0,B|100:177|169:187|115:265,1,160,8|0,0:0|0:0,0:0:0:0:
59,203,54468,1,0,0:0:0:0:
59,203,54699,2,0,P|54:158|61:118,1,80,8|0,0:0|0:0,0:0:0:0:
101,55,55160,2,0,P|135:97|137:143,1,80
59,123,55622,6,0,P|94:186|198:175,1,160,8|0,0:0|0:0,0:0:0:0:
138,120,56314,1,0,0:0:0:0:
217,124,56545,1,8,0:0:0:0:
180,52,56776,1,0,0:0:0:0:
180,52,56891,1,0,0:0:0:0:
180,52,57006,1,0,0:0:0:0:
100,47,57237,1,0,0:0:0:0:
35,94,57468,6,0,P|41:177|124:199,1,160,8|0,0:0|0:0,0:0:0:0:
101,283,58160,2,0,P|146:272|180:234,1,80,0|8,0:0|0:0,0:0:0:0:
176,169,58622,2,0,P|228:192|247:242,2,80
103,202,59314,6,0,P|99:145|184:89,1,160,8|0,0:0|0:0,0:0:0:0:
255,90,60006,1,0,0:0:0:0:
322,133,60237,1,8,0:0:0:0:
327,53,60468,1,0,0:0:0:0:
327,53,60583,1,0,0:0:0:0:
327,53,60699,1,0,0:0:0:0:
255,90,60930,1,0,0:0:0:0:
195,143,61160,6,0,P|175:182|236:273,1,160,8|0,0:0|0:0,0:0:0:0:
256,195,61853,2,0,P|273:159|268:112,1,80,0|8,0:0|0:0,0:0:0:0:
222,55,62314,1,0,0:0:0:0:
145,77,62545,1,0,0:0:0:0:
102,144,62776,1,0,0:0:0:0:
110,223,63006,6,0,B|106:269|106:269|169:255|216:286,1,160,8|0,0:0|0:0,0:0:0:0:
277,336,63699,1,0,0:0:0:0:
352,308,63930,1,8,0:0:0:0:
397,242,64160,1,0,0:0:0:0:
397,242,64276,1,0,0:0:0:0:
397,242,64391,1,0,0:0:0:0:
391,162,64622,1,0,0:0:0:0:
313,140,64853,6,0,P|315:193|430:233,2,160,8|0|8,0:0|0:0|0:0,0:0:0:0:
347,68,66006,1,0,0:0:0:0:
267,72,66237,1,0,0:0:0:0:
189,91,66468,1,0,0:0:0:0:
189,91,66583,1,0,0:0:0:0:
189,91,66699,6,0,P|142:95|94:90,1,80,8|0,0:0|0:0,0:0:0:0:
45,43,67160,2,0,P|29:103|52:146,1,80
79,184,67622,1,8,0:0:0:0:
146,226,67853,1,0,0:0:0:0:
224,239,68083,1,0,0:0:0:0:
301,218,68314,1,0,0:0:0:0:
375,187,68545,6,0,P|381:230|326:332,2,160,8|0|8,0:0|0:0|0:0,0:0:0:0:
332,118,69699,1,0,0:0:0:0:
265,73,69930,1,0,0:0:0:0:
186,60,70160,1,0,0:0:0:0:
186,60,70276,1,0,0:0:0:0:
186,60,70391,6,0,P|134:48|105:28,2,80,8|0|0,0:0|0:0|0:0,0:0:0:0:
265,52,71083,1,0,0:0:0:0:
343,70,71314,1,8,0:0:0:0:
389,135,71545,1,0,0:0:0:0:
391,215,71776,2,0,P|371:260|326:277,1,80
355,353,72237,6,0,P|298:339|272:303,1,80,8|0,0:0|0:0,0:0:0:0:
240,257,72699,1,0,0:0:0:0:
240,257,72814,1,0,0:0:0:0:
240,257,72930,1,0,0:0:0:0:
316,235,73160,6,0,P|289:192|244:175,1,80,8|0,0:0|0:0,0:0:0:0:
184,171,73622,1,0,0:0:0:0:
184,171,73737,1,0,0:0:0:0:
184,171,73853,1,0,0:0:0:0:
112,266,74083,6,0,P|81:235|69:190,1,80,8|0,0:0|0:0,0:0:0:0:
87,82,74545,1,0,0:0:0:0:
87,82,74776,1,0,0:0:0:0:
158,117,75006,2,0,P|186:155|189:208,1,80,8|0,0:0|0:0,0:0:0:0:
111,193,75468,2,0,P|134:244|175:265,1,80
256,272,75930,5,8,0:0:0:0:
352,272,76160,1,0,0:0:0:0:
287,186,76391,1,0,0:0:0:0:
191,186,76621,1,0,0:0:0:0:
86,191,76853,2,0,P|105:125|137:96,1,80,8|0,0:0|0:0,0:0:0:0:
171,64,77314,1,0,0:0:0:0:
171,64,77430,1,0,0:0:0:0:
171,64,77545,1,0,0:0:0:0:
291,61,77776,6,0,P|282:131|275:143,1,80,8|0,0:0|0:0,0:0:0:0:
348,176,78237,2,0,P|292:219|278:222,1,80
310,297,78699,2,0,P|240:288|228:281,1,80,8|0,0:0|0:0,0:0:0:0:
139,238,79160,5,0,0:0:0:0:
52,198,79390,1,0,0:0:0:0:
30,92,79621,1,8,0:0:0:0:
117,133,79851,1,0,0:0:0:0:
207,167,80083,2,0,P|270:180|303:177,1,80
286,259,80545,2,0,P|329:250|362:210,1,80,8|0,0:0|0:0,0:0:0:0:
363,146,81006,1,0,0:0:0:0:
363,146,81122,1,0,0:0:0:0:
363,146,81237,1,0,0:0:0:0:
310,253,81468,6,0,P|267:248|234:218,1,80,8|0,0:0|0:0,0:0:0:0:
226,121,81930,2,0,P|275:133|298:157,1,80
210,214,82391,2,0,L|128:227,1,80,8|0,0:0|0:0,0:0:0:0:
45,286,82853,1,0,0:0:0:0:
89,192,83083,1,0,0:0:0:0:
80,88,83314,5,8,0:0:0:0:
180,60,83545,1,0,0:0:0:0:
284,61,83776,1,0,0:0:0:0:
350,140,84006,1,0,0:0:0:0:
360,243,84237,1,8,0:0:0:0:
309,334,84468,1,0,0:0:0:0:
204,334,84699,2,0,L|162:347,2,40
262,247,85160,5,8,0:0:0:0:
176,188,85391,1,0,0:0:0:0:
72,199,85622,2,0,P|63:222|62:240,4,40,0|0|0|0|8,0:0|0:0|0:0|0:0|0:0,0:0:0:0:
149,129,86314,1,0,0:0:0:0:
246,165,86545,2,0,B|263:182|274:230,4,40,0|0|0|0|8,0:0|0:0|0:0|0:0|0:0,0:0:0:0:
144,141,87237,5,0,0:0:0:0:
65,209,87468,1,0,0:0:0:0:
139,281,87699,1,0,0:0:0:0:
238,250,87930,1,8,0:0:0:0:
313,179,88160,1,0,0:0:0:0:
343,79,88391,1,0,0:0:0:0:
343,79,88506,1,0,0:0:0:0:
343,79,88622,1,0,0:0:0:0:
350,193,88853,6,0,P|335:244|313:270,1,80,8|0,0:0|0:0,0:0:0:0:
246,189,89314,2,0,L|207:119,1,80
176,19,89776,2,0,P|133:45|113:75,1,80,8|0,0:0|0:0,0:0:0:0:
72,163,90237,1,0,0:0:0:0:
126,251,90468,1,0,0:0:0:0:
222,289,90699,6,0,P|257:300|330:285,1,80,8|0,0:0|0:0,0:0:0:0:
391,248,91160,1,0,0:0:0:0:
406,145,91391,1,0,0:0:0:0:
360,51,91622,2,0,P|420:29|458:-1,2,80,8|0|0,0:0|0:0|0:0,0:0:0:0:
321,62,92199,1,0,0:0:0:0:
281,65,92314,1,0,0:0:0:0:
186,107,92545,6,0,L|127:173,1,80,8|0,0:0|0:0,0:0:0:0:
111,268,93006,2,0,P|62:241|36:199,1,80
196,283,93468,2,0,P|188:227|156:196,1,80,8|0,0:0|0:0,0:0:0:0:
120,120,93930,2,0,P|90:146|72:182,2,80,0|0|8,0:0|0:0|0:0,0:0:0:0:
218,86,94622,5,0,0:0:0:0:
288,183,94853,1,0,0:0:0:0:
169,195,95083,1,0,0:0:0:0:
123,101,95314,2,0,P|85:126|70:156,1,80,8|0,0:0|0:0,0:0:0:0:
69,261,95776,1,0,0:0:0:0:
69,261,95891,1,0,0:0:0:0:
69,261,96006,1,0,0:0:0:0:
185,288,96237,6,0,L|264:294,1,80,8|0,0:0|0:0,0:0:0:0:
325,190,96699,2,0,L|245:196,1,80
153,119,97160,5,8,0:0:0:0:
82,3,97391,1,0,0:0:0:0:
20,123,97622,5,0,0:0:0:0:
122,213,97853,1,0,0:0:0:0:
237,182,98083,6,0,L|244:264,1,80,8|0,0:0|0:0,0:0:0:0:
354,310,98545,2,0,L|360:230,1,80
376,111,99006,5,8,0:0:0:0:
261,36,99237,1,0,0:0:0:0:
288,169,99468,5,0,0:0:0:0:
152,150,99699,1,0,0:0:0:0:
241,252,99930,6,0,L|213:331,1,80,8|0,0:0|0:0,0:0:0:0:
331,299,100391,2,0,P|343:235|322:199,1,80
230,169,100853,5,8,0:0:0:0:
124,254,101083,1,0,0:0:0:0:
102,119,101314,1,0,0:0:0:0:
