osu file format v14

[General]
AudioFilename: audio.mp3
AudioLeadIn: 0
PreviewTime: 51930
Countdown: 1
SampleSet: None
StackLeniency: 0.7
Mode: 0
LetterboxInBreaks: 0
WidescreenStoryboard: 1

[Editor]
Bookmarks: 700,13623,22853,30238,45007,50084,51930,64853,74084,81930,96238,101315
DistanceSpacing: 1
BeatDivisor: 4
GridSize: 16
TimelineZoom: 1.5

[Metadata]
Title:Trial Underground
TitleUnicode:開廷アンダーグラウンド
Artist:Takada Masafumi
ArtistUnicode:高田 雅史
Creator:R1ku
Version:Easy
Source:ダンガンロンパ 希望の学園と絶望の高校生
Tags:Danganronpa monokuma class trial stream streams jump jumps dt
BeatmapID:1460633
BeatmapSetID:690110

[Difficulty]
HPDrainRate:3
CircleSize:3
OverallDifficulty:2
ApproachRate:3
SliderMultiplier:1
SliderTickRate:1

[Events]
//Background and Video events
0,0,"thumb-1920-838144.png",0,0
//Break Periods
//Storyboard Layer 0 (Background)
//Storyboard Layer 1 (Fail)
//Storyboard Layer 2 (Pass)
//Storyboard Layer 3 (Foreground)
//Storyboard Sound Samples

[TimingPoints]
700,461.538461538462,4,3,0,50,1,0
13623,-100,4,3,0,55,0,0
22853,-100,4,3,0,60,0,1
50084,-100,4,3,0,60,0,1
50200,-100,4,3,0,5,0,0
51930,461.538461538462,4,3,0,50,1,0
64853,-100,4,3,0,55,0,0
74083,-100,4,3,0,60,0,1
101314,-100,4,3,0,60,0,0
101430,-100,4,3,0,5,0,0

[Colours]
Combo1 : 212,212,212
Combo2 : 74,74,74
Combo3 : 255,0,0

[HitObjects]
94,64,700,5,0,0:0:0:0:
192,64,1161,1,0,0:0:0:0:
288,64,1623,1,0,0:0:0:0:
384,64,2084,5,0,0:0:0:0:
384,160,2546,2,0,B|352:224|352:224|224:224,1,200
128,224,3930,1,0,0:0:0:0:
32,224,4392,6,0,B|32:160|32:160|64:128|64:128|160:128,1,200
256,128,5776,1,0,0:0:0:0:
352,160,6238,6,0,B|416:224|416:224|416:352,1,200
320,320,7623,1,0,0:0:0:0:
224,320,8084,5,0,0:0:0:0:
128,320,8546,1,0,0:0:0:0:
63,244,9007,1,0,0:0:0:0:
64,144,9469,1,0,0:0:0:0:
128,64,9930,6,0,L|336:64,1,200
416,112,11315,1,0,0:0:0:0:
320,160,11776,6,0,L|112:160,1,200
32,208,13161,1,0,0:0:0:0:
128,256,13623,6,0,L|336:256,1,200
416,192,15007,1,0,0:0:0:0:
352,112,15469,5,0,0:0:0:0:
256,80,15930,1,0,0:0:0:0:
160,80,16392,1,0,0:0:0:0:
80,128,16853,1,0,0:0:0:0:
80,224,17315,6,0,B|128:304|128:304|240:320,1,200
256,224,18700,1,0,0:0:0:0:
160,192,19161,5,0,0:0:0:0:
240,128,19623,1,0,0:0:0:0:
160,80,20084,1,0,0:0:0:0:
240,32,20546,1,0,0:0:0:0:
336,48,21007,6,0,P|352:176|288:208,1,200
208,208,22392,1,0,0:0:0:0:
112,224,22853,6,0,L|96:112,1,100
240,128,24007,2,0,L|225:226,1,100
208,304,26546,6,0,L|320:288,1,100
352,144,27700,2,0,L|240:160,1,100
144,112,29546,6,0,P|128:96|96:80,2,50
124,158,30238,2,0,P|133:207|161:258,1,100
228,179,31161,1,0,0:0:0:0:
284,96,31623,1,0,0:0:0:0:
384,96,32084,5,0,0:0:0:0:
448,176,32546,1,0,0:0:0:0:
448,272,33007,2,0,L|336:272,1,100
272,336,33930,6,0,P|256:304|256:240,1,100
352,208,34853,2,0,P|320:160|272:144,1,100
176,144,35776,6,0,L|112:144,2,50
272,160,36700,1,0,0:0:0:0:
368,160,37161,1,0,0:0:0:0:
320,64,37623,5,0,0:0:0:0:
224,64,38084,1,0,0:0:0:0:
124,72,38546,1,0,0:0:0:0:
32,112,39007,1,0,0:0:0:0:
128,160,39469,6,0,L|240:160,1,100
272,80,40392,2,0,P|304:112|320:176,1,100
319,263,41315,5,0,0:0:0:0:
220,250,41776,1,0,0:0:0:0:
176,160,42238,2,0,L|288:160,1,100
384,160,43161,5,0,0:0:0:0:
400,256,43623,1,0,0:0:0:0:
304,240,44084,2,0,L|288:128,1,100
220,69,45007,5,0,0:0:0:0:
122,46,45469,1,0,0:0:0:0:
146,142,45930,1,0,0:0:0:0:
163,240,46392,1,0,0:0:0:0:
233,310,46853,5,0,0:0:0:0:
307,242,47315,1,0,0:0:0:0:
324,144,47776,1,0,0:0:0:0:
348,48,48238,1,0,0:0:0:0:
250,71,48700,5,0,0:0:0:0:
251,170,49161,1,0,0:0:0:0:
252,270,49623,1,0,0:0:0:0:
351,264,50084,1,0,0:0:0:0:
416,320,51930,5,0,0:0:0:0:
320,320,52391,1,0,0:0:0:0:
224,320,52853,1,0,0:0:0:0:
128,320,53314,5,0,0:0:0:0:
128,224,53776,2,0,B|160:160|160:160|288:160,1,200
384,160,55160,1,0,0:0:0:0:
480,160,55622,6,0,B|480:224|480:224|448:256|448:256|352:256,1,200
256,256,57006,1,0,0:0:0:0:
160,224,57468,6,0,B|96:160|96:160|96:32,1,200
192,64,58853,1,0,0:0:0:0:
288,64,59314,5,0,0:0:0:0:
388,64,59776,1,0,0:0:0:0:
448,143,60237,1,0,0:0:0:0:
448,240,60699,1,0,0:0:0:0:
384,320,61160,6,0,L|176:320,1,200
96,272,62545,1,0,0:0:0:0:
192,224,63006,6,0,L|400:224,1,200
480,176,64391,1,0,0:0:0:0:
384,128,64853,6,0,L|176:128,1,200
96,192,66237,1,0,0:0:0:0:
160,272,66699,5,0,0:0:0:0:
256,304,67160,1,0,0:0:0:0:
352,304,67622,1,0,0:0:0:0:
432,256,68083,1,0,0:0:0:0:
432,160,68545,6,0,B|384:80|384:80|272:64,1,200
256,160,69930,1,0,0:0:0:0:
352,192,70391,5,0,0:0:0:0:
272,256,70853,1,0,0:0:0:0:
352,304,71314,1,0,0:0:0:0:
272,352,71776,1,0,0:0:0:0:
176,336,72237,6,0,P|160:208|224:176,1,200
304,176,73622,1,0,0:0:0:0:
400,160,74083,6,0,L|416:272,1,100
272,256,75237,2,0,L|287:158,1,100
304,80,77776,6,0,L|192:96,1,100
160,240,78930,2,0,L|272:224,1,100
368,272,80776,6,0,P|384:288|416:304,2,50
373,222,81468,2,0,P|366:153|345:123,1,100
288,208,82391,1,0,0:0:0:0:
224,288,82853,1,0,0:0:0:0:
128,288,83314,5,0,0:0:0:0:
64,208,83776,1,0,0:0:0:0:
64,112,84237,2,0,L|176:112,1,100
240,48,85160,6,0,P|256:80|256:144,1,100
160,176,86083,2,0,P|192:224|240:240,1,100
336,240,87006,6,0,L|400:240,2,50
240,224,87930,1,0,0:0:0:0:
144,224,88391,1,0,0:0:0:0:
192,320,88853,5,0,0:0:0:0:
288,320,89314,1,0,0:0:0:0:
387,309,89776,1,0,0:0:0:0:
476,264,90237,1,0,0:0:0:0:
384,224,90699,6,0,L|272:224,1,100
240,304,91622,2,0,P|208:272|192:208,1,100
192,128,92545,5,0,0:0:0:0:
291,135,93006,1,0,0:0:0:0:
328,228,93468,2,0,L|216:228,1,100
128,224,94391,5,0,0:0:0:0:
112,128,94853,1,0,0:0:0:0:
208,144,95314,2,0,L|224:256,1,100
292,315,96237,5,0,0:0:0:0:
390,338,96699,1,0,0:0:0:0:
366,242,97160,1,0,0:0:0:0:
349,144,97622,1,0,0:0:0:0:
279,74,98083,5,0,0:0:0:0:
205,142,98545,1,0,0:0:0:0:
188,240,99006,1,0,0:0:0:0:
164,336,99468,1,0,0:0:0:0:
262,313,99930,5,0,0:0:0:0:
261,214,100391,1,0,0:0:0:0:
260,114,100853,1,0,0:0:0:0:
160,112,101314,1,0,0:0:0:0:
256,192,102237,12,0,103622,0:0:0:0:
