osu file format v14

[General]
AudioFilename: audio.mp3
AudioLeadIn: 0
PreviewTime: 15721
Countdown: 0
SampleSet: Normal
StackLeniency: 0.7
Mode: 1
LetterboxInBreaks: 0
WidescreenStoryboard: 0

[Editor]
Bookmarks: 16682,31119,38337,52773,67209,81646
DistanceSpacing: 0.3
BeatDivisor: 4
GridSize: 32
TimelineZoom: 1.8

[Metadata]
Title:Gakkyuu Saiban Taiyou-hen (Cut Ver.)
TitleUnicode:学級裁判太陽編 (Cut Ver.)
Artist:Takada Masafumi
ArtistUnicode:高田雅史
Creator:Minion24
Version:No, That's Wrong!
Source:ダンガンロンパ 希望の学園と絶望の高校生
Tags:danganronpa trigger happy havoc instrumental video game kibou no gakuen to zetsubou koukousei class trial solar edition the sun
BeatmapID:2771618
BeatmapSetID:1337974

[Difficulty]
HPDrainRate:6
CircleSize:5
OverallDifficulty:6
ApproachRate:5
SliderMultiplier:1.4
SliderTickRate:1

[Events]
//Background and Video events
0,0,"pixiv id 80719288.png",0,125
//Break Periods
//Storyboard Layer 0 (Background)
//Storyboard Layer 1 (Fail)
//Storyboard Layer 2 (Pass)
//Storyboard Layer 3 (Foreground)
//Storyboard Layer 4 (Overlay)
//Storyboard Sound Samples

[TimingPoints]
1849,451.127819548872,4,1,0,40,1,0
9067,-100,4,1,0,50,0,0
16285,-100,4,1,0,80,0,1
30721,-100,4,1,0,60,0,0
52375,-100,4,1,0,80,0,1
66811,-100,4,1,0,80,0,0

[HitObjects]
256,192,1849,5,4,0:0:0:0:
256,192,5006,1,4,0:0:0:0:
256,192,5232,1,12,0:0:0:0:
256,192,5458,1,4,0:0:0:0:
256,192,9067,1,8,0:0:0:0:
256,192,9179,1,8,0:0:0:0:
256,192,9292,1,0,0:0:0:0:
256,192,9405,1,8,0:0:0:0:
256,192,9518,1,0,0:0:0:0:
224,192,9630,1,0,0:0:0:0:
224,192,9743,1,8,0:0:0:0:
256,192,9856,1,8,0:0:0:0:
256,192,9969,1,0,0:0:0:0:
256,192,10082,1,0,0:0:0:0:
256,192,10194,1,8,0:0:0:0:
256,192,10420,1,0,0:0:0:0:
256,192,10645,1,8,0:0:0:0:
288,192,10871,1,0,0:0:0:0:
256,192,10984,1,0,0:0:0:0:
256,192,11322,1,8,0:0:0:0:
256,192,11435,1,0,0:0:0:0:
256,192,11548,1,8,0:0:0:0:
256,192,11661,1,8,0:0:0:0:
256,192,11773,1,0,0:0:0:0:
256,192,11886,1,0,0:0:0:0:
288,192,11999,1,8,0:0:0:0:
256,192,12224,1,4,0:0:0:0:
256,192,12450,1,12,0:0:0:0:
256,192,12676,1,0,0:0:0:0:
256,192,15721,1,8,0:0:0:0:
256,192,15833,1,8,0:0:0:0:
256,192,16059,1,0,0:0:0:0:
256,192,16172,1,8,0:0:0:0:
256,192,16284,1,0,0:0:0:0:
256,192,16509,1,0,0:0:0:0:
256,192,16622,1,0,0:0:0:0:
256,192,16735,1,8,0:0:0:0:
256,192,16847,1,0,0:0:0:0:
256,192,16960,1,0,0:0:0:0:
256,192,17186,1,8,0:0:0:0:
256,192,17411,1,0,0:0:0:0:
256,192,17524,1,0,0:0:0:0:
256,192,17637,1,8,0:0:0:0:
256,192,17864,1,8,0:0:0:0:
256,192,17976,1,8,0:0:0:0:
256,192,18089,1,0,0:0:0:0:
256,192,18314,1,0,0:0:0:0:
256,192,18540,1,8,0:0:0:0:
256,192,18653,1,0,0:0:0:0:
256,192,18766,1,8,0:0:0:0:
256,192,18879,1,8,0:0:0:0:
256,192,18991,1,0,0:0:0:0:
256,192,19216,1,0,0:0:0:0:
256,192,19329,1,8,0:0:0:0:
256,192,19554,1,8,0:0:0:0:
256,192,19667,1,0,0:0:0:0:
256,192,19780,1,8,0:0:0:0:
256,192,19893,1,0,0:0:0:0:
256,192,20118,1,0,0:0:0:0:
256,192,20231,1,0,0:0:0:0:
256,192,20344,1,8,0:0:0:0:
256,192,20569,1,0,0:0:0:0:
256,192,20795,1,8,0:0:0:0:
256,192,20908,1,8,0:0:0:0:
224,192,21020,1,0,0:0:0:0:
256,192,21133,1,0,0:0:0:0:
256,192,21246,1,8,0:0:0:0:
256,192,21473,1,0,0:0:0:0:
256,192,21697,1,0,0:0:0:0:
256,192,21810,1,0,0:0:0:0:
256,192,21923,1,8,0:0:0:0:
256,192,22035,1,0,0:0:0:0:
288,192,22148,1,8,0:0:0:0:
256,192,22374,1,8,0:0:0:0:
256,192,22599,1,0,0:0:0:0:
256,192,22712,1,0,0:0:0:0:
256,192,22825,1,0,0:0:0:0:
256,192,22938,1,8,0:0:0:0:
256,192,23163,1,8,0:0:0:0:
256,192,23276,1,0,0:0:0:0:
256,192,23389,1,8,0:0:0:0:
256,192,23502,1,0,0:0:0:0:
256,192,23727,1,0,0:0:0:0:
256,192,23840,1,0,0:0:0:0:
256,192,23953,1,8,0:0:0:0:
256,192,24178,1,0,0:0:0:0:
256,192,24404,1,8,0:0:0:0:
256,192,24517,1,0,0:0:0:0:
256,192,24629,1,8,0:0:0:0:
256,192,24742,1,8,0:0:0:0:
256,192,24855,1,8,0:0:0:0:
256,192,25082,1,0,0:0:0:0:
256,192,25193,1,0,0:0:0:0:
256,192,25306,1,0,0:0:0:0:
256,192,25532,1,0,0:0:0:0:
256,192,25757,1,8,0:0:0:0:
256,192,25870,1,0,0:0:0:0:
256,192,25983,1,8,0:0:0:0:
256,192,26096,1,0,0:0:0:0:
256,192,26208,1,0,0:0:0:0:
256,192,26434,1,0,0:0:0:0:
256,192,26547,1,8,0:0:0:0:
256,192,26773,1,8,0:0:0:0:
256,192,26885,1,8,0:0:0:0:
256,192,26998,1,8,0:0:0:0:
256,192,27111,1,0,0:0:0:0:
256,192,27336,1,0,0:0:0:0:
256,192,27449,1,0,0:0:0:0:
256,192,27562,1,8,0:0:0:0:
224,192,27787,1,0,0:0:0:0:
224,192,28013,1,8,0:0:0:0:
224,192,28126,1,8,0:0:0:0:
256,192,28238,1,0,0:0:0:0:
256,192,28351,1,0,0:0:0:0:
288,192,28464,1,8,0:0:0:0:
256,192,28690,1,0,0:0:0:0:
256,192,28802,1,0,0:0:0:0:
256,192,28915,1,0,0:0:0:0:
256,192,29141,1,0,0:0:0:0:
256,192,29255,1,0,0:0:0:0:
256,192,29366,1,8,0:0:0:0:
256,192,29592,1,0,0:0:0:0:
256,192,29817,1,0,0:0:0:0:
256,192,29930,1,0,0:0:0:0:
256,192,30043,1,0,0:0:0:0:
256,192,30156,1,8,0:0:0:0:
256,192,30381,1,0,0:0:0:0:
256,192,30494,1,8,0:0:0:0:
256,192,30720,1,8,0:0:0:0:
256,192,30832,1,8,0:0:0:0:
256,192,30945,1,0,0:0:0:0:
256,192,31058,1,0,0:0:0:0:
256,192,31171,1,8,0:0:0:0:
224,192,31284,1,0,0:0:0:0:
256,192,31396,1,8,0:0:0:0:
256,192,31622,1,0,0:0:0:0:
256,192,31735,1,8,0:0:0:0:
256,192,31847,1,0,0:0:0:0:
256,192,31960,1,8,0:0:0:0:
256,192,32073,1,8,0:0:0:0:
256,192,32299,1,0,0:0:0:0:
256,192,32411,1,0,0:0:0:0:
256,192,32524,1,8,0:0:0:0:
256,192,32637,1,8,0:0:0:0:
224,192,32750,1,0,0:0:0:0:
256,192,32864,1,8,0:0:0:0:
256,192,32975,1,8,0:0:0:0:
256,192,33088,1,0,0:0:0:0:
256,192,33201,1,8,0:0:0:0:
256,192,33426,1,0,0:0:0:0:
256,192,33539,1,8,0:0:0:0:
256,192,33652,1,0,0:0:0:0:
256,192,33765,1,8,0:0:0:0:
256,192,33879,1,8,0:0:0:0:
256,192,34103,1,0,0:0:0:0:
256,192,34217,1,0,0:0:0:0:
256,192,34329,1,8,0:0:0:0:
256,192,34441,1,8,0:0:0:0:
256,192,34554,1,0,0:0:0:0:
256,192,34667,1,0,0:0:0:0:
256,192,34780,1,8,0:0:0:0:
256,192,34893,1,0,0:0:0:0:
256,192,35005,1,8,0:0:0:0:
256,192,35118,1,8,0:0:0:0:
256,192,35231,1,0,0:0:0:0:
256,192,35345,1,8,0:0:0:0:
256,192,35458,1,8,0:0:0:0:
256,192,35570,1,0,0:0:0:0:
256,192,35683,1,8,0:0:0:0:
256,192,35908,1,0,0:0:0:0:
256,192,36133,1,8,0:0:0:0:
256,192,36246,1,0,0:0:0:0:
256,192,36359,1,8,0:0:0:0:
256,192,36473,1,8,0:0:0:0:
256,192,36584,1,0,0:0:0:0:
256,192,36697,1,8,0:0:0:0:
256,192,36811,1,8,0:0:0:0:
256,192,36924,1,8,0:0:0:0:
256,192,37036,1,0,0:0:0:0:
256,192,37148,1,0,0:0:0:0:
256,192,37374,1,0,0:0:0:0:
256,192,37487,1,8,0:0:0:0:
256,192,37712,1,8,0:0:0:0:
256,192,37825,1,8,0:0:0:0:
256,192,37938,1,0,0:0:0:0:
256,192,38163,1,0,0:0:0:0:
256,192,38276,1,0,0:0:0:0:
256,192,38389,1,8,0:0:0:0:
256,192,38614,1,0,0:0:0:0:
256,192,38840,1,0,0:0:0:0:
256,192,39066,1,0,0:0:0:0:
256,192,39178,1,0,0:0:0:0:
256,192,39291,1,8,0:0:0:0:
256,192,39517,1,8,0:0:0:0:
256,192,39629,1,8,0:0:0:0:
256,192,39742,1,0,0:0:0:0:
256,192,39968,1,0,0:0:0:0:
256,192,40081,1,8,0:0:0:0:
256,192,40193,1,8,0:0:0:0:
256,192,40419,1,0,0:0:0:0:
256,192,40644,1,0,0:0:0:0:
256,192,40757,1,8,0:0:0:0:
256,192,40870,1,0,0:0:0:0:
224,192,41096,1,8,0:0:0:0:
256,192,41321,1,0,0:0:0:0:
256,192,41434,1,8,0:0:0:0:
256,192,41547,1,0,0:0:0:0:
256,192,41772,1,0,0:0:0:0:
256,192,41885,1,0,0:0:0:0:
256,192,41998,1,8,0:0:0:0:
256,192,42223,1,0,0:0:0:0:
256,192,42449,1,0,0:0:0:0:
256,192,42562,1,8,0:0:0:0:
256,192,42675,1,0,0:0:0:0:
256,192,42787,1,8,0:0:0:0:
256,192,42900,1,8,0:0:0:0:
256,192,43126,1,0,0:0:0:0:
288,192,43238,1,8,0:0:0:0:
224,192,43351,1,0,0:0:0:0:
256,192,43577,1,0,0:0:0:0:
256,192,43690,1,0,0:0:0:0:
256,192,43802,1,8,0:0:0:0:
256,192,44028,1,0,0:0:0:0:
256,192,44254,1,0,0:0:0:0:
256,192,44366,1,8,0:0:0:0:
256,192,44479,1,0,0:0:0:0:
256,192,44705,1,8,0:0:0:0:
256,192,44817,1,0,0:0:0:0:
256,192,44930,1,8,0:0:0:0:
256,192,45043,1,8,0:0:0:0:
256,192,45156,1,0,0:0:0:0:
256,192,45381,1,0,0:0:0:0:
256,192,45494,1,0,0:0:0:0:
288,192,45607,1,8,0:0:0:0:
256,192,45832,1,0,0:0:0:0:
256,192,46058,1,8,0:0:0:0:
256,192,46171,1,8,0:0:0:0:
256,192,46284,1,0,0:0:0:0:
224,192,46509,1,8,0:0:0:0:
256,192,46622,1,0,0:0:0:0:
256,192,46735,1,8,0:0:0:0:
224,192,46960,1,0,0:0:0:0:
256,192,47186,1,0,0:0:0:0:
256,192,47299,1,0,0:0:0:0:
256,192,47411,1,8,0:0:0:0:
256,192,47637,1,0,0:0:0:0:
256,192,47750,1,0,0:0:0:0:
256,192,47863,1,0,0:0:0:0:
256,192,47975,1,8,0:0:0:0:
256,192,48088,1,0,0:0:0:0:
256,192,48314,1,8,0:0:0:0:
256,192,48539,1,8,0:0:0:0:
256,192,48652,1,8,0:0:0:0:
256,192,48765,1,0,0:0:0:0:
256,192,48990,1,0,0:0:0:0:
256,192,49103,1,0,0:0:0:0:
256,192,49216,1,8,0:0:0:0:
256,192,49441,1,0,0:0:0:0:
256,192,49667,1,8,0:0:0:0:
288,192,49780,1,8,0:0:0:0:
288,192,49893,1,0,0:0:0:0:
288,192,50005,1,0,0:0:0:0:
288,192,50118,1,8,0:0:0:0:
256,192,50344,1,0,0:0:0:0:
256,192,50457,1,8,0:0:0:0:
256,192,50569,1,0,0:0:0:0:
256,192,50795,1,0,0:0:0:0:
256,192,50908,1,0,0:0:0:0:
256,192,51020,1,8,0:0:0:0:
256,192,51246,1,0,0:0:0:0:
224,192,51359,1,0,0:0:0:0:
256,192,51472,1,8,0:0:0:0:
256,192,51697,1,0,0:0:0:0:
256,192,51810,1,8,0:0:0:0:
256,192,51923,1,8,0:0:0:0:
256,192,52148,1,8,0:0:0:0:
256,192,52261,1,8,0:0:0:0:
256,192,52374,1,0,0:0:0:0:
256,192,52599,1,0,0:0:0:0:
256,192,52712,1,0,0:0:0:0:
256,192,52825,1,8,0:0:0:0:
256,192,52938,1,8,0:0:0:0:
256,192,53052,1,0,0:0:0:0:
256,192,53276,1,0,0:0:0:0:
256,192,53502,1,0,0:0:0:0:
256,192,53614,1,0,0:0:0:0:
256,192,53727,1,8,0:0:0:0:
256,192,53840,1,0,0:0:0:0:
256,192,53953,1,8,0:0:0:0:
256,192,54067,1,8,0:0:0:0:
256,192,54178,1,0,0:0:0:0:
256,192,54404,1,0,0:0:0:0:
256,192,54517,1,8,0:0:0:0:
256,192,54629,1,8,0:0:0:0:
256,192,54855,1,0,0:0:0:0:
256,192,55082,1,0,0:0:0:0:
256,192,55193,1,8,0:0:0:0:
256,192,55306,1,0,0:0:0:0:
224,192,55532,1,8,0:0:0:0:
256,192,55644,1,0,0:0:0:0:
256,192,55757,1,0,0:0:0:0:
256,192,55870,1,8,0:0:0:0:
256,192,55983,1,0,0:0:0:0:
256,192,56208,1,0,0:0:0:0:
256,192,56321,1,0,0:0:0:0:
256,192,56434,1,8,0:0:0:0:
256,192,56661,1,0,0:0:0:0:
256,192,56885,1,0,0:0:0:0:
256,192,56998,1,8,0:0:0:0:
256,192,57111,1,0,0:0:0:0:
256,192,57223,1,8,0:0:0:0:
256,192,57336,1,8,0:0:0:0:
256,192,57562,1,0,0:0:0:0:
288,192,57788,1,8,0:0:0:0:
256,192,58013,1,0,0:0:0:0:
256,192,58126,1,0,0:0:0:0:
256,192,58238,1,8,0:0:0:0:
256,192,58464,1,0,0:0:0:0:
256,192,58690,1,0,0:0:0:0:
256,192,58802,1,8,0:0:0:0:
256,192,58915,1,0,0:0:0:0:
256,192,59141,1,8,0:0:0:0:
256,192,59255,1,0,0:0:0:0:
256,192,59366,1,8,0:0:0:0:
256,192,59479,1,8,0:0:0:0:
256,192,59592,1,0,0:0:0:0:
256,192,59817,1,0,0:0:0:0:
256,192,59930,1,0,0:0:0:0:
288,192,60043,1,8,0:0:0:0:
256,192,60382,1,0,0:0:0:0:
256,192,60494,1,8,0:0:0:0:
256,192,60607,1,8,0:0:0:0:
256,192,60720,1,0,0:0:0:0:
256,192,60832,1,0,0:0:0:0:
224,192,60945,1,8,0:0:0:0:
256,192,61058,1,0,0:0:0:0:
256,192,61171,1,8,0:0:0:0:
224,192,61396,1,0,0:0:0:0:
256,192,61622,1,0,0:0:0:0:
256,192,61735,1,0,0:0:0:0:
256,192,61847,1,8,0:0:0:0:
256,192,62073,1,0,0:0:0:0:
256,192,62186,1,0,0:0:0:0:
256,192,62299,1,0,0:0:0:0:
256,192,62411,1,8,0:0:0:0:
256,192,62524,1,0,0:0:0:0:
256,192,62637,1,0,0:0:0:0:
256,192,62750,1,8,0:0:0:0:
256,192,62975,1,8,0:0:0:0:
256,192,63088,1,8,0:0:0:0:
256,192,63201,1,0,0:0:0:0:
256,192,63426,1,0,0:0:0:0:
256,192,63539,1,0,0:0:0:0:
256,192,63652,1,8,0:0:0:0:
256,192,63879,1,0,0:0:0:0:
256,192,64103,1,8,0:0:0:0:
288,192,64216,1,8,0:0:0:0:
288,192,64329,1,0,0:0:0:0:
288,192,64441,1,0,0:0:0:0:
288,192,64554,1,8,0:0:0:0:
256,192,64780,1,0,0:0:0:0:
256,192,64893,1,8,0:0:0:0:
256,192,65005,1,0,0:0:0:0:
256,192,65231,1,0,0:0:0:0:
256,192,65344,1,0,0:0:0:0:
256,192,65458,1,8,0:0:0:0:
256,192,65682,1,0,0:0:0:0:
224,192,65795,1,0,0:0:0:0:
256,192,65908,1,8,0:0:0:0:
256,192,66133,1,0,0:0:0:0:
256,192,66246,1,8,0:0:0:0:
256,192,66359,1,8,0:0:0:0:
256,192,66473,1,0,0:0:0:0:
256,192,66584,1,8,0:0:0:0:
256,192,66697,1,8,0:0:0:0:
256,192,66810,1,0,0:0:0:0:
256,192,66924,1,0,0:0:0:0:
256,192,67035,1,8,0:0:0:0:
256,192,67148,1,0,0:0:0:0:
256,192,67261,1,8,0:0:0:0:
256,192,67374,1,8,0:0:0:0:
256,192,67487,1,0,0:0:0:0:
256,192,67599,1,8,0:0:0:0:
256,192,67712,1,0,0:0:0:0:
256,192,67825,1,0,0:0:0:0:
256,192,67938,1,8,0:0:0:0:
256,192,68052,1,8,0:0:0:0:
256,192,68276,1,0,0:0:0:0:
256,192,68389,1,0,0:0:0:0:
256,192,68502,1,8,0:0:0:0:
256,192,68614,1,0,0:0:0:0:
256,192,68727,1,0,0:0:0:0:
256,192,68840,1,8,0:0:0:0:
256,192,68953,1,0,0:0:0:0:
256,192,69067,1,8,0:0:0:0:
256,192,69178,1,8,0:0:0:0:
256,192,69291,1,0,0:0:0:0:
256,192,69404,1,8,0:0:0:0:
256,192,69517,1,8,0:0:0:0:
256,192,69629,1,0,0:0:0:0:
256,192,69742,1,0,0:0:0:0:
256,192,69855,1,8,0:0:0:0:
256,192,70082,1,0,0:0:0:0:
256,192,70193,1,8,0:0:0:0:
256,192,70306,1,0,0:0:0:0:
256,192,70419,1,0,0:0:0:0:
256,192,70532,1,0,0:0:0:0:
256,192,70644,1,8,0:0:0:0:
256,192,70757,1,0,0:0:0:0:
256,192,70870,1,8,0:0:0:0:
256,192,70983,1,8,0:0:0:0:
256,192,71096,1,0,0:0:0:0:
256,192,71208,1,8,0:0:0:0:
256,192,71321,1,0,0:0:0:0:
256,192,71434,1,0,0:0:0:0:
256,192,71547,1,8,0:0:0:0:
256,192,71661,1,8,0:0:0:0:
256,192,71885,1,8,0:0:0:0:
256,192,71998,1,0,0:0:0:0:
256,192,72111,1,8,0:0:0:0:
256,192,72223,1,0,0:0:0:0:
256,192,72336,1,0,0:0:0:0:
256,192,72449,1,8,0:0:0:0:
256,192,72562,1,0,0:0:0:0:
256,192,72676,1,8,0:0:0:0:
256,192,72787,1,8,0:0:0:0:
256,192,72900,1,0,0:0:0:0:
256,192,73014,1,8,0:0:0:0:
256,192,73127,1,0,0:0:0:0:
256,192,73238,1,0,0:0:0:0:
256,192,73351,1,8,0:0:0:0:
256,192,73464,1,8,0:0:0:0:
256,192,73690,1,0,0:0:0:0:
256,192,73802,1,8,0:0:0:0:
256,192,73915,1,8,0:0:0:0:
256,192,74028,1,0,0:0:0:0:
256,192,74141,1,0,0:0:0:0:
256,192,74255,1,8,0:0:0:0:
256,192,74366,1,0,0:0:0:0:
256,192,74479,1,8,0:0:0:0:
256,192,74592,1,8,0:0:0:0:
256,192,74705,1,0,0:0:0:0:
256,192,74817,1,8,0:0:0:0:
256,192,74930,1,8,0:0:0:0:
256,192,75043,1,0,0:0:0:0:
256,192,75156,1,0,0:0:0:0:
256,192,75270,1,8,0:0:0:0:
256,192,75382,1,8,0:0:0:0:
256,192,75607,1,8,0:0:0:0:
256,192,75720,1,0,0:0:0:0:
256,192,75832,1,8,0:0:0:0:
256,192,75945,1,0,0:0:0:0:
256,192,76058,1,8,0:0:0:0:
256,192,76171,1,0,0:0:0:0:
256,192,76284,1,8,0:0:0:0:
256,192,76396,1,8,0:0:0:0:
256,192,76509,1,0,0:0:0:0:
256,192,76622,1,0,0:0:0:0:
256,192,76735,1,8,0:0:0:0:
256,192,76847,1,0,0:0:0:0:
256,192,76960,1,8,0:0:0:0:
256,192,77073,1,8,0:0:0:0:
256,192,77299,1,0,0:0:0:0:
256,192,77411,1,8,0:0:0:0:
256,192,77524,1,0,0:0:0:0:
256,192,77637,1,0,0:0:0:0:
256,192,77750,1,0,0:0:0:0:
256,192,77864,1,8,0:0:0:0:
256,192,77975,1,0,0:0:0:0:
256,192,78088,1,8,0:0:0:0:
256,192,78201,1,8,0:0:0:0:
256,192,78314,1,0,0:0:0:0:
256,192,78426,1,8,0:0:0:0:
256,192,78539,1,8,0:0:0:0:
256,192,78652,1,0,0:0:0:0:
256,192,78765,1,0,0:0:0:0:
256,192,78879,1,8,0:0:0:0:
256,192,78990,1,8,0:0:0:0:
256,192,79216,1,0,0:0:0:0:
256,192,79329,1,8,0:0:0:0:
256,192,79441,1,0,0:0:0:0:
256,192,79554,1,0,0:0:0:0:
256,192,79667,1,8,0:0:0:0:
256,192,79780,1,0,0:0:0:0:
256,192,79893,1,8,0:0:0:0:
256,192,80005,1,8,0:0:0:0:
256,192,80118,1,0,0:0:0:0:
256,192,80232,1,8,0:0:0:0:
256,192,80345,1,0,0:0:0:0:
256,192,80458,1,0,0:0:0:0:
256,192,80569,1,0,0:0:0:0:
256,192,80682,1,8,0:0:0:0:
256,192,80908,1,8,0:0:0:0:
256,192,81020,1,0,0:0:0:0:
256,192,81133,1,8,0:0:0:0:
256,192,81246,1,0,0:0:0:0:
