osu file format v14

[General]
AudioFilename: audio.mp3
AudioLeadIn: 0
PreviewTime: 56927
Countdown: 1
SampleSet: Soft
StackLeniency: 0.7
Mode: 0
LetterboxInBreaks: 0
WidescreenStoryboard: 1

[Editor]
Bookmarks: 6169,20596,75678
DistanceSpacing: 1.3
BeatDivisor: 4
GridSize: 32
TimelineZoom: 3.600004

[Metadata]
Title:Cadence
TitleUnicode:ケイデンス
Artist:Takaaki Natsuhiro
ArtistUnicode:夏代孝明
Creator:makisokk
Version:Ultra Cadence
Source:弱虫ペダル
Tags:Yowamushi Pedal New Generation Asuka_- tutuhara [Soul] Flashtop Anime TV Size opening Japanese
BeatmapID:1242187
BeatmapSetID:586218

[Difficulty]
HPDrainRate:7
CircleSize:4
OverallDifficulty:9
ApproachRate:9.6
SliderMultiplier:1.8
SliderTickRate:1

[Events]
//Background and Video events
Video,-1900,"あにめ.avi"
0,0,"Extra.png",0,0
//Break Periods
//Storyboard Layer 0 (Background)
//Storyboard Layer 1 (Fail)
//Storyboard Layer 2 (Pass)
//Storyboard Layer 3 (Foreground)
//Storyboard Sound Samples

[TimingPoints]
862,327.868852459016,4,2,0,30,1,0
32337,-90.9090909090909,4,2,0,30,0,0
37583,-83.3333333333333,4,2,0,50,0,0
42829,-125,4,2,0,50,0,0
52009,-100,4,2,0,50,0,0
54632,-90.9090909090909,4,2,0,60,0,0
57255,-100,4,2,0,70,0,1
78239,-100,4,2,0,50,0,0

[Colours]
Combo1 : 180,82,205
Combo2 : 60,179,113
Combo3 : 0,191,255
Combo4 : 238,44,44
Combo5 : 255,185,15

[HitObjects]
128,192,698,5,0,0:0:0:0:
128,192,780,1,0,0:0:0:0:
128,192,862,2,0,P|174:176|234:174,1,90,0|0,0:0|0:0,0:0:0:0:
373,200,1189,1,8,0:0:0:0:
130,304,1517,6,0,L|141:192,1,90,0|0,0:0|0:0,0:0:0:0:
153,88,1845,1,8,0:0:0:0:
454,122,2173,6,0,L|350:165,1,90,2|0,0:0|0:0,0:0:0:0:
253,206,2501,1,8,0:0:0:0:
47,248,2829,6,0,L|132:176,1,90,0|0,0:0|0:0,0:0:0:0:
214,109,3157,1,8,0:0:0:0:
452,296,3484,6,0,L|413:190,1,90,2|0,0:0|0:0,0:0:0:0:
377,91,3812,1,10,0:0:0:0:
79,45,4140,6,0,L|100:154,1,90,2|0,0:0|0:0,0:0:0:0:
120,258,4468,1,0,0:0:0:0:
439,56,4796,6,0,L|345:116,1,90,0|0,0:0|0:0,0:0:0:0:
256,174,5124,1,0,0:0:0:0:
29,181,5452,6,0,L|128:231,1,90,8|0,0:0|0:0,0:0:0:0:
222,279,5780,1,8,0:0:0:0:
453,154,6107,5,10,0:0:0:0:
322,31,6271,1,0,0:0:0:0:
315,234,6435,1,10,0:0:0:0:
375,103,6599,1,0,0:0:0:0:
185,142,6763,1,10,0:0:0:0:
358,315,6927,1,0,0:0:0:0:
281,133,7091,1,10,0:0:0:0:
171,313,7255,1,0,0:0:0:0:
424,216,7419,1,10,0:0:0:0:
212,74,7583,5,0,0:0:0:0:
176,65,7665,1,0,0:0:0:0:
140,69,7747,1,8,0:0:0:0:
109,87,7829,1,0,0:0:0:0:
92,118,7911,1,0,0:0:0:0:
92,154,7993,1,0,0:0:0:0:
107,186,8075,1,8,0:0:0:0:
137,205,8157,5,0,0:0:0:0:
161,231,8239,1,0,0:0:0:0:
172,265,8321,1,0,0:0:0:0:
159,298,8402,1,8,0:0:0:0:
126,313,8484,1,0,0:0:0:0:
90,305,8566,1,0,0:0:0:0:
67,277,8648,1,0,0:0:0:0:
69,241,8730,1,8,0:0:0:0:
148,101,9878,5,0,0:0:0:0:
148,101,9960,1,0,0:0:0:0:
148,101,10042,1,0,0:0:0:0:
119,227,10206,1,0,0:0:0:0:
362,163,10370,1,8,0:0:0:0:
228,18,10534,1,0,0:0:0:0:
235,179,10698,5,8,0:0:0:0:
237,201,10780,1,0,0:0:0:0:
239,223,10861,1,0,0:0:0:0:
241,245,10943,1,0,0:0:0:0:
244,267,11025,1,12,0:0:0:0:
434,56,11353,5,8,0:0:0:0:
312,200,11517,1,0,0:0:0:0:
344,92,11681,1,2,0:0:0:0:
371,273,11845,2,0,P|329:295|283:289,1,90,8|0,0:0|0:0,0:0:0:0:
155,217,12173,1,2,0:0:0:0:
270,123,12337,5,8,0:0:0:0:
102,54,12501,1,0,0:0:0:0:
74,200,12665,1,2,0:0:0:0:
193,51,12829,2,0,P|233:35|311:39,1,90,8|0,0:0|0:0,0:0:0:0:
422,79,13157,1,2,0:0:0:0:
313,210,13321,5,8,0:0:0:0:
338,99,13484,1,0,0:0:0:0:
386,279,13648,1,8,0:0:0:0:
214,205,13812,1,8,0:0:0:0:
424,107,13976,2,0,P|432:154|410:199,1,90,8|0,0:0|0:0,0:0:0:0:
270,291,14304,5,2,0:0:0:0:
108,205,14468,2,0,P|101:156|139:109,1,90,8|0,0:0|0:0,0:0:0:0:
321,64,14796,1,2,0:0:0:0:
244,219,14960,2,0,P|195:199|160:159,1,90,8|0,0:0|0:0,0:0:0:0:
156,33,15288,5,2,0:0:0:0:
247,145,15452,1,8,0:0:0:0:
106,261,15616,1,0,0:0:0:0:
177,117,15780,1,2,0:0:0:0:
344,219,15943,2,0,P|380:184|386:135,1,90,8|0,0:0|0:0,0:0:0:0:
285,28,16271,2,0,P|272:76|295:128,1,90,2|2,0:0|0:0,0:0:0:0:
410,248,16599,5,8,0:0:0:0:
450,72,16763,1,0,0:0:0:0:
295,196,16927,1,0,0:0:0:0:
473,203,17091,2,0,P|452:162|395:138,1,90,8|0,0:0|0:0,0:0:0:0:
235,133,17419,1,2,0:0:0:0:
320,292,17583,2,0,P|351:252|357:205,1,90,8|0,0:0|0:0,0:0:0:0:
342,66,17911,5,2,0:0:0:0:
248,215,18075,1,8,0:0:0:0:
375,158,18239,1,0,0:0:0:0:
205,61,18402,1,2,0:0:0:0:
159,212,18566,1,8,0:0:0:0:
293,95,18730,1,0,0:0:0:0:
77,133,18894,2,0,P|65:178|83:224,1,90,2|2,0:0|0:0,0:0:0:0:
293,295,19222,6,0,L|317:184,1,90,8|0,0:0|0:0,0:0:0:0:
347,54,19550,1,2,0:0:0:0:
479,218,19714,2,0,P|433:231|385:212,1,90,8|0,0:0|0:0,0:0:0:0:
206,141,20042,1,2,0:0:0:0:
347,54,20206,2,0,P|339:106|307:159,1,90,8|2,0:0|0:0,0:0:0:0:
231,266,20534,1,0,0:0:0:0:
54,201,20698,5,2,0:0:0:0:
62,165,20780,1,0,0:0:0:0:
87,140,20861,1,10,0:0:0:0:
120,125,20943,1,0,0:0:0:0:
155,126,21025,1,2,0:0:0:0:
185,144,21107,1,0,0:0:0:0:
209,170,21189,5,10,0:0:0:0:
243,181,21271,1,0,0:0:0:0:
278,174,21353,1,2,0:0:0:0:
304,149,21435,1,0,0:0:0:0:
322,118,21517,2,0,L|350:27,1,90,10|0,0:0|0:0,0:0:0:0:
135,121,21845,6,0,P|132:165|153:204,1,90,8|0,0:0|0:0,0:0:0:0:
294,318,22173,2,0,L|302:226,1,90,8|0,0:0|0:0,0:0:0:0:
360,96,22501,2,0,P|315:80|256:102,1,90,8|0,0:0|0:0,0:0:0:0:
70,222,22829,2,0,L|68:313,1,90,8|0,0:0|0:0,0:0:0:0:
212,167,23157,6,0,P|199:122|152:91,1,90,8|0,0:0|0:0,0:0:0:0:
396,47,23484,2,0,L|387:148,1,90,8|0,0:0|0:0,0:0:0:0:
332,323,23812,1,8,0:0:0:0:
459,248,23976,1,0,0:0:0:0:
241,245,24140,2,0,L|149:233,1,90,10|0,0:0|0:0,0:0:0:0:
168,113,24468,6,0,L|268:97,1,90,10|0,0:0|0:0,0:0:0:0:
386,264,24796,2,0,P|348:298|291:300,1,90,10|0,0:0|0:0,0:0:0:0:
339,104,25124,2,0,L|330:199,1,90,10|0,0:0|0:0,0:0:0:0:
454,75,25452,2,0,P|422:41|361:31,1,90,8|0,0:0|0:0,0:0:0:0:
192,160,25780,6,0,L|173:64,1,90,2|8,0:0|0:0,0:0:0:0:
284,186,26107,2,0,L|274:291,1,90,2|2,0:0|0:0,0:0:0:0:
142,293,26435,1,8,0:0:0:0:
160,81,26599,1,8,0:0:0:0:
116,190,26763,1,8,0:0:0:0:
290,56,26927,1,8,0:0:0:0:
277,234,27091,6,0,L|168:227,1,90,12|0,0:0|0:0,0:0:0:0:
290,56,27419,2,0,L|304:153,1,90,8|2,0:0|0:0,0:0:0:0:
76,101,27747,2,0,L|167:56,1,90,8|0,0:0|0:0,0:0:0:0:
102,276,28075,2,0,P|79:229|89:178,1,90,0|0,0:0|0:0,0:0:0:0:
276,337,28402,6,0,L|296:228,1,90,10|0,0:0|0:0,0:0:0:0:
177,104,28730,2,0,L|190:212,1,90,10|0,0:0|0:0,0:0:0:0:
279,99,29058,2,0,L|292:5,1,90,10|0,0:0|0:0,0:0:0:0:
99,50,29386,1,8,0:0:0:0:
165,230,29550,1,10,0:0:0:0:
279,99,29714,6,0,L|334:169,1,90,10|0,0:0|0:0,0:0:0:0:
139,316,30042,2,0,L|169:216,1,90,10|0,0:0|0:0,0:0:0:0:
425,269,30370,2,0,L|334:285,1,90,10|0,0:0|0:0,0:0:0:0:
231,50,30698,2,0,L|218:150,1,90,2|0,0:0|0:0,0:0:0:0:
71,286,31025,6,0,P|68:232|98:190,1,90,8|0,0:0|0:0,0:0:0:0:
196,102,31353,1,8,0:0:0:0:
210,276,31517,1,0,0:0:0:0:
174,268,31599,1,0,0:0:0:0:
148,242,31681,1,10,0:0:0:0:
120,70,31845,1,0,0:0:0:0:
287,92,32009,6,0,P|338:102|380:152,1,90,4|0,0:0|0:0,0:0:0:0:
310,327,32337,2,0,L|288:216,1,99.0000030212403,8|0,0:0|0:0,0:0:0:0:
128,116,32665,2,0,L|102:225,1,99.0000030212403,8|0,0:0|0:0,0:0:0:0:
147,337,32993,1,8,0:0:0:0:
249,175,33157,1,0,0:0:0:0:
313,271,33321,2,0,L|375:186,1,99.0000030212403,8|0,0:0|0:0,0:0:0:0:
336,11,33648,6,0,P|331:62|355:107,1,99.0000030212403,8|0,0:0|0:0,0:0:0:0:
473,291,33976,2,0,L|456:180,1,99.0000030212403,8|0,0:0|0:0,0:0:0:0:
289,164,34304,1,8,0:0:0:0:
339,310,34468,1,0,0:0:0:0:
377,71,34632,2,0,P|319:59|269:75,1,99.0000030212403,8|0,0:0|0:0,0:0:0:0:
151,245,34960,6,0,L|164:141,1,99.0000030212403,8|0,0:0|0:0,0:0:0:0:
58,230,35288,2,0,L|66:348,1,99.0000030212403,8|0,0:0|0:0,0:0:0:0:
244,300,35616,1,8,0:0:0:0:
140,195,35780,1,0,0:0:0:0:
260,122,35943,2,0,P|290:166|277:233,1,99.0000030212403,8|0,0:0|0:0,0:0:0:0:
180,326,36271,5,8,0:0:0:0:
206,192,36435,1,0,0:0:0:0:
87,272,36599,1,14,0:0:0:0:
169,59,36763,1,0,0:0:0:0:
46,166,36927,1,8,0:0:0:0:
80,194,37009,1,0,0:0:0:0:
121,209,37091,1,8,0:0:0:0:
165,209,37173,1,0,0:0:0:0:
205,189,37255,2,0,P|261:171|311:179,1,99.0000030212403,8|2,0:0|0:0,0:0:0:0:
464,30,37583,6,0,L|447:162,1,107.999996704102,8|0,0:0|0:0,0:0:0:0:
349,293,37911,1,2,0:0:0:0:
365,106,38075,1,8,0:0:0:0:
451,252,38239,1,0,0:0:0:0:
255,166,38402,1,2,0:0:0:0:
359,40,38566,1,8,0:0:0:0:
285,252,38730,1,0,0:0:0:0:
167,64,38894,6,0,P|117:104|121:146,1,107.999996704102,2|8,0:0|0:0,0:0:0:0:
215,295,39222,1,0,0:0:0:0:
221,113,39386,1,2,0:0:0:0:
141,227,39550,1,8,0:0:0:0:
360,155,39714,1,0,0:0:0:0:
235,217,39878,1,2,0:0:0:0:
289,22,40042,1,8,0:0:0:0:
466,172,40206,6,0,P|455:231|406:276,1,107.999996704102,12|0,0:0|0:0,0:0:0:0:
242,272,40534,1,0,0:0:0:0:
325,112,40698,1,2,0:0:0:0:
315,231,40861,1,8,0:0:0:0:
166,90,41025,1,0,0:0:0:0:
363,51,41189,1,8,0:0:0:0:
190,199,41353,1,2,0:0:0:0:
213,28,41517,5,8,0:0:0:0:
73,244,41681,1,0,0:0:0:0:
292,146,41845,2,0,P|349:146|402:193,1,107.999996704102,8|0,0:0|0:0,0:0:0:0:
220,238,42173,5,8,0:0:0:0:
180,275,42255,1,0,0:0:0:0:
185,328,42337,1,2,0:0:0:0:
229,359,42419,1,0,0:0:0:0:
282,356,42501,1,8,0:0:0:0:
316,314,42583,1,0,0:0:0:0:
317,260,42665,1,0,0:0:0:0:
289,213,42747,1,0,0:0:0:0:
258,177,42829,6,0,P|245:142|256:108,1,72,12|0,0:0|0:0,0:0:0:0:
469,155,43157,2,0,L|372:175,1,72,2|0,0:0|0:0,0:0:0:0:
195,210,43484,1,8,0:0:0:0:
302,82,43648,1,0,0:0:0:0:
266,301,43812,2,0,P|219:301|175:283,1,72,2|0,0:0|0:0,0:0:0:0:
85,164,44140,5,8,0:0:0:0:
240,227,44304,1,0,0:0:0:0:
174,43,44468,2,0,P|166:85|190:134,1,72,2|0,0:0|0:0,0:0:0:0:
313,204,44796,5,8,0:0:0:0:
297,37,44960,1,0,0:0:0:0:
203,204,45124,2,0,P|160:197|126:165,1,72,2|0,0:0|0:0,0:0:0:0:
183,13,45452,5,8,0:0:0:0:
248,127,45616,1,0,0:0:0:0:
387,58,45780,2,0,P|402:101|386:147,1,72,2|0,0:0|0:0,0:0:0:0:
309,283,46107,5,8,0:0:0:0:
269,154,46271,1,0,0:0:0:0:
144,252,46435,2,0,P|168:277|204:280,1,72,2|0,0:0|0:0,0:0:0:0:
386,214,46763,5,8,0:0:0:0:
342,68,46927,1,0,0:0:0:0:
171,66,47091,2,0,L|211:139,1,72,2|0,0:0|0:0,0:0:0:0:
209,259,47419,5,8,0:0:0:0:
119,144,47583,1,0,0:0:0:0:
274,105,47747,2,0,L|356:88,1,72,2|0,0:0|0:0,0:0:0:0:
449,189,48075,5,12,0:0:0:0:
334,291,48239,1,0,0:0:0:0:
196,216,48402,2,0,P|184:178|200:122,1,72,2|0,0:0|0:0,0:0:0:0:
321,95,48730,5,8,0:0:0:0:
295,225,48894,1,0,0:0:0:0:
432,166,49058,2,0,L|465:95,1,72,2|0,0:0|0:0,0:0:0:0:
344,24,49386,5,8,0:0:0:0:
279,168,49550,1,0,0:0:0:0:
325,313,49714,2,0,P|353:280|358:237,1,72,2|0,0:0|0:0,0:0:0:0:
354,110,50042,5,8,0:0:0:0:
194,86,50206,1,0,0:0:0:0:
89,177,50370,2,0,P|82:223|100:251,1,72,2|0,0:0|0:0,0:0:0:0:
226,286,50698,5,8,0:0:0:0:
221,144,50861,1,0,0:0:0:0:
341,241,51025,2,0,P|389:241|418:223,1,72,2|0,0:0|0:0,0:0:0:0:
491,119,51353,5,8,0:0:0:0:
363,74,51517,1,0,0:0:0:0:
271,159,51681,2,0,P|233:172|191:165,1,72,0|0,0:0|0:0,0:0:0:0:
68,136,52009,5,12,0:0:0:0:
93,277,52173,1,0,0:0:0:0:
213,96,52337,1,2,0:0:0:0:
278,304,52501,5,8,2:0:0:0:
180,228,52665,1,0,2:0:0:0:
423,269,52829,1,2,2:0:0:0:
344,124,52993,5,8,0:0:0:0:
323,252,53157,1,0,0:0:0:0:
450,93,53321,1,2,0:0:0:0:
208,64,53484,5,8,0:0:0:0:
204,215,53648,1,0,0:0:0:0:
326,28,53812,1,2,0:0:0:0:
72,110,53976,1,8,0:0:0:0:
308,145,54140,5,0,0:0:0:0:
308,145,54222,1,0,0:0:0:0:
308,145,54304,1,2,0:0:0:0:
84,317,54632,6,0,L|94:206,1,99.0000030212403,0|0,0:0|0:0,0:0:0:0:
208,71,54960,5,0,0:0:0:0:
196,213,55124,1,0,0:0:0:0:
339,49,55288,5,0,0:0:0:0:
272,240,55452,1,0,0:0:0:0:
455,51,55616,5,0,0:0:0:0:
344,290,55780,1,0,0:0:0:0:
488,183,55943,5,8,0:0:0:0:
179,214,56107,1,8,0:0:0:0:
406,42,56599,5,8,0:0:0:0:
78,289,56763,1,8,0:0:0:0:
443,278,57255,6,0,P|433:226|393:179,1,90,14|0,0:0|0:0,0:0:0:0:
158,267,57583,2,0,P|209:265|265:239,1,90,8|0,0:0|0:0,0:0:0:0:
367,115,57911,1,8,0:0:0:0:
193,52,58075,1,0,0:0:0:0:
53,166,58239,2,0,L|67:257,1,90,8|0,0:0|0:0,0:0:0:0:
287,312,58566,6,0,P|295:262|276:218,1,90,8|0,0:0|0:0,0:0:0:0:
148,127,58894,1,8,0:0:0:0:
210,272,59058,1,0,0:0:0:0:
262,92,59222,2,0,P|313:89|351:107,1,90,8|2,0:0|0:0,0:0:0:0:
451,224,59550,1,10,0:0:0:0:
296,184,59714,1,2,0:0:0:0:
452,32,59878,2,0,L|440:128,1,90,8|0,0:0|0:0,0:0:0:0:
297,313,60206,6,0,L|286:208,1,90,8|0,0:0|0:0,0:0:0:0:
246,71,60534,1,8,0:0:0:0:
124,217,60698,1,0,0:0:0:0:
318,86,60861,2,0,P|299:126|247:144,1,90,8|0,0:0|0:0,0:0:0:0:
90,35,61189,1,8,0:0:0:0:
38,195,61353,1,0,0:0:0:0:
171,285,61517,2,0,P|218:263|269:264,1,90,10|2,0:0|0:0,0:0:0:0:
392,294,61845,5,10,0:0:0:0:
334,123,62009,1,0,0:0:0:0:
497,116,62173,2,0,P|472:165|417:180,1,90,8|0,0:0|0:0,0:0:0:0:
174,99,62501,2,0,L|280:76,1,90,14|0,0:0|0:0,0:0:0:0:
201,246,62829,2,0,L|100:278,1,90,8|0,0:0|0:0,0:0:0:0:
143,40,63157,6,0,L|152:160,1,90,8|0,0:0|0:0,0:0:0:0:
413,295,63484,2,0,L|402:174,1,90,8|0,0:0|0:0,0:0:0:0:
271,68,63812,1,8,0:0:0:0:
285,214,63976,1,0,0:0:0:0:
397,67,64140,1,8,0:0:0:0:
151,162,64304,1,0,0:0:0:0:
322,301,64468,1,8,0:0:0:0:
211,88,64632,1,0,0:0:0:0:
91,288,64796,2,0,P|135:306|186:298,1,90,8|0,0:0|0:0,0:0:0:0:
440,254,65124,6,0,L|427:156,1,90,8|0,0:0|0:0,0:0:0:0:
183,70,65452,2,0,L|195:178,1,90,8|0,0:0|0:0,0:0:0:0:
302,232,65780,1,8,0:0:0:0:
356,71,65943,1,0,0:0:0:0:
105,174,66107,2,0,P|102:224|149:277,1,90,8|0,0:0|0:0,0:0:0:0:
297,319,66435,5,8,0:0:0:0:
244,124,66599,1,0,0:0:0:0:
217,240,66763,1,10,0:0:0:0:
377,150,66927,1,2,0:0:0:0:
377,150,67009,1,0,0:0:0:0:
377,150,67091,1,10,0:0:0:0:
240,38,67255,1,0,0:0:0:0:
330,249,67419,2,0,L|418:232,1,90,10|0,0:0|0:0,0:0:0:0:
210,126,67747,6,0,L|119:148,1,90,14|0,0:0|0:0,0:0:0:0:
155,328,68075,2,0,P|186:291|184:220,1,90,8|0,0:0|0:0,0:0:0:0:
82,116,68402,1,8,0:0:0:0:
120,255,68566,1,0,0:0:0:0:
182,74,68730,2,0,P|229:43|292:42,1,90,8|0,0:0|0:0,0:0:0:0:
429,121,69058,1,8,0:0:0:0:
240,124,69222,1,0,0:0:0:0:
358,31,69386,6,0,L|346:144,1,90,8|2,0:0|0:0,0:0:0:0:
329,304,69714,1,10,0:0:0:0:
412,203,69878,1,2,0:0:0:0:
217,214,70042,2,0,P|186:240|190:302,1,90,10|0,0:0|0:0,0:0:0:0:
336,168,70370,1,8,0:0:0:0:
201,86,70534,1,0,0:0:0:0:
53,204,70698,2,0,L|143:172,1,90,10|0,0:0|0:0,0:0:0:0:
272,127,71025,5,8,0:0:0:0:
437,121,71189,1,2,0:0:0:0:
365,283,71353,2,0,P|326:236|333:196,1,90,8|2,0:0|0:0,0:0:0:0:
355,55,71681,1,8,0:0:0:0:
219,167,71845,1,0,0:0:0:0:
111,63,72009,2,0,P|80:106|108:159,1,90,8|0,0:0|0:0,0:0:0:0:
202,248,72337,1,8,0:0:0:0:
165,124,72501,1,0,0:0:0:0:
50,276,72665,2,0,P|88:296|144:306,1,90,8|0,0:0|0:0,0:0:0:0:
298,294,72993,5,14,0:0:0:0:
362,156,73157,1,0,0:0:0:0:
247,220,73321,1,8,0:0:0:0:
417,263,73484,1,2,0:0:0:0:
388,40,73648,1,8,0:0:0:0:
261,151,73812,1,0,0:0:0:0:
465,168,73976,1,8,0:0:0:0:
322,45,74140,1,0,0:0:0:0:
329,210,74304,5,14,0:0:0:0:
116,108,74468,1,0,0:0:0:0:
194,297,74632,1,8,0:0:0:0:
269,112,74796,1,2,0:0:0:0:
56,161,74960,1,8,0:0:0:0:
348,163,75124,1,0,0:0:0:0:
159,7,75288,1,10,0:0:0:0:
148,255,75452,1,2,0:0:0:0:
350,79,75616,5,14,0:0:0:0:
253,334,75780,1,0,0:0:0:0:
87,123,75943,1,8,0:0:0:0:
423,200,76107,1,2,0:0:0:0:
242,250,76271,1,8,0:0:0:0:
349,25,76435,1,0,0:0:0:0:
360,291,76599,1,8,0:0:0:0:
94,220,76763,1,0,0:0:0:0:
252,89,76927,5,10,0:0:0:0:
243,325,77091,1,2,0:0:0:0:
103,129,77255,1,10,0:0:0:0:
389,61,77419,1,2,0:0:0:0:
318,268,77583,1,8,0:0:0:0:
150,67,77747,1,2,0:0:0:0:
182,104,77829,1,0,0:0:0:0:
226,125,77911,1,8,0:0:0:0:
273,138,77993,1,0,0:0:0:0:
322,139,78075,1,2,0:0:0:0:
469,65,78239,6,0,L|464:184,1,90
452,308,78566,1,0,0:0:0:0:
285,246,78730,6,0,L|274:122,1,90,0|0,0:0|0:0,0:0:0:0:
266,26,79058,1,0,0:0:0:0:
88,109,79222,6,0,L|96:221,1,90,0|0,0:0|0:0,0:0:0:0:
106,328,79550,1,2,0:0:0:0:
258,224,79714,5,8,0:0:0:0:
189,59,79878,1,10,0:0:0:0:
358,120,80042,1,10,0:0:0:0:
171,236,80206,1,8,0:0:0:0:
249,32,80370,1,0,0:0:0:0:
374,277,80534,2,0,P|325:303|262:300,1,90,2|2,0:0|0:0,0:0:0:0:
38,153,80861,6,0,L|136:104,1,90,12|0,0:0|0:0,0:0:0:0:
244,46,81189,1,2,0:0:0:0:
442,97,81353,6,0,L|359:153,1,90,12|0,0:0|0:0,0:0:0:0:
239,236,81681,1,2,0:0:0:0:
451,330,81845,6,0,L|472:231,1,90,12|0,0:0|0:0,0:0:0:0:
416,74,82173,1,0,0:0:0:0:
335,272,82337,1,0,0:0:0:0:
438,168,82501,1,0,0:0:0:0:
229,102,82665,1,0,0:0:0:0:
400,322,82829,2,0,L|406:221,1,90,0|0,0:0|0:0,0:0:0:0:
180,42,83157,6,0,L|162:144,1,90,0|0,0:0|0:0,0:0:0:0:
267,333,83484,2,0,L|287:223,1,90,12|0,0:0|0:0,0:0:0:0:
308,94,83812,1,8,0:0:0:0:
105,134,83976,6,0,L|96:233,1,90,6|0,0:0|0:0,0:0:0:0:
89,335,84304,1,8,0:0:0:0:
361,248,84468,6,0,L|371:145,1,90,6|0,0:0|0:0,0:0:0:0:
383,42,84796,1,8,0:0:0:0:
233,175,84960,1,6,0:0:0:0:
483,114,85124,1,0,0:0:0:0:
147,67,85288,1,8,0:0:0:0:
300,294,85452,2,0,P|326:243|329:196,1,90,6|0,0:0|0:0,0:0:0:0:
261,28,85780,2,0,P|235:78|243:121,1,90,8|0,0:0|0:0,0:0:0:0:
483,169,86107,6,0,L|384:184,1,90,2|12,0:0|0:0,0:0:0:0:
231,216,86435,1,0,0:0:0:0:
51,94,86599,6,0,L|156:89,1,90,2|12,0:0|0:0,0:0:0:0:
278,88,86927,1,0,0:0:0:0:
251,311,87091,6,0,L|152:317,1,90,10|0,0:0|0:0,0:0:0:0:
52,324,87419,1,10,0:0:0:0:
152,147,87583,1,0,0:0:0:0:
353,218,87747,1,10,0:0:0:0:
173,251,87911,1,0,0:0:0:0:
237,32,88075,5,8,0:0:0:0:
248,66,88157,1,0,0:0:0:0:
259,100,88239,1,0,0:0:0:0:
270,134,88321,1,0,0:0:0:0:
281,167,88402,1,8,0:0:0:0:
340,308,88566,1,0,0:0:0:0:
450,68,88730,5,14,0:0:0:0:
215,309,88894,1,8,0:0:0:0:
117,46,89058,1,2,0:0:0:0:
453,157,89222,1,8,0:0:0:0:
