osu file format v14

[General]
AudioFilename: audio.mp3
AudioLeadIn: 0
PreviewTime: -1
Countdown: 1
SampleSet: None
StackLeniency: 0.7
Mode: 1
LetterboxInBreaks: 0
WidescreenStoryboard: 0

[Editor]
DistanceSpacing: 0.8
BeatDivisor: 4
GridSize: 4
TimelineZoom: 1

[Metadata]
Title:Charlie Dash!
TitleUnicode:チャーリー ダッシュ!
Artist:Tajima Katsurou
ArtistUnicode:田島 勝朗
Creator:jyake_ou
Version:Authentic Oni
Source:太鼓の達人
Tags:authentic tnt
BeatmapID:1602861
BeatmapSetID:762345

[Difficulty]
HPDrainRate:5
CircleSize:5
OverallDifficulty:7.2
ApproachRate:5
SliderMultiplier:1.4
SliderTickRate:1

[Events]
//Background and Video events
//Break Periods
//Storyboard Layer 0 (Background)
//Storyboard Layer 1 (Fail)
//Storyboard Layer 2 (Pass)
//Storyboard Layer 3 (Foreground)
//Storyboard Sound Samples

[TimingPoints]
1000,375,4,1,0,100,1,0
1750,400,4,1,0,100,1,0
2550,413.793103,4,1,0,100,1,0
2550,-90.909091,4,1,0,100,0,0
2963,480,4,1,0,100,1,0
2963,-78.125,4,1,0,100,0,0
3443,545.454545,4,1,0,100,1,0
3443,-136.986301,4,1,0,100,0,0
3988,750,4,1,0,100,1,0
3988,-100,4,1,0,100,0,0
4738,1200,3,1,0,100,1,0
8338,625,4,1,0,100,1,0
13338,625,3,1,0,100,1,0
15213,625,4,1,0,100,1,0
60213,250,3,1,0,100,1,1
60963,250,4,1,0,100,1,1
76963,625,4,1,0,100,1,0
77588,625,4,1,0,100,1,0
87588,193.548387,4,1,0,100,1,1
89910,468.75,4,1,0,100,1,0
99285,187.5,4,1,0,100,1,1
101535,-100,4,1,0,100,0,0
102285,705.882353,4,1,0,100,1,0
102990,631.578947,4,1,0,100,1,0
103621,521.73913,4,1,0,100,1,0
104142,500,4,1,0,100,1,0
104642,413.793103,4,1,0,100,1,0
105055,363.636364,4,1,0,100,1,0
105418,300,4,1,0,100,1,0
105718,292.682927,4,1,0,100,1,0
106010,244.897959,4,1,0,100,1,1
125601,214.285714,4,1,0,100,1,1
128172,-100,4,1,0,100,0,0

[HitObjects]
416,176,1000,5,4,0:0:0:0:
416,176,1750,1,4,0:0:0:0:
416,176,2550,1,0,0:0:0:0:
416,176,2653,1,0,0:0:0:0:
416,176,2756,1,0,0:0:0:0:
416,176,2825,1,0,0:0:0:0:
416,176,2894,1,0,0:0:0:0:
416,176,2963,1,0,0:0:0:0:
416,176,3083,1,0,0:0:0:0:
416,176,3203,1,8,0:0:0:0:
416,176,3323,1,0,0:0:0:0:
416,176,3443,1,8,0:0:0:0:
416,176,3533,1,8,0:0:0:0:
416,176,3624,1,0,0:0:0:0:
416,176,3715,1,0,0:0:0:0:
416,176,3806,1,0,0:0:0:0:
416,176,3852,1,0,0:0:0:0:
416,176,3897,1,0,0:0:0:0:
416,176,3988,1,0,0:0:0:0:
416,176,4113,1,0,0:0:0:0:
416,176,4238,1,0,0:0:0:0:
416,176,4363,1,0,0:0:0:0:
416,176,4425,1,0,0:0:0:0:
416,176,4488,1,0,0:0:0:0:
416,176,4550,1,0,0:0:0:0:
416,176,4613,1,0,0:0:0:0:
416,176,4675,1,0,0:0:0:0:
256,192,4738,12,0,6538,0:0:0:0:
416,176,8338,5,0,0:0:0:0:
416,176,8650,1,0,0:0:0:0:
416,176,8806,1,0,0:0:0:0:
416,176,8963,1,0,0:0:0:0:
416,176,9275,1,0,0:0:0:0:
416,176,9431,1,0,0:0:0:0:
416,176,9588,1,0,0:0:0:0:
416,176,10108,1,8,0:0:0:0:
416,176,10160,1,8,0:0:0:0:
416,176,10213,1,8,0:0:0:0:
416,176,10838,1,4,0:0:0:0:
416,176,11463,1,8,0:0:0:0:
416,176,11567,1,8,0:0:0:0:
416,176,11671,1,0,0:0:0:0:
416,176,11775,1,0,0:0:0:0:
416,176,11879,1,0,0:0:0:0:
416,176,11983,1,8,0:0:0:0:
416,176,12088,1,0,0:0:0:0:
416,176,12192,1,0,0:0:0:0:
416,176,12296,1,0,0:0:0:0:
416,176,12400,1,0,0:0:0:0:
416,176,12504,1,0,0:0:0:0:
416,176,12608,1,0,0:0:0:0:
416,176,12713,2,0,L|544:176,1,128.333333
416,176,13650,1,0,0:0:0:0:
416,176,13963,1,0,0:0:0:0:
416,176,14379,1,0,0:0:0:0:
416,176,14588,1,8,0:0:0:0:
416,176,14692,1,8,0:0:0:0:
416,176,14796,1,0,0:0:0:0:
416,176,14900,1,0,0:0:0:0:
416,176,15056,1,8,0:0:0:0:
416,176,15213,1,0,0:0:0:0:
416,176,15525,1,8,0:0:0:0:
416,176,15681,1,0,0:0:0:0:
416,176,15838,1,0,0:0:0:0:
416,176,15994,1,8,0:0:0:0:
416,176,16150,1,8,0:0:0:0:
416,176,16463,1,0,0:0:0:0:
416,176,16775,1,8,0:0:0:0:
416,176,16931,1,0,0:0:0:0:
416,176,17088,1,0,0:0:0:0:
416,176,17244,1,8,0:0:0:0:
416,176,17400,1,8,0:0:0:0:
416,176,17713,1,0,0:0:0:0:
416,176,18025,1,8,0:0:0:0:
416,176,18181,1,0,0:0:0:0:
416,176,18338,1,0,0:0:0:0:
416,176,18494,1,8,0:0:0:0:
416,176,18806,1,8,0:0:0:0:
416,176,18963,1,0,0:0:0:0:
416,176,19275,1,0,0:0:0:0:
416,176,19431,1,0,0:0:0:0:
416,176,19588,1,0,0:0:0:0:
416,176,19744,1,0,0:0:0:0:
416,176,19900,1,0,0:0:0:0:
416,176,20213,1,0,0:0:0:0:
416,176,20525,1,8,0:0:0:0:
416,176,20681,1,0,0:0:0:0:
416,176,20838,1,0,0:0:0:0:
416,176,21150,1,8,0:0:0:0:
416,176,21463,1,0,0:0:0:0:
416,176,21775,1,8,0:0:0:0:
416,176,21931,1,0,0:0:0:0:
416,176,22088,1,0,0:0:0:0:
416,176,22244,1,0,0:0:0:0:
416,176,22400,1,8,0:0:0:0:
416,176,22713,1,8,0:0:0:0:
416,176,22869,1,8,0:0:0:0:
416,176,23025,1,0,0:0:0:0:
416,176,23338,1,8,0:0:0:0:
416,176,23650,1,0,0:0:0:0:
416,176,23806,1,0,0:0:0:0:
416,176,23963,1,0,0:0:0:0:
416,176,24275,1,8,0:0:0:0:
416,176,24588,1,8,0:0:0:0:
416,176,24744,1,0,0:0:0:0:
416,176,24900,1,0,0:0:0:0:
416,176,25213,1,0,0:0:0:0:
416,176,25369,1,0,0:0:0:0:
416,176,25525,1,0,0:0:0:0:
416,176,25681,1,0,0:0:0:0:
416,176,25838,1,8,0:0:0:0:
416,176,26150,1,8,0:0:0:0:
416,176,26306,1,0,0:0:0:0:
416,176,26463,1,0,0:0:0:0:
416,176,26775,1,0,0:0:0:0:
416,176,27088,1,8,0:0:0:0:
416,176,27244,1,0,0:0:0:0:
416,176,27400,1,0,0:0:0:0:
416,176,27713,1,8,0:0:0:0:
416,176,28025,1,0,0:0:0:0:
416,176,28338,1,8,0:0:0:0:
416,176,28494,1,0,0:0:0:0:
416,176,28650,1,0,0:0:0:0:
416,176,28806,1,8,0:0:0:0:
416,176,28963,1,8,0:0:0:0:
416,176,29275,1,0,0:0:0:0:
416,176,29588,1,8,0:0:0:0:
416,176,30213,1,0,0:0:0:0:
416,176,30525,1,0,0:0:0:0:
416,176,30681,1,0,0:0:0:0:
416,176,30838,1,0,0:0:0:0:
416,176,31150,1,8,0:0:0:0:
416,176,31463,1,0,0:0:0:0:
416,176,31775,1,8,0:0:0:0:
416,176,32088,1,8,0:0:0:0:
416,176,32244,1,0,0:0:0:0:
416,176,32400,1,0,0:0:0:0:
416,176,32713,1,0,0:0:0:0:
416,176,33025,1,0,0:0:0:0:
416,176,33181,1,0,0:0:0:0:
416,176,33338,1,0,0:0:0:0:
416,176,33650,1,8,0:0:0:0:
416,176,33963,1,0,0:0:0:0:
416,176,34275,1,8,0:0:0:0:
416,176,34431,1,0,0:0:0:0:
416,176,34588,1,0,0:0:0:0:
416,176,34900,1,8,0:0:0:0:
416,176,35213,1,8,0:0:0:0:
416,176,35369,1,8,0:0:0:0:
416,176,35525,1,0,0:0:0:0:
416,176,35838,1,8,0:0:0:0:
416,176,36150,1,0,0:0:0:0:
416,176,36306,1,0,0:0:0:0:
416,176,36463,1,8,0:0:0:0:
416,176,36775,1,0,0:0:0:0:
416,176,36931,1,0,0:0:0:0:
416,176,37088,1,0,0:0:0:0:
416,176,37400,1,8,0:0:0:0:
416,176,37713,1,8,0:0:0:0:
416,176,38025,1,0,0:0:0:0:
416,176,38233,1,8,0:0:0:0:
416,176,38338,1,0,0:0:0:0:
416,176,38650,1,0,0:0:0:0:
256,192,38963,12,0,39900,0:0:0:0:
416,176,40213,5,0,0:0:0:0:
416,176,40525,1,8,0:0:0:0:
416,176,40838,1,0,0:0:0:0:
416,176,40994,1,8,0:0:0:0:
416,176,41150,1,8,0:0:0:0:
416,176,41254,1,8,0:0:0:0:
416,176,41358,1,8,0:0:0:0:
416,176,41463,1,8,0:0:0:0:
416,176,41671,1,8,0:0:0:0:
416,176,41775,1,0,0:0:0:0:
416,176,41983,1,0,0:0:0:0:
416,176,42088,1,0,0:0:0:0:
416,176,42400,1,8,0:0:0:0:
416,176,42713,1,0,0:0:0:0:
416,176,43025,1,0,0:0:0:0:
416,176,43338,1,0,0:0:0:0:
416,176,43546,1,8,0:0:0:0:
416,176,43650,1,0,0:0:0:0:
416,176,43806,1,8,0:0:0:0:
416,176,43963,1,0,0:0:0:0:
416,176,44275,1,0,0:0:0:0:
416,176,44431,1,8,0:0:0:0:
416,176,44588,1,8,0:0:0:0:
416,176,44744,1,0,0:0:0:0:
416,176,44900,1,8,0:0:0:0:
416,176,45213,1,0,0:0:0:0:
416,176,45525,1,8,0:0:0:0:
416,176,45681,1,8,0:0:0:0:
416,176,45838,1,8,0:0:0:0:
416,176,45994,1,0,0:0:0:0:
416,176,46150,1,8,0:0:0:0:
416,176,46306,1,0,0:0:0:0:
416,176,46463,1,8,0:0:0:0:
416,176,46775,1,0,0:0:0:0:
416,176,46983,1,8,0:0:0:0:
416,176,47088,1,0,0:0:0:0:
416,176,47400,1,0,0:0:0:0:
416,176,47713,1,0,0:0:0:0:
416,176,48025,1,0,0:0:0:0:
416,176,48233,1,8,0:0:0:0:
416,176,48338,1,0,0:0:0:0:
416,176,48494,1,0,0:0:0:0:
416,176,48650,1,0,0:0:0:0:
416,176,48806,1,8,0:0:0:0:
416,176,48963,1,8,0:0:0:0:
416,176,49275,1,0,0:0:0:0:
416,176,49431,1,0,0:0:0:0:
416,176,49588,1,0,0:0:0:0:
416,176,49796,1,0,0:0:0:0:
416,176,49900,1,0,0:0:0:0:
416,176,50004,1,0,0:0:0:0:
416,176,50108,1,0,0:0:0:0:
416,176,50213,2,0,L|544:176,1,128.333333
416,176,51463,1,8,0:0:0:0:
416,176,51619,1,8,0:0:0:0:
416,176,51775,1,8,0:0:0:0:
416,176,51827,1,8,0:0:0:0:
416,176,51879,1,8,0:0:0:0:
416,176,51931,1,8,0:0:0:0:
416,176,51983,1,8,0:0:0:0:
416,176,52088,1,8,0:0:0:0:
416,176,52244,1,8,0:0:0:0:
416,176,52556,1,8,0:0:0:0:
416,176,52713,2,0,L|544:176,1,128.333333
416,176,53806,1,8,0:0:0:0:
416,176,53963,1,0,0:0:0:0:
416,176,54275,1,0,0:0:0:0:
416,176,54431,1,0,0:0:0:0:
416,176,54588,1,8,0:0:0:0:
416,176,54744,1,0,0:0:0:0:
416,176,54900,1,8,0:0:0:0:
416,176,55213,1,8,0:0:0:0:
416,176,55317,1,0,0:0:0:0:
416,176,55421,1,0,0:0:0:0:
416,176,55525,1,8,0:0:0:0:
416,176,55629,1,0,0:0:0:0:
416,176,55733,1,0,0:0:0:0:
416,176,55838,1,8,0:0:0:0:
416,176,55942,1,0,0:0:0:0:
416,176,56046,1,0,0:0:0:0:
416,176,56150,1,8,0:0:0:0:
416,176,56254,1,0,0:0:0:0:
416,176,56358,1,0,0:0:0:0:
416,176,56463,1,8,0:0:0:0:
416,176,56775,2,0,L|544:176,1,128.333333
416,176,57713,1,0,0:0:0:0:
416,176,57869,1,8,0:0:0:0:
416,176,58025,1,0,0:0:0:0:
416,176,58181,1,8,0:0:0:0:
416,176,58338,1,0,0:0:0:0:
416,176,58494,1,8,0:0:0:0:
416,176,58650,1,0,0:0:0:0:
416,176,58806,1,8,0:0:0:0:
416,176,58963,1,0,0:0:0:0:
416,176,59119,1,8,0:0:0:0:
416,176,59275,1,8,0:0:0:0:
416,176,59431,1,0,0:0:0:0:
416,176,59588,1,0,0:0:0:0:
416,176,60213,2,0,L|684:176,1,268.333333
416,176,60963,1,0,0:0:0:0:
416,176,61088,1,8,0:0:0:0:
416,176,61150,1,8,0:0:0:0:
416,176,61213,1,0,0:0:0:0:
416,176,61338,1,8,0:0:0:0:
416,176,61400,1,8,0:0:0:0:
416,176,61463,1,0,0:0:0:0:
416,176,61588,1,8,0:0:0:0:
416,176,61650,1,8,0:0:0:0:
416,176,61713,1,0,0:0:0:0:
416,176,61838,1,8,0:0:0:0:
416,176,61900,1,8,0:0:0:0:
416,176,61963,1,8,0:0:0:0:
416,176,62088,1,0,0:0:0:0:
416,176,62150,1,0,0:0:0:0:
416,176,62213,1,0,0:0:0:0:
416,176,62338,1,8,0:0:0:0:
256,192,62463,12,0,62838,0:0:0:0:
416,176,62963,5,0,0:0:0:0:
416,176,63025,1,0,0:0:0:0:
416,176,63088,1,8,0:0:0:0:
416,176,63150,1,0,0:0:0:0:
416,176,63213,1,0,0:0:0:0:
416,176,63275,1,0,0:0:0:0:
416,176,63338,1,8,0:0:0:0:
416,176,63400,1,0,0:0:0:0:
416,176,63463,1,0,0:0:0:0:
416,176,63525,1,0,0:0:0:0:
416,176,63588,1,8,0:0:0:0:
416,176,63650,1,0,0:0:0:0:
416,176,63713,1,0,0:0:0:0:
416,176,63775,1,0,0:0:0:0:
416,176,63838,1,8,0:0:0:0:
416,176,63900,1,0,0:0:0:0:
416,176,63963,1,8,0:0:0:0:
416,176,64088,1,0,0:0:0:0:
416,176,64150,1,0,0:0:0:0:
416,176,64213,1,0,0:0:0:0:
416,176,64338,1,8,0:0:0:0:
256,192,64463,12,0,64838,0:0:0:0:
416,176,64963,5,8,0:0:0:0:
416,176,65025,1,8,0:0:0:0:
416,176,65088,1,8,0:0:0:0:
416,176,65150,1,0,0:0:0:0:
416,176,65213,1,8,0:0:0:0:
416,176,65275,1,8,0:0:0:0:
416,176,65338,1,8,0:0:0:0:
416,176,65400,1,0,0:0:0:0:
416,176,65463,1,8,0:0:0:0:
416,176,65525,1,8,0:0:0:0:
416,176,65588,1,8,0:0:0:0:
416,176,65650,1,0,0:0:0:0:
416,176,65713,1,8,0:0:0:0:
416,176,65775,1,8,0:0:0:0:
416,176,65838,1,8,0:0:0:0:
416,176,65900,1,0,0:0:0:0:
416,176,65963,1,0,0:0:0:0:
416,176,66025,1,0,0:0:0:0:
416,176,66088,1,8,0:0:0:0:
416,176,66150,1,0,0:0:0:0:
416,176,66213,1,0,0:0:0:0:
416,176,66275,1,0,0:0:0:0:
416,176,66338,1,8,0:0:0:0:
416,176,66400,1,0,0:0:0:0:
416,176,66463,1,0,0:0:0:0:
416,176,66525,1,0,0:0:0:0:
416,176,66588,1,8,0:0:0:0:
416,176,66650,1,0,0:0:0:0:
416,176,66713,1,0,0:0:0:0:
416,176,66775,1,0,0:0:0:0:
416,176,66838,1,8,0:0:0:0:
416,176,66900,1,0,0:0:0:0:
416,176,66963,1,0,0:0:0:0:
416,176,67025,1,0,0:0:0:0:
416,176,67088,1,0,0:0:0:0:
416,176,67150,1,0,0:0:0:0:
416,176,67213,1,8,0:0:0:0:
416,176,67275,1,8,0:0:0:0:
416,176,67338,1,8,0:0:0:0:
416,176,67400,1,8,0:0:0:0:
416,176,67463,1,8,0:0:0:0:
416,176,67525,1,8,0:0:0:0:
416,176,67588,1,0,0:0:0:0:
416,176,67650,1,0,0:0:0:0:
416,176,67713,1,8,0:0:0:0:
416,176,67775,1,8,0:0:0:0:
416,176,67838,1,0,0:0:0:0:
416,176,67900,1,0,0:0:0:0:
416,176,67963,1,0,0:0:0:0:
416,176,68088,1,0,0:0:0:0:
416,176,68150,1,0,0:0:0:0:
416,176,68213,1,0,0:0:0:0:
416,176,68338,1,8,0:0:0:0:
256,192,68463,12,0,68838,0:0:0:0:
416,176,68963,5,0,0:0:0:0:
416,176,69025,1,0,0:0:0:0:
416,176,69088,1,0,0:0:0:0:
416,176,69150,1,8,0:0:0:0:
416,176,69213,1,8,0:0:0:0:
416,176,69275,1,8,0:0:0:0:
416,176,69338,1,8,0:0:0:0:
416,176,69400,1,0,0:0:0:0:
416,176,69463,1,0,0:0:0:0:
416,176,69525,1,0,0:0:0:0:
416,176,69588,1,0,0:0:0:0:
416,176,69650,1,8,0:0:0:0:
416,176,69713,1,8,0:0:0:0:
416,176,69775,1,8,0:0:0:0:
416,176,69838,1,8,0:0:0:0:
416,176,69900,1,0,0:0:0:0:
416,176,69963,1,0,0:0:0:0:
416,176,70025,1,0,0:0:0:0:
416,176,70088,1,0,0:0:0:0:
416,176,70150,1,0,0:0:0:0:
416,176,70213,1,8,0:0:0:0:
416,176,70275,1,8,0:0:0:0:
416,176,70338,1,8,0:0:0:0:
416,176,70400,1,8,0:0:0:0:
256,192,70463,12,0,70838,0:0:0:0:
416,176,70963,5,0,0:0:0:0:
416,176,71025,1,0,0:0:0:0:
416,176,71088,1,8,0:0:0:0:
416,176,71150,1,8,0:0:0:0:
416,176,71213,1,8,0:0:0:0:
416,176,71275,1,8,0:0:0:0:
416,176,71338,1,0,0:0:0:0:
416,176,71400,1,0,0:0:0:0:
416,176,71463,1,0,0:0:0:0:
416,176,71525,1,0,0:0:0:0:
416,176,71588,1,8,0:0:0:0:
416,176,71650,1,8,0:0:0:0:
416,176,71713,1,8,0:0:0:0:
416,176,71775,1,8,0:0:0:0:
416,176,71838,1,0,0:0:0:0:
416,176,71900,1,0,0:0:0:0:
416,176,71963,1,0,0:0:0:0:
416,176,72025,1,0,0:0:0:0:
416,176,72088,1,0,0:0:0:0:
416,176,72150,1,0,0:0:0:0:
416,176,72213,1,8,0:0:0:0:
416,176,72275,1,8,0:0:0:0:
416,176,72338,1,8,0:0:0:0:
416,176,72400,1,8,0:0:0:0:
256,192,72463,12,0,72838,0:0:0:0:
416,176,72963,5,8,0:0:0:0:
416,176,73025,1,8,0:0:0:0:
416,176,73088,1,0,0:0:0:0:
416,176,73150,1,8,0:0:0:0:
416,176,73213,1,8,0:0:0:0:
416,176,73275,1,8,0:0:0:0:
416,176,73338,1,0,0:0:0:0:
416,176,73400,1,8,0:0:0:0:
416,176,73463,1,8,0:0:0:0:
416,176,73525,1,8,0:0:0:0:
416,176,73588,1,0,0:0:0:0:
416,176,73650,1,8,0:0:0:0:
416,176,73713,1,8,0:0:0:0:
416,176,73775,1,8,0:0:0:0:
416,176,73838,1,0,0:0:0:0:
416,176,73900,1,8,0:0:0:0:
416,176,73963,1,0,0:0:0:0:
416,176,74025,1,0,0:0:0:0:
416,176,74088,1,0,0:0:0:0:
416,176,74150,1,8,0:0:0:0:
416,176,74213,1,0,0:0:0:0:
416,176,74275,1,0,0:0:0:0:
416,176,74338,1,0,0:0:0:0:
416,176,74400,1,8,0:0:0:0:
416,176,74463,1,0,0:0:0:0:
416,176,74525,1,0,0:0:0:0:
416,176,74588,1,0,0:0:0:0:
416,176,74650,1,8,0:0:0:0:
416,176,74713,1,0,0:0:0:0:
416,176,74775,1,0,0:0:0:0:
416,176,74838,1,0,0:0:0:0:
416,176,74900,1,8,0:0:0:0:
416,176,74963,1,0,0:0:0:0:
416,176,75025,1,0,0:0:0:0:
416,176,75088,1,0,0:0:0:0:
416,176,75150,1,0,0:0:0:0:
416,176,75213,1,8,0:0:0:0:
416,176,75275,1,8,0:0:0:0:
416,176,75338,1,8,0:0:0:0:
416,176,75400,1,8,0:0:0:0:
416,176,75463,1,8,0:0:0:0:
416,176,75525,1,8,0:0:0:0:
416,176,75588,1,0,0:0:0:0:
416,176,75650,1,0,0:0:0:0:
416,176,75713,1,8,0:0:0:0:
416,176,75775,1,8,0:0:0:0:
416,176,75838,1,0,0:0:0:0:
416,176,75900,1,0,0:0:0:0:
416,176,75963,1,0,0:0:0:0:
416,176,76088,1,0,0:0:0:0:
416,176,76150,1,0,0:0:0:0:
416,176,76213,1,0,0:0:0:0:
416,176,76338,1,8,0:0:0:0:
416,176,76463,1,4,0:0:0:0:
416,176,77588,1,0,0:0:0:0:
416,176,78004,1,0,0:0:0:0:
416,176,78213,1,8,0:0:0:0:
416,176,78629,1,0,0:0:0:0:
416,176,78838,1,0,0:0:0:0:
416,176,79254,1,8,0:0:0:0:
416,176,79463,1,8,0:0:0:0:
416,176,79879,1,0,0:0:0:0:
416,176,80088,1,0,0:0:0:0:
416,176,80504,1,0,0:0:0:0:
416,176,80713,1,8,0:0:0:0:
416,176,81129,1,8,0:0:0:0:
416,176,81338,1,8,0:0:0:0:
416,176,81754,1,0,0:0:0:0:
416,176,81963,1,0,0:0:0:0:
416,176,82275,1,8,0:0:0:0:
416,176,82588,1,8,0:0:0:0:
416,176,83004,1,0,0:0:0:0:
416,176,83213,1,8,0:0:0:0:
416,176,83629,1,0,0:0:0:0:
416,176,83733,1,8,0:0:0:0:
416,176,83838,1,0,0:0:0:0:
416,176,84150,1,0,0:0:0:0:
416,176,84463,1,8,0:0:0:0:
416,176,84775,1,8,0:0:0:0:
416,176,85088,1,0,0:0:0:0:
416,176,85296,1,8,0:0:0:0:
416,176,85504,1,8,0:0:0:0:
416,176,85713,1,0,0:0:0:0:
416,176,86129,1,0,0:0:0:0:
416,176,86338,1,4,0:0:0:0:
416,176,87588,1,0,0:0:0:0:
416,176,87781,1,8,0:0:0:0:
416,176,87878,1,0,0:0:0:0:
416,176,87926,1,0,0:0:0:0:
416,176,87975,1,0,0:0:0:0:
416,176,88071,1,0,0:0:0:0:
416,176,88168,1,8,0:0:0:0:
416,176,88265,1,0,0:0:0:0:
416,176,88362,1,0,0:0:0:0:
416,176,88555,1,8,0:0:0:0:
416,176,88652,1,0,0:0:0:0:
416,176,88700,1,0,0:0:0:0:
416,176,88749,1,0,0:0:0:0:
416,176,88846,1,0,0:0:0:0:
416,176,88942,1,8,0:0:0:0:
416,176,89039,1,0,0:0:0:0:
416,176,89136,1,8,0:0:0:0:
416,176,89233,1,0,0:0:0:0:
416,176,89329,1,8,0:0:0:0:
416,176,89426,1,0,0:0:0:0:
416,176,89523,1,8,0:0:0:0:
416,176,89620,1,0,0:0:0:0:
416,176,89717,1,0,0:0:0:0:
416,176,89813,1,12,0:0:0:0:
416,176,91160,1,8,0:0:0:0:
416,176,91316,1,8,0:0:0:0:
416,176,91785,1,0,0:0:0:0:
416,176,92097,1,0,0:0:0:0:
416,176,92253,1,8,0:0:0:0:
416,176,92566,1,0,0:0:0:0:
416,176,92722,1,0,0:0:0:0:
416,176,93035,1,8,0:0:0:0:
416,176,93191,1,8,0:0:0:0:
416,176,93503,1,0,0:0:0:0:
416,176,93660,1,0,0:0:0:0:
416,176,93972,1,0,0:0:0:0:
416,176,94128,1,8,0:0:0:0:
416,176,94441,1,8,0:0:0:0:
416,176,94597,1,8,0:0:0:0:
416,176,94910,1,0,0:0:0:0:
416,176,95066,1,0,0:0:0:0:
416,176,95300,1,8,0:0:0:0:
416,176,95535,1,8,0:0:0:0:
416,176,95847,1,0,0:0:0:0:
416,176,96003,1,8,0:0:0:0:
416,176,96316,1,0,0:0:0:0:
416,176,96394,1,8,0:0:0:0:
416,176,96472,1,0,0:0:0:0:
416,176,96706,1,0,0:0:0:0:
416,176,96941,1,8,0:0:0:0:
416,176,97175,1,8,0:0:0:0:
416,176,97410,1,0,0:0:0:0:
416,176,97566,1,8,0:0:0:0:
416,176,97722,1,8,0:0:0:0:
416,176,97878,1,0,0:0:0:0:
416,176,98191,1,0,0:0:0:0:
416,176,98347,1,4,0:0:0:0:
416,176,99285,1,0,0:0:0:0:
416,176,99472,1,8,0:0:0:0:
416,176,99566,1,0,0:0:0:0:
416,176,99613,1,0,0:0:0:0:
416,176,99660,1,0,0:0:0:0:
416,176,99753,1,0,0:0:0:0:
416,176,99847,1,8,0:0:0:0:
416,176,99941,1,0,0:0:0:0:
416,176,100035,1,0,0:0:0:0:
416,176,100222,1,8,0:0:0:0:
416,176,100316,1,0,0:0:0:0:
416,176,100363,1,0,0:0:0:0:
416,176,100410,1,0,0:0:0:0:
416,176,100503,1,0,0:0:0:0:
416,176,100597,1,8,0:0:0:0:
416,176,100691,1,0,0:0:0:0:
416,176,100785,1,0,0:0:0:0:
416,176,100831,1,0,0:0:0:0:
416,176,100878,1,0,0:0:0:0:
416,176,100972,1,0,0:0:0:0:
416,176,101019,1,0,0:0:0:0:
416,176,101066,1,0,0:0:0:0:
416,176,101160,1,0,0:0:0:0:
416,176,101206,1,0,0:0:0:0:
416,176,101253,1,0,0:0:0:0:
416,176,101347,1,0,0:0:0:0:
416,176,101394,1,0,0:0:0:0:
416,176,101441,1,0,0:0:0:0:
256,192,101535,12,0,101816,0:0:0:0:
416,176,102285,5,0,0:0:0:0:
416,176,102461,1,0,0:0:0:0:
416,176,102637,1,0,0:0:0:0:
416,176,102814,1,8,0:0:0:0:
416,176,102990,1,8,0:0:0:0:
416,176,103147,1,8,0:0:0:0:
416,176,103305,1,8,0:0:0:0:
416,176,103463,1,0,0:0:0:0:
416,176,103621,1,0,0:0:0:0:
416,176,103751,1,0,0:0:0:0:
416,176,103881,1,0,0:0:0:0:
416,176,104012,1,8,0:0:0:0:
416,176,104142,1,8,0:0:0:0:
416,176,104267,1,8,0:0:0:0:
416,176,104392,1,8,0:0:0:0:
416,176,104517,1,0,0:0:0:0:
416,176,104642,1,0,0:0:0:0:
416,176,104745,1,0,0:0:0:0:
416,176,104848,1,8,0:0:0:0:
416,176,104952,1,8,0:0:0:0:
416,176,105055,1,0,0:0:0:0:
416,176,105145,1,0,0:0:0:0:
416,176,105236,1,8,0:0:0:0:
416,176,105327,1,8,0:0:0:0:
256,192,105418,12,0,105864,0:0:0:0:
416,176,106010,5,0,0:0:0:0:
416,176,106071,1,0,0:0:0:0:
416,176,106132,1,8,0:0:0:0:
416,176,106193,1,8,0:0:0:0:
416,176,106254,1,8,0:0:0:0:
416,176,106316,1,8,0:0:0:0:
416,176,106377,1,0,0:0:0:0:
416,176,106438,1,0,0:0:0:0:
416,176,106499,1,0,0:0:0:0:
416,176,106561,1,0,0:0:0:0:
416,176,106622,1,8,0:0:0:0:
416,176,106683,1,8,0:0:0:0:
416,176,106744,1,8,0:0:0:0:
416,176,106805,1,8,0:0:0:0:
416,176,106867,1,0,0:0:0:0:
416,176,106928,1,0,0:0:0:0:
416,176,106989,1,0,0:0:0:0:
416,176,107050,1,0,0:0:0:0:
416,176,107112,1,0,0:0:0:0:
416,176,107173,1,0,0:0:0:0:
416,176,107234,1,8,0:0:0:0:
416,176,107295,1,8,0:0:0:0:
416,176,107356,1,8,0:0:0:0:
416,176,107418,1,8,0:0:0:0:
256,192,107479,12,0,107846,0:0:0:0:
416,176,107969,5,8,0:0:0:0:
416,176,108030,1,8,0:0:0:0:
416,176,108091,1,0,0:0:0:0:
416,176,108152,1,8,0:0:0:0:
416,176,108214,1,8,0:0:0:0:
416,176,108275,1,8,0:0:0:0:
416,176,108336,1,0,0:0:0:0:
416,176,108397,1,8,0:0:0:0:
416,176,108458,1,8,0:0:0:0:
416,176,108520,1,8,0:0:0:0:
416,176,108581,1,0,0:0:0:0:
416,176,108642,1,8,0:0:0:0:
416,176,108703,1,8,0:0:0:0:
416,176,108765,1,8,0:0:0:0:
416,176,108826,1,0,0:0:0:0:
416,176,108887,1,8,0:0:0:0:
416,176,108948,1,0,0:0:0:0:
416,176,109010,1,0,0:0:0:0:
416,176,109071,1,0,0:0:0:0:
416,176,109132,1,8,0:0:0:0:
416,176,109193,1,0,0:0:0:0:
416,176,109254,1,0,0:0:0:0:
416,176,109316,1,0,0:0:0:0:
416,176,109377,1,8,0:0:0:0:
416,176,109438,1,0,0:0:0:0:
416,176,109499,1,0,0:0:0:0:
416,176,109561,1,0,0:0:0:0:
416,176,109622,1,8,0:0:0:0:
416,176,109683,1,0,0:0:0:0:
416,176,109744,1,0,0:0:0:0:
416,176,109805,1,0,0:0:0:0:
416,176,109867,1,8,0:0:0:0:
416,176,109928,1,0,0:0:0:0:
416,176,109989,1,0,0:0:0:0:
416,176,110050,1,0,0:0:0:0:
416,176,110112,1,0,0:0:0:0:
416,176,110173,1,8,0:0:0:0:
416,176,110234,1,8,0:0:0:0:
416,176,110295,1,8,0:0:0:0:
416,176,110356,1,8,0:0:0:0:
416,176,110418,1,8,0:0:0:0:
416,176,110479,1,8,0:0:0:0:
416,176,110540,1,0,0:0:0:0:
416,176,110601,1,0,0:0:0:0:
416,176,110663,1,8,0:0:0:0:
416,176,110724,1,8,0:0:0:0:
416,176,110785,1,8,0:0:0:0:
416,176,110846,1,8,0:0:0:0:
416,176,110907,1,0,0:0:0:0:
416,176,111030,1,8,0:0:0:0:
416,176,111091,1,8,0:0:0:0:
416,176,111152,1,0,0:0:0:0:
416,176,111275,1,8,0:0:0:0:
416,176,111336,1,8,0:0:0:0:
416,176,111397,1,0,0:0:0:0:
416,176,111520,1,8,0:0:0:0:
416,176,111581,1,8,0:0:0:0:
416,176,111642,1,0,0:0:0:0:
416,176,111765,1,8,0:0:0:0:
416,176,111826,1,8,0:0:0:0:
416,176,111887,1,8,0:0:0:0:
416,176,112010,1,0,0:0:0:0:
416,176,112071,1,0,0:0:0:0:
416,176,112132,1,0,0:0:0:0:
416,176,112254,1,8,0:0:0:0:
256,192,112377,12,0,112744,0:0:0:0:
416,176,112867,5,0,0:0:0:0:
416,176,112928,1,0,0:0:0:0:
416,176,112989,1,8,0:0:0:0:
416,176,113050,1,0,0:0:0:0:
416,176,113112,1,0,0:0:0:0:
416,176,113173,1,0,0:0:0:0:
416,176,113234,1,8,0:0:0:0:
416,176,113295,1,0,0:0:0:0:
416,176,113356,1,0,0:0:0:0:
416,176,113418,1,0,0:0:0:0:
416,176,113479,1,8,0:0:0:0:
416,176,113540,1,0,0:0:0:0:
416,176,113601,1,0,0:0:0:0:
416,176,113663,1,0,0:0:0:0:
416,176,113724,1,8,0:0:0:0:
416,176,113785,1,0,0:0:0:0:
416,176,113846,1,8,0:0:0:0:
416,176,113969,1,0,0:0:0:0:
416,176,114030,1,0,0:0:0:0:
416,176,114091,1,0,0:0:0:0:
416,176,114214,1,8,0:0:0:0:
256,192,114336,12,0,114703,0:0:0:0:
416,176,114826,5,8,0:0:0:0:
416,176,114887,1,8,0:0:0:0:
416,176,114948,1,8,0:0:0:0:
416,176,115010,1,0,0:0:0:0:
416,176,115071,1,8,0:0:0:0:
416,176,115132,1,8,0:0:0:0:
416,176,115193,1,8,0:0:0:0:
416,176,115254,1,0,0:0:0:0:
416,176,115316,1,8,0:0:0:0:
416,176,115377,1,8,0:0:0:0:
416,176,115438,1,8,0:0:0:0:
416,176,115499,1,0,0:0:0:0:
416,176,115561,1,8,0:0:0:0:
416,176,115622,1,8,0:0:0:0:
416,176,115683,1,8,0:0:0:0:
416,176,115744,1,0,0:0:0:0:
416,176,115805,1,0,0:0:0:0:
416,176,115867,1,0,0:0:0:0:
416,176,115928,1,8,0:0:0:0:
416,176,115989,1,0,0:0:0:0:
416,176,116050,1,0,0:0:0:0:
416,176,116112,1,0,0:0:0:0:
416,176,116173,1,8,0:0:0:0:
416,176,116234,1,0,0:0:0:0:
416,176,116295,1,0,0:0:0:0:
416,176,116356,1,0,0:0:0:0:
416,176,116418,1,8,0:0:0:0:
416,176,116479,1,0,0:0:0:0:
416,176,116540,1,0,0:0:0:0:
416,176,116601,1,0,0:0:0:0:
416,176,116663,1,8,0:0:0:0:
416,176,116724,1,0,0:0:0:0:
416,176,116785,1,0,0:0:0:0:
416,176,116846,1,8,0:0:0:0:
416,176,116907,1,8,0:0:0:0:
416,176,116969,1,0,0:0:0:0:
416,176,117030,1,0,0:0:0:0:
416,176,117091,1,8,0:0:0:0:
416,176,117152,1,8,0:0:0:0:
416,176,117214,1,0,0:0:0:0:
416,176,117275,1,0,0:0:0:0:
416,176,117336,1,8,0:0:0:0:
416,176,117397,1,8,0:0:0:0:
416,176,117458,1,0,0:0:0:0:
416,176,117520,1,0,0:0:0:0:
416,176,117581,1,8,0:0:0:0:
416,176,117642,1,8,0:0:0:0:
416,176,117765,1,4,0:0:0:0:
416,176,117887,1,4,0:0:0:0:
416,176,118132,1,4,0:0:0:0:
416,176,118254,1,12,0:0:0:0:
416,176,118499,1,4,0:0:0:0:
416,176,118744,1,0,0:0:0:0:
416,176,118867,1,8,0:0:0:0:
416,176,118928,1,8,0:0:0:0:
416,176,118989,1,0,0:0:0:0:
416,176,119112,1,8,0:0:0:0:
416,176,119173,1,8,0:0:0:0:
416,176,119234,1,0,0:0:0:0:
416,176,119356,1,8,0:0:0:0:
416,176,119418,1,8,0:0:0:0:
416,176,119479,1,0,0:0:0:0:
416,176,119601,1,8,0:0:0:0:
416,176,119663,1,8,0:0:0:0:
416,176,119724,1,8,0:0:0:0:
416,176,119846,1,0,0:0:0:0:
416,176,119907,1,0,0:0:0:0:
416,176,119969,1,0,0:0:0:0:
416,176,120091,1,8,0:0:0:0:
256,192,120214,12,0,120581,0:0:0:0:
416,176,120703,5,0,0:0:0:0:
416,176,120765,1,0,0:0:0:0:
416,176,120826,1,8,0:0:0:0:
416,176,120887,1,0,0:0:0:0:
416,176,120948,1,0,0:0:0:0:
416,176,121010,1,0,0:0:0:0:
416,176,121071,1,8,0:0:0:0:
416,176,121132,1,0,0:0:0:0:
416,176,121193,1,0,0:0:0:0:
416,176,121254,1,0,0:0:0:0:
416,176,121316,1,8,0:0:0:0:
416,176,121377,1,0,0:0:0:0:
416,176,121438,1,0,0:0:0:0:
416,176,121499,1,0,0:0:0:0:
416,176,121561,1,8,0:0:0:0:
416,176,121622,1,0,0:0:0:0:
416,176,121683,1,8,0:0:0:0:
416,176,121805,1,0,0:0:0:0:
416,176,121867,1,0,0:0:0:0:
416,176,121928,1,0,0:0:0:0:
416,176,122050,1,8,0:0:0:0:
256,192,122173,12,0,122540,0:0:0:0:
416,176,122663,5,8,0:0:0:0:
416,176,122724,1,8,0:0:0:0:
416,176,122785,1,8,0:0:0:0:
416,176,122846,1,0,0:0:0:0:
416,176,122907,1,8,0:0:0:0:
416,176,122969,1,8,0:0:0:0:
416,176,123030,1,8,0:0:0:0:
416,176,123091,1,0,0:0:0:0:
416,176,123152,1,8,0:0:0:0:
416,176,123214,1,8,0:0:0:0:
416,176,123275,1,8,0:0:0:0:
416,176,123336,1,0,0:0:0:0:
416,176,123397,1,8,0:0:0:0:
416,176,123458,1,8,0:0:0:0:
416,176,123520,1,8,0:0:0:0:
416,176,123581,1,0,0:0:0:0:
416,176,123642,1,0,0:0:0:0:
416,176,123703,1,0,0:0:0:0:
416,176,123765,1,8,0:0:0:0:
416,176,123826,1,0,0:0:0:0:
416,176,123887,1,0,0:0:0:0:
416,176,123948,1,0,0:0:0:0:
416,176,124010,1,8,0:0:0:0:
416,176,124071,1,0,0:0:0:0:
416,176,124132,1,0,0:0:0:0:
416,176,124193,1,0,0:0:0:0:
416,176,124254,1,8,0:0:0:0:
416,176,124316,1,0,0:0:0:0:
416,176,124377,1,0,0:0:0:0:
416,176,124438,1,0,0:0:0:0:
416,176,124499,1,8,0:0:0:0:
416,176,124561,1,0,0:0:0:0:
416,176,124622,1,0,0:0:0:0:
416,176,124683,1,0,0:0:0:0:
416,176,124744,1,0,0:0:0:0:
416,176,124805,1,0,0:0:0:0:
416,176,124867,1,8,0:0:0:0:
416,176,124928,1,8,0:0:0:0:
416,176,124989,1,8,0:0:0:0:
416,176,125050,1,8,0:0:0:0:
416,176,125112,1,8,0:0:0:0:
416,176,125173,1,8,0:0:0:0:
416,176,125234,1,0,0:0:0:0:
416,176,125295,1,0,0:0:0:0:
416,176,125356,1,8,0:0:0:0:
416,176,125418,1,8,0:0:0:0:
416,176,125479,1,8,0:0:0:0:
416,176,125601,1,4,0:0:0:0:
416,176,125708,1,4,0:0:0:0:
416,176,125922,1,12,0:0:0:0:
416,176,126029,1,4,0:0:0:0:
416,176,126458,1,4,0:0:0:0:
416,176,126672,1,0,0:0:0:0:
416,176,126779,1,0,0:0:0:0:
416,176,126886,1,0,0:0:0:0:
416,176,126993,1,0,0:0:0:0:
416,176,127101,1,0,0:0:0:0:
416,176,127208,1,0,0:0:0:0:
416,176,127315,1,4,0:0:0:0:
416,176,127529,1,0,0:0:0:0:
416,176,127583,1,0,0:0:0:0:
416,176,127636,1,0,0:0:0:0:
416,176,127743,1,12,0:0:0:0:
416,176,127958,1,8,0:0:0:0:
416,176,128011,1,8,0:0:0:0:
416,176,128065,1,8,0:0:0:0:
416,176,128172,1,4,0:0:0:0:
416,176,128601,1,8,0:0:0:0:
416,176,129029,1,8,0:0:0:0:
