osu file format v14

[General]
AudioFilename: audio.mp3
AudioLeadIn: 0
PreviewTime: 53389
Countdown: 0
SampleSet: Soft
StackLeniency: 0.4
Mode: 0
LetterboxInBreaks: 0
WidescreenStoryboard: 1

[Editor]
Bookmarks: 13658,17039,56757,84644
DistanceSpacing: 0.8
BeatDivisor: 4
GridSize: 32
TimelineZoom: 2.4

[Metadata]
Title:Otowa (TV Size)
TitleUnicode:オトワ (TV Size)
Artist:Taiyou to Odore, Tsukiyo ni Utae
ArtistUnicode:太陽と踊れ月夜に唄え
Creator:Lune
Version:Insane
Source:愚かな天使は悪魔と踊る
Tags:anime op opening cut short version Oroka na Tenshi wa Akuma to Odoru The Foolish Angel Dances with the Devil Demons 阿久津雅虎 天音リリ j-pop jpop japanese pop female vocals idol girlgroup aoi mayu 蒼生茉由 nagira hiyori 凪楽ひより nonose hazuki 野々瀬葉月hasumi nodoka 羽澄和奏 hanasaki kao 花咲花桜 ameshima shizuku 雨島詩月 enomiya anri 榎宮あんり mitsuha mio 三葉海緒 yuzuki julia 夕綺友里杏 manga
BeatmapID:4557701
BeatmapSetID:2161281

[Difficulty]
HPDrainRate:6
CircleSize:3.8
OverallDifficulty:7
ApproachRate:9
SliderMultiplier:1.9
SliderTickRate:1

[Events]
//Background and Video events
0,0,"otowa bg.jpg",0,0
Video,437,"otowavid.mp4"
//Break Periods
//Storyboard Layer 0 (Background)
//Storyboard Layer 1 (Fail)
//Storyboard Layer 2 (Pass)
//Storyboard Layer 3 (Foreground)
//Storyboard Layer 4 (Overlay)
//Storyboard Sound Samples

[TimingPoints]
1840,422.535211267606,4,2,1,50,1,0
1840,-111.111111111111,4,2,1,50,0,0
7544,-222.222222222222,4,2,1,50,0,0
7966,-111.111111111111,4,2,1,50,0,0
11980,-111.111111111111,4,2,1,60,0,0
13248,-200,4,2,1,60,0,0
13670,-71.4285714285714,4,2,1,70,0,0
15466,-71.4285714285714,4,2,1,5,0,0
15572,-71.4285714285714,4,2,1,70,0,0
15678,-71.4285714285714,4,2,1,5,0,0
15784,-71.4285714285714,4,2,1,70,0,0
15889,-71.4285714285714,4,2,1,5,0,0
15995,-71.4285714285714,4,2,1,70,0,0
16628,-166.666666666667,4,2,1,70,0,0
17051,-50,4,2,1,70,0,0
17262,-83.3333333333333,4,2,1,70,0,0
19058,-66.6666666666667,4,2,1,70,0,0
19375,-55.5555555555556,4,2,1,70,0,0
20431,-50,4,2,1,70,0,0
20854,-83.3333333333333,4,2,1,70,0,0
22121,-66.6666666666667,4,2,1,70,0,0
22438,-55.5555555555556,4,2,1,70,0,0
22755,-47.6190476190476,4,2,1,70,0,0
22966,-83.3333333333333,4,2,1,70,0,0
23811,-100,4,2,1,70,0,0
25290,-66.6666666666667,4,2,1,70,0,0
25501,-100,4,2,1,70,0,0
26980,-66.6666666666667,4,2,1,70,0,0
27192,-100,4,2,1,70,0,0
27825,-66.6666666666667,4,2,1,70,0,0
28037,-100,4,2,1,70,0,0
35642,-50,4,2,1,70,0,0
36593,-100,4,2,1,70,0,0
36804,-50,4,2,1,70,0,0
37438,-100,4,2,1,70,0,0
37755,-76.9230769230769,4,2,1,70,0,0
38178,-100,4,2,1,70,0,0
38494,-76.9230769230769,4,2,1,70,0,0
38811,-90.9090909090909,4,2,1,70,0,0
39445,-71.4285714285714,4,2,1,70,0,0
40290,-76.9230769230769,4,2,1,70,0,0
40818,-90.9090909090909,4,2,1,70,0,0
41135,-76.9230769230769,4,2,1,70,0,0
41558,-90.9090909090909,4,2,1,70,0,0
41980,-76.9230769230769,4,2,1,70,0,0
42614,-66.6666666666667,4,2,1,70,0,0
42825,-55.5555555555556,4,2,1,70,0,0
43248,-100,4,2,1,70,0,0
44199,-125,4,2,1,70,0,0
44516,-71.4285714285714,4,2,1,70,0,0
44938,-83.3333333333333,4,2,1,70,0,0
45255,-66.6666666666667,4,2,1,70,0,0
45572,-50,4,2,1,70,0,0
45783,-76.9230769230769,4,2,1,70,0,0
47473,-90.9090909090909,4,2,1,70,0,0
48952,-76.9230769230769,4,2,1,70,0,0
50854,-50,4,2,1,70,0,0
51170,-76.9230769230769,4,2,1,70,0,0
52966,-100,4,2,1,70,0,0
53600,-111.111111111111,4,2,1,70,0,0
54234,-66.6666666666667,4,2,1,80,0,1
57825,-83.3333333333333,4,2,1,80,0,1
59304,-50,4,2,1,80,0,1
59938,-40,4,2,1,80,0,1
60361,-100,4,2,1,80,0,1
60994,-66.6666666666667,4,2,1,80,0,1
63318,-76.9230769230769,4,2,1,80,0,1
65854,-66.6666666666667,4,2,1,80,0,1
67649,-66.6666666666667,4,2,1,80,0,0
67755,-66.6666666666667,4,2,1,80,0,1
70924,-83.3333333333333,4,2,1,80,0,1
72825,-50,4,2,1,80,0,1
73459,-40,4,2,1,80,0,1
73882,-100,4,2,1,80,0,1
74516,-66.6666666666667,4,2,1,80,0,1
78530,-76.9230769230769,4,2,1,80,0,1
79375,-83.3333333333333,4,2,1,80,0,1
80009,-100,4,2,1,80,0,1
81276,-90.9090909090909,4,2,1,70,0,0
83811,-200,4,2,1,70,0,0
84656,-55.5555555555556,4,2,1,70,0,0
84868,-83.3333333333333,4,2,1,70,0,0
86347,-66.6666666666667,4,2,1,70,0,0
86663,-58.8235294117647,4,2,1,70,0,0
86980,-52.6315789473684,4,2,1,70,0,0
87614,-133.333333333333,4,2,1,70,0,0

[Colours]
Combo1 : 118,211,184
Combo2 : 231,122,163
Combo3 : 231,135,103
Combo4 : 101,214,115
Combo5 : 252,86,86
Combo6 : 248,224,88
Combo7 : 107,215,226
Combo8 : 179,119,210

[HitObjects]
272,282,1840,6,0,L|181:273,1,85.4999973907472,2|0,0:0|0:0,0:0:0:0:
363,215,2262,1,0,0:0:0:0:
414,304,2473,1,0,0:0:0:0:
263,195,2685,6,0,L|172:186,1,85.4999973907472,2|2,0:0|0:0,0:0:0:0:
100,214,3001,1,2,0:0:0:0:
74,191,3107,1,2,0:0:0:0:
192,38,3318,2,0,P|216:22|227:18,2,28.4999991302491,2|0|0,0:0|0:0|0:0,0:0:0:0:
249,93,3530,6,0,P|300:89|348:75,1,85.4999973907472
461,24,3952,1,0,0:0:0:0:
494,135,4163,1,0,0:0:0:0:
312,190,4375,6,0,P|261:194|213:208,1,85.4999973907472,2|2,0:0|0:0,0:0:0:0:
281,291,4692,1,2,0:0:0:0:
281,291,4797,2,0,L|287:333,5,28.4999991302491,2|0|0|2|0|0,0:0|0:0|0:0|0:0|0:0|0:0,0:0:0:0:
366,261,5220,6,0,L|377:361,1,85.4999973907472
461,193,5642,1,0,0:0:0:0:
425,93,5854,1,0,0:0:0:0:
276,165,6065,5,2,0:0:0:0:
195,31,6276,2,0,L|203:-10,2,28.4999991302491,2|0|0,0:0|0:0|0:0,0:0:0:0:
149,92,6487,1,2,0:0:0:0:
285,54,6699,1,0,0:0:0:0:
99,188,6910,6,0,P|59:158|52:103,1,85.4999973907472,2|0,0:0|0:0,0:0:0:0:
133,262,7227,2,0,P|83:269|39:235,1,85.4999973907472,2|0,0:0|0:0,0:0:0:0:
209,291,7544,6,0,P|179:331|128:340,1,85.4999973907472,2|2,0:0|0:0,0:0:0:0:
115,371,8072,5,2,0:0:0:0:
96,344,8178,1,2,0:0:0:0:
244,127,8389,1,2,0:0:0:0:
244,127,8600,6,0,B|239:160|239:160|270:247,1,85.4999973907472
384,32,9023,1,0,0:0:0:0:
478,87,9234,1,0,0:0:0:0:
330,116,9445,6,0,B|325:149|325:149|356:236,1,85.4999973907472,2|2,0:0|0:0,0:0:0:0:
381,268,9762,1,2,0:0:0:0:
376,295,9868,1,2,0:0:0:0:
156,331,10079,2,0,L|150:295,2,28.4999991302491,2|0|0,0:0|0:0|0:0,0:0:0:0:
76,275,10290,6,0,P|93:213|102:175,1,85.4999973907472
97,79,10713,1,0,0:0:0:0:
15,135,10924,1,0,0:0:0:0:
201,164,11135,2,0,L|285:150,1,85.4999973907472,2|2,0:0|0:0,0:0:0:0:
361,39,11558,1,2,0:0:0:0:
444,225,11769,2,0,L|437:272,2,28.4999991302491
357,205,11980,6,0,L|373:315,1,85.4999973907472,2|2,0:0|0:0,0:0:0:0:
167,336,12403,2,0,L|174:289,2,28.4999991302491,2|0|0,0:0|0:0|0:0,0:0:0:0:
252,322,12614,2,0,L|239:213,1,85.4999973907472,2|0,0:0|0:0,0:0:0:0:
207,78,13037,1,2,0:0:0:0:
207,78,13142,1,0,0:0:0:0:
207,78,13248,6,0,P|164:77|122:58,1,71.25,2|0,0:0|0:0,0:0:0:0:
318,23,13670,5,6,3:2:0:0:
381,255,13882,1,0,3:0:0:0:
134,197,14093,2,0,B|119:233|119:233|128:254|128:254|110:282|122:326,1,132.999995941162,8|0,0:0|0:0,0:0:0:0:
285,368,14516,5,0,3:0:0:0:
290,323,14621,1,0,0:0:0:0:
296,279,14727,1,0,0:0:0:0:
301,234,14832,1,0,0:0:0:0:
381,255,14938,5,0,3:0:0:0:
388,202,15043,1,0,0:0:0:0:
395,149,15149,1,0,0:0:0:0:
402,96,15254,1,0,0:0:0:0:
426,16,15361,6,0,L|324:29,1,66.4999979705811,8|0,3:2|0:0,0:0:0:0:
254,106,15572,2,0,L|356:93,1,66.4999979705811,0|0,3:0|0:0,0:0:0:0:
503,35,15783,6,0,L|401:22,1,66.4999979705811,8|0,3:2|0:0,0:0:0:0:
184,82,15994,2,0,L|286:95,1,66.4999979705811,0|0,3:2|0:0,0:0:0:0:
281,326,16206,5,8,3:2:0:0:
249,351,16311,1,0,3:2:0:0:
204,362,16417,1,0,3:2:0:0:
161,354,16523,1,0,3:2:0:0:
125,330,16628,6,0,B|118:304|118:304|126:238,1,85.4999973907472,8|0,3:2|0:0,0:0:0:0:
330,155,17051,6,0,P|307:230|312:155,1,190,6|2,3:2|0:0,0:0:0:0:
312,73,17368,5,0,0:0:0:0:
351,63,17473,2,0,P|389:78|430:108,2,56.9999982604981,10|2|0,0:0|0:0|0:0,0:0:0:0:
456,268,17790,6,0,P|465:318|470:368,1,56.9999982604981,2|0,0:0|3:0,0:0:0:0:
312,316,18001,2,0,P|321:366|327:415,1,56.9999982604981,2|0,0:0|0:0,0:0:0:0:
157,370,18213,1,2,0:0:0:0:
136,369,18318,1,10,0:0:0:0:
95,364,18423,1,0,0:0:0:0:
58,331,18529,1,0,0:0:0:0:
54,275,18634,1,0,0:0:0:0:
75,196,18741,6,0,P|69:154|49:99,2,56.9999982604981,2|0|0,3:2|0:0|0:0,0:0:0:0:
227,120,19058,6,0,P|252:86|277:29,2,71.2500027179719,2|8|0,0:0|0:0|0:0,0:0:0:0:
371,261,19375,6,0,P|413:255|471:229,2,85.4999973907472,2|0|0,0:0|0:0|3:0,0:0:0:0:
443,54,19797,1,0,3:0:0:0:
431,63,19903,1,0,3:0:0:0:
421,72,20009,1,10,0:0:0:0:
374,74,20114,1,0,0:0:0:0:
327,76,20220,1,0,0:0:0:0:
280,78,20325,1,0,0:0:0:0:
243,80,20431,6,0,P|231:23|216:92,1,190,4|2,3:2|0:0,0:0:0:0:
89,135,20854,1,10,0:0:0:0:
77,129,20959,2,0,L|2:143,1,56.9999982604981,2|0,0:0|0:0,0:0:0:0:
217,175,21170,6,0,P|214:218|222:259,1,56.9999982604981,2|0,0:0|3:0,0:0:0:0:
350,292,21382,2,0,P|353:249|345:208,1,56.9999982604981,2|0,0:0|0:0,0:0:0:0:
190,316,21593,1,2,0:0:0:0:
190,316,21699,2,0,P|187:359|195:400,2,56.9999982604981,10|2|2,0:0|0:0|0:0,0:0:0:0:
293,183,22016,1,2,0:0:0:0:
351,127,22121,6,0,B|381:110|381:110|460:108,2,71.2500027179719,6|0|0,3:2|0:0|0:0,0:0:0:0:
211,97,22438,6,0,B|194:67|194:67|192:-12,2,85.4999973907472,6|8|0,0:0|0:0|0:0,0:0:0:0:
95,193,22755,6,0,B|65:210|65:210|-14:211,2,99.7499969558717,6|0|0,3:2|0:0|3:0,0:0:0:0:
218,295,23178,1,2,3:2:0:0:
249,280,23283,1,2,3:2:0:0:
283,272,23389,1,10,3:2:0:0:
317,273,23494,1,0,0:0:0:0:
351,281,23600,1,2,0:0:0:0:
382,296,23706,1,0,0:0:0:0:
409,318,23811,6,0,P|425:240|436:195,1,95,0|2,0:0|0:0,0:0:0:0:
477,161,24128,1,0,0:0:0:0:
477,161,24234,1,10,0:0:0:0:
347,28,24445,2,0,L|338:96,1,47.5,2|0,0:0|0:0,0:0:0:0:
269,112,24656,6,0,P|215:96|173:128,1,95,2|2,3:2|0:0,0:0:0:0:
124,171,24973,1,2,0:0:0:0:
124,171,25079,1,10,0:0:0:0:
237,337,25290,6,0,P|281:353|301:304,1,71.2500027179719,2|0,3:2|3:2,0:0:0:0:
270,198,25501,1,0,3:0:0:0:
270,198,25713,5,2,0:0:0:0:
291,204,25818,1,0,0:0:0:0:
313,212,25924,2,0,L|382:196,1,47.5,10|0,0:0|0:0,0:0:0:0:
447,244,26135,2,0,L|516:228,1,47.5,2|0,0:0|0:0,0:0:0:0:
408,98,26347,2,0,B|336:84|336:84|318:88|318:88|237:68,1,142.5,2|0,3:2|0:0,0:0:0:0:
249,78,26769,1,8,0:0:0:0:
53,124,26980,6,0,B|61:146|61:146|44:245,1,71.2500027179719,2|0,3:2|3:0,0:0:0:0:
14,312,27192,2,0,L|20:366,1,47.5,0|0,3:0|0:0,0:0:0:0:
92,380,27403,1,2,0:0:0:0:
225,293,27614,1,10,0:0:0:0:
53,124,27825,6,0,B|61:146|61:146|44:245,1,71.2500027179719,2|0,3:2|3:2,0:0:0:0:
19,359,28037,2,0,L|14:312,1,47.5,2|0,3:2|0:0,0:0:0:0:
20,280,28248,1,2,0:0:0:0:
148,181,28459,1,10,0:0:0:0:
300,238,28670,1,2,3:2:0:0:
331,250,28776,1,0,3:0:0:0:
358,259,28882,6,0,L|371:353,1,95,2|0,3:2|0:0,0:0:0:0:
399,100,29199,2,0,L|369:173,2,47.5,2|8|0,0:0|0:0|0:0,0:0:0:0:
233,15,29516,2,0,L|251:141,1,95,2|0,0:0|3:0,0:0:0:0:
201,359,29938,6,0,L|147:352,1,47.5,2|2,0:0|0:0,0:0:0:0:
290,323,30149,1,10,3:2:0:0:
326,284,30255,1,0,3:2:0:0:
375,270,30361,1,2,3:2:0:0:
423,283,30466,1,0,3:2:0:0:
462,321,30572,5,4,3:2:0:0:
497,100,30783,1,2,0:0:0:0:
374,142,30994,1,10,0:0:0:0:
482,211,31206,2,0,L|554:204,1,47.5,2|0,0:0|0:0,0:0:0:0:
409,59,31417,5,2,3:2:0:0:
224,141,31628,1,2,0:0:0:0:
238,188,31734,1,2,0:0:0:0:
259,230,31840,2,0,P|322:268|320:318,1,95,10|2,0:0|0:0,0:0:0:0:
233,329,32156,1,0,0:0:0:0:
213,323,32262,6,0,P|150:285|152:235,1,95,0|2,3:2|0:0,0:0:0:0:
109,181,32579,1,0,0:0:0:0:
109,181,32685,1,10,0:0:0:0:
243,46,32896,1,2,0:0:0:0:
384,175,33107,5,2,3:2:0:0:
384,175,33213,2,0,P|349:161|316:163,1,47.5,0|2,0:0|0:0,0:0:0:0:
224,246,33424,1,0,0:0:0:0:
224,246,33530,1,10,0:0:0:0:
36,136,33741,2,0,P|54:77|72:45,1,95,2|0,0:0|3:2,0:0:0:0:
276,173,34163,5,2,0:0:0:0:
200,197,34269,1,2,0:0:0:0:
125,223,34375,2,0,B|77:237|77:237|14:212,1,95,10|2,0:0|0:0,0:0:0:0:
428,125,34797,5,2,3:2:0:0:
352,149,34903,1,2,0:0:0:0:
276,173,35009,2,0,B|228:187|228:187|165:162,1,95,2|8,0:0|0:0,0:0:0:0:
245,23,35431,1,2,3:2:0:0:
253,26,35537,1,0,3:2:0:0:
262,30,35642,6,0,L|400:16,2,95,2|0|0,3:2|3:2|3:2,0:0:0:0:
115,112,35959,2,0,L|-23:126,2,95,2|8|0,3:2|0:0|3:0,0:0:0:0:
245,240,36276,1,2,3:2:0:0:
290,240,36381,1,0,3:2:0:0:
334,250,36487,1,8,3:2:0:0:
375,271,36593,2,0,L|367:338,1,47.5,0|0,3:0|3:2,0:0:0:0:
427,83,36804,6,0,L|425:36,2,47.5,0|8|8,3:2|0:0|0:0,0:0:0:0:
387,99,37016,1,0,3:2:0:0:
342,99,37121,1,0,3:2:0:0:
296,96,37227,1,0,3:2:0:0:
256,77,37332,5,6,3:2:0:0:
175,81,37438,2,0,L|160:187,1,95,0|0,3:2|0:0,0:0:0:0:
126,21,37755,2,0,L|143:152,1,123.499994346619,0|2,3:2|0:0,0:0:0:0:
34,225,38072,1,8,0:0:0:0:
21,235,38178,6,0,P|46:245|114:304,1,95,0|2,3:2|0:0,0:0:0:0:
206,255,38494,2,0,P|181:265|107:340,1,123.499994346619,10|0,3:2|0:0,0:0:0:0:
290,324,38811,2,0,L|301:217,1,104.500003189087,2|2,3:2|0:0,0:0:0:0:
308,211,39234,6,0,L|313:301,1,52.2500015945435,0|8,3:2|0:0,0:0:0:0:
240,31,39445,2,0,B|302:17|302:17|396:49,1,132.999995941162,0|2,3:2|0:0,0:0:0:0:
403,163,39762,5,8,3:2:0:0:
402,182,39868,2,0,L|413:229,2,33.2499989852906,0|0|2,3:2|0:0|0:0,0:0:0:0:
182,131,40185,1,2,3:2:0:0:
182,131,40290,6,0,P|129:57|80:58,1,123.499994346619,10|10,3:2|3:2,0:0:0:0:
73,55,40607,1,8,3:2:0:0:
25,66,40713,5,6,3:2:0:0:
86,145,40818,2,0,L|81:254,1,104.500003189087,0|0,3:2|0:0,0:0:0:0:
84,273,41135,2,0,B|108:267|108:267|254:286,1,123.499994346619,0|2,3:2|0:0,0:0:0:0:
336,327,41558,6,0,P|403:322|429:274,1,104.500003189087,0|2,3:2|0:0,0:0:0:0:
400,206,41875,1,0,3:2:0:0:
392,185,41980,2,0,P|435:134|420:79,1,123.499994346619,10|2,0:0|3:2,0:0:0:0:
351,26,42297,2,0,L|309:26,2,30.8749985866547,0|0|2,3:2|0:0|3:2,0:0:0:0:
172,71,42614,6,0,B|137:60|137:60|74:75,1,71.2500027179719,8|0,3:2|3:2,0:0:0:0:
144,166,42825,2,0,B|102:157|102:157|44:173,1,85.4999973907472,8|0,3:2|3:2,0:0:0:0:
9,254,43037,5,2,3:2:0:0:
9,254,43142,1,0,3:0:0:0:
9,254,43248,2,0,L|34:305,1,47.5,2|0,3:2|3:2,0:0:0:0:
193,254,43565,2,0,L|218:305,1,47.5,2|0,3:2|3:2,0:0:0:0:
370,348,43882,1,2,3:2:0:0:
370,348,44199,6,0,P|416:336|457:352,1,76
485,359,44516,6,0,L|490:200,1,132.999995941162,12|2,3:2|0:0,0:0:0:0:
398,94,44832,1,2,3:2:0:0:
377,70,44938,6,0,P|302:85|246:114,1,113.999996520996,6|0,3:2|0:0,0:0:0:0:
175,245,45255,2,0,P|217:181|235:116,1,142.500005435944,6|0,3:2|0:0,0:0:0:0:
78,53,45572,2,0,P|141:95|205:108,1,95,6|0,3:2|0:0,0:0:0:0:
234,86,45783,5,10,3:2:0:0:
366,241,45994,1,0,3:2:0:0:
366,241,46100,1,0,3:2:0:0:
366,241,46206,2,0,B|382:262|382:262|372:281|372:281|414:318|403:370,1,123.499994346619,4|2,3:2|3:2,0:0:0:0:
149,338,46628,5,10,3:2:0:0:
160,307,46734,1,0,3:2:0:0:
198,123,46945,1,2,3:2:0:0:
187,92,47051,1,8,3:2:0:0:
174,62,47156,2,0,L|181:7,2,30.8749985866547,0|0|2,0:0|0:0|3:2,0:0:0:0:
399,22,47473,5,14,3:2:0:0:
303,195,47685,1,2,3:2:0:0:
500,110,47896,1,10,3:2:0:0:
286,57,48107,1,2,3:2:0:0:
460,286,48318,2,0,P|389:309|280:357,1,156.750004783631,2|0,3:2|0:0,0:0:0:0:
227,357,48741,1,8,3:2:0:0:
227,357,48847,1,0,0:0:0:0:
163,262,48952,6,0,P|172:89|175:67,1,185.249991519928,6|0,3:2|0:0,0:0:0:0:
222,8,49375,1,2,3:2:0:0:
42,78,49586,1,10,3:2:0:0:
256,146,49797,1,2,3:2:0:0:
12,217,50009,2,0,B|16:279|16:279|72:331,1,123.499994346619,2|0,3:2|0:0,0:0:0:0:
135,358,50325,1,0,0:0:0:0:
177,366,50431,1,10,3:2:0:0:
220,361,50537,1,0,0:0:0:0:
257,339,50642,1,0,3:2:0:0:
288,308,50748,1,0,3:2:0:0:
291,267,50854,6,0,B|296:242|286:220|286:220|312:235|315:281,1,95,6|10,3:2|3:2,0:0:0:0:
181,71,51170,2,0,L|336:57,1,123.499994346619,10|0,3:2|3:2,0:0:0:0:
452,49,51487,5,10,3:2:0:0:
412,142,51593,1,10,3:2:0:0:
472,329,51804,2,0,P|395:336|301:358,1,123.499994346619,10|0,3:2|3:2,0:0:0:0:
193,313,52121,5,10,3:2:0:0:
233,221,52227,1,10,3:2:0:0:
41,137,52438,2,0,P|68:211|21:309,1,185.249991519928,10|0,3:2|3:2,0:0:0:0:
17,311,52861,1,0,3:2:0:0:
8,301,52966,6,0,B|119:278|66:343|202:310,1,190,14|0,3:2|0:0,0:0:0:0:
208,309,53600,6,0,B|233:287|312:284|312:284|290:227|193:212,1,213.749993476868,6|0,3:2|0:0,0:0:0:0:
278,375,54234,5,6,3:2:0:0:
407,271,54445,1,2,0:0:0:0:
417,225,54551,1,2,0:0:0:0:
393,187,54656,1,10,0:0:0:0:
259,41,54868,1,2,0:0:0:0:
249,87,54974,1,2,0:0:0:0:
273,125,55079,2,0,P|292:181|240:262,1,142.500005435944,2|0,3:2|0:0,0:0:0:0:
109,266,55396,5,2,0:0:0:0:
123,251,55501,2,0,P|92:219|48:210,1,71.2500027179719,8|0,0:0|0:0,0:0:0:0:
12,153,55713,6,0,P|45:64|100:66,1,142.500005435944,2|4,0:0|3:2,0:0:0:0:
288,16,56135,1,2,0:0:0:0:
334,23,56241,1,2,0:0:0:0:
377,30,56347,1,10,0:0:0:0:
424,226,56558,1,2,0:0:0:0:
378,219,56664,1,2,0:0:0:0:
335,212,56769,2,0,L|174:187,1,142.500005435944,2|0,3:2|0:0,0:0:0:0:
142,261,57086,5,2,0:0:0:0:
126,284,57192,2,0,P|121:230|112:181,1,71.2500027179719,8|0,0:0|0:0,0:0:0:0:
74,142,57403,5,2,0:0:0:0:
214,286,57614,1,6,3:2:0:0:
267,154,57825,2,0,P|334:128|396:143,1,113.999996520996,2|8,0:0|0:0,0:0:0:0:
485,224,58248,2,0,L|499:294,1,56.9999982604981,2|0,0:0|0:0,0:0:0:0:
444,90,58459,6,0,L|430:20,1,56.9999982604981,2|0,3:2|0:0,0:0:0:0:
333,217,58670,2,0,L|319:287,1,56.9999982604981,2|0,0:0|0:0,0:0:0:0:
203,75,58882,6,0,P|161:78|121:118,1,56.9999982604981,10|0,3:2|0:0,0:0:0:0:
139,232,59093,2,0,P|181:229|221:189,1,56.9999982604981,2|0,0:0|0:0,0:0:0:0:
41,107,59304,6,0,L|26:60,4,47.5,6|0|0|0|0,3:2|0:0|0:0|0:0|3:2,0:0:0:0:
61,271,59621,2,0,L|46:318,4,47.5,2|0|8|0|0,0:0|0:0|0:0|0:0|3:2,0:0:0:0:
267,205,59938,6,0,L|257:138,6,59.375,6|0|0|0|0|0|0,0:0|0:0|0:0|0:0|3:2|0:0|3:2,0:0:0:0:
283,222,60361,5,2,3:2:0:0:
315,240,60466,1,0,3:0:0:0:
353,238,60572,1,10,3:2:0:0:
384,215,60678,1,0,0:0:0:0:
390,168,60783,1,2,0:0:0:0:
430,96,60889,1,0,0:0:0:0:
512,97,60994,5,6,3:2:0:0:
503,311,61206,1,2,0:0:0:0:
457,311,61311,1,2,0:0:0:0:
418,337,61417,1,10,0:0:0:0:
235,251,61628,1,2,0:0:0:0:
281,251,61733,1,2,0:0:0:0:
320,277,61840,2,0,P|234:301|157:338,1,142.500005435944,2|0,3:2|0:0,0:0:0:0:
75,344,62156,6,0,P|45:317|1:308,2,71.2500027179719,2|8|0,0:0|0:0|0:0,0:0:0:0:
94,363,62473,1,2,0:0:0:0:
151,105,62685,5,6,3:2:0:0:
7,175,62896,1,2,0:0:0:0:
145,264,63107,1,10,0:0:0:0:
259,24,63318,6,0,B|333:70|307:150|307:150|284:211,1,185.249991519928,2|0,0:0|0:0,0:0:0:0:
251,279,63741,2,0,L|266:358,1,61.7499971733095,2|0,0:0|0:0,0:0:0:0:
357,304,63952,2,0,L|372:383,1,61.7499971733095,10|0,0:0|0:0,0:0:0:0:
445,226,64163,1,2,0:0:0:0:
445,226,64269,1,0,3:2:0:0:
445,226,64375,5,4,3:2:0:0:
397,13,64586,1,2,0:0:0:0:
506,132,64797,1,10,0:0:0:0:
314,182,65009,1,2,0:0:0:0:
274,165,65114,1,2,0:0:0:0:
235,152,65220,1,2,3:2:0:0:
193,0,65431,1,2,0:0:0:0:
129,112,65642,1,10,0:0:0:0:
309,334,65854,6,0,L|126:346,1,142.500005435944,6|0,3:2|3:2,0:0:0:0:
89,349,66170,1,0,3:2:0:0:
69,339,66276,2,0,P|61:298|31:226,1,71.2500027179719,2|0,3:2|3:2,0:0:0:0:
41,34,66487,2,0,P|30:67|26:95,6,35.625001358986,6|0|0|0|0|0|0,3:2|0:0|0:0|0:0|3:2|0:0|3:2,0:0:0:0:
116,8,66910,1,0,3:0:0:0:
292,45,67121,5,2,0:0:0:0:
283,88,67226,1,0,0:0:0:0:
281,131,67332,1,10,0:0:0:0:
293,172,67437,1,0,0:0:0:0:
315,210,67543,1,2,3:2:0:0:
319,253,67649,1,0,3:0:0:0:
314,296,67754,5,6,3:2:0:0:
116,248,67966,1,2,0:0:0:0:
82,253,68072,1,2,0:0:0:0:
47,260,68178,1,10,0:0:0:0:
160,62,68389,1,2,0:0:0:0:
194,67,68495,1,2,0:0:0:0:
229,74,68600,2,0,L|245:237,1,142.500005435944,2|0,3:2|0:0,0:0:0:0:
245,301,68917,5,2,0:0:0:0:
233,326,69023,2,0,L|318:317,1,71.2500027179719,8|0,0:0|0:0,0:0:0:0:
367,274,69234,6,0,P|393:286|446:197,1,142.500005435944,2|4,0:0|3:2,0:0:0:0:
267,31,69656,1,2,0:0:0:0:
280,65,69762,1,2,0:0:0:0:
271,103,69868,1,10,0:0:0:0:
114,262,70079,1,2,0:0:0:0:
101,228,70185,1,2,0:0:0:0:
110,190,70290,2,0,P|175:173|259:189,1,142.500005435944,2|0,3:2|0:0,0:0:0:0:
326,216,70607,5,2,0:0:0:0:
316,241,70713,2,0,L|410:230,1,71.2500027179719,8|0,0:0|0:0,0:0:0:0:
458,184,70924,5,2,0:0:0:0:
446,368,71135,1,6,3:2:0:0:
512,305,71347,1,2,0:0:0:0:
255,330,71558,6,0,P|223:347|195:373,1,56.9999982604981,8|0,0:0|0:0,0:0:0:0:
57,290,71769,2,0,P|79:307|104:320,1,56.9999982604981,2|0,0:0|0:0,0:0:0:0:
175,155,71980,6,0,L|157:239,1,56.9999982604981,2|0,3:2|0:0,0:0:0:0:
61,0,72192,2,0,L|79:84,1,56.9999982604981,2|0,0:0|0:0,0:0:0:0:
323,45,72403,6,0,P|372:69|390:118,1,56.9999982604981,10|0,3:2|0:0,0:0:0:0:
269,194,72614,1,2,3:2:0:0:
269,194,72720,1,0,3:0:0:0:
269,194,72825,6,0,B|279:217|279:217|249:245,4,47.5,6|0|0|0|0,3:2|0:0|0:0|0:0|3:2,0:0:0:0:
442,248,73142,2,0,B|432:271|432:271|391:269,4,47.5,2|0|8|0|0,0:0|0:0|0:0|0:0|3:2,0:0:0:0:
240,374,73459,6,0,B|210:381|210:381|188:354,10,59.375,6|0|0|0|0|0|0|0|2|0|0,0:0|0:0|0:0|0:0|3:2|0:0|3:2|0:0|3:2|0:0|3:0,0:0:0:0:
10,336,74093,1,10,3:2:0:0:
14,285,74199,1,0,0:0:0:0:
17,237,74304,1,2,0:0:0:0:
22,189,74410,1,0,0:0:0:0:
26,141,74516,6,0,B|148:88|103:195|272:81,1,213.750008153916,6|0,3:2|0:0,0:0:0:0:
320,254,74938,6,0,B|297:272|299:321|299:321|262:287|226:301,1,142.500005435944,10|0,3:2|0:0,0:0:0:0:
395,308,75361,1,2,3:2:0:0:
353,120,75572,1,2,0:0:0:0:
361,99,75678,1,0,0:0:0:0:
370,75,75783,2,0,L|454:60,1,71.2500027179719,10|0,0:0|0:0,0:0:0:0:
141,292,75994,2,0,L|57:307,1,71.2500027179719,2|0,3:2|3:2,0:0:0:0:
77,275,76206,6,0,L|268:285,1,142.500005435944,4|2,3:2|0:0,0:0:0:0:
299,384,76628,1,8,0:0:0:0:
195,157,76840,2,0,P|211:111|204:32,1,71.2500027179719,2|0,0:0|0:0,0:0:0:0:
195,77,77051,2,0,P|200:120|274:224,1,142.500005435944,0|2,3:2|0:0,0:0:0:0:
319,253,77368,1,0,0:0:0:0:
365,264,77473,1,8,0:0:0:0:
93,181,77685,6,0,B|66:18|66:18|115:52,1,213.750008153916,4|0,0:0|0:0,0:0:0:0:
309,119,78107,1,2,3:2:0:0:
182,271,78318,1,10,3:2:0:0:
394,341,78530,2,0,P|460:303|389:182,1,246.999988693238,4|2,3:2|0:0,0:0:0:0:
249,204,79163,1,2,0:0:0:0:
95,167,79375,6,0,L|89:81,2,56.9999982604981,6|0|0,0:0|0:0|3:2,0:0:0:0:
64,260,79692,1,0,3:2:0:0:
67,287,79797,1,0,3:2:0:0:
69,316,79903,1,0,3:2:0:0:
152,356,80009,6,0,P|193:269|329:368,1,285,6|0,3:2|3:0,0:0:0:0:
336,349,80748,1,0,3:0:0:0:
352,340,80854,1,8,3:2:0:0:
370,327,80959,1,0,3:0:0:0:
388,317,81065,1,0,3:0:0:0:
405,306,81170,1,0,3:0:0:0:
455,314,81276,5,4,3:2:0:0:
464,184,81487,1,0,0:0:0:0:
352,122,81699,1,8,3:2:0:0:
337,128,81804,1,0,0:0:0:0:
321,123,81910,1,0,0:0:0:0:
314,108,82016,1,0,0:0:0:0:
323,95,82121,5,4,3:2:0:0:
217,207,82332,1,0,0:0:0:0:
174,78,82544,1,8,3:2:0:0:
158,78,82649,1,0,0:0:0:0:
146,88,82755,1,0,3:2:0:0:
148,103,82861,1,0,3:2:0:0:
159,113,82966,5,12,3:2:0:0:
130,236,83178,1,0,3:2:0:0:
5,218,83389,1,12,3:2:0:0:
105,356,83600,1,0,3:2:0:0:
252,266,83811,5,12,3:2:0:0:
269,249,83917,1,0,3:2:0:0:
288,234,84023,1,0,3:2:0:0:
304,216,84128,1,0,3:2:0:0:
317,202,84234,6,0,L|318:179,3,23.75,12|8|8|8,3:2|3:2|3:2|3:2,0:0:0:0:
333,97,84656,6,0,P|385:79|323:81,1,170.999994781494,6|2,3:2|0:0,0:0:0:0:
248,53,84973,1,0,0:0:0:0:
196,51,85079,1,10,0:0:0:0:
147,67,85185,1,2,0:0:0:0:
121,111,85290,1,0,0:0:0:0:
96,200,85396,6,0,P|105:261|120:284,1,56.9999982604981,2|0,0:0|3:2,0:0:0:0:
211,193,85607,2,0,P|202:132|187:109,1,56.9999982604981,2|0,0:0|0:0,0:0:0:0:
169,315,85818,1,2,0:0:0:0:
210,334,85924,1,10,0:0:0:0:
254,343,86030,1,0,0:0:0:0:
299,339,86135,1,0,0:0:0:0:
341,321,86241,1,0,0:0:0:0:
388,289,86347,6,0,L|404:100,1,142.500005435944,6|0,3:2|0:0,0:0:0:0:
238,249,86663,2,0,L|254:57,1,161.500003080368,6|0,3:2|0:0,0:0:0:0:
29,232,86980,2,0,L|46:43,1,180.49999518013,6|0,3:2|3:2,0:0:0:0:
128,305,87403,1,2,3:2:0:0:
121,111,87614,6,0,B|141:92|141:92|166:101|166:101|202:73|266:92,1,142.500005435944,4|0,0:2|0:0,0:0:0:0:
