osu file format v14

[General]
AudioFilename: audio.mp3
AudioLeadIn: 0
PreviewTime: 53389
Countdown: 0
SampleSet: Soft
StackLeniency: 0.7
Mode: 0
LetterboxInBreaks: 0
WidescreenStoryboard: 0

[Editor]
Bookmarks: 13658,17039,56757,84644
DistanceSpacing: 1.4
BeatDivisor: 4
GridSize: 32
TimelineZoom: 1.9

[Metadata]
Title:Otowa (TV Size)
TitleUnicode:オトワ (TV Size)
Artist:Taiyou to Odore, Tsukiyo ni Utae
ArtistUnicode:太陽と踊れ月夜に唄え
Creator:Lune
Version:Hard
Source:愚かな天使は悪魔と踊る
Tags:anime op opening cut short version Oroka na Tenshi wa Akuma to Odoru The Foolish Angel Dances with the Devil Demons 阿久津雅虎 天音リリ j-pop jpop japanese pop female vocals idol girlgroup aoi mayu 蒼生茉由 nagira hiyori 凪楽ひより nonose hazuki 野々瀬葉月hasumi nodoka 羽澄和奏 hanasaki kao 花咲花桜 ameshima shizuku 雨島詩月 enomiya anri 榎宮あんり mitsuha mio 三葉海緒 yuzuki julia 夕綺友里杏 manga
BeatmapID:4557700
BeatmapSetID:2161281

[Difficulty]
HPDrainRate:5
CircleSize:4
OverallDifficulty:6
ApproachRate:7
SliderMultiplier:1.6
SliderTickRate:1

[Events]
//Background and Video events
0,0,"otowa bg.jpg",0,0
Video,437,"otowavid.mp4"
//Break Periods
//Storyboard Layer 0 (Background)
//Storyboard Layer 1 (Fail)
//Storyboard Layer 2 (Pass)
//Storyboard Layer 3 (Foreground)
//Storyboard Layer 4 (Overlay)
//Storyboard Sound Samples

[TimingPoints]
1840,422.535211267606,4,2,1,50,1,0
1840,-125,4,2,1,50,0,0
8389,-111.111111111111,4,2,1,50,0,0
11980,-111.111111111111,4,2,1,60,0,0
13670,-83.3333333333333,4,2,1,70,0,0
17051,-90.9090909090909,4,2,1,70,0,0
23178,-100,4,2,1,70,0,0
53600,-111.111111111111,4,2,1,70,0,0
54234,-83.3333333333333,4,2,1,80,0,1
67649,-100,4,2,1,80,0,0
67755,-83.3333333333333,4,2,1,80,0,1
80009,-100,4,2,1,80,0,1
81276,-90.9090909090909,4,2,1,70,0,0
84656,-100,4,2,1,70,0,0

[Colours]
Combo1 : 118,211,184
Combo2 : 231,122,163
Combo3 : 231,135,103
Combo4 : 101,214,115
Combo5 : 252,86,86
Combo6 : 248,224,88
Combo7 : 107,215,226
Combo8 : 179,119,210

[HitObjects]
177,272,1840,6,0,P|273:223|317:221,1,128,2|0,0:0|0:0,0:0:0:0:
377,225,2473,1,0,0:0:0:0:
459,199,2685,1,2,0:0:0:0:
458,112,2896,2,0,L|501:116,2,32,2|2|2,0:0|0:0|0:0,0:0:0:0:
372,94,3318,6,0,P|305:86|257:44,1,128,2|0,0:0|0:0,0:0:0:0:
181,13,3952,2,0,L|178:92,1,64
221,154,4375,1,2,0:0:0:0:
156,211,4586,2,0,L|108:178,2,32,2|2|2,0:0|0:0|0:0,0:0:0:0:
214,276,5009,6,0,B|158:337|152:273|90:360,1,128,2|0,0:0|0:0,0:0:0:0:
25,365,5642,2,0,P|18:315|3:278,1,64
3,216,6065,1,2,0:0:0:0:
3,216,6276,1,2,0:0:0:0:
86,190,6487,2,0,P|129:155|153:127,1,64,2|0,0:0|0:0,0:0:0:0:
176,68,6910,6,0,B|137:39|137:39|78:59,2,96,2|2|2,0:0|0:0|0:0,0:0:0:0:
270,202,7966,1,2,0:0:0:0:
270,202,8072,1,2,0:0:0:0:
270,202,8178,1,2,0:0:0:0:
355,171,8389,6,0,P|415:186|485:246,1,143.999995605469,2|0,0:0|0:0,0:0:0:0:
508,319,9023,1,0,0:0:0:0:
428,355,9234,2,0,P|371:344|330:346,1,71.9999978027344,0|2,0:0|0:0,0:0:0:0:
270,346,9656,1,2,0:0:0:0:
270,346,9762,1,2,0:0:0:0:
270,346,9868,1,2,0:0:0:0:
221,269,10079,6,0,P|234:119|233:96,1,143.999995605469,2|0,0:0|0:0,0:0:0:0:
208,44,10713,1,0,0:0:0:0:
126,19,10924,1,0,0:0:0:0:
48,66,11135,2,0,P|30:100|30:153,1,71.9999978027344,2|2,0:0|0:0,0:0:0:0:
47,222,11558,2,0,L|176:220,1,107.999996704102,2|0,0:0|0:0,0:0:0:0:
196,223,11980,6,0,L|181:301,2,71.9999978027344,2|2|2,0:0|0:0|0:0,0:0:0:0:
218,135,12614,2,0,P|226:85|316:81,1,143.999995605469,2|2,0:0|0:0,0:0:0:0:
369,144,13248,1,2,0:0:0:0:
369,144,13670,6,0,B|400:184|400:184|386:237,1,95.9999970703126,6|0,3:2|3:0,0:0:0:0:
330,294,14093,2,0,P|255:295|193:360,1,143.999995605469,8|0,0:0|0:0,0:0:0:0:
137,362,14516,2,0,L|67:362,3,47.9999985351563,0|0|0|0,3:0|0:0|0:0|0:0,0:0:0:0:
121,291,14938,2,0,L|51:291,3,47.9999985351563,0|0|0|0,3:0|0:0|0:0|0:0,0:0:0:0:
129,218,15361,6,0,P|132:162|104:116,1,95.9999970703126,8|0,3:2|3:0,0:0:0:0:
46,51,15783,1,8,3:2:0:0:
122,0,15994,1,0,3:2:0:0:
198,60,16206,2,0,L|264:50,3,47.9999985351563,8|0|0|0,3:2|3:2|3:2|3:2,0:0:0:0:
292,58,16628,1,8,3:2:0:0:
370,193,17051,5,6,3:2:0:0:
345,290,17262,2,0,L|405:344,2,44.0000013427735,2|0|10,0:0|0:0|0:0,0:0:0:0:
249,261,17685,1,0,0:0:0:0:
249,261,17790,1,2,0:0:0:0:
249,261,17896,2,0,P|206:250|162:248,1,88.000002685547,0|0,3:0|0:0,0:0:0:0:
97,283,18213,2,0,P|65:284|25:262,1,44.0000013427735,2|10,0:0|0:0,0:0:0:0:
3,202,18530,1,0,0:0:0:0:
75,135,18741,6,0,P|106:98|106:46,1,88.000002685547,2|0,3:2|0:0,0:0:0:0:
116,31,19058,2,0,P|171:12|219:43,1,88.000002685547,2|0,0:0|0:0,0:0:0:0:
222,38,19375,2,0,P|277:57|325:26,1,88.000002685547,2|0,0:0|3:0,0:0:0:0:
376,129,19797,1,0,3:0:0:0:
376,129,19903,1,0,3:0:0:0:
376,129,20009,2,0,B|366:157|366:157|373:179|373:179|368:199|368:199|381:248,1,88.000002685547,10|0,0:0|0:0,0:0:0:0:
405,301,20431,5,4,3:2:0:0:
318,342,20642,1,2,0:0:0:0:
253,265,20854,2,0,L|257:192,2,44.0000013427735,10|2|0,0:0|0:0|0:0,0:0:0:0:
212,326,21170,2,0,P|149:333|111:305,1,88.000002685547,2|2,0:0|0:0,0:0:0:0:
100,227,21593,2,0,P|126:194|155:186,1,44.0000013427735,2|10,0:0|0:0,0:0:0:0:
214,155,21910,1,2,0:0:0:0:
214,155,22016,1,2,0:0:0:0:
214,155,22121,5,6,3:2:0:0:
142,35,22438,1,6,0:0:0:0:
40,129,22755,1,6,3:2:0:0:
114,315,23178,2,0,L|55:325,2,40,2|2|10,3:2|3:2|3:2,0:0:0:0:
194,255,23600,6,0,P|249:257|333:334,1,160,2|2,0:0|0:0,0:0:0:0:
402,376,24234,1,10,0:0:0:0:
409,285,24445,1,2,0:0:0:0:
365,205,24656,1,2,3:2:0:0:
308,138,24868,2,0,L|250:141,2,40,2|2|10,0:0|0:0|0:0,0:0:0:0:
393,97,25290,6,0,L|499:113,1,80,2|0,3:2|3:0,0:0:0:0:
439,20,25713,1,2,0:0:0:0:
345,12,25924,1,10,0:0:0:0:
266,62,26135,1,2,0:0:0:0:
172,54,26347,2,0,P|117:73|80:102,1,80,2|2,3:2|0:0,0:0:0:0:
79,110,26663,1,0,0:0:0:0:
79,110,26769,1,8,0:0:0:0:
72,203,26980,2,0,L|65:254,1,40,2|0,3:2|3:0,0:0:0:0:
65,270,27192,6,0,L|172:254,1,80,0|2,3:0|0:0,0:0:0:0:
226,215,27614,1,10,0:0:0:0:
259,307,27825,1,2,3:2:0:0:
259,307,27931,1,0,3:2:0:0:
259,307,28037,2,0,L|346:293,1,80,2|2,3:2|0:0,0:0:0:0:
389,213,28459,1,10,0:0:0:0:
314,152,28670,1,2,3:2:0:0:
359,71,28882,6,0,P|413:49|461:68,1,80,2|0,3:2|0:0,0:0:0:0:
477,70,29199,2,0,L|494:160,1,80,2|0,0:0|0:0,0:0:0:0:
480,186,29516,2,0,L|497:276,1,80,2|0,0:0|3:0,0:0:0:0:
417,326,29938,1,2,0:0:0:0:
417,326,30044,1,2,0:0:0:0:
417,326,30149,2,0,L|418:377,2,40,10|0|2,3:2|3:2|3:2,0:0:0:0:
350,251,30572,6,0,P|309:216|272:193,1,80,4|2,3:2|0:0,0:0:0:0:
203,162,30994,1,10,0:0:0:0:
133,234,31206,1,2,0:0:0:0:
81,147,31417,1,2,3:2:0:0:
135,63,31628,2,0,L|86:27,2,40,2|2|10,0:0|0:0|0:0,0:0:0:0:
227,58,32051,6,0,P|276:55|320:80,1,80,2|0,0:0|3:2,0:0:0:0:
329,156,32473,1,2,0:0:0:0:
249,213,32685,1,10,0:0:0:0:
292,315,32896,1,2,0:0:0:0:
292,315,33001,1,0,0:0:0:0:
292,315,33107,2,0,L|375:307,1,80,2|2,3:2|0:0,0:0:0:0:
455,251,33530,1,10,0:0:0:0:
409,164,33741,6,0,L|326:156,1,80,2|0,0:0|3:2,0:0:0:0:
257,88,34163,1,2,0:0:0:0:
257,88,34269,1,2,0:0:0:0:
257,88,34375,2,0,P|220:115|178:159,1,80,10|2,0:0|0:0,0:0:0:0:
105,173,34797,1,2,3:2:0:0:
105,173,34903,1,2,0:0:0:0:
105,173,35009,2,0,P|68:200|26:244,1,80,2|8,0:0|0:0,0:0:0:0:
3,312,35431,1,2,3:2:0:0:
92,355,35642,6,0,B|132:357|132:357|190:336,1,80,2|0,3:2|3:2,0:0:0:0:
208,325,35959,2,0,B|248:323|248:323|306:344,1,80,2|0,3:2|3:0,0:0:0:0:
330,360,36276,2,0,L|388:351,4,40,2|0|8|0|0,3:2|3:2|3:2|3:0|3:2,0:0:0:0:
459,366,36910,1,8,0:0:0:0:
459,366,37016,1,0,3:2:0:0:
459,366,37121,1,0,3:2:0:0:
488,272,37332,5,6,3:2:0:0:
496,251,37438,2,0,B|481:174|481:174|502:112,1,120,0|0,3:2|3:2,0:0:0:0:
481,44,37966,2,0,P|415:35|381:58,1,80,2|0,0:0|3:2,0:0:0:0:
355,115,38389,2,0,L|359:173,2,40,2|10|2,0:0|3:2|0:0,0:0:0:0:
295,40,38811,1,2,3:2:0:0:
243,124,39023,6,0,L|246:226,1,80,2|0,0:0|3:2,0:0:0:0:
250,242,39340,1,8,0:0:0:0:
250,242,39445,1,0,3:2:0:0:
159,278,39656,2,0,P|111:303|66:335,1,80,2|0,0:0|3:2,0:0:0:0:
0,280,40079,1,2,0:0:0:0:
0,280,40185,1,2,3:2:0:0:
0,280,40290,1,10,3:2:0:0:
54,198,40501,1,10,3:2:0:0:
8,112,40713,5,6,3:2:0:0:
24,94,40818,2,0,B|59:52|59:52|151:57,1,120,0|0,3:2|3:2,0:0:0:0:
211,93,41347,2,0,P|259:78|304:59,1,80,2|0,0:0|3:2,0:0:0:0:
378,37,41769,1,2,0:0:0:0:
378,37,41875,1,0,3:2:0:0:
378,37,41980,1,10,0:0:0:0:
425,124,42192,1,2,3:2:0:0:
379,216,42403,6,0,P|371:234|366:253,3,40,2|0|8|0,3:2|3:2|3:2|3:2,0:0:0:0:
363,280,42824,1,8,3:2:0:0:
358,292,42930,1,0,3:2:0:0:
353,302,43036,1,2,3:2:0:0:
265,343,43248,2,0,L|206:337,1,40,2|0,3:2|3:2,0:0:0:0:
197,247,43565,2,0,L|256:253,1,40,2|0,3:2|3:2,0:0:0:0:
308,180,43882,1,2,3:2:0:0:
308,180,44093,6,0,P|321:142|270:77,1,120,2|0,0:0|0:0,0:0:0:0:
234,64,44516,1,12,3:2:0:0:
138,88,44727,1,2,0:0:0:0:
138,88,44832,1,2,3:2:0:0:
138,88,44938,2,0,P|74:95|49:164,2,120,6|6|6,3:2|3:2|3:2,0:0:0:0:
134,183,45783,5,10,3:2:0:0:
60,248,45994,2,0,L|5:245,2,40,0|0|4,3:2|3:2|3:2,0:0:0:0:
142,302,46417,1,2,3:2:0:0:
142,302,46523,1,0,3:2:0:0:
142,302,46628,2,0,P|165:322|201:333,1,40,10|0,3:2|3:2,0:0:0:0:
266,274,46945,2,0,P|243:254|207:243,1,40,2|8,3:2|3:2,0:0:0:0:
221,155,47262,1,2,3:2:0:0:
303,92,47473,6,0,L|395:84,1,80,14|2,3:2|3:2,0:0:0:0:
474,125,47896,1,10,3:2:0:0:
452,219,48107,1,2,3:2:0:0:
352,226,48318,2,0,B|303:316|283:247|240:358,1,160,2|8,3:2|3:2,0:0:0:0:
255,342,48847,1,0,0:0:0:0:
265,341,48952,6,0,B|229:247|209:316|160:226,1,160,6|2,3:2|3:2,0:0:0:0:
128,138,49586,1,10,3:2:0:0:
197,72,49797,1,2,3:2:0:0:
116,15,50009,2,0,B|35:32|35:32|11:127,1,160,2|10,3:2|3:2,0:0:0:0:
26,266,50854,6,0,L|13:317,1,40,6|10,3:2|3:2,0:0:0:0:
74,384,51170,1,10,3:2:0:0:
158,272,51487,2,0,L|145:221,1,40,10|10,3:2|3:2,0:0:0:0:
206,154,51803,1,10,3:2:0:0:
317,230,52121,2,0,L|307:268,1,40,10|10,3:2|3:2,0:0:0:0:
365,348,52437,1,10,3:2:0:0:
483,276,52755,5,0,3:2:0:0:
483,276,52861,1,0,3:2:0:0:
483,276,52966,2,0,B|497:148|422:224|452:69,1,200,14|0,3:2|0:0,0:0:0:0:
452,64,53600,6,0,B|393:59|393:59|373:71|373:71|283:66,1,143.999995605469,6|2,3:2|0:0,0:0:0:0:
213,84,54234,6,0,P|211:135|236:184,1,95.9999970703126,6|2,3:2|0:0,0:0:0:0:
242,190,54551,1,2,0:0:0:0:
256,200,54656,1,10,0:0:0:0:
334,264,54868,1,2,0:0:0:0:
334,264,54973,1,2,0:0:0:0:
334,264,55079,2,0,P|336:311|318:355,1,95.9999970703126,2|0,3:2|0:0,0:0:0:0:
248,377,55396,2,0,P|208:363|190:335,1,47.9999985351563,2|8,0:0|0:0,0:0:0:0:
163,271,55713,1,2,0:0:0:0:
154,173,55924,6,0,P|163:117|169:55,1,95.9999970703126,4|2,3:2|0:0,0:0:0:0:
165,60,56241,1,2,0:0:0:0:
161,42,56347,1,10,0:0:0:0:
67,12,56558,1,2,0:0:0:0:
67,12,56663,1,2,0:0:0:0:
67,12,56769,2,0,P|58:68|52:130,1,95.9999970703126,2|0,3:2|0:0,0:0:0:0:
74,181,57086,2,0,P|75:226|70:260,1,47.9999985351563,2|8,0:0|0:0,0:0:0:0:
48,325,57403,1,2,0:0:0:0:
140,362,57614,5,6,3:2:0:0:
194,280,57825,2,0,P|239:251|305:254,1,95.9999970703126,2|8,0:0|0:0,0:0:0:0:
374,275,58248,1,2,0:0:0:0:
432,195,58459,2,0,L|416:91,1,95.9999970703126,2|2,3:2|0:0,0:0:0:0:
498,51,58882,2,0,L|514:155,1,95.9999970703126,10|2,3:2|0:0,0:0:0:0:
493,245,59304,6,0,P|447:295|427:349,1,95.9999970703126,6|0,3:2|3:2,0:0:0:0:
418,342,59621,2,0,L|299:343,1,95.9999970703126,2|0,0:0|3:2,0:0:0:0:
299,341,59938,2,0,P|275:278|295:235,1,95.9999970703126,6|0,0:0|3:2,0:0:0:0:
325,165,60361,1,2,3:2:0:0:
325,165,60466,1,0,3:0:0:0:
325,165,60572,1,10,3:2:0:0:
285,76,60783,1,2,0:0:0:0:
194,44,60994,6,0,P|111:53|81:60,1,95.9999970703126,6|2,3:2|0:0,0:0:0:0:
81,63,61311,1,2,0:0:0:0:
69,68,61417,1,10,0:0:0:0:
21,156,61628,1,2,0:0:0:0:
21,156,61734,1,2,0:0:0:0:
21,156,61840,2,0,P|104:165|134:172,1,95.9999970703126,2|0,3:2|0:0,0:0:0:0:
187,197,62156,2,0,P|212:200|259:169,1,47.9999985351563,2|8,0:0|0:0,0:0:0:0:
313,137,62473,1,2,0:0:0:0:
372,217,62685,6,0,L|383:320,1,95.9999970703126,6|2,3:2|0:0,0:0:0:0:
470,357,63107,1,10,0:0:0:0:
512,269,63318,2,0,L|501:166,1,95.9999970703126,2|0,0:0|3:2,0:0:0:0:
447,95,63741,1,2,0:0:0:0:
350,117,63952,1,10,0:0:0:0:
257,144,64163,1,2,0:0:0:0:
257,144,64375,6,0,P|253:206|239:264,1,95.9999970703126,4|2,3:2|0:0,0:0:0:0:
191,321,64797,1,10,0:0:0:0:
121,252,65009,1,2,0:0:0:0:
121,252,65114,1,2,0:0:0:0:
121,252,65220,2,0,L|18:272,1,95.9999970703126,2|2,3:2|0:0,0:0:0:0:
3,179,65642,1,10,0:0:0:0:
90,124,65854,6,0,B|157:138|157:138|181:160|181:160|285:182,1,191.999994140625,6|2,3:2|3:2,0:0:0:0:
359,141,66487,2,0,P|308:168|375:255,1,191.999994140625,6|0,3:2|3:0,0:0:0:0:
445,200,67121,1,2,0:0:0:0:
445,200,67227,1,0,0:0:0:0:
445,200,67332,2,0,L|454:129,3,47.9999985351563,10|0|2|0,0:0|0:0|3:2|3:0,0:0:0:0:
457,99,67755,6,0,P|431:53|362:45,1,95.9999970703126,6|2,3:2|0:0,0:0:0:0:
375,40,68072,1,2,0:0:0:0:
356,42,68178,1,10,0:0:0:0:
269,91,68389,1,2,0:0:0:0:
269,91,68494,1,2,0:0:0:0:
269,91,68600,2,0,L|276:188,1,95.9999970703126,2|0,3:2|0:0,0:0:0:0:
261,260,68917,2,0,L|268:329,1,47.9999985351563,2|8,0:0|0:0,0:0:0:0:
192,372,69234,1,2,0:0:0:0:
114,315,69445,6,0,P|120:237|108:201,1,95.9999970703126,4|2,3:2|0:0,0:0:0:0:
111,211,69762,1,2,0:0:0:0:
106,201,69868,1,10,0:0:0:0:
61,117,70079,1,2,0:0:0:0:
61,117,70185,1,2,0:0:0:0:
61,117,70290,2,0,P|83:58|125:28,1,95.9999970703126,2|0,3:2|0:0,0:0:0:0:
172,7,70607,2,0,L|254:20,1,47.9999985351563,2|8,0:0|0:0,0:0:0:0:
297,71,70924,1,2,0:0:0:0:
239,146,71135,6,0,B|235:197|235:197|281:248,1,95.9999970703126,6|2,3:2|0:0,0:0:0:0:
337,294,71558,1,8,0:0:0:0:
406,224,71769,1,2,0:0:0:0:
474,298,71980,1,2,3:2:0:0:
474,298,72192,1,2,0:0:0:0:
510,208,72403,1,10,3:2:0:0:
469,120,72614,1,2,3:2:0:0:
469,120,72720,1,0,3:0:0:0:
469,120,72825,6,0,L|361:103,1,95.9999970703126,6|0,3:2|3:2,0:0:0:0:
346,101,73142,2,0,L|287:184,1,95.9999970703126,2|0,0:0|3:2,0:0:0:0:
274,198,73459,2,0,L|166:181,1,95.9999970703126,6|0,0:0|3:2,0:0:0:0:
85,172,73882,1,2,3:2:0:0:
85,172,73987,1,0,3:0:0:0:
85,172,74093,2,0,L|67:235,3,47.9999985351563,10|0|2|0,3:2|0:0|0:0|0:0,0:0:0:0:
59,260,74516,6,0,B|165:317|134:237|254:309,1,191.999994140625,6|10,3:2|3:2,0:0:0:0:
314,362,75149,1,0,0:0:0:0:
381,297,75361,1,2,3:2:0:0:
319,229,75572,2,0,L|303:108,1,95.9999970703126,2|10,0:0|0:0,0:0:0:0:
355,56,75994,1,2,3:2:0:0:
270,22,76206,6,0,P|214:33|147:24,1,95.9999970703126,4|2,3:2|0:0,0:0:0:0:
81,50,76628,1,8,0:0:0:0:
81,50,76734,1,0,0:0:0:0:
81,50,76840,2,0,P|79:118|113:166,1,95.9999970703126,2|0,0:0|3:2,0:0:0:0:
177,182,77262,1,2,0:0:0:0:
99,238,77473,1,8,0:0:0:0:
173,295,77685,6,0,B|223:313|250:351|250:351|274:289|318:256,1,191.999994140625,4|2,0:0|3:2,0:0:0:0:
322,177,78318,2,0,B|372:159|399:121|399:121|423:183|467:216,1,191.999994140625,10|0,3:2|0:0,0:0:0:0:
500,117,78952,1,2,0:0:0:0:
450,35,79163,1,2,0:0:0:0:
450,35,79269,1,0,0:0:0:0:
450,35,79375,2,0,L|246:52,1,191.999994140625,6|0,0:0|3:2,0:0:0:0:
193,115,80009,6,0,B|224:170|245:209|301:302|165:348|99:297|136:202|153:198,1,320,6|8,3:2|3:2,0:0:0:0:
312,160,81276,6,0,P|326:209|319:261,1,88.000002685547,4|0,3:2|0:0,0:0:0:0:
302,339,81699,1,8,3:2:0:0:
391,360,81910,1,0,0:0:0:0:
455,284,82121,2,0,L|445:178,1,88.000002685547,4|0,3:2|0:0,0:0:0:0:
406,114,82544,2,0,L|421:35,3,44.0000013427735,8|0|0|0,3:2|0:0|3:2|3:2,0:0:0:0:
374,8,82966,6,0,P|316:13|280:49,1,88.000002685547,12|0,3:2|3:2,0:0:0:0:
242,110,83389,1,12,3:2:0:0:
278,209,83600,1,0,3:2:0:0:
278,209,83706,1,0,3:2:0:0:
278,209,83811,2,0,L|266:266,3,44.0000013427735,12|0|0|0,3:2|3:2|3:2|3:2,0:0:0:0:
199,234,84234,2,0,L|187:291,3,44.0000013427735,12|8|8|8,3:2|3:2|3:2|3:2,0:0:0:0:
127,317,84656,6,0,B|89:329|89:329|36:308,1,80,6|2,3:2|0:0,0:0:0:0:
1,238,85079,1,10,0:0:0:0:
61,162,85290,1,0,0:0:0:0:
61,162,85396,1,2,0:0:0:0:
61,162,85501,2,0,P|65:85|60:49,1,80,0|0,3:2|0:0,0:0:0:0:
88,13,85818,2,0,P|119:14|153:4,1,40,2|10,0:0|0:0,0:0:0:0:
225,5,86135,1,0,0:0:0:0:
226,103,86347,6,0,B|214:133|214:133|231:211,1,80,6|0,3:2|0:0,0:0:0:0:
245,209,86663,2,0,L|334:201,1,80,6|0,3:2|0:0,0:0:0:0:
365,205,86980,2,0,B|377:235|377:235|360:313,1,80,6|0,3:2|3:2,0:0:0:0:
303,355,87403,1,2,3:2:0:0:
303,355,87509,1,2,3:2:0:0:
303,355,87614,2,0,B|272:342|272:342|246:349|246:349|221:342|221:342|197:353|197:353|167:344|167:344|119:360,1,160,4|0,0:2|0:0,0:0:0:0:
