osu file format v14

[General]
AudioFilename: gakkougurashi.mp3
AudioLeadIn: 0
PreviewTime: 8314
Countdown: 0
SampleSet: Normal
StackLeniency: 0.6
Mode: 0
LetterboxInBreaks: 0
WidescreenStoryboard: 1

[Editor]
DistanceSpacing: 1
BeatDivisor: 4
GridSize: 4
TimelineZoom: 1

[Metadata]
Title:Friend Shitai
TitleUnicode:ふれんどしたい
Artist:Taiyakiya
ArtistUnicode:タイ焼き屋
Creator:Mathsma
Version:Farewell
Source:Gakkou Gurashi
Tags:fu.re.n.do.shi.ta.i furendo ふ・れ・ん・ど・し・た・い school-live! gakkou gurashi anime tv size op opening utaite cover unity daexic zypherzemus collab
BeatmapID:853997
BeatmapSetID:387641

[Difficulty]
HPDrainRate:7.6
CircleSize:4.2
OverallDifficulty:8.2
ApproachRate:8.6
SliderMultiplier:2
SliderTickRate:2

[Events]
//Background and Video events
0,0,"Gakkou.Gurashi!.full.1920557.jpg",0,0
//Break Periods
2,20879,33804
//Storyboard Layer 0 (Background)
//Storyboard Layer 1 (Fail)
//Storyboard Layer 2 (Pass)
//Storyboard Layer 3 (Foreground)
//Storyboard Sound Samples

[TimingPoints]
409,405.405405405405,4,1,0,100,1,0
409,-200,4,1,0,35,0,0
1219,-166.666666666667,4,1,0,40,0,0
2030,-142.857142857143,4,1,0,45,0,0
2841,-125,4,1,0,50,0,0
3652,-125,4,1,0,50,0,0
4463,-111.111111111111,4,1,0,55,0,0
5273,-111.111111111111,4,1,0,60,0,0
6084,-100,4,1,0,65,0,0
8111,-66.6666666666667,4,1,0,70,0,1
8719,-100,4,1,0,70,0,1
20679,-100,4,1,0,70,0,0
34463,-100,4,1,0,60,0,0
39733,-100,4,1,0,70,0,0
40544,-100,4,1,0,65,0,0
41152,-100,4,1,0,60,0,0
46625,-133.333333333333,4,1,0,50,0,0
48652,-66.6666666666667,4,1,0,70,0,0
48702,-66.6666666666667,4,1,0,30,0,0
48854,-133.333333333333,4,1,0,50,0,0
51895,-66.6666666666667,4,1,0,70,0,0
51946,-66.6666666666667,4,1,0,30,0,0
52098,-133.333333333333,4,1,0,50,0,0
53517,-66.6666666666667,4,1,0,70,0,0
53618,-66.6666666666667,4,1,0,30,0,0
53922,-100,4,1,0,70,0,0
57165,-100,4,1,0,35,0,0
57976,-100,4,1,0,50,0,0
58787,-100,4,1,0,55,0,0
59598,-100,4,1,0,60,0,0
60611,-100,4,1,0,65,0,0
61625,-66.6666666666667,4,1,0,70,0,1
62030,-100,4,1,0,70,0,1
74598,-100,4,1,0,70,0,0
75003,-100,4,1,0,70,0,1
87165,-100,4,1,0,70,0,0

[Colours]
Combo1 : 255,213,217
Combo2 : 159,119,169
Combo3 : 155,187,138
Combo4 : 213,56,73

[HitObjects]
192,336,409,6,0,P|160:264|160:220,1,100,0|0,2:0|3:0,2:0:0:0:
332,292,1219,6,0,P|364:220|364:156,1,119.999996337891,0|0,2:0|3:0,2:0:0:0:
164,236,2030,6,0,P|132:164|132:72,1,139.999995727539,0|0,2:0|3:0,2:0:0:0:
348,200,2841,6,0,P|380:128|380:20,1,160,0|0,2:0|3:0,2:0:0:0:
136,124,3652,5,2,2:2:0:0:
168,132,3753,1,0,2:0:0:0:
200,140,3854,1,0,2:0:0:0:
232,148,3956,1,0,2:0:0:0:
264,156,4057,1,2,2:2:0:0:
452,244,4463,5,2,2:2:0:0:
412,248,4564,1,0,2:0:0:0:
372,252,4665,1,0,2:0:0:0:
332,256,4767,1,0,2:0:0:0:
292,260,4868,1,2,2:2:0:0:
92,360,5273,5,0,2:0:0:0:
136,352,5374,1,0,2:0:0:0:
180,340,5475,1,0,2:0:0:0:
220,320,5577,1,0,2:0:0:0:
252,288,5679,2,0,L|280:224,3,44.999998626709,2|0|2|0,2:2|2:0|2:2|2:0,2:0:0:0:
236,216,6084,5,0,2:0:0:0:
192,184,6185,1,0,2:0:0:0:
160,140,6286,1,0,2:0:0:0:
144,88,6388,1,0,2:0:0:0:
136,32,6490,2,0,L|208:44,3,50,2|0|2|0,2:2|2:0|2:2|2:0,2:0:0:0:
404,64,7098,2,0,B|428:100|428:100|436:184|436:184,1,100,0|0,2:0|2:0,2:0:0:0:
333,161,7503,1,0,2:0:0:0:
296,68,7706,1,0,2:0:0:0:
160,96,8111,6,0,P|156:176|232:84,1,300.000011444092,8|0,2:2|2:0,2:0:0:0:
119,62,8719,5,0,2:0:0:0:
80,176,8922,1,8,2:0:0:0:
224,216,9125,1,0,2:0:0:0:
224,216,9226,1,0,2:0:0:0:
224,216,9327,1,0,2:0:0:0:
189,133,9530,5,0,2:0:0:0:
332,172,9733,1,8,2:0:0:0:
308,76,9936,1,0,2:0:0:0:
144,292,10138,5,0,3:0:0:0:
281,175,10341,1,0,3:0:0:0:
128,80,10544,1,8,3:2:0:0:
254,260,10746,1,0,3:0:0:0:
392,88,10949,2,0,B|376:76|376:76|372:92|372:92|364:76|364:76|356:92|356:92|348:76|348:76|340:92|340:92|332:76|332:76|324:92|324:92|316:76|316:76|308:92|308:92|296:76,1,200,0|8,2:0|2:0,2:0:0:0:
440,152,11557,5,0,2:0:0:0:
364,280,11760,2,0,P|272:267|236:256,1,100,0|0,2:0|2:0,2:0:0:0:
151,229,12165,1,8,2:0:0:0:
240,148,12368,5,0,2:0:0:0:
240,148,12571,1,0,2:0:0:0:
268,244,12773,1,0,2:0:0:0:
416,256,12976,1,8,2:2:0:0:
376,164,13179,1,0,2:0:0:0:
236,236,13381,5,4,3:2:0:0:
176,132,13584,1,8,3:0:0:0:
396,104,13787,1,8,3:3:0:0:
272,284,13990,2,4,B|256:284|256:284|264:272|264:272|248:276|248:276|256:264|256:264|240:268|240:268|248:256|248:256|232:260|232:260|240:248|240:248|224:252|224:252|232:240|232:240|216:244|216:244|224:232|224:232|212:216,1,200,4|4,3:2|3:3,3:2:0:0:
214,219,14496,1,0,2:0:0:0:
214,219,14598,1,4,3:0:0:0:
140,136,14800,5,4,2:3:0:0:
140,136,14902,1,4,2:3:0:0:
140,136,15003,2,0,P|188:152|232:132,1,100,4|0,2:3|2:0,2:0:0:0:
312,73,15408,1,12,2:0:0:0:
368,156,15611,1,0,2:0:0:0:
104,304,16017,5,0,2:0:0:0:
148,216,16219,1,8,2:0:0:0:
292,260,16422,1,0,2:0:0:0:
408,40,16625,5,0,2:0:0:0:
279,165,16827,1,0,2:0:0:0:
452,216,17030,1,8,2:0:0:0:
302,55,17233,1,0,2:0:0:0:
264,272,17436,1,0,2:0:0:0:
168,252,17638,6,2,P|132:212|188:184,1,100,2|8,2:0|2:0,2:0:0:0:
276,180,18044,5,0,2:0:0:0:
212,44,18246,2,4,P|299:50|332:60,1,100,4|0,2:0|2:0,2:0:0:0:
359,232,18652,1,8,2:0:0:0:
180,232,18854,1,0,2:0:0:0:
324,92,19260,5,2,2:0:0:0:
420,220,19463,1,10,2:0:0:0:
200,220,19665,1,2,2:0:0:0:
392,284,20071,5,8,3:2:0:0:
188,208,20273,1,8,3:2:0:0:
428,104,20476,1,8,3:2:0:0:
128,84,20679,1,8,3:2:0:0:
124,216,34463,5,4,2:0:0:0:
184,136,34665,2,0,B|205:172|205:172|184:196|204:236,1,100,0|8,2:0|2:0,2:0:0:0:
168,322,35071,1,0,2:0:0:0:
264,296,35273,1,0,2:0:0:0:
292,200,35476,1,2,2:0:0:0:
296,152,35577,1,2,2:0:0:0:
76,100,35881,6,0,B|72:156|72:156|88:204,1,100,0|0,2:0|2:0,2:0:0:0:
165,260,36287,1,0,2:0:0:0:
172,160,36490,1,8,2:0:0:0:
254,216,36692,1,0,2:0:0:0:
245,316,36895,1,0,2:0:0:0:
340,284,37098,1,2,2:0:0:0:
372,248,37199,1,2,2:0:0:0:
420,288,37908,6,0,B|371:268|371:268|379:243|344:220,1,100,0|8,2:0|2:0,2:0:0:0:
437,171,38314,1,0,2:0:0:0:
396,80,38517,2,0,B|332:84|332:84|296:112,1,100,0|0,2:0|2:0,2:0:0:0:
298,206,38922,1,8,2:0:0:0:
240,288,39125,1,0,2:0:0:0:
92,320,39327,5,0,3:2:0:0:
164,212,39530,1,8,3:2:0:0:
272,308,39733,5,8,3:2:0:0:
356,172,39936,1,8,3:3:0:0:
206,40,40138,5,8,3:2:0:0:
84,200,40341,1,8,3:3:0:0:
244,204,40544,5,4,3:3:0:0:
144,328,40746,1,8,3:3:0:0:
92,112,41152,5,0,2:0:0:0:
212,108,41354,1,10,2:3:0:0:
273,187,41557,1,0,2:0:0:0:
220,272,41760,6,0,B|184:248|184:248|176:176,1,100,0|0,2:0|2:0,2:0:0:0:
176,168,42064,1,0,2:0:0:0:
328,104,42368,5,0,2:0:0:0:
384,212,42571,1,0,2:0:0:0:
300,265,42773,1,0,2:0:0:0:
336,172,42976,1,8,2:0:0:0:
251,226,43179,1,0,2:0:0:0:
230,325,43381,1,0,2:0:0:0:
136,284,43584,5,0,2:0:0:0:
120,272,43686,2,0,B|72:232|92:188|92:188|148:228|156:204,1,150,0|0,2:0|2:0,2:0:0:0:
320,124,44192,5,4,2:0:0:0:
367,267,44395,1,0,2:0:0:0:
439,135,44598,1,8,2:0:0:0:
308,208,44800,1,0,2:0:0:0:
108,92,45003,5,4,2:0:0:0:
149,236,45206,1,0,2:0:0:0:
227,109,45408,1,8,2:0:0:0:
92,176,45611,1,0,2:0:0:0:
316,148,45814,5,4,3:2:0:0:
439,306,46017,1,0,3:0:0:0:
240,313,46219,1,0,3:0:0:0:
408,204,46422,1,4,3:2:0:0:
216,160,46827,5,0,2:0:0:0:
180,208,47030,2,0,P|164:264|172:308,1,75.0000028610231,0|0,2:0|2:0,2:0:0:0:
216,308,47436,6,0,B|256:292|256:292|236:220|300:212,1,150.000005722046,4|0,2:0|2:0,2:0:0:0:
356,196,48044,1,0,2:0:0:0:
412,180,48246,1,0,2:0:0:0:
164,88,48652,6,0,L|128:144,1,37.5000014305115,4|0,2:0|2:0,2:0:0:0:
136,252,49057,6,0,B|152:212|152:212|188:272|264:228,1,150.000005722046,0|0,2:0|2:0,2:0:0:0:
300,212,49665,1,0,2:0:0:0:
352,184,49868,2,0,P|312:132|228:120,1,150.000005722046,0|0,2:0|2:0,2:0:0:0:
200,156,50679,6,0,B|232:184|232:184|176:212|224:272,1,150.000005722046,0|0,2:0|2:0,2:0:0:0:
268,312,51287,1,0,2:0:0:0:
324,332,51490,1,0,2:0:0:0:
448,56,51895,6,0,L|428:108,1,37.5000014305115,4|0,2:0|2:0,2:0:0:0:
348,188,52300,6,0,B|328:152|328:152|284:224|212:156,1,150.000005722046,2|0,2:0|2:0,2:0:0:0:
184,148,52908,1,0,2:0:0:0:
140,108,53111,1,0,2:0:0:0:
356,88,53517,2,0,L|304:160,1,75.0000028610231,2|0,2:3|2:0,2:0:0:0:
168,260,53922,5,4,3:0:0:0:
336,198,54125,1,0,3:0:0:0:
195,89,54327,1,0,3:0:0:0:
259,256,54530,1,0,3:0:0:0:
308,84,54733,1,0,3:0:0:0:
92,104,55138,5,4,3:0:0:0:
224,280,55341,1,0,3:0:0:0:
308,76,55544,1,0,3:0:0:0:
136,212,55746,1,0,3:0:0:0:
356,196,55949,1,0,3:0:0:0:
76,236,56354,6,0,B|184:208|184:208|196:280|288:232,1,200,4|0,2:0|2:0,2:0:0:0:
340,212,56963,1,0,2:0:0:0:
412,80,57165,5,2,2:0:0:0:
372,88,57266,1,0,2:0:0:0:
332,96,57367,1,0,2:0:0:0:
292,104,57469,1,0,2:0:0:0:
252,112,57570,1,2,2:0:0:0:
80,208,57976,5,2,2:0:0:0:
124,216,58077,1,0,2:0:0:0:
168,224,58178,1,0,2:0:0:0:
212,232,58280,1,0,2:0:0:0:
256,240,58381,1,2,2:0:0:0:
456,224,58787,5,2,2:0:0:0:
450,174,58888,1,0,2:0:0:0:
424,132,58989,1,0,2:0:0:0:
382,105,59091,1,0,2:0:0:0:
336,96,59192,2,0,L|264:116,3,50,2|0|2|0,2:0|2:0|2:0|2:0,2:0:0:0:
304,156,59598,5,0,2:0:0:0:
324,208,59699,1,0,2:0:0:0:
324,264,59800,1,0,2:0:0:0:
288,308,59902,1,0,2:0:0:0:
236,328,60003,2,0,L|184:308,3,50,2|0|2|0,2:0|2:0|2:0|2:0,2:0:0:0:
112,196,60611,6,0,B|120:152|120:152|152:152|172:132,1,100,0|0,2:0|2:0,2:0:0:0:
84,84,61017,1,0,2:0:0:0:
184,208,61219,2,0,P|268:172|336:76,1,200,0|8,2:0|2:0,2:0:0:0:
148,272,62030,5,4,2:0:0:0:
134,173,62233,1,0,2:0:0:0:
228,208,62436,1,8,2:0:0:0:
82,238,62638,1,0,2:0:0:0:
82,238,62740,1,0,2:0:0:0:
82,238,62841,1,0,2:0:0:0:
370,326,63044,5,0,2:0:0:0:
448,200,63246,1,8,2:0:0:0:
360,152,63449,1,0,2:0:0:0:
143,255,63652,5,0,2:0:0:0:
102,80,63854,1,0,2:0:0:0:
271,143,64057,1,8,2:0:0:0:
59,204,64260,1,0,2:0:0:0:
272,260,64463,2,0,B|248:252|248:252|256:232|256:232|236:240|236:240|244:220|244:220|224:228|224:228|232:208|232:208|212:216|212:216|220:200|220:200|200:204|200:204|164:168,1,200,0|8,2:0|2:0,2:0:0:0:
408,80,65071,5,0,2:0:0:0:
404,228,65273,2,0,B|352:260|352:260|344:204,1,100,0|0,2:0|2:0,2:0:0:0:
325,103,65679,1,8,2:0:0:0:
208,76,65881,2,0,B|120:60|120:60|168:160,1,200,0|0,2:0|2:0,2:0:0:0:
234,261,66490,1,8,2:0:0:0:
316,136,66692,5,0,2:0:0:0:
428,236,66895,1,2,2:0:0:0:
279,253,67098,1,8,2:3:0:0:
397,161,67300,1,8,2:3:0:0:
364,308,67503,2,0,B|372:272|372:272|384:276|384:276|376:260|376:260|388:264|388:264|380:248|380:248|392:252|392:252|384:236|384:236|396:240|396:240|388:224|388:224|400:228|400:228|392:212|392:212|404:216|404:216|404:204,1,200,4|8,2:0|2:3,2:0:0:0:
401,215,68010,1,0,2:0:0:0:
401,215,68111,1,4,2:3:0:0:
316,132,68314,5,4,2:3:0:0:
316,132,68415,1,4,2:3:0:0:
316,132,68517,2,0,P|232:104|216:116,1,100,4|0,2:3|2:0,2:0:0:0:
111,109,68922,1,12,2:0:0:0:
172,212,69125,2,0,B|204:180|204:180|252:268|252:268|300:216,1,200,0|0,2:0|2:3,2:0:0:0:
288,227,69733,1,8,2:0:0:0:
352,128,69936,1,0,2:0:0:0:
148,252,70138,5,0,2:0:0:0:
316,316,70341,1,0,2:0:0:0:
252,147,70544,1,8,2:0:0:0:
210,342,70746,1,0,2:0:0:0:
394,220,70949,2,0,B|378:196|378:196|370:216|370:216|358:196|358:196|350:216|350:216|338:196|338:196|330:216|330:216|318:196|318:196|310:216|310:216|298:196|298:196|266:220,1,200,0|8,2:0|2:0,2:0:0:0:
106,304,71557,5,0,2:0:0:0:
88,84,71760,2,0,L|152:180,1,100,0|0,2:0|2:0,2:0:0:0:
292,152,72165,1,8,2:0:0:0:
376,100,72368,1,0,2:0:0:0:
440,288,72773,5,0,2:0:0:0:
352,340,72976,1,8,2:0:0:0:
176,248,73179,1,4,2:0:0:0:
256,184,73584,5,4,3:3:0:0:
109,288,73787,1,4,3:3:0:0:
89,109,73990,1,4,3:3:0:0:
304,68,74192,5,8,3:3:0:0:
323,287,74395,1,8,3:3:0:0:
124,192,74598,1,10,3:3:0:0:
416,132,75003,5,4,2:0:0:0:
306,181,75206,1,0,2:0:0:0:
396,260,75408,1,8,2:0:0:0:
246,260,75611,1,0,2:0:0:0:
246,260,75713,1,0,2:0:0:0:
246,260,75814,1,0,2:0:0:0:
168,324,76017,5,0,2:0:0:0:
192,176,76219,1,8,2:0:0:0:
140,92,76422,1,0,2:0:0:0:
380,84,76625,5,0,2:0:0:0:
419,259,76827,1,0,2:0:0:0:
254,186,77030,1,8,2:0:0:0:
472,151,77233,1,0,2:0:0:0:
308,298,77436,2,0,B|296:286|296:286|288:298|288:298|284:282|284:282|276:294|276:294|272:278|272:278|264:290|264:290|260:274|260:274|252:286|252:286|248:270|248:270|240:282|240:282|237:265|237:265|228:278|228:278|212:254,1,200,0|8,2:0|2:0,2:0:0:0:
123,139,78044,5,0,2:0:0:0:
72,292,78246,2,0,L|164:248,1,100,0|0,2:0|2:0,2:0:0:0:
312,236,78652,1,8,2:0:0:0:
368,100,78854,5,0,2:0:0:0:
368,100,79057,1,0,2:0:0:0:
400,196,79260,1,0,2:0:0:0:
288,296,79463,1,8,2:0:0:0:
388,288,79665,1,0,2:0:0:0:
252,92,79868,5,4,2:0:0:0:
174,155,80071,1,8,2:3:0:0:
372,180,80273,1,8,2:3:0:0:
203,287,80476,2,0,B|207:259|207:259|223:267|223:267|215:251|215:251|231:259|231:259|223:243|223:243|239:251|239:251|231:235|231:235|247:243|247:243|239:227|239:227|255:235|255:235|247:219|247:219|267:199,1,200,4|8,2:0|2:3,2:0:0:0:
250,225,80983,1,0,2:0:0:0:
250,225,81084,1,4,2:3:0:0:
324,128,81287,5,4,2:2:0:0:
324,128,81388,1,4,2:3:0:0:
324,128,81490,2,0,P|260:104|236:120,1,100,4|0,2:3|2:0,2:0:0:0:
180,200,81895,1,12,2:0:0:0:
140,108,82098,1,0,2:0:0:0:
252,284,82503,5,0,2:0:0:0:
400,300,82706,1,8,2:0:0:0:
380,204,82908,1,0,2:0:0:0:
152,124,83111,5,0,2:0:0:0:
329,92,83314,1,0,2:0:0:0:
215,232,83517,1,8,2:0:0:0:
434,233,83719,1,0,2:0:0:0:
235,138,83922,1,0,2:0:0:0:
330,106,84125,6,0,P|362:150|314:166,1,100,2|8,2:0|2:0,2:0:0:0:
233,281,84530,5,0,2:0:0:0:
112,192,84733,2,0,L|76:68,1,100,4|0,2:0|2:0,2:0:0:0:
204,96,85138,1,8,2:0:0:0:
320,68,85341,1,4,2:0:0:0:
396,256,85746,5,0,2:0:0:0:
316,312,85948,1,8,2:0:0:0:
80,252,86152,1,4,2:0:0:0:
336,108,86557,5,8,3:2:0:0:
103,169,86760,1,8,3:2:0:0:
323,265,86963,1,8,3:2:0:0:
88,316,87166,1,12,3:2:0:0:
