osu file format v14

[General]
AudioFilename: THE IDOLM@STER CINDERELLA GIRLS Mayim Mayim 2.mp3
AudioLeadIn: 0
PreviewTime: 185230
Countdown: 0
SampleSet: Soft
StackLeniency: 0.7
Mode: 0
LetterboxInBreaks: 1
WidescreenStoryboard: 1

[Editor]
Bookmarks: 136,26083,52031,77979,103927,129875,155822,181770,207716,233663,259611,285559,311507,340482
DistanceSpacing: 1.3
BeatDivisor: 4
GridSize: 32
TimelineZoom: 1.5

[Metadata]
Title:THE IDOLM@STER CINDERELLA GIRLS Mayim Mayim 2
TitleUnicode:【合作】デレマスマイムマイム2
Artist:Taiuo
ArtistUnicode:たいうお
Creator:HICCA
Version:COLLAB MASTER
Source:Nico Nico Douga
Tags:アイドルマスター シンデレラガールズ shirasaka koume hicari
BeatmapID:1405642
BeatmapSetID:664141

[Difficulty]
HPDrainRate:5.5
CircleSize:4
OverallDifficulty:8
ApproachRate:9.2
SliderMultiplier:1.73
SliderTickRate:1

[Events]
//Background and Video events
0,0,"BG.jpg",0,0
Video,0,"Cinderella Mayim 2.avi"
//Break Periods
//Storyboard Layer 0 (Background)
//Storyboard Layer 1 (Fail)
//Storyboard Layer 2 (Pass)
//Storyboard Layer 3 (Foreground)
//Storyboard Sound Samples

[TimingPoints]
136,432.463600980251,4,2,1,80,1,0
10515,-66.6666666666667,4,2,1,80,0,0
12244,-100,4,2,1,80,0,0
13974,-66.6666666666667,4,2,1,80,0,0
15704,-100,4,2,1,80,0,0
17434,-66.6666666666667,4,2,1,80,0,0
19164,-100,4,2,1,80,0,1
26083,-100,4,2,1,80,0,0
28894,-66.6666666666667,4,2,1,80,0,0
29543,-100,4,2,1,80,0,0
34733,-50,4,2,1,90,0,0
35165,-66.6666666666667,4,2,1,80,0,0
36030,-83.3333333333333,4,2,1,80,0,0
38409,-66.6666666666667,4,2,1,80,0,0
39922,-83.3333333333333,4,2,1,80,0,0
43382,-83.3333333333333,4,2,1,70,0,0
45112,-66.6666666666667,4,2,1,80,0,1
49436,-58.8235294117647,4,2,1,80,0,1
50085,-100,4,2,1,80,0,1
52031,-100,4,2,1,80,0,0
55058,-50,4,2,1,80,0,0
55491,-100,4,2,1,80,0,0
61545,-90.9090909090909,4,2,1,80,0,0
61762,-83.3333333333333,4,2,1,80,0,0
61978,-76.9230769230769,4,2,1,80,0,0
62410,-66.6666666666667,4,2,1,80,0,0
64140,-83.3333333333333,4,2,1,80,0,0
65870,-66.6666666666667,4,2,1,80,0,0
67600,-83.3333333333333,4,2,1,80,0,0
71060,-83.3333333333333,4,2,1,80,0,1
76249,-100,4,2,1,80,0,1
77979,-100,4,2,1,80,0,0
88358,-66.6666666666667,4,2,1,80,0,0
90088,-100,4,2,1,80,0,0
91818,-76.9230769230769,4,2,1,80,0,0
94845,-66.6666666666667,4,2,1,80,0,0
95277,-111.111111111111,4,2,1,80,0,0
97007,-76.9230769230769,4,2,1,80,0,1
103927,-100,4,2,1,80,0,0
110414,-66.6666666666667,4,2,1,80,0,0
110846,-100,4,2,1,80,0,0
114306,-66.6666666666667,4,2,1,80,0,0
116036,-76.9230769230769,4,2,1,80,0,0
117766,-66.6666666666667,4,2,1,80,0,0
119495,-76.9230769230769,4,2,1,80,0,0
121225,-125,4,2,1,30,0,0
121658,-125,4,2,1,40,0,0
122090,-125,4,2,1,50,0,0
122523,-125,4,2,1,70,0,0
122955,-83.3333333333333,4,2,1,80,0,1
129010,-90.9090909090909,4,2,1,80,0,1
129875,-100,4,2,1,80,0,0
132469,-83.3333333333333,4,2,1,80,0,0
132902,-66.6666666666667,4,2,1,80,0,0
133334,-100,4,2,1,80,0,0
147173,-66.6666666666667,4,2,1,80,0,0
148903,-76.9230769230769,4,2,1,80,0,1
154957,-66.6666666666667,4,2,1,80,0,1
155822,-100,4,2,1,80,0,0
157985,-100,4,2,1,30,0,0
159282,-83.3333333333333,4,2,1,80,0,0
166202,-66.6666666666667,4,2,1,80,0,0
174851,-76.9230769230769,4,2,1,80,0,1
181770,-100,4,2,1,80,0,0
182635,-100,4,2,1,75,0,0
183500,-100,4,2,1,70,0,0
184365,-100,4,2,1,65,0,0
185230,434.153400868307,4,2,1,60,1,0
192226,434.153400868307,4,2,1,60,1,0
195699,429.184549356223,4,2,1,60,1,0
199092,426.136363636364,4,2,1,60,1,0
200849,429.184549356223,4,2,1,60,1,1
201707,408.719346049046,4,2,1,60,1,1
202524,435.413642960813,4,2,1,60,1,1
204265,431.406384814495,4,2,1,60,1,1
207500,-66.6666666666667,4,2,1,80,0,1
207716,432.463600980251,4,2,1,80,1,0
217662,-55.5555555555556,4,2,1,80,0,0
218095,-76.9230769230769,4,2,1,80,0,0
218960,-66.6666666666667,4,2,1,80,0,0
219824,-100,4,2,1,80,0,0
225879,-66.6666666666667,4,2,1,80,0,0
226744,-76.9230769230769,4,2,1,80,0,1
233663,-66.6666666666667,4,2,1,80,0,0
235393,-50,4,2,1,80,0,0
250962,-133.333333333333,4,2,1,20,0,0
251394,-133.333333333333,4,2,1,30,0,0
251827,-133.333333333333,4,2,1,40,0,0
252259,-133.333333333333,4,2,1,50,0,0
252692,-50,4,2,1,80,0,1
259611,-55.5555555555556,4,2,1,80,0,0
260044,-58.8235294117647,4,2,1,75,0,0
260476,-62.5,4,2,1,70,0,0
260909,-66.6666666666667,4,2,1,65,0,0
261341,-71.4285714285714,4,2,1,60,0,0
261773,-76.9230769230769,4,2,1,55,0,0
262206,-83.3333333333333,4,2,1,50,0,0
262638,-90.9090909090909,4,2,1,45,0,0
263071,-125,4,2,1,40,0,0
267828,-125,4,2,1,50,0,0
268260,-100,4,2,1,60,0,0
269558,-83.3333333333333,4,2,1,70,0,0
269990,-76.9230769230769,4,2,1,80,0,0
278640,-66.6666666666667,4,2,1,80,0,1
285559,-71.4285714285714,4,2,1,80,0,0
295506,-55.5555555555556,4,2,1,80,0,0
295938,-83.3333333333333,4,2,1,80,0,0
296371,-71.4285714285714,4,2,1,80,0,0
296803,-62.5,4,2,1,80,0,0
297235,-55.5555555555556,4,2,1,80,0,0
297560,-33.3333333333333,4,2,1,80,0,0
297884,-62.5,4,2,1,80,0,0
299398,-83.3333333333333,4,2,1,80,0,0
301128,-62.5,4,2,1,80,0,0
304587,-62.5,4,2,1,80,0,1
311507,-62.5,4,2,1,80,0,0
311939,-66.6666666666667,4,2,1,75,0,0
312372,-71.4285714285714,4,2,1,70,0,0
312804,-76.9230769230769,4,2,1,65,0,0
313237,-83.3333333333333,4,2,1,60,0,0
313669,-90.9090909090909,4,2,1,55,0,0
314102,-100,4,2,1,50,0,0
314534,-50,4,2,1,80,0,0
325418,-50,4,2,1,40,0,0
325778,-50,4,2,1,80,0,0
325850,-50,4,2,1,40,0,0
326211,-50,4,2,1,80,0,0
326283,-50,4,2,1,40,0,0
326643,-50,4,2,1,80,0,0
326715,-50,4,2,1,40,0,0
327075,-50,4,2,1,80,0,0
327130,-50,4,2,1,40,0,0
327400,-50,4,2,1,80,0,0
328805,-100,4,2,1,60,0,0
330103,-50,4,2,1,80,0,0
330535,-50,4,2,1,80,0,1
339833,-66.6666666666667,4,2,1,80,0,1
340049,-100,4,2,1,80,0,1
340482,-100,4,2,1,80,0,0

[HitObjects]
192,210,136,6,0,P|160:181|117:177,1,86.5,2|0,0:0|0:0,0:0:0:0:
74,284,460,1,0,0:0:0:0:
74,284,568,2,0,P|105:312|148:316,1,86.5,2|0,0:0|0:0,0:0:0:0:
307,318,892,6,0,L|235:322,1,43.25,2|0,0:0|0:0,0:0:0:0:
340,212,1109,1,0,0:0:0:0:
361,209,1217,1,2,0:0:0:0:
382,206,1325,1,0,0:0:0:0:
445,281,1433,2,0,L|517:285,1,43.25,2|0,0:0|0:0,0:0:0:0:
317,348,1649,2,0,L|245:344,1,43.25
177,242,1865,5,2,0:0:0:0:
167,358,1973,1,2,0:0:0:0:
197,253,2082,5,0,0:0:0:0:
147,347,2190,1,2,0:0:0:0:
217,264,2298,6,0,P|250:265|286:255,1,43.25,2|0,0:0|0:0,0:0:0:0:
408,172,2514,2,0,P|397:190|382:206,1,43.25,2|0,0:0|0:0,0:0:0:0:
271,96,2730,6,0,B|300:66|300:66|344:67,1,86.5,2|0,0:0|0:0,0:0:0:0:
341,157,3055,1,2,0:0:0:0:
266,221,3163,2,0,P|254:202|251:181,1,43.25,2|0,0:0|0:0,0:0:0:0:
371,34,3379,2,0,P|360:52|344:66,1,43.25,2|0,0:0|0:0,0:0:0:0:
157,37,3595,6,0,P|178:36|198:43,1,43.25,2|0,0:0|0:0,0:0:0:0:
145,33,3811,2,0,P|165:27|186:30,1,43.25,8|0,0:0|0:0,0:0:0:0:
271,96,4028,1,0,0:0:0:0:
285,122,4136,1,0,0:0:0:0:
283,152,4244,1,8,0:0:0:0:
266,177,4352,1,0,0:0:0:0:
183,235,4460,6,0,P|195:189|179:130,1,86.5,0|8,0:0|0:0,0:0:0:0:
135,84,4784,1,0,0:0:0:0:
21,202,4893,2,0,L|107:189,1,86.5,0|8,0:0|0:0,0:0:0:0:
268,247,5325,6,0,L|182:234,1,86.5,0|8,0:0|0:0,0:0:0:0:
68,158,5649,2,0,L|11:167,1,43.25
177,90,5866,1,0,0:0:0:0:
135,84,5974,1,8,0:0:0:0:
182,234,6082,5,0,0:0:0:0:
269,29,6298,1,8,0:0:0:0:
50,87,6514,1,8,0:0:0:0:
50,87,6622,2,0,P|110:92|158:63,1,86.5,0|8,0:0|0:0,0:0:0:0:
240,38,6947,1,0,0:0:0:0:
269,29,7055,6,0,P|310:39|343:66,1,86.5,0|8,0:0|0:0,0:0:0:0:
372,168,7379,1,0,0:0:0:0:
266,115,7487,2,0,P|226:109|197:121,1,43.25
308,244,7704,2,0,P|348:238|377:250,1,43.25,8|0,0:0|0:0,0:0:0:0:
427,328,7920,1,0,0:0:0:0:
430,297,8028,1,0,0:0:0:0:
433,266,8136,1,8,0:0:0:0:
436,235,8244,1,0,0:0:0:0:
365,139,8352,5,0,0:0:0:0:
372,168,8460,1,0,0:0:0:0:
510,119,8569,2,0,P|475:90|428:88,2,86.5,8|0|8,0:0|0:0|0:0,0:0:0:0:
320,328,9217,2,0,B|306:285|306:285|307:243,1,86.5,0|8,0:0|0:0,0:0:0:0:
419,346,9542,1,0,0:0:0:0:
378,374,9650,5,0,0:0:0:0:
99,291,9866,2,0,L|34:276,1,43.25,8|0,0:0|0:0,0:0:0:0:
313,215,10082,1,0,0:0:0:0:
14,291,10298,2,0,L|56:281,1,43.25,8|0,0:0|0:0,0:0:0:0:
256,368,10515,6,0,P|201:304|287:264,1,194.625007424355,4|0,0:0|0:0,0:0:0:0:
384,277,10947,6,0,P|320:332|280:246,1,194.625007424355,4|0,0:0|0:0,0:0:0:0:
294,148,11380,6,0,P|349:212|263:252,1,194.625007424355,4|0,0:0|0:0,0:0:0:0:
173,240,11812,6,0,P|238:218|277:271,1,129.75000494957,4|0,0:0|0:0,0:0:0:0:
188,369,12136,5,0,0:0:0:0:
179,332,12244,1,0,0:0:0:0:
384,277,12461,2,0,B|373:234|373:234|386:194,1,86.5,8|0,0:0|0:0,0:0:0:0:
435,73,12893,2,0,L|416:28,1,43.25,8|0,0:0|0:0,0:0:0:0:
251,131,13109,1,0,0:0:0:0:
459,235,13326,1,8,0:0:0:0:
303,357,13542,2,0,B|320:294|320:294|298:213,1,129.75,8|0,0:0|0:0,0:0:0:0:
251,131,13974,6,0,L|59:96,1,194.625007424355,4|0,0:0|0:0,0:0:0:0:
6,223,14407,6,0,L|197:188,1,194.625007424355,4|0,0:0|0:0,0:0:0:0:
302,83,14839,6,0,L|110:48,1,194.625007424355,4|0,0:0|0:0,0:0:0:0:
57,271,15272,6,0,L|191:246,1,129.75000494957,4|0,0:0|0:0,0:0:0:0:
87,102,15596,5,0,0:0:0:0:
84,147,15704,1,0,0:0:0:0:
301,83,15920,2,0,P|283:41|232:22,2,86.5,8|0|8,0:0|0:0|0:0,0:0:0:0:
244,159,16461,1,0,0:0:0:0:
427,150,16569,2,0,P|388:131|345:132,1,86.5,0|8,0:0|0:0,0:0:0:0:
369,219,16893,1,0,0:0:0:0:
311,288,17002,2,0,P|349:306|392:305,1,86.5,0|8,0:0|0:0,0:0:0:0:
467,235,17326,1,0,0:0:0:0:
271,203,17434,5,4,0:0:0:0:
396,28,17650,2,0,L|383:118,1,64.8750024747849,8|0,0:0|0:0,0:0:0:0:
386,278,17867,5,4,0:0:0:0:
392,304,17975,1,0,0:0:0:0:
258,255,18083,5,8,0:0:0:0:
264,229,18191,1,0,0:0:0:0:
370,173,18299,6,0,P|389:162|442:162,1,64.8750024747849,4|0,0:0|0:0,0:0:0:0:
292,336,18515,2,0,P|273:347|220:347,1,64.8750024747849,8|8,0:0|0:0,0:0:0:0:
471,259,18731,5,4,0:0:0:0:
412,359,18840,1,8,0:0:0:0:
271,203,18948,2,0,L|294:99,1,64.8750024747849,8|0,0:0|0:0,0:0:0:0:
396,28,19164,5,4,0:0:0:0:
157,66,19380,2,0,L|104:56,2,28.8333333333333,8|0|0,0:0|0:0|0:0,0:0:0:0:
39,120,19596,2,0,L|154:107,1,86.5,0|8,0:0|0:0,0:0:0:0:
256,119,19921,1,0,0:0:0:0:
235,89,20029,6,0,L|172:73,1,43.25
119,199,20245,2,0,L|147:204,2,28.8333333333333,8|0|0,0:0|0:0|0:0,0:0:0:0:
222,270,20461,2,0,P|248:237|247:195,1,86.5,0|8,0:0|0:0,0:0:0:0:
77,152,20786,1,0,0:0:0:0:
59,255,20894,5,0,0:0:0:0:
73,286,21002,1,0,0:0:0:0:
103,302,21110,1,8,0:0:0:0:
137,302,21218,1,0,0:0:0:0:
238,273,21326,5,0,0:0:0:0:
274,258,21434,1,0,0:0:0:0:
312,262,21542,1,8,0:0:0:0:
346,280,21651,1,0,0:0:0:0:
407,357,21759,6,0,P|444:317|436:252,1,86.5,0|8,0:0|0:0,0:0:0:0:
444,273,22047,1,0,0:0:0:0:
437,259,22119,1,0,0:0:0:0:
431,245,22191,2,0,P|418:199|442:134,1,86.5,0|8,0:0|0:0,0:0:0:0:
456,118,22515,1,0,0:0:0:0:
356,19,22624,5,0,0:0:0:0:
321,210,22840,1,8,0:0:0:0:
338,215,22912,1,0,0:0:0:0:
355,220,22984,1,0,0:0:0:0:
372,225,23056,2,0,B|382:183|382:183|366:142,1,86.5,0|8,0:0|0:0,0:0:0:0:
197,141,23380,1,0,0:0:0:0:
215,249,23489,6,0,L|257:242,1,43.25
192,60,23705,1,8,0:0:0:0:
175,55,23777,1,0,0:0:0:0:
158,50,23849,1,0,0:0:0:0:
141,44,23921,2,0,P|103:65|62:57,1,86.5,0|8,0:0|0:0,0:0:0:0:
28,190,24245,1,0,0:0:0:0:
117,215,24353,5,0,0:0:0:0:
144,193,24462,1,0,0:0:0:0:
178,188,24570,2,0,P|196:193|224:194,2,28.8333333333333,8|0|0,0:0|0:0|0:0,0:0:0:0:
293,152,24786,5,0,0:0:0:0:
265,118,24894,1,0,0:0:0:0:
224,102,25002,1,8,0:0:0:0:
181,107,25110,1,0,0:0:0:0:
185,266,25218,6,0,L|266:249,1,43.25
93,103,25435,2,0,L|12:86,1,43.25,8|0,0:0|0:0,0:0:0:0:
256,170,25651,5,0,0:0:0:0:
268,105,25759,1,8,0:0:0:0:
176,82,25867,5,8,0:0:0:0:
164,17,25975,1,0,0:0:0:0:
105,168,26083,6,0,L|90:268,1,86.5,2|0,0:0|0:0,0:0:0:0:
11,350,26408,2,0,P|39:339|61:339,1,43.25,2|2,0:0|0:0,0:0:0:0:
225,277,26624,2,0,P|197:266|175:266,1,43.25
156,374,26840,1,2,0:0:0:0:
308,271,26948,5,2,0:0:0:0:
326,229,27056,2,0,B|307:192|307:192|248:167,1,86.5,0|2,0:0|0:0,0:0:0:0:
91,2,27381,1,2,0:0:0:0:
103,54,27489,1,0,0:0:0:0:
115,106,27597,2,0,L|168:94,1,43.25,2|0,0:0|0:0,0:0:0:0:
255,29,27813,5,2,0:0:0:0:
260,61,27921,1,0,0:0:0:0:
348,76,28029,5,2,0:0:0:0:
336,106,28138,1,2,0:0:0:0:
405,163,28246,6,0,L|459:153,1,43.25,2|0,0:0|0:0,0:0:0:0:
500,329,28462,1,2,0:0:0:0:
512,282,28570,1,0,0:0:0:0:
483,243,28678,2,0,L|440:250,1,43.25,2|0,0:0|0:0,0:0:0:0:
228,323,28894,6,0,P|217:290|201:312,1,64.8750024747849,2|0,0:0|0:0,0:0:0:0:
386,366,29111,2,0,P|412:342|414:369,1,64.8750024747849,2|0,0:0|0:0,0:0:0:0:
151,216,29327,6,0,L|215:207,1,64.8750024747849
357,112,29543,6,0,P|314:109|283:80,2,86.5,2|8|0,0:0|0:0|0:0,0:0:0:0:
429,2,30084,1,0,0:0:0:0:
477,37,30192,2,0,L|470:94,1,43.25,8|0,0:0|0:0,0:0:0:0:
505,232,30408,5,0,0:0:0:0:
467,221,30516,1,0,0:0:0:0:
406,300,30624,5,8,0:0:0:0:
368,311,30732,1,0,0:0:0:0:
332,187,30840,5,0,0:0:0:0:
294,176,30949,1,0,0:0:0:0:
256,165,31057,2,0,P|222:167|202:177,1,43.25,8|0,0:0|0:0,0:0:0:0:
93,286,31273,6,0,L|180:272,1,86.5,0|8,0:0|0:0,0:0:0:0:
228,374,31597,1,0,0:0:0:0:
275,346,31705,2,0,P|285:313|283:291,1,43.25
214,171,31922,1,8,0:0:0:0:
207,203,32030,1,0,0:0:0:0:
151,120,32138,5,0,0:0:0:0:
158,88,32246,1,0,0:0:0:0:
183,67,32354,2,0,L|274:81,1,86.5,8|0,0:0|0:0,0:0:0:0:
383,145,32678,1,0,0:0:0:0:
449,77,32786,1,8,0:0:0:0:
438,41,32894,1,0,0:0:0:0:
512,189,33003,6,0,P|470:188|436:215,2,86.5,0|8|0,0:0|0:0|0:0,0:0:0:0:
312,384,33651,1,8,0:0:0:0:
269,346,33760,1,0,0:0:0:0:
287,293,33868,2,0,L|339:284,1,43.25
204,162,34084,2,0,L|152:153,1,43.25,8|0,0:0|0:0,0:0:0:0:
57,322,34300,5,0,0:0:0:0:
57,261,34408,1,0,0:0:0:0:
114,243,34516,1,8,0:0:0:0:
149,291,34625,1,0,0:0:0:0:
114,341,34733,6,0,B|71:278|104:212|104:212|140:198|153:239,1,173,0|8,0:0|0:0,0:0:0:0:
427,181,35165,6,0,P|393:173|359:185,1,64.8750024747849
287,293,35381,2,0,P|294:259|282:225,1,64.8750024747849,8|0,0:0|0:0,0:0:0:0:
174,153,35598,2,0,P|207:160|241:148,1,64.8750024747849
314,41,35814,2,0,P|306:74|318:108,1,64.8750024747849,8|0,0:0|0:0,0:0:0:0:
508,202,36030,5,0,0:0:0:0:
427,181,36138,1,0,0:0:0:0:
358,229,36246,1,8,0:0:0:0:
351,312,36354,1,0,0:0:0:0:
410,372,36462,6,0,L|476:361,1,51.8999984161377,4|0,0:0|0:0,0:0:0:0:
358,229,36679,1,8,0:0:0:0:
299,320,36787,6,0,L|351:312,1,51.8999984161377,4|0,0:0|0:0,0:0:0:0:
246,176,37004,1,8,0:0:0:0:
188,268,37111,6,0,L|239:259,1,51.8999984161377,4|0,0:0|0:0,0:0:0:0:
136,125,37327,1,8,0:0:0:0:
77,216,37435,6,0,L|128:207,1,51.8999984161377,4|0,0:0|0:0,0:0:0:0:
25,73,37652,1,8,0:0:0:0:
4,288,37760,5,4,0:0:0:0:
77,216,37868,1,0,0:0:0:0:
106,297,37976,1,8,0:0:0:0:
188,268,38084,1,0,0:0:0:0:
179,371,38192,1,8,0:0:0:0:
246,176,38409,6,0,P|247:119|303:130,2,129.75000494957,8|0|8,0:0|0:0|0:0,0:0:0:0:
471,200,39057,2,0,P|484:144|427:141,2,129.75000494957,0|8|0,0:0|0:0|0:0,0:0:0:0:
336,147,39706,6,0,P|372:146|410:154,1,64.8750024747849,8|0,0:0|0:0,0:0:0:0:
480,316,39922,6,0,L|491:245,1,51.8999984161377,4|0,0:0|0:0,0:0:0:0:
336,147,40138,1,8,0:0:0:0:
395,302,40246,6,0,L|406:231,1,51.8999984161377,4|0,0:0|0:0,0:0:0:0:
251,133,40462,1,8,0:0:0:0:
310,288,40571,6,0,L|321:217,1,51.8999984161377,4|0,0:0|0:0,0:0:0:0:
166,119,40787,1,8,0:0:0:0:
225,274,40895,6,0,L|236:203,1,51.8999984161377,4|0,0:0|0:0,0:0:0:0:
81,105,41111,1,8,0:0:0:0:
92,346,41220,5,4,0:0:0:0:
146,294,41328,1,0,0:0:0:0:
131,221,41436,1,8,0:0:0:0:
62,194,41544,1,0,0:0:0:0:
2,238,41652,6,0,L|9:306,1,51.8999984161377,8|0,0:0|0:0,0:0:0:0:
209,372,41868,2,0,L|214:320,1,51.8999984161377,8|0,0:0|0:0,0:0:0:0:
152,130,42084,2,0,B|125:152|125:152|131:221,1,103.799996832275,0|8,0:0|0:0,0:0:0:0:
246,300,42409,1,0,0:0:0:0:
346,210,42517,6,0,P|393:219|417:251,2,51.8999984161377,0|0|8,0:0|0:0|0:0,0:0:0:0:
201,120,42841,2,0,P|175:119|151:130,2,51.8999984161377
345,45,43166,2,0,L|353:114,1,51.8999984161377,8|0,0:0|0:0,0:0:0:0:
462,271,43382,5,4,0:0:0:0:
260,203,43598,5,8,0:0:0:0:
454,288,43814,5,0,0:0:0:0:
267,185,44030,5,8,0:0:0:0:
444,303,44247,5,0,0:0:0:0:
277,170,44463,5,8,0:0:0:0:
431,316,44571,1,0,0:0:0:0:
290,157,44787,5,8,0:0:0:0:
417,328,44895,2,0,L|356:319,1,51.8999984161377
182,369,45112,6,0,P|239:314|213:231,1,129.75000494957,4|8,0:0|0:0,0:0:0:0:
115,181,45436,1,0,0:0:0:0:
53,241,45544,2,0,L|64:308,1,64.8750024747849
200,146,45760,2,0,P|184:119|159:99,1,64.8750024747849,8|0,0:0|0:0,0:0:0:0:
161,283,45977,6,0,B|199:237|199:237|290:253,1,129.75000494957,0|8,0:0|0:0,0:0:0:0:
412,303,46301,1,0,0:0:0:0:
342,364,46409,2,0,P|320:325|321:291,1,64.8750024747849
482,242,46625,2,0,P|504:281|503:315,1,64.8750024747849,8|0,0:0|0:0,0:0:0:0:
346,133,46842,6,0,L|355:66,2,64.8750024747849,0|0|8,0:0|0:0|0:0,0:0:0:0:
412,303,47166,2,0,P|385:233|311:220,1,129.75000494957
216,56,47490,1,8,0:0:0:0:
146,103,47598,1,0,0:0:0:0:
173,182,47706,6,0,L|237:173,1,64.8750024747849
418,76,47923,2,0,L|354:68,1,64.8750024747849,8|0,0:0|0:0,0:0:0:0:
302,239,48139,1,0,0:0:0:0:
360,181,48247,1,8,0:0:0:0:
441,188,48355,2,0,P|461:225|456:263,1,64.8750024747849,8|0,0:0|0:0,0:0:0:0:
286,367,48571,6,0,L|301:238,1,129.75000494957,0|8,0:0|0:0,0:0:0:0:
230,141,48896,1,0,0:0:0:0:
140,264,49004,2,0,P|174:286|208:287,1,64.8750024747849
403,210,49220,1,8,0:0:0:0:
288,383,49436,6,0,L|305:237,1,147.050002804756,0|8,0:0|0:0,0:0:0:0:
225,126,49761,1,0,0:0:0:0:
122,266,49869,2,0,P|160:290|198:292,1,73.5250014023781
422,205,50085,5,8,0:0:0:0:
416,179,50193,1,0,0:0:0:0:
322,110,50301,5,0,0:0:0:0:
328,83,50409,2,0,P|349:60|386:57,1,43.25,0|8,0:0|0:0,0:0:0:0:
507,219,50626,2,0,L|422:205,1,86.5
242,306,50950,1,8,0:0:0:0:
235,263,51058,1,0,0:0:0:0:
262,229,51166,6,0,L|304:236,1,43.25
457,307,51382,2,0,L|414:314,1,43.25,8|0,0:0|0:0,0:0:0:0:
215,378,51599,1,8,0:0:0:0:
133,131,51815,2,0,L|120:200,1,43.25,2|0,0:0|0:0,0:0:0:0:
216,368,52031,6,0,L|325:364,1,86.5,2|2,0:0|0:0,0:0:0:0:
450,228,52355,1,0,0:0:0:0:
460,260,52464,6,0,L|373:256,1,86.5,2|2,0:0|0:0,0:0:0:0:
212,183,52788,1,0,0:0:0:0:
201,222,52896,6,0,L|274:216,1,43.25,2|0,0:0|0:0,0:0:0:0:
390,332,53112,1,2,0:0:0:0:
347,324,53220,1,2,0:0:0:0:
400,185,53329,2,0,P|392:142|406:102,1,86.5,2|0,0:0|0:0,0:0:0:0:
158,53,53761,5,2,0:0:0:0:
241,39,53869,1,2,0:0:0:0:
255,122,53977,1,0,0:0:0:0:
172,136,54085,1,2,0:0:0:0:
254,41,54193,6,0,L|316:28,1,43.25,2|0,0:0|0:0,0:0:0:0:
158,132,54410,2,0,L|115:140,1,43.25,2|0,0:0|0:0,0:0:0:0:
66,65,54626,2,0,P|23:112|26:175,1,129.75,2|0,0:0|0:0,0:0:0:0:
136,213,55058,6,0,P|25:173|65:64,1,259.5,2|0,0:0|0:0,0:0:0:0:
201,139,55491,6,0,L|114:139,2,86.5,2|8|0,0:0|0:0|0:0,0:0:0:0:
249,285,56031,1,0,0:0:0:0:
269,246,56140,2,0,P|275:229|279:198,1,43.25,8|0,0:0|0:0,0:0:0:0:
161,332,56356,2,0,P|163:353|170:373,1,43.25
179,200,56572,5,8,0:0:0:0:
131,185,56680,1,0,0:0:0:0:
6,314,56788,2,0,P|37:300|123:301,1,86.5,0|8,0:0|0:0,0:0:0:0:
268,347,57113,1,0,0:0:0:0:
346,278,57221,6,0,P|310:253|268:245,1,86.5,0|8,0:0|0:0,0:0:0:0:
150,292,57545,1,0,0:0:0:0:
82,200,57653,2,0,L|72:142,1,43.25
201,94,57869,1,8,0:0:0:0:
193,137,57978,1,0,0:0:0:0:
309,107,58086,6,0,P|323:87|339:77,1,43.25
416,230,58302,1,8,0:0:0:0:
320,221,58410,1,0,0:0:0:0:
338,77,58518,2,0,P|378:58|427:80,1,86.5,0|8,0:0|0:0,0:0:0:0:
470,213,58842,1,0,0:0:0:0:
416,316,58951,6,0,L|416:229,1,86.5,0|8,0:0|0:0,0:0:0:0:
281,162,59275,1,0,0:0:0:0:
259,201,59383,2,0,L|259:255,1,43.25
403,366,59599,1,8,0:0:0:0:
361,350,59707,1,0,0:0:0:0:
416,229,59815,6,0,P|400:188|355:143,1,86.5,0|8,0:0|0:0,0:0:0:0:
222,295,60140,1,0,0:0:0:0:
317,353,60248,6,0,L|360:349,1,43.25
272,233,60464,2,0,L|315:236,1,43.25,8|0,0:0|0:0,0:0:0:0:
97,335,60680,6,0,P|56:320|13:322,2,86.5,0|8|0,0:0|0:0|0:0,0:0:0:0:
224,328,61221,1,0,0:0:0:0:
147,212,61329,1,8,0:0:0:0:
105,207,61437,1,0,0:0:0:0:
112,360,61545,6,0,L|160:356,1,47.5750014518738
337,246,61762,6,0,L|237:240,1,51.8999984161377,8|0,0:0|0:0,0:0:0:0:
50,281,61978,6,0,B|94:247|108:328|188:250,1,112.449994852448,0|8,0:0|0:0,0:0:0:0:
260,240,62302,1,0,0:0:0:0:
195,126,62410,6,0,P|201:157|192:188,1,64.8750024747849,4|0,0:0|0:0,0:0:0:0:
51,143,62626,1,8,0:0:0:0:
202,138,62735,6,0,P|202:173|187:205,1,64.8750024747849,4|0,0:0|0:0,0:0:0:0:
43,130,62951,1,8,0:0:0:0:
207,154,63059,6,0,P|201:191|178:223,1,64.8750024747849,4|0,0:0|0:0,0:0:0:0:
38,114,63275,1,8,0:0:0:0:
209,171,63383,6,0,P|195:210|166:239,1,64.8750024747849,4|0,0:0|0:0,0:0:0:0:
36,97,63599,1,8,0:0:0:0:
207,189,63708,6,0,P|185:228|148:253,1,64.8750024747849,4|0,0:0|0:0,0:0:0:0:
37,78,63924,2,0,P|56:51|83:33,1,64.8750024747849,8|0,0:0|0:0,0:0:0:0:
232,85,64140,6,0,P|290:97|349:68,1,103.799996832275,0|8,0:0|0:0,0:0:0:0:
434,35,64464,1,0,0:0:0:0:
459,89,64573,2,0,L|454:157,1,51.8999984161377
271,203,64789,2,0,L|267:151,1,51.8999984161377,8|0,0:0|0:0,0:0:0:0:
488,218,65005,6,0,L|436:222,1,51.8999984161377
332,111,65221,1,8,0:0:0:0:
290,101,65329,1,0,0:0:0:0:
215,262,65438,2,0,P|262:282|312:274,1,103.799996832275,0|8,0:0|0:0,0:0:0:0:
397,198,65762,1,0,0:0:0:0:
387,307,65870,5,4,0:0:0:0:
77,299,66086,1,8,0:0:0:0:
171,86,66302,5,4,0:0:0:0:
286,369,66519,1,8,0:0:0:0:
94,177,66735,6,0,B|127:222|142:262|142:262|183:240|253:223,1,194.625007424355,4|0,0:0|0:0,0:0:0:0:
301,44,67167,5,12,0:0:0:0:
152,351,67384,1,0,0:0:0:0:
149,330,67492,1,0,0:0:0:0:
147,309,67600,5,0,0:0:0:0:
80,254,67708,2,0,P|126:225|189:238,1,103.799996832275,0|8,0:0|0:0,0:0:0:0:
323,270,68032,2,0,P|277:299|214:286,1,103.799996832275,0|8,0:0|0:0,0:0:0:0:
260,217,68357,1,0,0:0:0:0:
287,352,68465,6,0,P|315:375|358:367,1,51.8999984161377
321,169,68681,2,0,P|296:175|278:194,1,51.8999984161377,8|0,0:0|0:0,0:0:0:0:
432,303,68897,5,0,0:0:0:0:
418,277,69005,1,0,0:0:0:0:
407,219,69113,1,8,0:0:0:0:
422,140,69222,1,0,0:0:0:0:
472,64,69330,5,4,0:0:0:0:
40,64,69762,5,4,0:0:0:0:
40,320,70195,5,4,0:0:0:0:
472,320,70627,5,4,0:0:0:0:
40,320,71060,5,4,0:0:0:0:
116,338,71168,1,0,0:0:0:0:
156,271,71277,1,8,0:0:0:0:
105,212,71385,1,0,0:0:0:0:
32,242,71492,2,0,P|46:219|41:189,1,51.8999984161377
159,99,71708,2,0,P|148:75|127:62,1,51.8999984161377,8|0,0:0|0:0,0:0:0:0:
181,178,71924,5,0,0:0:0:0:
289,228,72033,1,0,0:0:0:0:
233,122,72141,1,8,0:0:0:0:
217,245,72249,1,0,0:0:0:0:
300,154,72357,2,0,P|333:152|377:163,1,51.8999984161377
126,61,72573,2,0,P|93:68|48:64,1,51.8999984161377,8|0,0:0|0:0,0:0:0:0:
85,182,72789,5,0,0:0:0:0:
113,219,72898,1,0,0:0:0:0:
125,264,73006,1,8,0:0:0:0:
111,308,73114,1,0,0:0:0:0:
201,350,73222,5,0,0:0:0:0:
246,324,73330,1,0,0:0:0:0:
297,318,73438,1,8,0:0:0:0:
346,332,73546,1,0,0:0:0:0:
441,246,73654,6,0,L|370:226,1,51.8999984161377
192,222,73871,1,8,0:0:0:0:
285,182,73979,1,8,0:0:0:0:
148,182,74087,6,0,L|103:196,2,34.5999989440918
276,123,74303,2,0,L|325:105,1,51.8999984161377,8|0,0:0|0:0,0:0:0:0:
500,213,74519,6,0,B|464:179|464:179|390:175,1,103.799996832275,0|8,0:0|0:0,0:0:0:0:
319,321,74844,1,0,0:0:0:0:
438,356,74952,2,0,P|448:330|446:305,2,51.8999984161377,0|0|8,0:0|0:0|0:0,0:0:0:0:
381,239,75276,1,0,0:0:0:0:
254,325,75384,6,0,L|311:321,1,51.8999984161377
409,176,75600,2,0,L|357:172,1,51.8999984161377,8|0,0:0|0:0,0:0:0:0:
238,339,75817,2,0,L|306:335,1,51.8999984161377
424,161,76033,2,0,L|372:157,1,51.8999984161377,8|0,0:0|0:0,0:0:0:0:
359,310,76249,6,0,P|426:329|452:311,1,86.5,0|8,0:0|0:0,0:0:0:0:
454,301,76537,1,0,0:0:0:0:
459,272,76609,1,0,0:0:0:0:
450,244,76682,2,0,P|383:225|357:243,1,86.5,0|8,0:0|0:0,0:0:0:0:
278,271,77006,1,0,0:0:0:0:
173,224,77114,5,0,0:0:0:0:
155,201,77222,1,0,0:0:0:0:
282,67,77330,2,0,L|280:117,1,43.25,8|0,0:0|0:0,0:0:0:0:
277,327,77546,1,8,0:0:0:0:
454,123,77763,5,0,0:0:0:0:
454,123,77871,1,0,0:0:0:0:
509,181,77979,6,0,P|471:201|429:197,2,86.5,2|0|2,0:0|0:0|0:0,0:0:0:0:
402,64,78520,2,0,P|387:81|378:99,1,43.25,2|0,0:0|0:0,0:0:0:0:
344,223,78736,1,0,0:0:0:0:
204,152,78844,6,0,P|247:153|289:143,1,86.5,2|0,0:0|0:0,0:0:0:0:
190,65,79168,1,2,0:0:0:0:
146,81,79276,2,0,P|127:106|115:134,1,43.25,2|0,0:0|0:0,0:0:0:0:
42,259,79493,5,0,0:0:0:0:
133,221,79601,1,0,0:0:0:0:
120,318,79709,1,2,0:0:0:0:
128,334,79817,1,2,0:0:0:0:
140,346,79925,1,2,0:0:0:0:
156,353,80033,1,2,0:0:0:0:
173,354,80141,6,0,P|206:351|225:345,1,43.25,2|0,0:0|0:0,0:0:0:0:
309,252,80357,2,0,P|287:247|266:246,1,43.25,2|0,0:0|0:0,0:0:0:0:
349,384,80574,6,0,P|354:342|387:315,1,86.5,2|0,0:0|0:0,0:0:0:0:
458,351,80898,1,2,0:0:0:0:
500,223,81006,6,0,L|448:214,1,43.25,2|0,0:0|0:0,0:0:0:0:
346,124,81222,5,0,0:0:0:0:
368,121,81330,1,0,0:0:0:0:
487,56,81439,6,0,P|465:54|446:45,1,43.25,2|0,0:0|0:0,0:0:0:0:
285,4,81655,2,0,L|292:60,1,43.25,8|0,0:0|0:0,0:0:0:0:
233,202,81871,1,0,0:0:0:0:
228,160,81979,1,0,0:0:0:0:
134,107,82087,2,0,P|112:108|93:117,1,43.25,8|0,0:0|0:0,0:0:0:0:
8,261,82304,6,0,L|123:240,1,86.5,0|8,0:0|0:0,0:0:0:0:
223,343,82628,1,0,0:0:0:0:
185,359,82736,2,0,P|163:357|131:340,1,43.25
228,160,82952,2,0,L|290:171,1,43.25,8|0,0:0|0:0,0:0:0:0:
407,312,83169,6,0,P|455:289|469:240,1,86.5,0|8,0:0|0:0,0:0:0:0:
368,121,83493,1,0,0:0:0:0:
339,147,83601,2,0,L|343:199,1,43.25
304,360,83817,1,8,0:0:0:0:
307,316,83925,1,0,0:0:0:0:
230,231,84033,6,0,P|201:232|171:250,1,43.25
49,336,84250,2,0,L|107:324,1,43.25,8|0,0:0|0:0,0:0:0:0:
98,122,84466,2,0,B|75:154|75:154|91:211,1,86.5,8|8,0:0|0:0,0:0:0:0:
162,262,84790,1,0,0:0:0:0:
176,88,84898,6,0,P|148:50|96:42,1,86.5,0|8,0:0|0:0,0:0:0:0:
199,174,85223,1,0,0:0:0:0:
233,152,85331,2,0,L|280:158,1,43.25
350,50,85547,2,0,L|397:44,1,43.25,8|0,0:0|0:0,0:0:0:0:
488,209,85763,5,0,0:0:0:0:
481,172,85871,1,0,0:0:0:0:
386,126,85980,2,0,P|370:150|366:173,1,43.25,8|0,0:0|0:0,0:0:0:0:
451,304,86196,2,0,P|438:278|420:263,1,43.25
264,271,86412,1,8,0:0:0:0:
306,268,86520,1,0,0:0:0:0:
350,359,86628,6,0,L|300:350,1,43.25
128,296,86844,2,0,L|178:287,1,43.25,8|0,0:0|0:0,0:0:0:0:
292,132,87061,2,0,P|255:148|239:195,1,86.5,0|8,0:0|0:0,0:0:0:0:
306,268,87385,1,0,0:0:0:0:
133,338,87493,6,0,L|128:296,1,43.25
311,225,87709,2,0,L|306:268,1,43.25,8|0,0:0|0:0,0:0:0:0:
240,380,87926,2,0,B|212:339|212:339|226:255,1,129.75,8|0,0:0|0:0,0:0:0:0:
292,132,88358,6,0,P|269:155|239:166,1,64.8750024747849,4|0,0:0|0:0,0:0:0:0:
151,136,88574,1,8,0:0:0:0:
152,115,88682,1,0,0:0:0:0:
353,152,88791,6,0,P|322:161|290:155,1,64.8750024747849,4|0,0:0|0:0,0:0:0:0:
228,84,89007,1,8,0:0:0:0:
240,67,89115,1,0,0:0:0:0:
395,199,89223,6,0,P|363:191|339:170,1,64.8750024747849,4|0,0:0|0:0,0:0:0:0:
321,78,89439,1,8,0:0:0:0:
340,69,89547,1,0,0:0:0:0:
512,227,89655,5,4,0:0:0:0:
464,166,89764,1,0,0:0:0:0:
395,199,89872,2,0,L|401:264,1,64.8750024747849,8|0,0:0|0:0,0:0:0:0:
316,353,90088,5,0,0:0:0:0:
311,327,90196,1,0,0:0:0:0:
295,305,90304,1,8,0:0:0:0:
270,294,90412,1,0,0:0:0:0:
181,320,90520,2,0,P|173:342|173:366,1,43.25
319,231,90737,2,0,P|318:209|310:189,1,43.25,8|0,0:0|0:0,0:0:0:0:
128,119,90953,5,0,0:0:0:0:
21,287,91169,2,0,L|113:275,1,86.5,8|0,0:0|0:0,0:0:0:0:
239,223,91493,1,0,0:0:0:0:
200,190,91602,2,0,P|202:165|216:139,1,43.25,8|0,0:0|0:0,0:0:0:0:
391,31,91818,6,0,P|362:105|283:106,1,168.674992278672,4|0,0:0|0:0,0:0:0:0:
402,247,92250,2,0,P|351:185|390:115,1,168.674992278672,4|0,0:0|0:0,0:0:0:0:
209,148,92683,2,0,P|287:135|328:203,1,168.674992278672,4|0,0:0|0:0,0:0:0:0:
251,335,93115,6,0,B|224:302|224:302|241:235,1,112.449994852448,4|0,0:0|0:0,0:0:0:0:
390,115,93440,1,0,0:0:0:0:
419,148,93548,2,0,L|427:206,1,56.2249974262239
508,341,93764,2,0,P|486:312|455:301,1,56.2249974262239,8|0,0:0|0:0,0:0:0:0:
353,241,93980,5,0,0:0:0:0:
319,249,94088,1,0,0:0:0:0:
251,335,94196,1,8,0:0:0:0:
217,327,94304,1,0,0:0:0:0:
161,201,94413,2,0,P|131:204|104:220,1,56.2249974262239
8,339,94629,2,0,P|32:351|60:354,1,56.2249974262239,8|0,0:0|0:0,0:0:0:0:
240,173,94845,6,0,P|257:96|182:153,1,194.625007424355,8|0,0:0|0:0,0:0:0:0:
228,253,95277,6,0,B|278:249|278:249|285:240|285:240|355:234,1,116.77499643631,4|0,0:0|0:0,0:0:0:0:
433,263,95710,6,0,B|383:267|383:267|376:276|376:276|306:282,1,116.77499643631,4|0,0:0|0:0,0:0:0:0:
325,360,96142,6,0,B|321:310|321:310|312:303|312:303|306:233,1,116.77499643631,4|0,0:0|0:0,0:0:0:0:
335,155,96574,6,0,B|339:205|339:205|348:212|348:212|354:282,1,116.77499643631,4|0,0:0|0:0,0:0:0:0:
438,79,97007,6,0,P|409:69|377:71,1,56.2249974262239,4|0,0:0|0:0,0:0:0:0:
210,176,97224,2,0,P|239:186|271:184,1,56.2249974262239,8|0,0:0|0:0,0:0:0:0:
281,27,97440,1,0,0:0:0:0:
271,70,97548,1,0,0:0:0:0:
335,155,97656,2,0,L|394:160,1,56.2249974262239,8|0,0:0|0:0,0:0:0:0:
445,384,97872,5,0,0:0:0:0:
440,315,97980,1,0,0:0:0:0:
394,264,98088,1,8,0:0:0:0:
325,254,98196,1,0,0:0:0:0:
266,290,98305,2,0,B|225:315|225:315|150:298,1,112.449994852448,0|8,0:0|0:0,0:0:0:0:
116,223,98629,1,0,0:0:0:0:
22,359,98737,6,0,L|85:351,1,56.2249974262239
171,230,98953,2,0,L|115:222,1,56.2249974262239,8|0,0:0|0:0,0:0:0:0:
7,137,99170,1,0,0:0:0:0:
42,129,99278,1,0,0:0:0:0:
109,55,99386,1,8,0:0:0:0:
144,63,99494,1,0,0:0:0:0:
220,161,99602,6,0,P|244:138|254:103,1,56.2249974262239
346,21,99818,2,0,L|352:92,1,56.2249974262239,8|0,0:0|0:0,0:0:0:0:
310,236,100035,2,0,P|343:175|418:172,1,112.449994852448,0|8,0:0|0:0,0:0:0:0:
455,216,100359,1,0,0:0:0:0:
480,382,100467,5,0,0:0:0:0:
462,336,100575,1,0,0:0:0:0:
423,307,100683,1,8,0:0:0:0:
375,304,100791,1,0,0:0:0:0:
333,328,100899,1,0,0:0:0:0:
284,331,101008,1,0,0:0:0:0:
242,307,101116,2,0,P|230:272|239:240,1,56.2249974262239,8|0,0:0|0:0,0:0:0:0:
147,67,101332,5,0,0:0:0:0:
156,97,101440,1,0,0:0:0:0:
92,175,101548,2,0,P|56:167|35:153,1,56.2249974262239,8|0,0:0|0:0,0:0:0:0:
1,356,101764,5,0,0:0:0:0:
10,326,101872,1,0,0:0:0:0:
90,263,101981,2,0,P|114:249|142:245,1,56.2249974262239,8|0,0:0|0:0,0:0:0:0:
313,189,102197,6,0,B|258:175|258:175|237:113,1,112.449994852448,0|8,0:0|0:0,0:0:0:0:
379,36,102521,1,0,0:0:0:0:
399,55,102629,2,0,P|412:85|410:121,1,56.2249974262239
273,227,102846,2,0,P|289:204|313:189,1,56.2249974262239,8|0,0:0|0:0,0:0:0:0:
486,250,103062,2,0,P|453:246|423:226,1,56.2249974262239
268,38,103278,5,8,0:0:0:0:
229,49,103386,1,0,0:0:0:0:
96,142,103494,2,0,P|127:186|182:188,1,112.449994852448,8|0,0:0|0:0,0:0:0:0:
190,60,103819,5,2,0:0:0:0:
142,49,103927,2,0,L|91:37,1,43.25,2|0,0:0|0:0,0:0:0:0:
39,230,104143,2,0,L|90:218,1,43.25,0|2,0:0|0:0,0:0:0:0:
229,190,104359,1,2,0:0:0:0:
197,212,104467,1,0,0:0:0:0:
189,250,104575,1,2,0:0:0:0:
202,286,104684,1,0,0:0:0:0:
298,353,104792,6,0,P|255:345|213:352,1,86.5,2|0,0:0|0:0,0:0:0:0:
96,372,105116,1,0,0:0:0:0:
33,296,105224,2,0,B|35:274|35:274|51:249,1,43.25,2|0,0:0|0:0,0:0:0:0:
162,225,105440,5,2,0:0:0:0:
157,193,105549,1,2,0:0:0:0:
98,92,105657,2,0,L|168:89,1,43.25,2|0,0:0|0:0,0:0:0:0:
118,298,105873,2,0,L|94:261,1,43.25,2|0,0:0|0:0,0:0:0:0:
287,177,106089,2,0,L|266:215,1,43.25,2|0,0:0|0:0,0:0:0:0:
98,92,106305,6,0,L|168:89,1,43.25,2|0,0:0|0:0,0:0:0:0:
300,54,106522,5,2,0:0:0:0:
338,51,106630,1,2,0:0:0:0:
453,119,106738,5,0,0:0:0:0:
415,116,106846,1,2,0:0:0:0:
287,177,106954,6,0,L|318:175,2,28.8333333333333,2|0|0,0:0|0:0|0:0,0:0:0:0:
474,41,107170,2,0,L|443:39,2,28.8333333333333
444,201,107386,5,2,0:0:0:0:
387,174,107495,1,0,0:0:0:0:
330,147,107603,1,8,0:0:0:0:
274,121,107711,1,0,0:0:0:0:
218,95,107819,2,0,L|222:190,1,86.5,0|8,0:0|0:0,0:0:0:0:
267,352,108143,1,0,0:0:0:0:
427,346,108251,6,0,P|387:313|316:317,2,86.5,0|8|0,0:0|0:0|0:0,0:0:0:0:
427,223,108792,1,0,0:0:0:0:
390,198,108900,2,0,L|465:195,1,43.25,8|0,0:0|0:0,0:0:0:0:
267,352,109116,6,0,L|166:346,1,86.5,0|8,0:0|0:0,0:0:0:0:
120,263,109441,1,0,0:0:0:0:
296,271,109549,2,0,L|245:268,1,43.25
119,361,109765,2,0,L|68:358,1,43.25,8|0,0:0|0:0,0:0:0:0:
32,209,109981,1,0,0:0:0:0:
66,189,110089,2,0,L|129:194,2,43.25,0|8|0,0:0|0:0|0:0,0:0:0:0:
204,127,110414,5,0,0:0:0:0:
163,236,110522,1,0,0:0:0:0:
78,113,110630,2,0,B|57:124|57:124|23:65,1,64.8750024747849,8|0,0:0|0:0,0:0:0:0:
195,26,110846,6,0,B|241:26|241:26|273:49,1,86.5,0|8,0:0|0:0,0:0:0:0:
310,168,111171,1,0,0:0:0:0:
315,133,111279,1,0,0:0:0:0:
320,98,111387,1,0,0:0:0:0:
325,63,111495,1,8,0:0:0:0:
330,28,111603,6,0,P|348:84|346:135,1,86.5
381,283,111927,1,8,0:0:0:0:
343,281,112035,1,0,0:0:0:0:
220,198,112144,2,0,L|292:190,1,43.25
487,129,112360,2,0,L|415:121,1,43.25,8|0,0:0|0:0,0:0:0:0:
419,285,112576,5,0,0:0:0:0:
368,73,112792,1,8,0:0:0:0:
372,325,113008,2,0,L|382:276,1,43.25
415,33,113225,1,8,0:0:0:0:
429,73,113333,1,0,0:0:0:0:
460,126,113441,5,0,0:0:0:0:
410,110,113549,1,0,0:0:0:0:
358,118,113657,1,8,0:0:0:0:
320,154,113765,1,0,0:0:0:0:
304,217,113873,5,0,0:0:0:0:
247,249,113982,1,0,0:0:0:0:
169,255,114090,1,8,0:0:0:0:
104,211,114198,1,0,0:0:0:0:
82,127,114306,5,4,0:0:0:0:
280,62,114414,2,0,B|268:29|268:29|206:45|206:45|161:46,1,129.75000494957,4|0,0:0|0:0,0:0:0:0:
169,255,114738,5,4,0:0:0:0:
263,69,114846,2,0,B|231:54|231:54|198:109|198:109|167:141,1,129.75000494957,4|0,0:0|0:0,0:0:0:0:
321,283,115171,5,4,0:0:0:0:
255,86,115279,2,0,B|221:98|221:98|237:160|237:160|238:204,1,129.75000494957,4|0,0:0|0:0,0:0:0:0:
449,196,115603,5,4,0:0:0:0:
263,102,115711,2,0,B|248:134|248:134|303:167|303:167|335:198,1,129.75000494957,4|0,0:0|0:0,0:0:0:0:
477,44,116036,5,0,0:0:0:0:
466,99,116144,1,0,0:0:0:0:
456,154,116252,2,0,L|443:213,1,56.2249974262239,8|0,0:0|0:0,0:0:0:0:
418,314,116468,5,0,0:0:0:0:
362,307,116576,1,0,0:0:0:0:
306,300,116684,2,0,L|251:293,1,56.2249974262239,8|0,0:0|0:0,0:0:0:0:
148,223,116901,5,0,0:0:0:0:
96,244,117009,1,0,0:0:0:0:
44,265,117117,2,0,L|34:326,1,56.2249974262239,8|0,0:0|0:0,0:0:0:0:
159,358,117333,5,0,0:0:0:0:
153,288,117441,1,0,0:0:0:0:
148,223,117549,1,8,0:0:0:0:
142,154,117657,1,0,0:0:0:0:
65,81,117766,6,0,B|118:46|118:46|183:56,1,129.75000494957,4|8,0:0|0:0,0:0:0:0:
370,154,118090,1,0,0:0:0:0:
447,81,118198,6,0,B|394:46|394:46|328:56,1,129.75000494957,4|8,0:0|0:0,0:0:0:0:
142,154,118522,1,0,0:0:0:0:
187,246,118631,6,0,B|121:256|121:256|68:221,1,129.75000494957,4|8,0:0|0:0,0:0:0:0:
370,154,118955,1,0,0:0:0:0:
325,246,119063,6,0,B|390:256|390:256|443:221,1,129.75000494957,4|8,0:0|0:0,0:0:0:0:
256,42,119387,1,0,0:0:0:0:
193,128,119495,5,0,0:0:0:0:
187,161,119604,1,0,0:0:0:0:
285,157,119712,5,8,0:0:0:0:
291,190,119821,1,0,0:0:0:0:
221,255,119928,5,0,0:0:0:0:
215,288,120037,1,0,0:0:0:0:
313,284,120145,5,8,0:0:0:0:
319,317,120252,1,0,0:0:0:0:
422,349,120360,5,0,0:0:0:0:
425,326,120432,1,0,0:0:0:0:
428,303,120505,1,0,0:0:0:0:
431,280,120577,1,8,0:0:0:0:
434,257,120649,1,0,0:0:0:0:
438,234,120721,1,0,0:0:0:0:
442,211,120793,2,0,L|448:176,10,18.7416658087413
430,137,121225,6,0,P|402:100|335:120,1,103.8,4|0,0:0|0:0,0:0:0:0:
300,230,121658,6,0,P|344:224|360:156,1,103.8,4|0,0:0|0:0,0:0:0:0:
284,70,122090,6,0,P|266:111|317:159,1,103.8,4|0,0:0|0:0,0:0:0:0:
389,40,122523,6,0,L|424:37,1,34.6,8|0,0:0|0:0,0:0:0:0:
123,344,122739,2,0,L|88:347,1,34.6,8|0,0:0|0:0,0:0:0:0:
24,252,122955,6,0,P|16:216|18:201,1,51.8999984161377,4|0,0:0|0:0,0:0:0:0:
192,156,123171,1,8,0:0:0:0:
192,130,123243,1,0,0:0:0:0:
184,105,123316,1,0,0:0:0:0:
170,84,123388,2,0,P|154:62|118:43,1,51.8999984161377
107,227,123604,2,0,P|127:254|172:278,1,51.8999984161377,8|0,0:0|0:0,0:0:0:0:
248,357,123820,5,0,0:0:0:0:
313,315,123928,1,0,0:0:0:0:
390,319,124036,2,0,L|441:325,2,34.5999989440918,8|0|0,0:0|0:0|0:0,0:0:0:0:
482,378,124253,2,0,P|505:333|486:278,1,103.799996832275,0|8,0:0|0:0,0:0:0:0:
404,157,124577,1,0,0:0:0:0:
422,174,124685,6,0,L|495:168,1,51.8999984161377
316,242,124901,2,0,L|243:236,1,51.8999984161377,8|0,0:0|0:0,0:0:0:0:
236,136,125117,1,0,0:0:0:0:
443,191,125226,2,0,L|516:185,2,51.8999984161377,0|8|0,0:0|0:0|0:0,0:0:0:0:
355,60,125550,6,0,P|378:42|408:29,1,51.8999984161377
263,156,125766,2,0,P|249:142|231:134,2,34.5999989440918,8|0|0,0:0|0:0|0:0,0:0:0:0:
161,36,125982,2,0,B|111:52|111:52|36:51,1,103.799996832275,0|8,0:0|0:0,0:0:0:0:
81,138,126307,1,0,0:0:0:0:
223,43,126415,5,0,0:0:0:0:
258,80,126523,1,0,0:0:0:0:
262,131,126631,1,8,0:0:0:0:
230,172,126739,1,0,0:0:0:0:
178,177,126847,1,0,0:0:0:0:
132,202,126956,1,8,0:0:0:0:
116,251,127064,1,8,0:0:0:0:
138,297,127172,1,0,0:0:0:0:
205,342,127280,6,0,P|172:342|153:353,1,51.8999984161377
25,255,127496,2,0,P|41:226|41:204,1,51.8999984161377,8|0,0:0|0:0,0:0:0:0:
190,142,127712,2,0,P|206:170|225:181,1,51.8999984161377
327,243,127928,1,8,0:0:0:0:
363,221,128037,1,0,0:0:0:0:
449,156,128145,6,0,L|518:167,1,51.8999984161377
450,322,128361,1,8,0:0:0:0:
382,126,128469,1,0,0:0:0:0:
443,302,128685,5,0,0:0:0:0:
388,145,128793,1,8,0:0:0:0:
280,270,128902,1,0,0:0:0:0:
453,227,129010,6,0,L|405:220,1,47.5750014518738
296,352,129226,6,0,L|253:325,1,47.5750014518738,8|0,0:0|0:0,0:0:0:0:
103,331,129442,6,0,L|103:288,4,23.7875007259369,0|0|0|0|8,0:0|0:0|0:0|0:0|0:0,0:0:0:0:
11,146,129875,5,2,0:0:0:0:
49,126,129983,1,0,0:0:0:0:
91,126,130091,1,0,0:0:0:0:
129,147,130199,1,0,0:0:0:0:
152,183,130307,1,2,0:0:0:0:
154,225,130415,2,0,P|201:199|262:217,1,86.5
260,314,130740,6,0,L|218:307,1,43.25,2|0,0:0|0:0,0:0:0:0:
316,151,130956,2,0,L|358:144,1,43.25,2|0,0:0|0:0,0:0:0:0:
501,253,131172,6,0,P|454:227|393:245,1,86.5,2|0,0:0|0:0,0:0:0:0:
368,277,131496,1,0,0:0:0:0:
267,217,131604,6,0,L|275:158,1,43.25,2|0,0:0|0:0,0:0:0:0:
441,304,131821,2,0,L|446:346,1,43.25,2|0,0:0|0:0,0:0:0:0:
241,382,132037,1,2,0:0:0:0:
194,244,132145,1,2,0:0:0:0:
97,353,132253,2,0,L|146:346,1,43.25,2|0,0:0|0:0,0:0:0:0:
343,201,132469,6,0,P|298:145|216:158,1,155.699995248413,2|0,0:0|0:0,0:0:0:0:
76,70,132902,6,0,B|107:78|107:78|135:62|135:62|166:70|166:70|194:54|194:54|225:62|225:62|254:46,1,194.625007424355,2|0,0:0|0:0,0:0:0:0:
398,0,133334,6,0,P|371:32|369:82,2,86.5,2|8|0,0:0|0:0|0:0,0:0:0:0:
509,132,133875,1,0,0:0:0:0:
472,158,133983,2,0,L|429:151,1,43.25,8|0,0:0|0:0,0:0:0:0:
267,217,134199,2,0,L|310:210,1,43.25,8|0,0:0|0:0,0:0:0:0:
512,267,134415,2,0,P|490:255|463:253,1,43.25,8|0,0:0|0:0,0:0:0:0:
227,326,134632,2,0,P|267:308|322:317,1,86.5,0|8,0:0|0:0,0:0:0:0:
366,370,134956,1,0,0:0:0:0:
435,252,135064,6,0,L|372:240,1,43.25
173,164,135280,2,0,L|215:155,1,43.25,8|0,0:0|0:0,0:0:0:0:
363,32,135497,2,0,P|344:55|339:85,1,43.25
267,217,135713,5,8,0:0:0:0:
274,242,135821,5,0,0:0:0:0:
280,266,135929,5,0,0:0:0:0:
213,221,136037,1,0,0:0:0:0:
133,236,136145,1,8,0:0:0:0:
88,303,136253,1,0,0:0:0:0:
103,383,136362,6,0,L|145:376,1,43.25
344,230,136578,2,0,L|301:223,1,43.25,8|0,0:0|0:0,0:0:0:0:
7,120,136794,6,0,P|49:115|80:85,2,86.5,0|8|0,0:0|0:0|0:0,0:0:0:0:
63,222,137335,1,0,0:0:0:0:
104,212,137443,1,8,0:0:0:0:
145,202,137551,1,0,0:0:0:0:
207,247,137659,5,0,0:0:0:0:
235,150,137767,1,0,0:0:0:0:
325,196,137875,1,8,0:0:0:0:
353,99,137983,1,0,0:0:0:0:
443,145,138091,2,0,L|437:212,1,43.25
289,323,138308,2,0,L|285:279,1,43.25,8|0,0:0|0:0,0:0:0:0:
512,216,138524,5,0,0:0:0:0:
495,243,138632,1,0,0:0:0:0:
469,261,138740,1,8,0:0:0:0:
437,266,138848,1,0,0:0:0:0:
406,257,138956,2,0,P|386:247|357:244,1,43.25
182,349,139173,2,0,P|201:359|222:362,1,43.25,8|0,0:0|0:0,0:0:0:0:
291,152,139389,6,0,L|285:194,1,43.25
94,371,139605,2,0,L|88:328,1,43.25,8|0,0:0|0:0,0:0:0:0:
212,176,139821,5,0,0:0:0:0:
143,222,139929,1,0,0:0:0:0:
63,206,140037,1,8,0:0:0:0:
17,140,140145,1,0,0:0:0:0:
31,58,140253,5,4,0:0:0:0:
481,58,140686,5,4,0:0:0:0:
481,326,141119,5,4,0:0:0:0:
31,326,141552,5,4,0:0:0:0:
298,51,141984,6,0,L|312:145,2,86.5,0|8|0,0:0|0:0|0:0,0:0:0:0:
161,117,142524,1,0,0:0:0:0:
154,159,142632,1,8,0:0:0:0:
148,202,142740,1,0,0:0:0:0:
74,254,142848,2,0,P|46:244|30:231,1,43.25
234,179,143065,2,0,P|262:189|278:202,1,43.25,8|0,0:0|0:0,0:0:0:0:
287,347,143281,5,0,0:0:0:0:
229,277,143389,1,0,0:0:0:0:
141,304,143497,1,8,0:0:0:0:
121,328,143551,1,0,0:0:0:0:
91,341,143605,1,0,0:0:0:0:
59,340,143659,1,0,0:0:0:0:
31,326,143713,5,4,0:0:0:0:
481,326,144146,5,4,0:0:0:0:
481,58,144579,5,4,0:0:0:0:
31,58,145012,5,4,0:0:0:0:
280,279,145443,6,0,P|322:254|384:257,2,86.5,0|8|0,0:0|0:0|0:0,0:0:0:0:
196,384,145984,1,0,0:0:0:0:
177,347,146092,2,0,L|184:291,1,43.25,8|0,0:0|0:0,0:0:0:0:
262,150,146308,6,0,L|267:192,1,43.25
339,382,146524,2,0,L|344:339,1,43.25,8|0,0:0|0:0,0:0:0:0:
490,171,146741,1,0,0:0:0:0:
500,221,146849,1,0,0:0:0:0:
461,254,146957,2,0,L|408:243,1,43.25,8|0,0:0|0:0,0:0:0:0:
216,129,147173,6,0,P|248:127|274:109,1,64.8750024747849,4|0,0:0|0:0,0:0:0:0:
238,5,147389,2,0,P|205:6|179:24,1,64.8750024747849,8|0,0:0|0:0,0:0:0:0:
70,212,147606,6,0,P|38:211|12:193,1,64.8750024747849,4|0,0:0|0:0,0:0:0:0:
48,89,147822,2,0,P|80:90|107:109,1,64.8750024747849,8|0,0:0|0:0,0:0:0:0:
402,273,148038,6,0,P|434:271|460:253,1,64.8750024747849,4|0,0:0|0:0,0:0:0:0:
424,149,148254,2,0,P|391:150|365:168,1,64.8750024747849,8|0,0:0|0:0,0:0:0:0:
188,363,148471,6,0,P|155:361|129:343,1,64.8750024747849,4|0,0:0|0:0,0:0:0:0:
166,239,148687,2,0,P|198:240|224:258,1,64.8750024747849,8|0,0:0|0:0,0:0:0:0:
440,349,148903,6,0,B|474:319|474:319|458:243,1,112.449994852448,4|8,0:0|0:0,0:0:0:0:
365,168,149227,1,0,0:0:0:0:
301,256,149335,2,0,L|369:267,1,56.2249974262239
512,139,149552,2,0,L|444:128,1,56.2249974262239,8|0,0:0|0:0,0:0:0:0:
237,80,149768,6,0,P|291:75|324:31,1,112.449994852448,0|8,0:0|0:0,0:0:0:0:
179,0,150092,1,0,0:0:0:0:
124,61,150200,2,0,L|132:126,1,56.2249974262239
304,152,150417,2,0,L|310:96,1,56.2249974262239,8|0,0:0|0:0,0:0:0:0:
90,242,150633,5,0,0:0:0:0:
147,203,150741,1,0,0:0:0:0:
214,216,150849,1,8,0:0:0:0:
254,271,150957,1,0,0:0:0:0:
244,339,151065,1,0,0:0:0:0:
309,384,151173,6,0,B|337:341|337:341|417:327,1,112.449994852448,8|8,0:0|0:0,0:0:0:0:
494,255,151498,2,0,P|468:240|431:236,1,56.2249974262239
276,152,151714,2,0,P|302:137|339:133,1,56.2249974262239,8|0,0:0|0:0,0:0:0:0:
469,67,151930,2,0,L|457:141,1,56.2249974262239
348,291,152146,1,8,0:0:0:0:
339,235,152254,1,0,0:0:0:0:
276,152,152363,6,0,L|208:162,1,56.2249974262239
61,237,152579,2,0,L|129:247,1,56.2249974262239,8|0,0:0|0:0,0:0:0:0:
238,309,152795,2,0,P|253:266|250:243,1,56.2249974262239
147,75,153011,1,8,0:0:0:0:
387,208,153228,6,0,L|319:218,1,56.2249974262239
127,360,153444,2,0,L|195:370,1,56.2249974262239,8|0,0:0|0:0,0:0:0:0:
427,329,153660,2,0,P|405:299|367:288,1,56.2249974262239
220,160,153876,1,8,0:0:0:0:
460,57,154093,6,0,L|392:67,1,56.2249974262239
173,228,154309,2,0,L|228:236,1,56.2249974262239,8|0,0:0|0:0,0:0:0:0:
472,262,154525,2,0,P|468:190|411:159,1,112.449994852448,0|8,0:0|0:0,0:0:0:0:
325,124,154849,1,8,0:0:0:0:
248,319,154957,6,0,L|316:311,1,64.8750024747849
504,173,155174,2,0,L|436:165,1,64.8750024747849,8|0,0:0|0:0,0:0:0:0:
252,63,155390,2,0,P|234:94|230:130,1,64.8750024747849
427,329,155606,1,8,0:0:0:0:
439,165,155822,6,0,P|447:123|435:82,1,86.5,2|0,0:0|0:0,0:0:0:0:
268,19,156147,1,0,0:0:0:0:
229,122,156255,2,0,L|271:116,1,43.25,2|2,0:0|0:0,0:0:0:0:
328,315,156579,1,0,0:0:0:0:
328,315,156687,2,0,P|290:293|247:290,1,86.5,2|0,0:0|0:0,0:0:0:0:
114,348,157012,1,2,0:0:0:0:
114,348,157120,2,0,P|151:326|175:291,1,86.5,2|0,0:0|0:0,0:0:0:0:
192,145,157552,5,2,0:0:0:0:
283,187,157660,1,0,0:0:0:0:
170,158,157768,5,2,0:0:0:0:
306,175,157877,1,0,0:0:0:0:
161,186,157985,6,0,L|99:180,1,43.25,2|0,0:0|0:0,0:0:0:0:
20,217,158201,6,0,L|63:221,1,43.25,2|0,0:0|0:0,0:0:0:0:
110,268,158417,6,0,L|104:339,1,43.25,2|0,0:0|0:0,0:0:0:0:
106,311,158850,2,0,L|118:171,1,129.75,2|0,0:0|0:0,0:0:0:0:
51,120,159282,6,0,P|94:91|145:94,1,103.799996832275,2|8,0:0|0:0,0:0:0:0:
199,284,159715,2,0,P|156:313|105:310,1,103.799996832275,0|8,0:0|0:0,0:0:0:0:
127,196,160039,1,0,0:0:0:0:
167,165,160147,6,0,L|218:155,1,51.8999984161377
272,52,160363,2,0,L|323:61,1,51.8999984161377,8|0,0:0|0:0,0:0:0:0:
347,218,160579,2,0,L|449:201,1,103.799996832275,0|8,0:0|0:0,0:0:0:0:
484,104,160904,1,0,0:0:0:0:
323,61,161012,6,0,L|272:52,1,51.8999984161377
204,208,161228,2,0,L|237:168,1,51.8999984161377,8|0,0:0|0:0,0:0:0:0:
136,31,161444,5,0,0:0:0:0:
153,79,161553,2,0,P|166:132|126:196,1,103.799996832275,8|0,0:0|0:0,0:0:0:0:
23,125,161877,6,0,B|52:120|52:120|74:122,1,51.8999984161377
289,165,162093,2,0,B|260:170|260:170|237:167,1,51.8999984161377,8|0,0:0|0:0,0:0:0:0:
51,299,162309,2,0,P|38:246|78:182,1,103.799996832275,0|8,0:0|0:0,0:0:0:0:
147,176,162634,1,0,0:0:0:0:
174,284,162742,5,0,0:0:0:0:
190,327,162850,1,0,0:0:0:0:
228,353,162958,2,0,P|256:347|292:350,1,51.8999984161377,8|0,0:0|0:0,0:0:0:0:
478,314,163174,2,0,P|432:338|382:331,1,103.799996832275,0|8,0:0|0:0,0:0:0:0:
268,252,163499,1,0,0:0:0:0:
412,202,163607,6,0,L|421:272,1,51.8999984161377
325,180,163823,1,8,0:0:0:0:
336,129,163931,1,0,0:0:0:0:
347,78,164039,2,0,P|324:138|388:128,1,155.699995248413,8|0,0:0|0:0,0:0:0:0:
401,29,164472,6,0,P|406:59|404:80,1,51.8999984161377
268,252,164688,2,0,P|263:222|264:200,2,51.8999984161377,8|0|0,0:0|0:0|0:0,0:0:0:0:
339,329,165012,1,0,0:0:0:0:
392,236,165120,2,0,L|324:228,1,51.8999984161377,8|0,0:0|0:0,0:0:0:0:
205,148,165337,5,0,0:0:0:0:
165,246,165445,1,0,0:0:0:0:
319,258,165553,2,0,L|251:250,1,51.8999984161377,8|0,0:0|0:0,0:0:0:0:
52,342,165769,5,0,0:0:0:0:
55,290,165877,1,0,0:0:0:0:
59,238,165985,1,8,0:0:0:0:
63,186,166093,1,0,0:0:0:0:
67,133,166202,6,0,P|100:98|191:118,1,129.75000494957,4|8,0:0|0:0,0:0:0:0:
217,211,166526,1,0,0:0:0:0:
335,126,166634,6,0,L|270:130,1,64.8750024747849,4|0,0:0|0:0,0:0:0:0:
120,296,166850,2,0,L|184:300,1,64.8750024747849,8|0,0:0|0:0,0:0:0:0:
335,332,167066,5,4,0:0:0:0:
315,255,167175,1,0,0:0:0:0:
345,183,167283,1,8,0:0:0:0:
418,156,167391,1,0,0:0:0:0:
491,181,167499,2,0,L|487:252,1,64.8750024747849,4|0,0:0|0:0,0:0:0:0:
224,340,167715,2,0,L|216:210,1,129.75000494957,8|0,0:0|0:0,0:0:0:0:
396,345,168148,6,0,P|367:331|322:336,1,64.8750024747849,8|0,0:0|0:0,0:0:0:0:
224,339,168364,2,0,P|138:340|109:267,1,129.75000494957,0|8,0:0|0:0,0:0:0:0:
131,217,168688,1,0,0:0:0:0:
220,256,168796,2,0,L|310:251,1,64.8750024747849
314,127,169013,6,0,L|381:187,1,64.8750024747849,8|0,0:0|0:0,0:0:0:0:
471,102,169229,2,0,L|476:192,1,64.8750024747849
396,345,169445,1,8,0:0:0:0:
396,345,169661,6,0,P|406:307|396:272,1,64.8750024747849,4|0,0:0|0:0,0:0:0:0:
306,219,169877,1,8,0:0:0:0:
297,269,169986,1,0,0:0:0:0:
427,231,170094,6,0,P|416:193|390:167,1,64.8750024747849,4|0,0:0|0:0,0:0:0:0:
286,166,170310,1,8,0:0:0:0:
303,214,170419,1,0,0:0:0:0:
402,119,170526,6,0,P|374:91|338:82,1,64.8750024747849,4|0,0:0|0:0,0:0:0:0:
247,133,170742,1,8,0:0:0:0:
286,166,170851,1,0,0:0:0:0:
324,35,170959,6,0,P|286:25|251:34,1,64.8750024747849,4|0,0:0|0:0,0:0:0:0:
196,124,171175,2,0,P|164:128|133:118,1,64.8750024747849,8|0,0:0|0:0,0:0:0:0:
67,25,171391,1,0,0:0:0:0:
51,218,171607,6,0,P|110:195|211:202,1,129.75000494957,8|0,0:0|0:0,0:0:0:0:
236,243,171932,1,0,0:0:0:0:
287,301,172040,1,8,0:0:0:0:
364,296,172148,1,0,0:0:0:0:
408,232,172256,1,0,0:0:0:0:
397,154,172364,5,0,0:0:0:0:
327,188,172472,1,8,0:0:0:0:
251,167,172580,1,0,0:0:0:0:
232,91,172688,2,0,P|225:58|227:21,1,64.8750024747849
474,59,172905,2,0,P|474:91|467:122,1,64.8750024747849,8|0,0:0|0:0,0:0:0:0:
408,232,173121,5,4,0:0:0:0:
339,53,173337,1,0,0:0:0:0:
308,308,173553,5,12,0:0:0:0:
424,127,173770,1,0,0:0:0:0:
175,146,173986,5,4,0:0:0:0:
244,363,174202,1,0,0:0:0:0:
443,279,174418,5,12,0:0:0:0:
153,273,174635,1,0,0:0:0:0:
216,44,174851,6,0,L|287:39,1,56.2249974262239,4|0,0:0|0:0,0:0:0:0:
330,181,175067,2,0,L|273:184,1,56.2249974262239,8|0,0:0|0:0,0:0:0:0:
145,139,175283,1,0,0:0:0:0:
134,95,175391,1,0,0:0:0:0:
272,60,175499,6,0,P|273:98|266:129,1,56.2249974262239,8|0,0:0|0:0,0:0:0:0:
170,230,175716,1,0,0:0:0:0:
186,275,175824,1,0,0:0:0:0:
65,311,175932,2,0,P|65:278|47:226,1,56.2249974262239,8|0,0:0|0:0,0:0:0:0:
147,377,176148,2,0,P|178:366|233:366,1,56.2249974262239
286,352,176364,5,8,0:0:0:0:
340,320,176473,1,0,0:0:0:0:
348,258,176581,1,0,0:0:0:0:
320,202,176689,2,0,B|289:190|289:190|265:191,2,56.2249974262239,0|8|0,0:0|0:0|0:0,0:0:0:0:
151,318,177013,2,0,B|176:297|176:297|187:275,1,56.2249974262239,0|8,0:0|0:0,0:0:0:0:
135,113,177229,2,0,B|140:145|140:145|153:165,1,56.2249974262239,8|0,0:0|0:0,0:0:0:0:
82,41,177446,6,0,L|25:36,1,56.2249974262239
191,117,177662,2,0,L|134:112,1,56.2249974262239,8|0,0:0|0:0,0:0:0:0:
145,200,177824,1,0,0:0:0:0:
168,198,177878,2,0,L|224:193,1,56.2249974262239
377,112,178094,2,0,L|321:117,1,56.2249974262239,8|0,0:0|0:0,0:0:0:0:
486,36,178311,6,0,P|486:75|472:96,1,56.2249974262239
406,254,178527,2,0,P|405:215|391:194,1,56.2249974262239,8|0,0:0|0:0,0:0:0:0:
315,95,178743,1,0,0:0:0:0:
270,72,178851,1,0,0:0:0:0:
220,78,178959,1,8,0:0:0:0:
181,109,179067,1,0,0:0:0:0:
151,219,179175,5,0,0:0:0:0:
201,209,179284,1,0,0:0:0:0:
303,309,179392,5,8,0:0:0:0:
253,299,179500,1,0,0:0:0:0:
204,314,179608,2,0,P|174:318|129:339,1,56.2249974262239
396,359,179824,2,0,P|419:345|448:308,1,56.2249974262239,8|0,0:0|0:0,0:0:0:0:
350,120,180040,6,0,L|357:181,1,56.2249974262239
221,112,180257,1,8,0:0:0:0:
254,71,180365,1,0,0:0:0:0:
319,217,180473,2,0,P|264:240|194:197,1,112.449994852448,0|8,0:0|0:0,0:0:0:0:
141,155,180797,5,0,0:0:0:0:
120,254,180905,1,0,0:0:0:0:
35,198,181013,1,0,0:0:0:0:
22,299,181122,6,0,P|51:302|77:292,1,56.2249974262239,8|0,0:0|0:0,0:0:0:0:
216,223,181338,6,0,P|230:199|233:171,1,56.2249974262239,8|0,0:0|0:0,0:0:0:0:
48,78,181554,5,0,0:0:0:0:
113,325,181770,5,2,0:0:0:0:
294,146,181986,1,0,0:0:0:0:
48,78,182203,1,2,0:0:0:0:
48,78,182311,1,0,0:0:0:0:
48,78,182419,1,2,0:0:0:0:
389,194,182635,5,2,0:0:0:0:
209,12,182851,1,0,0:0:0:0:
141,258,183068,1,2,0:0:0:0:
141,258,183176,1,0,0:0:0:0:
141,258,183284,1,2,0:0:0:0:
419,126,183500,5,2,0:0:0:0:
236,306,183716,1,0,0:0:0:0:
483,374,183933,1,2,0:0:0:0:
483,374,184041,1,0,0:0:0:0:
483,374,184149,1,2,0:0:0:0:
179,141,184365,5,2,0:0:0:0:
512,291,184581,1,2,0:0:0:0:
248,384,184797,2,0,P|227:347|236:305,1,86.5,2|0,0:0|0:0,0:0:0:0:
476,64,185230,5,2,0:0:0:0:
179,141,185447,1,0,0:0:0:0:
417,218,185664,1,0,0:0:0:0:
417,218,185772,1,0,0:0:0:0:
417,218,185881,1,2,0:0:0:0:
245,65,186098,5,0,0:0:0:0:
198,290,186315,1,2,0:0:0:0:
81,122,186532,1,2,0:0:0:0:
34,347,186749,1,0,0:0:0:0:
307,170,186966,5,2,0:0:0:0:
0,239,187183,1,0,0:0:0:0:
324,36,187400,1,0,0:0:0:0:
210,371,187617,5,2,0:0:0:0:
206,344,187690,5,0,0:0:0:0:
202,317,187762,5,0,0:0:0:0:
198,290,187834,5,2,0:0:0:0:
458,384,188051,1,0,0:0:0:0:
350,105,188269,2,0,P|315:128|307:170,1,86.5,2|0,0:0|0:0,0:0:0:0:
504,10,188703,5,2,0:0:0:0:
174,118,188920,1,0,0:0:0:0:
504,226,189137,1,0,0:0:0:0:
504,226,189245,1,0,0:0:0:0:
504,226,189354,1,2,0:0:0:0:
174,334,189571,5,0,0:0:0:0:
360,114,189788,1,2,0:0:0:0:
458,384,190005,1,2,0:0:0:0:
267,88,190222,1,0,0:0:0:0:
51,331,190439,5,2,0:0:0:0:
291,182,190656,1,0,0:0:0:0:
41,48,190873,1,0,0:0:0:0:
328,264,191091,5,2,0:0:0:0:
328,264,191199,1,0,0:0:0:0:
328,264,191308,1,2,0:0:0:0:
41,48,191525,1,0,0:0:0:0:
192,366,191742,2,0,L|202:280,1,86.5,2|0,0:0|0:0,0:0:0:0:
465,31,192226,5,4,0:0:0:0:
209,100,192443,1,0,0:0:0:0:
479,110,192660,5,4,0:0:0:0:
223,179,192877,1,0,0:0:0:0:
493,189,193094,5,4,0:0:0:0:
237,258,193311,1,0,0:0:0:0:
507,268,193528,5,4,0:0:0:0:
251,337,193745,1,0,0:0:0:0:
479,110,193962,5,0,0:0:0:0:
175,309,194179,1,2,0:0:0:0:
322,30,194396,1,0,0:0:0:0:
442,359,194613,1,2,0:0:0:0:
442,359,194722,1,2,0:0:0:0:
442,359,194830,5,0,0:0:0:0:
110,208,195047,1,2,0:0:0:0:
342,384,195265,2,0,L|332:290,1,86.5,2|0,0:0|0:0,0:0:0:0:
47,31,195699,5,4,0:0:0:0:
303,100,195913,1,0,0:0:0:0:
33,110,196128,5,4,0:0:0:0:
289,179,196342,1,0,0:0:0:0:
19,189,196557,5,4,0:0:0:0:
275,258,196771,1,0,0:0:0:0:
5,268,196986,5,4,0:0:0:0:
261,337,197201,1,0,0:0:0:0:
33,110,197415,5,0,0:0:0:0:
188,384,197630,1,2,0:0:0:0:
415,187,197844,1,0,0:0:0:0:
60,349,198059,1,2,0:0:0:0:
60,349,198166,1,2,0:0:0:0:
60,349,198274,1,0,0:0:0:0:
251,9,198488,1,2,0:0:0:0:
502,304,198703,2,0,L|406:284,1,86.5,2|0,0:0|0:0,0:0:0:0:
60,349,199092,6,0,P|96:303|161:309,1,129.75,4|0,0:0|0:0,0:0:0:0:
452,260,199518,6,0,P|416:214|351:220,1,129.75,4|0,0:0|0:0,0:0:0:0:
60,171,199944,6,0,P|96:125|161:131,1,129.75,4|0,0:0|0:0,0:0:0:0:
452,82,200370,6,0,P|416:36|351:42,1,129.75,4|0,0:0|0:0,0:0:0:0:
175,250,200849,5,4,0:0:0:0:
499,161,201063,1,2,0:0:0:0:
234,38,201278,1,0,0:0:0:0:
234,38,201385,1,0,0:0:0:0:
234,38,201492,1,2,0:0:0:0:
490,269,201707,5,0,0:0:0:0:
125,135,201911,1,2,0:0:0:0:
358,358,202115,1,0,0:0:0:0:
358,358,202217,1,0,0:0:0:0:
358,358,202320,1,2,0:0:0:0:
311,47,202524,5,2,0:0:0:0:
149,303,202741,1,2,0:0:0:0:
129,0,202959,1,0,0:0:0:0:
323,232,203177,1,2,0:0:0:0:
323,232,203285,1,0,0:0:0:0:
323,232,203394,5,0,0:0:0:0:
65,158,203612,1,2,0:0:0:0:
358,358,203830,2,0,P|386:329|396:284,1,86.5,2|0,0:0|0:0,0:0:0:0:
300,10,204265,5,0,0:0:0:0:
149,303,204480,1,2,0:0:0:0:
503,155,204696,1,0,0:0:0:0:
503,155,204804,1,0,0:0:0:0:
503,155,204912,1,2,0:0:0:0:
121,59,205127,5,0,0:0:0:0:
427,179,205343,1,2,0:0:0:0:
170,384,205559,1,0,0:0:0:0:
170,384,205667,1,0,0:0:0:0:
170,384,205774,1,2,0:0:0:0:
300,10,205990,5,2,0:0:0:0:
63,321,206206,1,2,0:0:0:0:
503,155,206422,1,0,0:0:0:0:
503,155,206529,1,0,0:0:0:0:
503,155,206637,1,2,0:0:0:0:
71,141,206853,5,0,0:0:0:0:
467,275,207069,1,2,0:0:0:0:
170,384,207284,1,2,0:0:0:0:
300,10,207500,6,0,L|305:74,1,64.8750024747849,8|0,0:0|0:0,0:0:0:0:
77,227,207716,6,0,L|69:132,1,86.5,2|0,0:0|0:0,0:0:0:0:
163,37,208040,1,2,0:0:0:0:
166,66,208148,2,0,L|173:152,1,86.5,2|0,0:0|0:0,0:0:0:0:
242,226,208472,1,0,0:0:0:0:
130,335,208580,6,0,P|142:318|162:310,1,43.25,2|0,0:0|0:0,0:0:0:0:
206,309,208797,1,2,0:0:0:0:
247,322,208905,1,0,0:0:0:0:
282,347,209013,1,2,0:0:0:0:
324,339,209121,1,2,0:0:0:0:
347,302,209229,1,0,0:0:0:0:
344,258,209337,1,0,0:0:0:0:
315,225,209445,6,0,B|292:220|292:220|272:222,1,43.25,2|2,0:0|0:0,0:0:0:0:
98,270,209662,2,0,B|113:252|113:252|120:234,1,43.25
167,59,209878,2,0,B|174:81|174:81|186:96,1,43.25,2|0,0:0|0:0,0:0:0:0:
253,260,210094,2,0,B|265:244|265:244|272:222,1,43.25,2|0,0:0|0:0,0:0:0:0:
320,64,210310,1,2,0:0:0:0:
273,164,210418,1,0,0:0:0:0:
432,142,210527,6,0,P|464:108|456:59,2,86.5,2|2|2,0:0|0:0|0:0,0:0:0:0:
285,191,211067,1,0,0:0:0:0:
258,132,211175,6,0,L|261:88,1,43.25,2|0,0:0|0:0,0:0:0:0:
68,52,211391,2,0,L|71:95,1,43.25,8|0,0:0|0:0,0:0:0:0:
215,261,211608,2,0,P|236:262|258:260,1,43.25
82,138,211824,2,0,P|60:136|38:138,1,43.25,8|0,0:0|0:0,0:0:0:0:
175,329,212040,6,0,P|217:335|265:328,1,86.5,0|8,0:0|0:0,0:0:0:0:
316,259,212364,1,0,0:0:0:0:
211,144,212473,2,0,L|207:209,1,43.25
87,348,212689,1,8,0:0:0:0:
74,308,212797,1,0,0:0:0:0:
37,181,212905,6,0,L|39:137,1,43.25
161,58,213121,1,8,0:0:0:0:
129,47,213229,1,0,0:0:0:0:
211,144,213338,6,0,L|213:100,1,43.25
335,21,213554,1,8,0:0:0:0:
303,10,213662,1,0,0:0:0:0:
348,149,213770,6,0,L|390:141,1,43.25
494,120,213986,1,8,0:0:0:0:
240,86,214202,1,8,0:0:0:0:
333,353,214419,5,8,0:0:0:0:
338,323,214527,1,0,0:0:0:0:
343,293,214635,2,0,P|327:253|279:240,1,86.5,0|8,0:0|0:0,0:0:0:0:
225,320,214959,1,0,0:0:0:0:
147,219,215067,2,0,L|201:215,1,43.25
435,153,215284,2,0,L|391:149,1,43.25,8|0,0:0|0:0,0:0:0:0:
356,187,215500,5,0,0:0:0:0:
403,207,215608,1,0,0:0:0:0:
427,252,215716,1,8,0:0:0:0:
420,303,215824,1,0,0:0:0:0:
377,332,215932,2,0,P|361:316|350:298,1,43.25
284,160,216149,2,0,P|278:180|268:200,1,43.25,8|0,0:0|0:0,0:0:0:0:
182,326,216365,6,0,P|202:320|224:319,1,43.25
41,353,216581,2,0,P|35:332|34:310,1,43.25,8|0,0:0|0:0,0:0:0:0:
87,112,216797,2,0,P|86:133|80:154,2,43.25,0|0|8,0:0|0:0|0:0,0:0:0:0:
46,265,217122,6,0,B|89:252|89:252|131:251,1,86.5
203,289,217446,1,8,0:0:0:0:
254,224,217554,1,0,0:0:0:0:
221,141,217662,2,0,B|178:103|107:133|107:133|164:47|197:72,1,233.54999287262,8|0,0:0|0:0,0:0:0:0:
246,79,218095,6,0,P|181:30|102:50,1,168.674992278672,4|0,0:0|0:0,0:0:0:0:
76,174,218527,2,0,P|141:223|220:203,1,168.674992278672,4|0,0:0|0:0,0:0:0:0:
264,55,218960,6,0,P|185:2|92:22,1,194.625007424355,4|0,0:0|0:0,0:0:0:0:
58,198,219392,2,0,P|136:250|229:230,1,194.625007424355,4|0,0:0|0:0,0:0:0:0:
147,107,219824,6,0,L|152:149,1,43.25
378,66,220041,2,0,L|372:108,1,43.25,8|0,0:0|0:0,0:0:0:0:
311,249,220257,1,0,0:0:0:0:
298,207,220365,1,0,0:0:0:0:
301,162,220473,2,0,P|321:156|342:153,1,43.25,8|0,0:0|0:0,0:0:0:0:
489,306,220689,6,0,P|468:303|448:297,1,43.25
288,361,220906,2,0,P|273:345|261:326,1,43.25,8|0,0:0|0:0,0:0:0:0:
237,248,221122,1,0,0:0:0:0:
316,268,221230,1,0,0:0:0:0:
394,242,221338,1,8,0:0:0:0:
425,166,221446,1,0,0:0:0:0:
401,87,221554,5,4,0:0:0:0:
188,103,221771,1,0,0:0:0:0:
422,85,221987,5,12,0:0:0:0:
165,106,222203,1,0,0:0:0:0:
102,233,222419,5,4,0:0:0:0:
424,268,222635,1,0,0:0:0:0:
69,229,222852,5,12,0:0:0:0:
456,271,223068,2,0,B|472:256|472:256|472:234,1,43.25
386,147,223284,5,0,0:0:0:0:
330,358,223500,2,0,P|312:345|291:339,1,43.25,8|0,0:0|0:0,0:0:0:0:
212,282,223717,1,0,0:0:0:0:
126,343,223825,2,0,P|118:324|115:302,1,43.25,0|8,0:0|0:0,0:0:0:0:
170,199,224041,1,0,0:0:0:0:
284,218,224149,6,0,P|300:232|312:249,1,43.25
126,343,224365,2,0,P|118:324|115:302,1,43.25,8|0,0:0|0:0,0:0:0:0:
24,164,224582,2,0,L|89:125,1,43.25
183,20,224798,1,8,0:0:0:0:
206,25,224906,1,0,0:0:0:0:
223,37,225014,6,0,B|196:52|196:52|174:103,1,86.5,4|0,0:0|0:0,0:0:0:0:
202,194,225338,1,0,0:0:0:0:
406,159,225447,6,0,B|384:107|384:107|357:92,1,86.5,4|0,0:0|0:0,0:0:0:0:
257,116,225771,1,0,0:0:0:0:
393,255,225879,6,0,B|426:260|426:260|454:245,1,64.8750024747849,4|0,0:0|0:0,0:0:0:0:
97,24,226095,2,0,B|60:24|60:24|31:38,1,64.8750024747849,4|0,0:0|0:0,0:0:0:0:
137,345,226311,2,0,P|209:286|201:193,1,194.625007424355,4|0,0:0|0:0,0:0:0:0:
111,103,226744,6,0,L|30:87,1,56.2249974262239,4|0,0:0|0:0,0:0:0:0:
73,204,226960,1,8,0:0:0:0:
147,229,227068,1,0,0:0:0:0:
196,168,227176,2,0,P|200:133|194:105,1,56.2249974262239
87,280,227393,2,0,P|83:315|89:343,1,56.2249974262239,8|0,0:0|0:0,0:0:0:0:
200,336,227609,5,0,0:0:0:0:
248,321,227717,1,0,0:0:0:0:
296,307,227825,1,8,0:0:0:0:
344,293,227933,1,0,0:0:0:0:
440,296,228041,5,0,0:0:0:0:
464,252,228149,1,0,0:0:0:0:
460,201,228258,1,8,0:0:0:0:
435,156,228366,1,0,0:0:0:0:
330,152,228474,6,0,P|312:173|308:201,1,56.2249974262239
165,114,228690,2,0,P|182:135|186:163,1,56.2249974262239,8|0,0:0|0:0,0:0:0:0:
386,74,228906,6,0,P|362:88|348:112,1,56.2249974262239
101,51,229122,2,0,P|124:65|138:89,1,56.2249974262239,8|0,0:0|0:0,0:0:0:0:
152,289,229339,6,0,P|127:276|98:242,1,56.2249974262239
377,244,229555,2,0,P|402:231|431:197,1,56.2249974262239,8|0,0:0|0:0,0:0:0:0:
152,368,229771,6,0,P|124:376|80:371,1,56.2249974262239
39,281,229987,1,8,0:0:0:0:
129,203,230095,1,0,0:0:0:0:
242,358,230204,6,0,P|246:302|279:257,1,112.449994852448,0|8,0:0|0:0,0:0:0:0:
309,241,230492,1,0,0:0:0:0:
342,241,230564,1,0,0:0:0:0:
370,265,230636,2,0,L|375:325,1,56.2249974262239
471,141,230852,2,0,L|466:201,1,56.2249974262239,8|0,0:0|0:0,0:0:0:0:
360,128,231069,5,0,0:0:0:0:
352,83,231177,1,0,0:0:0:0:
345,38,231285,2,0,L|340:0,2,37.4833316174826,8|0|0,0:0|0:0|0:0,0:0:0:0:
256,27,231501,2,0,P|186:25|142:61,1,112.449994852448,0|8,0:0|0:0,0:0:0:0:
222,110,231825,1,8,0:0:0:0:
188,193,231933,6,0,P|258:195|302:159,1,112.449994852448,0|8,0:0|0:0,0:0:0:0:
222,110,232258,1,0,0:0:0:0:
126,91,232366,2,0,P|98:88|42:104,1,56.2249974262239
22,218,232582,1,8,0:0:0:0:
34,261,232690,1,0,0:0:0:0:
62,295,232798,5,0,0:0:0:0:
136,321,232907,1,0,0:0:0:0:
204,281,233015,1,8,0:0:0:0:
282,279,233123,1,0,0:0:0:0:
352,313,233231,2,0,B|398:329|430:346|430:346|422:312|424:262,1,168.674992278672,8|0,0:0|0:0,0:0:0:0:
495,134,233662,5,2,0:0:0:0:
495,134,233771,1,0,0:0:0:0:
495,134,233879,2,0,P|462:173|424:179,1,64.8750024747849,0|2,0:0|0:0,0:0:0:0:
288,85,234096,2,0,B|383:58|383:58|365:107,1,129.75000494957,2|0,0:0|0:0,0:0:0:0:
330,195,234420,1,0,0:0:0:0:
288,217,234528,6,0,L|213:201,1,64.8750024747849,2|0,0:0|0:0,0:0:0:0:
135,90,234744,2,0,P|87:101|66:126,1,64.8750024747849,2|0,0:0|0:0,0:0:0:0:
18,231,234961,2,0,B|56:212|56:212|40:311,1,129.75000494957,2|0,0:0|0:0,0:0:0:0:
144,376,235285,1,0,0:0:0:0:
183,330,235393,6,0,B|219:322|246:343|246:343|288:303|288:303|318:334|368:329,1,173,2|0,0:0|0:0,0:0:0:0:
469,191,235718,1,2,0:0:0:0:
406,252,235826,2,0,P|366:253|328:220,1,86.5,2|0,0:0|0:0,0:0:0:0:
230,93,236042,2,0,L|325:80,1,86.5,2|0,0:0|0:0,0:0:0:0:
148,232,236258,5,0,0:0:0:0:
92,169,236366,2,0,B|93:83|93:83|153:148,1,173,2|0,0:0|0:0,0:0:0:0:
117,330,236691,2,0,P|70:332|37:283,1,86.5,2|0,0:0|0:0,0:0:0:0:
258,166,236907,2,0,B|271:201|271:201|255:267,1,86.5,2|0,0:0|0:0,0:0:0:0:
322,366,237123,6,0,P|345:289|443:294,2,173,2|8|0,0:0|0:0|0:0,0:0:0:0:
475,336,237664,1,0,0:0:0:0:
475,336,237772,2,0,L|458:228,1,86.5,8|0,0:0|0:0,0:0:0:0:
306,146,237988,5,0,0:0:0:0:
362,174,238096,1,0,0:0:0:0:
423,157,238204,1,8,0:0:0:0:
456,103,238312,1,0,0:0:0:0:
444,41,238420,2,0,B|409:11|364:38|364:38|326:67|284:35|284:35|259:14|259:14|243:70,1,259.5,8|8,0:0|0:0,0:0:0:0:
188,207,238853,6,0,P|194:156|170:117,1,86.5
39,149,239069,2,0,P|33:200|57:239,1,86.5,8|0,0:0|0:0,0:0:0:0:
183,306,239285,2,0,L|268:289,1,86.5
447,191,239502,1,8,0:0:0:0:
404,182,239610,1,0,0:0:0:0:
362,174,239718,6,0,L|369:131,1,43.25
495,307,239934,2,0,L|488:264,1,43.25,8|0,0:0|0:0,0:0:0:0:
284,356,240150,2,0,P|292:270|339:348,1,173,0|8,0:0|0:0,0:0:0:0:
202,384,240475,1,0,0:0:0:0:
172,349,240583,6,0,L|185:251,1,86.5
306,110,240799,2,0,L|317:195,1,86.5,8|0,0:0|0:0,0:0:0:0:
48,208,241015,1,0,0:0:0:0:
48,208,241123,1,0,0:0:0:0:
48,208,241231,2,0,P|86:164|121:158,1,86.5,8|0,0:0|0:0,0:0:0:0:
240,59,241448,6,0,L|154:49,1,86.5
248,227,241664,2,0,L|334:217,1,86.5,8|0,0:0|0:0,0:0:0:0:
470,52,241880,2,0,B|431:14|431:14|410:147,1,173,0|8,0:0|0:0,0:0:0:0:
460,275,242204,1,0,0:0:0:0:
494,251,242313,6,0,P|517:213|513:173,1,86.5
369,131,242529,2,0,P|346:169|350:209,1,86.5,8|0,0:0|0:0,0:0:0:0:
417,361,242745,2,0,L|504:347,1,86.5
350,209,242961,1,8,0:0:0:0:
268,181,243069,1,8,0:0:0:0:
202,238,243178,2,0,L|213:326,1,86.5
434,186,243394,2,0,L|444:100,1,86.5,8|0,0:0|0:0,0:0:0:0:
300,0,243610,6,0,B|289:63|289:63|315:94|315:94|302:176,1,173,0|8,0:0|0:0,0:0:0:0:
284,266,243934,1,0,0:0:0:0:
166,157,244042,6,0,P|129:130|76:132,1,86.5,4|0,0:0|0:0,0:0:0:0:
22,196,244259,1,8,0:0:0:0:
67,340,244367,6,0,P|109:336|143:310,1,86.5,4|0,0:0|0:0,0:0:0:0:
202,238,244582,1,8,0:0:0:0:
313,117,244691,6,0,L|409:134,1,86.5,4|0,0:0|0:0,0:0:0:0:
511,271,244907,1,8,0:0:0:0:
428,236,245015,1,0,0:0:0:0:
356,290,245124,2,0,P|334:331|345:376,1,86.5,4|0,0:0|0:0,0:0:0:0:
499,181,245340,6,0,B|515:77|515:77|467:26,1,173,4|8,0:0|0:0,0:0:0:0:
370,47,245664,1,0,0:0:0:0:
216,142,245772,5,0,0:0:0:0:
216,142,245880,2,0,P|150:144|118:45,1,173,0|8,0:0|0:0,0:0:0:0:
313,117,246205,2,0,L|298:213,1,86.5
56,264,246421,2,0,L|42:178,1,86.5,8|0,0:0|0:0,0:0:0:0:
304,296,246637,5,0,0:0:0:0:
252,259,246745,1,0,0:0:0:0:
189,265,246853,1,8,0:0:0:0:
145,310,246961,1,0,0:0:0:0:
141,374,247070,6,0,L|191:363,2,43.25
304,296,247286,1,8,0:0:0:0:
326,302,247394,1,0,0:0:0:0:
348,308,247502,6,0,P|398:292|423:254,1,86.5,4|0,0:0|0:0,0:0:0:0:
425,173,247718,1,8,0:0:0:0:
327,53,247826,6,0,L|236:69,1,86.5,4|0,0:0|0:0,0:0:0:0:
175,138,248043,1,8,0:0:0:0:
83,276,248151,6,0,P|58:246|60:190,1,86.5,4|0,0:0|0:0,0:0:0:0:
247,224,248367,1,8,0:0:0:0:
295,299,248475,1,0,0:0:0:0:
234,364,248583,2,0,L|143:345,1,86.5,4|0,0:0|0:0,0:0:0:0:
362,238,248800,6,0,P|442:226|491:299,1,173,4|8,0:0|0:0,0:0:0:0:
439,372,249124,1,0,0:0:0:0:
247,224,249232,5,0,0:0:0:0:
251,188,249340,1,0,0:0:0:0:
255,152,249448,1,8,0:0:0:0:
259,116,249556,1,0,0:0:0:0:
263,80,249664,1,0,0:0:0:0:
335,25,249773,1,0,0:0:0:0:
418,59,249881,2,0,P|448:96|448:143,1,86.5,8|0,0:0|0:0,0:0:0:0:
362,238,250097,6,0,L|320:229,4,43.25,0|0|0|0|8,0:0|0:0|0:0|0:0|0:0,0:0:0:0:
476,333,250421,2,0,P|504:308|511:256,1,86.5
347,118,250638,1,0,0:0:0:0:
228,194,250746,2,0,L|237:291,1,86.5,8|0,0:0|0:0,0:0:0:0:
77,364,250962,6,0,P|74:311|136:330,3,129.75000494957,4|4|4|4,0:0|0:0|0:0|0:0,0:0:0:0:
197,56,252692,5,4,0:0:0:0:
388,107,252908,1,8,0:0:0:0:
394,137,252980,1,0,0:0:0:0:
400,167,253052,1,0,0:0:0:0:
406,197,253124,2,0,P|379:230|324:235,1,86.5
148,150,253340,2,0,L|239:134,1,86.5,8|0,0:0|0:0,0:0:0:0:
364,324,253557,6,0,L|273:308,1,86.5
81,223,253773,1,8,0:0:0:0:
75,253,253845,1,0,0:0:0:0:
69,283,253917,1,0,0:0:0:0:
63,313,253989,2,0,P|90:346|145:351,1,86.5
318,120,254205,2,0,L|227:136,1,86.5,8|0,0:0|0:0,0:0:0:0:
359,274,254422,5,0,0:0:0:0:
436,302,254530,1,0,0:0:0:0:
498,249,254638,2,0,L|488:153,1,86.5,8|0,0:0|0:0,0:0:0:0:
286,204,254854,5,0,0:0:0:0:
209,232,254962,1,0,0:0:0:0:
147,179,255070,2,0,L|157:83,1,86.5,8|0,0:0|0:0,0:0:0:0:
380,13,255286,5,0,0:0:0:0:
380,13,255395,2,0,B|423:73|423:73|395:178,1,173,8|8,0:0|0:0,0:0:0:0:
275,283,255719,1,0,0:0:0:0:
209,232,255827,2,0,P|169:233|133:263,1,86.5,0|8,0:0|0:0,0:0:0:0:
107,359,256043,1,0,0:0:0:0:
22,227,256151,6,0,L|53:51,1,173,0|8,0:0|0:0,0:0:0:0:
214,0,256476,1,0,0:0:0:0:
288,50,256584,2,0,B|304:82|304:82|289:141,1,86.5
142,193,256800,2,0,P|125:159|134:101,1,86.5,8|0,0:0|0:0,0:0:0:0:
371,218,257016,6,0,L|286:204,1,86.5
122,328,257233,2,0,L|207:314,1,86.5,8|0,0:0|0:0,0:0:0:0:
443,361,257449,2,0,B|482:310|482:310|463:201,1,173,0|8,0:0|0:0,0:0:0:0:
403,130,257773,1,0,0:0:0:0:
242,244,257881,6,0,L|64:217,1,173,0|8,0:0|0:0,0:0:0:0:
13,80,258206,1,0,0:0:0:0:
84,29,258314,2,0,P|127:27|162:50,1,86.5
360,107,258530,2,0,P|317:105|282:128,1,86.5,8|0,0:0|0:0,0:0:0:0:
46,241,258746,5,0,0:0:0:0:
141,163,258854,2,0,B|186:140|186:140|162:274,1,173,8|0,0:0|0:0,0:0:0:0:
77,376,259179,2,0,L|168:358,1,86.5,8|0,0:0|0:0,0:0:0:0:
375,272,259395,2,0,L|284:254,1,86.5
97,282,259611,5,2,0:0:0:0:
175,311,259719,1,2,0:0:0:0:
236,251,259827,2,0,P|243:213|224:179,1,77.8499976242066
43,71,260044,2,0,P|56:104|88:121,1,73.5250014023781,2|0,0:0|0:0,0:0:0:0:
261,83,260260,2,0,P|283:54|282:18,1,73.5250014023781,2|0,0:0|0:0,0:0:0:0:
156,185,260476,6,0,L|225:180,1,69.2,2|0,0:0|0:0,0:0:0:0:
421,236,260692,2,0,L|351:231,1,69.2,0|2,0:0|0:0,0:0:0:0:
233,303,260909,2,0,P|212:242|224:179,1,129.75000494957,2|2,0:0|0:0,0:0:0:0:
304,101,261233,1,0,0:0:0:0:
421,236,261341,6,0,L|409:305,2,60.5499981521607,2|0|0,0:0|0:0|0:0,0:0:0:0:
233,303,261665,2,0,L|243:362,2,60.5499981521607,2|0|0,0:0|0:0|0:0,0:0:0:0:
331,189,261990,2,0,P|274:171|184:203,1,112.449994852448,2|0,0:0|0:0,0:0:0:0:
460,339,262422,6,0,B|465:315|465:315|458:288,1,51.8999984161377,2|0,0:0|0:0,0:0:0:0:
374,145,262638,1,2,0:0:0:0:
437,95,262746,1,0,0:0:0:0:
492,154,262855,2,0,B|497:180|497:180|490:204,1,47.5750014518738
393,270,263071,6,0,P|358:265|324:267,1,69.2,2|0,0:0|0:0,0:0:0:0:
290,279,263395,1,0,0:0:0:0:
263,307,263503,2,0,L|229:298,1,34.6,2|0,0:0|0:0,0:0:0:0:
146,352,263720,2,0,L|127:322,1,34.6
119,227,263936,5,2,0:0:0:0:
158,240,264044,1,0,0:0:0:0:
195,222,264152,1,2,0:0:0:0:
199,180,264260,1,0,0:0:0:0:
181,141,264368,2,0,P|164:145|147:141,1,34.6,2|0,0:0|0:0,0:0:0:0:
12,204,264584,2,0,P|28:199|45:203,1,34.6
68,280,264801,5,2,0:0:0:0:
47,121,265017,1,0,0:0:0:0:
46,86,265125,1,0,0:0:0:0:
66,54,265233,1,2,0:0:0:0:
84,74,265341,1,0,0:0:0:0:
102,94,265449,1,0,0:0:0:0:
120,115,265558,1,0,0:0:0:0:
138,135,265666,6,0,P|170:121|214:125,1,69.2,2|2,0:0|0:0,0:0:0:0:
265,165,265990,1,0,0:0:0:0:
278,182,266098,2,0,L|275:123,1,34.6,2|0,0:0|0:0,0:0:0:0:
227,63,266314,2,0,L|230:4,1,34.6
367,8,266531,6,0,L|371:107,1,69.2,2|0,0:0|0:0,0:0:0:0:
356,168,266855,1,0,0:0:0:0:
388,179,266963,2,0,P|403:171|420:168,1,34.6,2|0,0:0|0:0,0:0:0:0:
497,284,267179,2,0,P|481:291|464:294,1,34.6,2|0,0:0|0:0,0:0:0:0:
286,307,267395,2,0,P|320:270|368:281,1,103.8,2|0,0:0|0:0,0:0:0:0:
246,376,267828,6,0,L|240:267,1,103.8,2|0,0:0|0:0,0:0:0:0:
229,169,268260,6,0,L|226:122,1,43.25
138,297,268477,2,0,L|135:250,1,43.25,2|0,0:0|0:0,0:0:0:0:
210,81,268693,6,0,P|231:73|252:70,1,43.25
41,242,268909,2,0,P|19:239|-1:231,1,43.25,2|0,0:0|0:0,0:0:0:0:
166,157,269125,5,2,0:0:0:0:
198,208,269233,1,0,0:0:0:0:
201,273,269342,1,2,0:0:0:0:
157,327,269450,1,0,0:0:0:0:
89,372,269558,2,0,B|169:385|169:385|233:346,1,155.699995248413,2|0,0:0|0:0,0:0:0:0:
421,296,269990,6,0,P|430:269|431:241,1,56.2249974262239,4|0,0:0|0:0,0:0:0:0:
280,161,270206,2,0,P|280:188|290:215,1,56.2249974262239,8|0,0:0|0:0,0:0:0:0:
269,242,270423,6,0,P|248:222|235:197,1,56.2249974262239,4|0,0:0|0:0,0:0:0:0:
446,200,270639,2,0,P|457:225|461:253,1,56.2249974262239,8|0,0:0|0:0,0:0:0:0:
481,190,270855,6,0,P|456:159|422:139,1,56.2249974262239,4|0,0:0|0:0,0:0:0:0:
219,265,271071,2,0,P|253:284|291:290,1,56.2249974262239,8|0,0:0|0:0,0:0:0:0:
292,338,271288,6,0,P|265:342|237:340,1,56.2249974262239,4|0,0:0|0:0,0:0:0:0:
400,99,271504,2,0,P|427:104|453:116,1,56.2249974262239,8|0,0:0|0:0,0:0:0:0:
421,296,271720,5,0,0:0:0:0:
359,247,271828,1,0,0:0:0:0:
280,244,271936,1,8,0:0:0:0:
212,283,272044,1,0,0:0:0:0:
175,352,272153,2,0,P|163:328|158:300,1,56.2249974262239
247,136,272369,2,0,P|231:159|210:177,1,56.2249974262239,8|0,0:0|0:0,0:0:0:0:
23,183,272585,6,0,P|50:184|77:193,1,56.2249974262239
212,283,272801,1,8,0:0:0:0:
158,300,272909,1,0,0:0:0:0:
32,292,273018,2,0,L|22:223,1,56.2249974262239
60,88,273234,1,8,0:0:0:0:
137,151,273342,1,0,0:0:0:0:
242,74,273450,6,0,P|243:46|237:19,1,56.2249974262239,4|0,0:0|0:0,0:0:0:0:
175,109,273666,2,0,P|197:125|224:133,1,56.2249974262239,8|0,0:0|0:0,0:0:0:0:
289,107,273882,6,0,P|304:82|312:56,1,56.2249974262239,4|0,0:0|0:0,0:0:0:0:
135,149,274099,2,0,P|147:175|166:196,1,56.2249974262239,8|0,0:0|0:0,0:0:0:0:
319,161,274315,6,0,P|343:148|364:129,1,56.2249974262239,4|0,0:0|0:0,0:0:0:0:
84,168,274531,2,0,P|81:195|87:223,1,56.2249974262239,8|0,0:0|0:0,0:0:0:0:
318,217,274747,6,0,P|345:218|373:213,1,56.2249974262239,4|0,0:0|0:0,0:0:0:0:
28,155,274964,2,0,P|10:177|3:204,1,56.2249974262239,8|0,0:0|0:0,0:0:0:0:
146,334,275180,6,0,P|187:300|239:317,2,112.449994852448,0|8|0,0:0|0:0|0:0,0:0:0:0:
419,348,275829,2,0,L|411:293,1,56.2249974262239,8|0,0:0|0:0,0:0:0:0:
424,169,276045,5,0,0:0:0:0:
357,210,276153,1,0,0:0:0:0:
280,189,276261,1,8,0:0:0:0:
245,118,276369,1,0,0:0:0:0:
276,44,276477,2,0,P|333:32|375:69,1,112.449994852448,0|8,0:0|0:0,0:0:0:0:
303,134,276802,1,0,0:0:0:0:
84,59,276910,6,0,L|57:51,1,28.1124987131119,4|0,0:0|0:0,0:0:0:0:
428,59,277342,6,0,L|454:51,1,28.1124987131119,4|0,0:0|0:0,0:0:0:0:
428,325,277775,6,0,L|455:332,1,28.1124987131119,4|0,0:0|0:0,0:0:0:0:
84,325,278207,6,0,L|57:332,1,28.1124987131119,4|0,0:0|0:0,0:0:0:0:
21,313,278315,1,0,0:0:0:0:
50,258,278423,1,0,0:0:0:0:
80,204,278531,1,0,0:0:0:0:
110,150,278640,6,0,P|99:117|100:76,1,64.8750024747849,4|0,0:0|0:0,0:0:0:0:
237,64,278856,1,8,0:0:0:0:
158,25,278964,1,0,0:0:0:0:
233,150,279072,2,0,P|231:182|221:212,1,64.8750024747849
81,323,279288,2,0,P|113:324|143:334,1,64.8750024747849,8|0,0:0|0:0,0:0:0:0:
217,358,279504,5,0,0:0:0:0:
293,342,279613,1,0,0:0:0:0:
331,274,279721,1,8,0:0:0:0:
312,198,279829,1,0,0:0:0:0:
247,154,279937,2,0,L|182:160,1,64.8750024747849
50,258,280153,2,0,L|114:264,1,64.8750024747849,8|0,0:0|0:0,0:0:0:0:
312,197,280369,6,0,P|324:136|287:84,1,129.75000494957,0|8,0:0|0:0,0:0:0:0:
174,86,280694,1,0,0:0:0:0:
334,12,280802,2,0,P|356:34|369:64,1,64.8750024747849
496,139,281018,2,0,P|498:171|489:201,1,64.8750024747849,8|0,0:0|0:0,0:0:0:0:
337,255,281234,6,0,B|305:241|305:241|275:244,1,64.8750024747849,0|8,0:0|0:0,0:0:0:0:
125,358,281451,2,0,L|59:354,2,43.2500016498566,8|0|0,0:0|0:0|0:0,0:0:0:0:
133,238,281667,2,0,P|163:228|195:225,1,64.8750024747849
389,328,281883,2,0,P|359:338|327:341,1,64.8750024747849,8|0,0:0|0:0,0:0:0:0:
66,276,282099,6,0,P|57:249|66:198,1,64.8750024747849
94,125,282315,1,8,0:0:0:0:
172,169,282424,1,0,0:0:0:0:
223,72,282532,2,0,P|226:104|222:136,1,64.8750024747849
188,253,282748,2,0,L|200:334,1,64.8750024747849,8|0,0:0|0:0,0:0:0:0:
399,364,282964,6,0,P|429:341|454:292,1,64.8750024747849
458,194,283180,1,8,0:0:0:0:
417,179,283252,1,0,0:0:0:0:
375,164,283325,1,0,0:0:0:0:
334,149,283397,2,0,P|295:142|257:147,1,64.8750024747849
244,329,283613,2,0,P|269:298|284:263,1,64.8750024747849,8|0,0:0|0:0,0:0:0:0:
133,161,283829,6,0,P|146:198|169:228,1,64.8750024747849
374,276,284045,2,0,P|363:245|346:218,1,64.8750024747849,8|0,0:0|0:0,0:0:0:0:
256,154,284262,1,0,0:0:0:0:
249,254,284370,1,0,0:0:0:0:
394,118,284478,2,0,B|429:106|429:106|457:107,1,64.8750024747849,8|0,0:0|0:0,0:0:0:0:
391,32,284694,5,0,0:0:0:0:
347,45,284802,1,0,0:0:0:0:
253,70,284910,5,8,0:0:0:0:
208,63,285018,1,0,0:0:0:0:
111,46,285126,5,0,0:0:0:0:
66,55,285234,1,8,0:0:0:0:
21,65,285343,2,0,P|52:75|67:108,1,64.8750024747849,8|0,0:0|0:0,0:0:0:0:
22,259,285559,5,2,0:0:0:0:
36,213,285667,1,2,0:0:0:0:
71,179,285775,1,0,0:0:0:0:
117,166,285883,1,2,0:0:0:0:
164,177,285991,2,0,L|148:300,1,121.099996304321,2|2,0:0|0:0,0:0:0:0:
208,361,286316,1,0,0:0:0:0:
289,289,286424,6,0,P|350:274|399:308,1,121.099996304321,2|0,0:0|0:0,0:0:0:0:
434,377,286748,1,0,0:0:0:0:
507,231,286856,2,0,L|442:221,1,60.5499981521607,2|0,0:0|0:0,0:0:0:0:
293,384,287073,2,0,L|358:374,1,60.5499981521607,2|0,0:0|0:0,0:0:0:0:
451,142,287289,5,2,0:0:0:0:
402,156,287397,2,0,P|376:184|369:221,1,60.5499981521607,2|0,0:0|0:0,0:0:0:0:
289,289,287613,1,0,0:0:0:0:
244,205,287721,2,0,L|260:84,1,121.099996304321,2|2,0:0|0:0,0:0:0:0:
145,17,288046,1,0,0:0:0:0:
108,46,288154,6,0,P|105:75|117:103,1,60.5499981521607,2|0,0:0|0:0,0:0:0:0:
231,230,288370,2,0,P|206:212|177:208,1,60.5499981521607
10,243,288586,2,0,P|37:231|55:207,1,60.5499981521607,2|0,0:0|0:0,0:0:0:0:
17,108,288802,1,2,0:0:0:0:
17,108,288911,1,0,0:0:0:0:
123,294,289019,6,0,L|142:163,2,121.099996304321,2|8|0,0:0|0:0|0:0,0:0:0:0:
275,359,289559,1,0,0:0:0:0:
303,322,289667,2,0,P|298:291|277:264,1,60.5499981521607,8|0,0:0|0:0,0:0:0:0:
115,135,289884,5,0,0:0:0:0:
115,135,289992,2,0,L|245:149,1,121.099996304321,8|8,0:0|0:0,0:0:0:0:
458,31,290316,5,0,0:0:0:0:
458,31,290424,2,0,L|328:45,1,121.099996304321,8|8,0:0|0:0,0:0:0:0:
233,222,290749,6,0,P|275:215|300:184,1,60.5499981521607
130,52,290965,2,0,L|135:119,1,60.5499981521607,8|0,0:0|0:0,0:0:0:0:
32,268,291181,2,0,L|36:207,1,60.5499981521607
243,106,291397,1,8,0:0:0:0:
278,115,291505,1,0,0:0:0:0:
313,124,291613,6,0,L|308:63,1,60.5499981521607
478,4,291830,2,0,L|473:64,1,60.5499981521607,8|0,0:0|0:0,0:0:0:0:
334,203,292046,2,0,P|298:205|267:188,1,60.5499981521607
449,99,292262,1,8,0:0:0:0:
449,99,292370,1,0,0:0:0:0:
508,178,292478,6,0,P|502:217|492:242,1,60.5499981521607
341,349,292695,2,0,P|331:320|327:290,1,60.5499981521607,8|0,0:0|0:0,0:0:0:0:
256,183,292911,1,0,0:0:0:0:
209,194,293019,1,0,0:0:0:0:
120,264,293127,1,8,0:0:0:0:
73,253,293235,1,0,0:0:0:0:
33,145,293343,6,0,L|56:18,1,121.099996304321,0|8,0:0|0:0,0:0:0:0:
223,76,293668,1,0,0:0:0:0:
179,111,293776,2,0,P|148:110|123:95,1,60.5499981521607
300,0,293992,2,0,P|330:0|355:15,1,60.5499981521607,8|0,0:0|0:0,0:0:0:0:
468,153,294208,6,0,L|477:87,1,60.5499981521607
302,146,294424,2,0,L|310:205,1,60.5499981521607,8|0,0:0|0:0,0:0:0:0:
502,236,294641,2,0,P|437:238|414:322,1,121.099996304321,0|8,0:0|0:0,0:0:0:0:
388,372,294965,1,0,0:0:0:0:
276,289,295073,6,0,L|267:229,1,60.5499981521607
510,176,295289,2,0,L|502:236,1,60.5499981521607,8|0,0:0|0:0,0:0:0:0:
388,372,295506,2,0,B|396:312|396:312|381:281|381:281|389:221,1,155.699995248413,8|0,0:0|0:0,0:0:0:0:
431,52,295830,1,0,0:0:0:0:
431,52,295938,6,0,B|472:31|472:31|459:145,1,155.699995248413,4|0,0:0|0:0,0:0:0:0:
301,123,296371,6,0,B|312:94|349:98|353:121|353:121|329:186|329:186|353:173|383:175,1,181.649994456482,4|0,0:0|0:0,0:0:0:0:
181,175,296803,6,0,B|194:157|231:168|239:193|201:228|201:228|250:254|242:292|208:306|170:285,1,207.6,4|0,0:0|0:0,0:0:0:0:
27,237,297235,6,0,B|29:262|17:293|17:293|137:281,1,155.699995248413,4|0,0:0|0:0,0:0:0:0:
105,206,297560,2,0,L|92:345,1,129.75000494957
54,105,297884,6,0,P|89:35|172:40,2,138.4,8|0|8,0:0|0:0|0:0,0:0:0:0:
198,177,298425,1,0,0:0:0:0:
234,141,298533,6,0,L|229:60,1,69.2
386,0,298749,2,0,L|381:69,1,69.2,8|0,0:0|0:0,0:0:0:0:
308,243,298965,2,0,P|320:198|356:169,1,69.2
459,233,299182,2,0,P|447:278|411:307,1,69.2,8|0,0:0|0:0,0:0:0:0:
221,376,299398,6,0,B|253:332|253:332|355:356,1,155.699995248413,4|0,0:0|0:0,0:0:0:0:
458,152,299830,6,0,B|416:149|388:193|388:193|352:178|352:178|314:191,1,155.699995248413,4|0,0:0|0:0,0:0:0:0:
175,283,300263,6,0,P|183:213|125:264,1,155.699995248413,4|0,0:0|0:0,0:0:0:0:
14,115,300695,6,0,B|76:101|76:101|95:76|95:76|123:89|123:89|188:75,1,155.699995248413,4|0,0:0|0:0,0:0:0:0:
206,20,301128,5,0,0:0:0:0:
383,173,301344,2,0,P|458:159|488:105,2,138.4,8|0|8,0:0|0:0|0:0,0:0:0:0:
293,94,301884,1,0,0:0:0:0:
258,132,301993,2,0,L|268:216,1,69.2
413,262,302209,2,0,L|403:346,1,69.2,8|0,0:0|0:0,0:0:0:0:
264,384,302425,2,0,P|226:328|159:320,1,138.4,0|8,0:0|0:0,0:0:0:0:
86,365,302749,1,0,0:0:0:0:
20,264,302857,6,0,L|29:195,1,69.2,4|0,0:0|0:0,0:0:0:0:
125,76,303074,2,0,L|134:144,1,69.2,8|0,0:0|0:0,0:0:0:0:
310,321,303290,2,0,P|338:291|342:255,1,69.2,4|0,0:0|0:0,0:0:0:0:
253,215,303506,2,0,P|225:245|221:281,1,69.2,8|0,0:0|0:0,0:0:0:0:
493,180,303722,5,4,0:0:0:0:
481,99,303831,1,0,0:0:0:0:
420,44,303939,1,8,0:0:0:0:
339,41,304047,1,8,0:0:0:0:
275,91,304155,2,0,P|199:100|156:58,1,138.4,4|8,0:0|0:0,0:0:0:0:
21,210,304479,1,0,0:0:0:0:
21,210,304587,6,0,L|165:190,1,138.4,4|8,0:0|0:0,0:0:0:0:
282,307,304912,1,0,0:0:0:0:
213,350,305020,2,0,P|168:341|147:325,1,69.2
314,163,305236,2,0,P|343:144|377:140,1,69.2,8|0,0:0|0:0,0:0:0:0:
460,306,305452,6,0,L|471:232,1,69.2
235,160,305669,2,0,L|245:228,1,69.2,8|0,0:0|0:0,0:0:0:0:
491,121,305885,1,0,0:0:0:0:
462,116,305993,1,0,0:0:0:0:
433,111,306101,1,8,0:0:0:0:
404,106,306209,1,0,0:0:0:0:
339,39,306317,6,0,P|298:41|268:67,1,69.2
164,138,306533,2,0,P|123:136|93:110,1,69.2,8|0,0:0|0:0,0:0:0:0:
23,295,306750,1,0,0:0:0:0:
44,248,306858,1,0,0:0:0:0:
86,219,306966,1,8,0:0:0:0:
137,217,307074,1,0,0:0:0:0:
182,241,307182,6,0,B|191:297|165:343|165:343|217:318,1,138.4,0|8,0:0|0:0,0:0:0:0:
367,224,307506,1,0,0:0:0:0:
418,284,307615,2,0,P|445:244|445:213,1,69.2
315,163,307831,2,0,P|287:202|287:233,1,69.2,8|0,0:0|0:0,0:0:0:0:
503,77,308047,5,0,0:0:0:0:
503,77,308155,2,0,L|362:57,1,138.4,8|8,0:0|0:0,0:0:0:0:
91,165,308480,5,0,0:0:0:0:
91,165,308588,2,0,L|232:145,1,138.4,8|8,0:0|0:0,0:0:0:0:
470,238,308912,5,0,0:0:0:0:
388,215,309020,1,0,0:0:0:0:
327,274,309128,2,0,L|336:349,1,69.2,8|0,0:0|0:0,0:0:0:0:
448,155,309344,2,0,P|408:132|371:134,1,69.2
202,250,309561,2,0,L|210:181,1,69.2,8|8,0:0|0:0,0:0:0:0:
312,16,309777,6,0,B|274:52|274:52|176:28,1,138.4,0|8,0:0|0:0,0:0:0:0:
26,151,310101,1,0,0:0:0:0:
26,151,310209,2,0,L|97:138,1,69.2
278,270,310426,1,8,0:0:0:0:
243,200,310534,2,0,P|203:241|221:324,1,138.4,8|0,0:0|0:0,0:0:0:0:
352,368,310858,6,0,L|426:355,1,69.2,8|0,0:0|0:0,0:0:0:0:
512,224,311074,2,0,L|438:211,1,69.2
278,270,311291,1,8,0:0:0:0:
278,270,311399,1,0,0:0:0:0:
313,340,311507,6,0,P|353:299|335:216,1,138.4,2|0,0:0|0:0,0:0:0:0:
240,171,311831,1,0,0:0:0:0:
187,357,311939,2,0,P|253:335|350:355,1,129.75000494957,2|0,0:0|0:0,0:0:0:0:
420,361,312264,1,0,0:0:0:0:
460,222,312372,6,0,L|450:162,1,60.5499981521607,2|2,0:0|0:0,0:0:0:0:
337,31,312588,2,0,L|327:90,1,60.5499981521607,0|2,0:0|0:0,0:0:0:0:
363,214,312804,1,2,0:0:0:0:
363,214,312912,1,0,0:0:0:0:
434,105,313020,2,0,P|383:85|327:90,1,112.449994852448,2|2,0:0|0:0,0:0:0:0:
218,168,313345,5,0,0:0:0:0:
217,168,313453,2,0,P|192:170|166:168,1,51.8999984161377
28,188,313669,2,0,P|38:164|53:143,1,47.5750014518738,2|0,0:0|0:0,0:0:0:0:
105,13,313885,2,0,P|119:34|130:57,1,47.5750014518738,2|0,0:0|0:0,0:0:0:0:
111,222,314102,2,0,P|84:281|94:344,1,129.75,2|0,0:0|0:0,0:0:0:0:
94,344,314534,6,0,P|109:283|255:335,1,259.5,6|0,0:0|0:0,0:0:0:0:
174,332,314966,6,0,L|166:245,1,86.5,2|0,0:0|0:0,0:0:0:0:
248,91,315183,1,8,0:0:0:0:
248,91,315291,2,0,P|250:133|223:166,1,86.5
103,198,315507,1,0,0:0:0:0:
104,197,315615,2,0,P|62:188|36:155,1,86.5,8|0,0:0|0:0,0:0:0:0:
200,28,315831,5,0,0:0:0:0:
259,12,315940,1,0,0:0:0:0:
312,40,316048,2,0,B|340:57|340:57|393:50,1,86.5,8|0,0:0|0:0,0:0:0:0:
433,267,316264,1,8,0:0:0:0:
494,192,316372,2,0,P|457:170|414:170,1,86.5,0|8,0:0|0:0,0:0:0:0:
338,243,316588,1,0,0:0:0:0:
288,132,316696,6,0,B|291:165|291:165|235:159|190:194|190:194|171:168,1,173,0|8,0:0|0:0,0:0:0:0:
122,78,317021,1,0,0:0:0:0:
46,214,317129,2,0,P|41:256|53:298,1,86.5
196,277,317345,2,0,P|200:234|188:192,1,86.5,8|0,0:0|0:0,0:0:0:0:
82,354,317561,6,0,L|167:342,1,86.5
336,303,317777,1,8,0:0:0:0:
336,303,317886,1,0,0:0:0:0:
254,349,317994,2,0,L|149:341,1,86.5,8|0,0:0|0:0,0:0:0:0:
274,165,318210,2,0,L|361:172,1,86.5,8|0,0:0|0:0,0:0:0:0:
485,247,318426,5,0,0:0:0:0:
477,213,318534,1,0,0:0:0:0:
469,179,318642,1,8,0:0:0:0:
461,144,318751,1,0,0:0:0:0:
415,48,318859,5,0,0:0:0:0:
311,36,318967,1,8,0:0:0:0:
352,133,319075,2,0,P|360:90|348:49,1,86.5,8|0,0:0|0:0,0:0:0:0:
73,91,319291,5,0,0:0:0:0:
124,85,319399,1,0,0:0:0:0:
175,79,319507,1,8,0:0:0:0:
226,74,319615,1,0,0:0:0:0:
276,196,319724,2,0,P|241:171|198:167,1,86.5
31,315,319940,2,0,P|73:311|108:286,1,86.5,8|0,0:0|0:0,0:0:0:0:
116,132,320156,6,0,L|141:231,1,86.5
166,308,320372,1,8,0:0:0:0:
333,274,320480,2,0,P|360:238|438:213,1,86.5
481,273,320697,1,0,0:0:0:0:
357,373,320805,2,0,B|313:376|313:376|273:361,1,86.5,8|0,0:0|0:0,0:0:0:0:
234,241,321021,5,0,0:0:0:0:
228,189,321129,1,0,0:0:0:0:
328,168,321237,5,8,0:0:0:0:
329,130,321345,1,0,0:0:0:0:
215,97,321453,5,0,0:0:0:0:
213,79,321562,1,0,0:0:0:0:
211,61,321670,1,8,0:0:0:0:
209,43,321778,1,0,0:0:0:0:
207,26,321886,6,0,B|172:45|130:20|130:20|195:131|199:183,1,259.5,4|0,0:0|0:0,0:0:0:0:
207,339,322318,6,0,B|172:320|130:345|130:345|195:234|199:181,1,259.5,4|0,0:0|0:0,0:0:0:0:
305,26,322751,6,0,B|340:45|382:20|382:20|317:131|312:183,1,259.5,4|0,0:0|0:0,0:0:0:0:
305,339,323183,6,0,B|340:320|382:345|382:345|317:234|312:181,1,259.5,4|0,0:0|0:0,0:0:0:0:
319,95,323616,6,0,B|361:83|361:83|403:86,1,86.5,2|0,0:0|0:0,0:0:0:0:
417,252,323832,5,2,0:0:0:0:
261,201,323940,5,2,0:0:0:0:
372,179,324048,5,0,0:0:0:0:
293,338,324156,5,2,0:0:0:0:
141,234,324264,6,0,L|142:122,1,86.5,2|0,0:0|0:0,0:0:0:0:
236,40,324481,5,2,0:0:0:0:
372,56,324589,5,0,0:0:0:0:
200,150,324697,5,8,0:0:0:0:
216,310,324805,5,0,0:0:0:0:
54,243,324913,6,0,L|140:234,1,86.5,8|0,0:0|0:0,0:0:0:0:
458,141,325129,6,0,L|372:132,1,86.5,8|0,0:0|0:0,0:0:0:0:
214,190,325346,6,0,P|202:216|207:244,5,57.6666666666667,4|0|0|0|0|0,0:0|0:0|0:0|0:0|0:0|0:0,0:0:0:0:
350,273,325778,6,0,P|333:249|306:239,5,57.6666666666667,4|0|0|0|0|0,0:0|0:0|0:0|0:0|0:0|0:0,0:0:0:0:
210,349,326211,6,0,P|238:346|260:328,5,57.6666666666667,4|0|0|0|0|0,0:0|0:0|0:0|0:0|0:0|0:0,0:0:0:0:
214,190,326643,6,0,P|185:192|163:210,5,57.6666666666667,4|0|0|0|0|0,0:0|0:0|0:0|0:0|0:0|0:0,0:0:0:0:
348,193,327075,6,0,L|339:235,4,43.25,4|0|0|0|8,0:0|0:0|0:0|0:0|0:0,0:0:0:0:
261,215,327400,2,0,P|324:312|419:245,1,259.5,0|8,0:0|0:0,0:0:0:0:
415,144,327832,1,0,0:0:0:0:
342,50,327940,6,0,B|295:45|295:45|262:66,1,86.5
191,232,328157,1,8,0:0:0:0:
102,158,328265,2,0,P|117:125|94:69,1,86.5
59,313,328481,2,0,B|92:341|92:341|114:303,2,86.5,0|8|0,0:0|0:0|0:0,0:0:0:0:
194,324,328805,5,2,0:0:0:0:
193,324,328913,2,0,P|231:303|274:301,1,86.5,2|0,0:0|0:0,0:0:0:0:
432,339,329238,2,0,L|426:296,1,43.25,2|0,0:0|0:0,0:0:0:0:
319,219,329454,2,0,L|324:176,1,43.25,2|0,0:0|0:0,0:0:0:0:
429,81,329670,5,2,0:0:0:0:
458,85,329778,1,2,0:0:0:0:
408,166,329886,5,0,0:0:0:0:
379,170,329994,1,2,0:0:0:0:
312,97,330103,6,0,B|277:68|277:68|236:64,1,86.5,4|0,0:0|0:0,0:0:0:0:
32,218,330319,2,0,B|72:214|72:214|107:185,1,86.5,8|0,0:0|0:0,0:0:0:0:
198,47,330535,5,4,0:0:0:0:
248,138,330643,2,0,L|242:240,1,86.5,0|8,0:0|0:0,0:0:0:0:
107,162,330860,1,0,0:0:0:0:
107,162,330968,6,0,L|112:75,1,86.5
98,352,331184,2,0,L|103:265,1,86.5,8|0,0:0|0:0,0:0:0:0:
251,288,331400,5,0,0:0:0:0:
329,324,331508,1,0,0:0:0:0:
396,269,331616,2,0,P|438:245|498:252,1,86.5,8|0,0:0|0:0,0:0:0:0:
186,344,331833,6,0,P|167:305|168:262,1,86.5
413,187,332049,2,0,P|413:229|395:268,1,86.5,8|0,0:0|0:0,0:0:0:0:
253,237,332265,6,0,P|252:194|270:155,1,86.5
444,56,332481,1,8,0:0:0:0:
370,100,332589,1,0,0:0:0:0:
286,72,332697,6,0,L|187:47,1,86.5
413,187,332914,2,0,L|496:165,1,86.5,8|0,0:0|0:0,0:0:0:0:
269,155,333130,6,0,P|251:194|253:237,1,86.5
305,333,333346,1,8,0:0:0:0:
409,309,333454,1,0,0:0:0:0:
201,356,333562,6,0,B|185:339|185:339|105:346,1,86.5
19,187,333779,2,0,B|35:204|35:204|115:197,1,86.5,8|0,0:0|0:0,0:0:0:0:
200,115,333995,5,0,0:0:0:0:
285,102,334103,1,0,0:0:0:0:
231,34,334211,1,8,0:0:0:0:
145,45,334319,1,0,0:0:0:0:
118,127,334427,6,0,P|136:165|141:208,1,86.5
34,353,334644,2,0,P|58:317|93:292,1,86.5,8|0,0:0|0:0,0:0:0:0:
272,313,334860,5,0,0:0:0:0:
202,248,334968,1,0,0:0:0:0:
242,161,335076,1,8,0:0:0:0:
336,172,335184,1,0,0:0:0:0:
355,266,335292,6,0,L|354:352,1,86.5
242,74,335508,2,0,L|242:161,1,86.5,8|0,0:0|0:0,0:0:0:0:
410,125,335725,1,0,0:0:0:0:
494,104,335833,2,0,P|434:37|351:60,1,173,8|8,0:0|0:0,0:0:0:0:
310,259,336157,5,0,0:0:0:0:
405,229,336265,1,0,0:0:0:0:
480,296,336373,2,0,P|451:329|410:340,1,86.5,8|0,0:0|0:0,0:0:0:0:
159,356,336590,6,0,B|182:354|200:372|200:372|229:315|196:232,1,173,0|8,0:0|0:0,0:0:0:0:
121,125,336914,1,0,0:0:0:0:
32,187,337022,6,0,P|60:218|101:229,1,86.5
208,61,337238,2,0,P|179:29|138:18,1,86.5,8|0,0:0|0:0,0:0:0:0:
121,125,337455,5,2,0:0:0:0:
390,139,337671,1,2,0:0:0:0:
313,86,337779,1,2,0:0:0:0:
306,180,337887,5,2,0:0:0:0:
414,248,337995,1,0,0:0:0:0:
289,248,338103,5,0,0:0:0:0:
431,180,338211,1,2,0:0:0:0:
359,326,338320,6,0,B|316:310|316:310|275:311,1,86.5,2|0,0:0|0:0,0:0:0:0:
91,308,338536,1,0,0:0:0:0:
180,217,338644,1,2,0:0:0:0:
200,356,338752,6,0,P|191:313|201:272,1,86.5,2|0,0:0|0:0,0:0:0:0:
484,203,338968,2,0,P|493:244|485:286,1,86.5,2|0,0:0|0:0,0:0:0:0:
275,161,339184,5,2,0:0:0:0:
262,48,339293,1,0,0:0:0:0:
375,35,339401,1,2,0:0:0:0:
388,148,339509,1,0,0:0:0:0:
205,110,339617,6,0,P|162:117|121:105,1,86.5,2|2,0:0|0:0,0:0:0:0:
58,253,339833,6,0,P|79:277|90:307,1,64.8750024747849,0|2,0:0|0:0,0:0:0:0:
268,298,340049,6,0,B|303:297|335:311|335:311|354:283|377:267,1,129.75,2|0,0:0|0:0,0:0:0:0:
298,180,340482,5,4,0:0:0:0:
