osu file format v14

[General]
AudioFilename: audio.mp3
AudioLeadIn: 0
PreviewTime: 51780
Countdown: 0
SampleSet: Soft
StackLeniency: 0.4
Mode: 0
LetterboxInBreaks: 0
WidescreenStoryboard: 1

[Editor]
Bookmarks: 712,113052,153903,197307,261137,281563,308371
DistanceSpacing: 1
BeatDivisor: 4
GridSize: 8
TimelineZoom: 1.8

[Metadata]
Title:One Summer
TitleUnicode:One Summer
Artist:Taishi feat. SHIHO
ArtistUnicode:Taishi feat. SHIHO
Creator:-Tochi
Version:mode:Summer Collab
Source:
Tags:GWAVE mode Experience Electro.muster Striderin
BeatmapID:2165243
BeatmapSetID:1035671

[Difficulty]
HPDrainRate:6
CircleSize:4
OverallDifficulty:8
ApproachRate:9
SliderMultiplier:1.8
SliderTickRate:1

[Events]
//Background and Video events
0,0,"bg.jpg",0,0
//Break Periods
2,97733,111419
//Storyboard Layer 0 (Background)
//Storyboard Layer 1 (Fail)
//Storyboard Layer 2 (Pass)
//Storyboard Layer 3 (Foreground)
//Storyboard Layer 4 (Overlay)
//Storyboard Sound Samples

[TimingPoints]
712,638.297872340426,4,2,1,15,1,0
712,-200,4,2,1,15,0,0
5818,-200,4,2,1,20,0,0
7733,-200,4,2,1,25,0,0
9648,-200,4,2,1,30,0,0
10924,-100,4,2,1,40,0,0
31350,-83.3333333333333,4,2,1,50,0,0
44116,-83.3333333333333,4,2,1,65,0,0
46669,-83.3333333333333,4,2,1,60,0,0
49222,-71.4285714285714,4,2,1,60,0,0
51137,-200,4,2,1,60,0,0
51775,-50,4,2,1,70,0,1
61350,-100,4,2,1,70,0,1
61988,-50,4,2,1,70,0,1
71563,-50,4,2,1,70,0,0
72201,-50,4,2,1,70,0,1
81775,-100,4,2,1,70,0,1
82414,-50,4,2,1,70,0,1
91350,-50,4,2,1,70,0,0
92626,-50,4,2,1,70,0,1
92786,-50,4,2,1,70,0,0
112094,-100,4,2,1,50,0,0
130924,-83.3333333333333,4,2,1,50,0,0
133477,-66.6666666666667,4,2,1,60,0,0
152626,-133.333333333333,4,2,1,60,0,0
153903,-50,4,2,1,70,0,1
163477,-100,4,2,1,70,0,1
164116,-50,4,2,1,70,0,1
174329,-100,4,2,1,60,0,0
197307,-43.4782608695652,4,2,1,70,0,1
197547,-43.4782608695652,4,2,1,5,0,1
197626,-55.5555555555556,4,2,1,70,0,1
197866,-55.5555555555556,4,2,1,5,0,1
197946,-43.4782608695652,4,2,1,70,0,1
198185,-43.4782608695652,4,2,1,5,0,1
198265,-55.5555555555556,4,2,1,70,0,1
198504,-55.5555555555556,4,2,1,5,0,1
198584,-43.4782608695652,4,2,1,70,0,1
198823,-43.4782608695652,4,2,1,5,0,1
198903,-55.5555555555556,4,2,1,70,0,1
199142,-55.5555555555556,4,2,1,5,0,1
199222,-43.4782608695652,4,2,1,70,0,1
199462,-43.4782608695652,4,2,1,5,0,1
199541,-55.5555555555556,4,2,1,70,0,1
199781,-55.5555555555556,4,2,1,5,0,1
199860,-66.6666666666667,4,2,1,70,0,1
200100,-66.6666666666667,4,2,1,5,0,1
200180,-100,4,2,1,70,0,1
200419,-100,4,2,1,5,0,1
200499,-66.6666666666667,4,2,1,70,0,1
200738,-66.6666666666667,4,2,1,5,0,1
200818,-100,4,2,1,70,0,1
201057,-100,4,2,1,5,0,1
201137,-66.6666666666667,4,2,1,70,0,1
201376,-66.6666666666667,4,2,1,5,0,1
201456,-100,4,2,1,70,0,1
201696,-100,4,2,1,5,0,1
201775,-50,4,2,1,70,0,1
202015,-50,4,2,1,5,0,1
202094,-66.6666666666667,4,2,1,70,0,1
202334,-66.6666666666667,4,2,1,5,0,1
202414,-37.037037037037,4,2,1,70,0,1
202653,-37.037037037037,4,2,1,5,0,1
202733,-43.4782608695652,4,2,1,70,0,1
202972,-43.4782608695652,4,2,1,5,0,1
203052,-37.037037037037,4,2,1,70,0,1
203291,-37.037037037037,4,2,1,5,0,1
203371,-43.4782608695652,4,2,1,70,0,1
203610,-43.4782608695652,4,2,1,5,0,1
203690,-37.037037037037,4,2,1,70,0,1
203930,-37.037037037037,4,2,1,5,0,1
204009,-43.4782608695652,4,2,1,70,0,1
204249,-43.4782608695652,4,2,1,5,0,1
204329,-37.037037037037,4,2,1,70,0,1
204568,-37.037037037037,4,2,1,5,0,1
204648,-43.4782608695652,4,2,1,70,0,1
204887,-43.4782608695652,4,2,1,5,0,1
204967,-40,4,2,1,70,0,1
205206,-40,4,2,1,5,0,1
205286,-50,4,2,1,70,0,1
205525,-50,4,2,1,5,0,1
205605,-40,4,2,1,70,0,1
205844,-40,4,2,1,5,0,1
205924,-50,4,2,1,70,0,1
206164,-50,4,2,1,5,0,1
206243,-40,4,2,1,70,0,1
206483,-40,4,2,1,5,0,1
206563,-50,4,2,1,70,0,1
206802,-50,4,2,1,5,0,1
206882,-40,4,2,1,70,0,1
207121,-40,4,2,1,5,0,1
207201,-50,4,2,1,70,0,1
207440,-50,4,2,1,5,0,1
207520,-43.4782608695652,4,2,1,70,0,1
207760,-43.4782608695652,4,2,1,5,0,1
207839,-55.5555555555556,4,2,1,70,0,1
208079,-55.5555555555556,4,2,1,5,0,1
208159,-43.4782608695652,4,2,1,70,0,1
208398,-43.4782608695652,4,2,1,5,0,1
208478,-55.5555555555556,4,2,1,70,0,1
208717,-55.5555555555556,4,2,1,5,0,1
208797,-43.4782608695652,4,2,1,70,0,1
209036,-43.4782608695652,4,2,1,5,0,1
209116,-55.5555555555556,4,2,1,70,0,1
209355,-55.5555555555556,4,2,1,5,0,1
209435,-43.4782608695652,4,2,1,70,0,1
209675,-43.4782608695652,4,2,1,5,0,1
209754,-55.5555555555556,4,2,1,70,0,1
209994,-55.5555555555556,4,2,1,5,0,1
210073,-66.6666666666667,4,2,1,70,0,1
210313,-66.6666666666667,4,2,1,5,0,1
210393,-100,4,2,1,70,0,1
210632,-100,4,2,1,5,0,1
210712,-66.6666666666667,4,2,1,70,0,1
210951,-66.6666666666667,4,2,1,5,0,1
211031,-100,4,2,1,70,0,1
211270,-100,4,2,1,5,0,1
211350,-66.6666666666667,4,2,1,70,0,1
211589,-66.6666666666667,4,2,1,5,0,1
211669,-100,4,2,1,70,0,1
211909,-100,4,2,1,5,0,1
211988,-50,4,2,1,70,0,1
212228,-50,4,2,1,5,0,1
212307,-66.6666666666667,4,2,1,70,0,1
212547,-66.6666666666667,4,2,1,5,0,1
212626,-37.037037037037,4,2,1,70,0,1
212866,-37.037037037037,4,2,1,5,0,1
212946,-43.4782608695652,4,2,1,70,0,1
213185,-43.4782608695652,4,2,1,5,0,1
213265,-37.037037037037,4,2,1,70,0,1
213504,-37.037037037037,4,2,1,5,0,1
213584,-43.4782608695652,4,2,1,70,0,1
213823,-43.4782608695652,4,2,1,5,0,1
213903,-37.037037037037,4,2,1,70,0,1
214143,-37.037037037037,4,2,1,5,0,1
214222,-43.4782608695652,4,2,1,70,0,1
214462,-43.4782608695652,4,2,1,5,0,1
214541,-37.037037037037,4,2,1,70,0,1
214781,-37.037037037037,4,2,1,5,0,1
214860,-43.4782608695652,4,2,1,70,0,1
215100,-43.4782608695652,4,2,1,5,0,1
215180,-40,4,2,1,70,0,1
215419,-40,4,2,1,5,0,1
215499,-50,4,2,1,70,0,1
215738,-50,4,2,1,5,0,1
215818,-40,4,2,1,70,0,1
216057,-40,4,2,1,5,0,1
216137,-50,4,2,1,70,0,1
216377,-50,4,2,1,5,0,1
216456,-40,4,2,1,70,0,1
216696,-40,4,2,1,5,0,1
216775,-50,4,2,1,70,0,1
217015,-50,4,2,1,5,0,1
217094,-40,4,2,1,70,0,1
217334,-40,4,2,1,5,0,1
217414,-50,4,2,1,70,0,1
217653,-50,4,2,1,5,0,1
217733,-66.6666666666667,4,2,1,60,0,0
236243,-50,4,2,1,60,0,0
236882,-66.6666666666667,4,2,1,60,0,0
238797,-100,4,2,1,60,0,0
239435,-55.5555555555556,4,2,1,60,0,0
240073,-90.9090909090909,4,2,1,60,0,0
240712,-50,4,2,1,70,0,1
250286,-100,4,2,1,70,0,1
250924,-50,4,2,1,70,0,1
260499,-50,4,2,1,70,0,0
261137,-50,4,2,1,70,0,1
270712,-100,4,2,1,70,0,1
271350,-50,4,2,1,70,0,1
280286,-50,4,2,1,70,0,0
281243,-66.6666666666667,4,2,1,70,0,0
281563,-50,4,2,1,70,0,1
281722,-50,4,2,1,70,0,0
286669,-50,4,2,1,20,0,0

[Colours]
Combo1 : 202,66,114
Combo2 : 101,177,218
Combo3 : 240,94,137
Combo4 : 124,191,214

[HitObjects]
415,222,712,6,0,L|419:184,4,22.5
333,189,1669,6,0,L|317:154,4,22.5
245,201,2626,6,0,L|214:178,4,22.5
175,255,3584,6,0,L|137:250,4,22.5
141,337,4541,6,0,L|106:352,4,22.5
175,255,5499,2,0,L|137:250,1,22.5
40,203,5818,6,0,L|10:227,4,22.5
74,284,6775,6,0,L|60:319,4,22.5
145,338,7733,6,0,L|150:375,4,22.5
233,349,8690,6,0,L|257:378,4,22.5
315,315,9647,6,0,L|350:328,4,22.5
233,349,10605,2,0,L|257:378,1,22.5
364,91,10924,6,0,L|453:103,1,90
400,299,11563,2,0,B|361:302|361:302|355:310|355:310|314:314,1,90
51,51,12201,5,0,0:0:0:0:
122,89,12520,1,0,0:0:0:0:
133,169,12839,1,0,0:0:0:0:
90,237,13158,1,0,0:0:0:0:
295,206,13477,6,0,P|245:273|170:239,1,180
291,116,14435,2,0,L|350:127,1,45
295,206,14754,5,0,0:0:0:0:
331,34,15073,1,0,0:0:0:0:
330,286,15392,2,0,L|221:300,1,90
47,73,16031,6,0,B|72:48|72:48|102:39|121:64,1,90
142,141,16669,2,0,L|129:243,1,90
130,230,17148,1,0,0:0:0:0:
56,180,17307,1,0,0:0:0:0:
466,67,17626,1,0,0:0:0:0:
458,173,17946,1,0,0:0:0:0:
452,259,18265,1,0,0:0:0:0:
458,173,18584,6,0,B|386:166|386:166|360:180|360:180|273:172,1,180
130,230,19541,1,0,0:0:0:0:
218,230,19860,2,0,B|179:233|179:233|166:226|166:226|130:230,1,90
339,94,20499,1,0,0:0:0:0:
339,94,20658,1,0,0:0:0:0:
339,94,20818,1,0,0:0:0:0:
269,135,21137,6,0,P|215:141|100:75,1,180
297,15,22094,2,0,L|358:3,1,45
339,94,22414,5,0,0:0:0:0:
107,84,22733,1,0,0:0:0:0:
278,165,23052,1,0,0:0:0:0:
161,160,23371,1,0,0:0:0:0:
215,236,23690,6,0,P|136:255|68:325,1,180
260,367,24648,2,0,L|268:322,1,45
351,263,24967,2,0,P|384:286|407:329,1,90
215,236,25605,2,0,P|195:200|197:151,1,90
405,39,26243,6,0,B|489:11|489:11|526:51|491:93,1,180
308,39,27201,1,0,0:0:0:0:
308,39,27520,2,0,B|265:25|265:25|247:45|264:66,1,90
334,207,28158,2,0,L|326:118,1,90
316,287,28797,6,0,B|273:300|273:300|255:280|272:259,1,90
342,118,29435,2,0,L|333:207,1,90
333,207,29914,1,0,0:0:0:0:
333,207,30073,1,0,0:0:0:0:
308,39,30392,1,0,0:0:0:0:
325,293,30712,2,0,L|373:290,1,45
466,167,31031,2,0,L|421:169,1,45
213,59,31350,6,0,P|142:36|-10:56,1,215.999993408203
134,195,32307,2,0,B|220:239|220:239|263:216|263:216|342:206,1,215.999993408203
391,327,33265,2,0,P|338:334|295:304,1,107.999996704102
216,140,33903,2,0,B|313:79|330:174|422:124,1,215.999993408203
261,31,34860,2,0,L|116:12,1,107.999996704102
278,208,35499,1,0,0:0:0:0:
369,52,35818,1,0,0:0:0:0:
286,294,36137,2,0,L|219:282,1,53.9999983520508
81,256,36456,6,0,B|136:260|136:260|174:208,1,107.999996704102
312,108,37094,2,0,B|354:100|354:100|418:112,1,107.999996704102
165,352,37733,2,0,L|57:344,1,107.999996704102
109,144,38371,2,0,P|159:123|216:136,1,107.999996704102
278,359,39009,5,0,0:0:0:0:
336,295,39329,1,0,0:0:0:0:
347,220,39648,1,0,0:0:0:0:
316,150,39967,1,0,0:0:0:0:
263,95,40286,1,0,0:0:0:0:
243,168,40605,1,0,0:0:0:0:
180,210,40924,2,0,L|57:215,1,107.999996704102
72,214,41563,6,0,P|149:186|273:261,1,215.999993408203
291,324,42520,1,0,0:0:0:0:
244,118,42839,1,0,0:0:0:0:
335,86,43158,1,0,0:0:0:0:
391,215,43477,1,0,0:0:0:0:
481,182,43796,1,0,0:0:0:0:
426,54,44116,5,0,0:0:0:0:
391,215,44435,1,0,0:0:0:0:
426,54,44754,1,0,0:0:0:0:
391,215,45073,1,0,0:0:0:0:
216,72,45392,5,0,0:0:0:0:
248,311,45711,1,0,0:0:0:0:
216,72,46030,1,0,0:0:0:0:
244,232,46350,1,0,0:0:0:0:
244,232,46510,1,0,0:0:0:0:
244,232,46669,6,0,L|119:220,1,107.999996704102
216,72,47307,1,0,0:0:0:0:
207,323,47626,1,0,0:0:0:0:
116,83,47946,2,0,B|142:77|164:57|164:57|215:71,1,107.999996704102
467,353,48584,2,0,B|440:347|418:327|418:327|367:341,1,107.999996704102
180,144,49222,6,0,P|129:108|67:106,2,125.999996154785
262,355,50180,1,0,0:0:0:0:
262,355,50339,1,0,0:0:0:0:
262,355,50499,1,0,0:0:0:0:
95,208,50818,1,0,0:0:0:0:
467,353,51137,2,0,P|491:358|471:343,1,67.5
260,266,51775,6,0,P|204:262|73:185,1,180
291,52,52254,1,0,0:0:0:0:
291,52,52414,2,0,B|325:40|358:46|358:46|386:67|386:67|421:78|464:73,1,180
329,132,52892,1,0,0:0:0:0:
449,211,53052,2,0,B|410:200|374:204|374:204|343:219|343:219|309:220|277:203,1,180
277,203,53531,1,0,0:0:0:0:
119,285,53690,5,0,0:0:0:0:
175,226,53850,1,0,0:0:0:0:
119,285,54009,2,0,P|158:306|202:305,1,90
512,161,54329,6,0,B|475:120|475:120|421:120|384:176|384:176|406:280,1,270
323,102,54967,2,0,P|285:75|212:90,1,90
362,349,55286,2,0,P|404:362|446:349,1,90
230,237,55605,2,0,P|142:275|5:266,1,180
237,336,56084,1,0,0:0:0:0:
237,336,56243,2,0,P|209:311|131:308,1,90
32,191,56563,1,0,0:0:0:0:
91,136,56722,1,0,0:0:0:0:
20,95,56882,6,0,L|221:75,1,180
211,208,57360,1,0,0:0:0:0:
211,208,57520,2,0,L|121:199,1,90
36,335,57839,1,0,0:0:0:0:
36,335,57999,1,0,0:0:0:0:
36,335,58158,2,0,B|106:328|106:328|126:313|126:313|215:304,1,180
482,84,58797,2,0,L|516:177,1,90
391,53,59116,2,0,L|322:110,1,90
371,312,59435,6,0,B|394:270|395:239|395:239|391:210|391:210|406:177|414:140,1,180
309,240,59914,1,0,0:0:0:0:
309,240,60073,2,0,P|286:254|213:247,1,90
112,138,60392,2,0,P|86:129|44:69,1,90
152,289,60712,2,0,P|144:263|169:194,1,90
347,102,61031,2,0,P|364:81|436:66,1,90
458,329,61350,6,0,P|430:366|346:338,1,135
200,122,61988,6,0,L|-7:94,1,180
230,206,62467,1,0,0:0:0:0:
284,136,62626,2,0,B|330:134|377:113|377:113|408:159|375:196,1,180
200,122,63105,1,0,0:0:0:0:
304,213,63265,2,0,P|243:266|223:370,1,180
221,359,63903,2,0,P|239:307|221:259,1,90
89,148,64222,2,0,P|52:106|2:98,1,90
283,193,64541,6,0,P|224:181|135:297,1,180
230,274,65020,1,0,0:0:0:0:
285,107,65180,5,0,0:0:0:0:
354,147,65339,1,0,0:0:0:0:
430,118,65499,1,0,0:0:0:0:
430,118,65658,1,0,0:0:0:0:
283,193,65818,6,0,P|224:205|135:89,1,180
137,133,66297,1,0,0:0:0:0:
354,147,66456,1,0,0:0:0:0:
356,228,66616,1,0,0:0:0:0:
426,189,66775,1,0,0:0:0:0:
426,189,66935,1,0,0:0:0:0:
290,275,67094,6,0,B|218:281|218:281|187:300|187:300|108:306,1,180
65,115,67573,1,0,0:0:0:0:
124,60,67733,2,0,P|201:40|293:75,1,180
356,228,68212,1,0,0:0:0:0:
356,228,68371,2,0,P|387:253|466:253,1,90
250,371,68690,2,0,L|379:343,1,90
264,157,69009,2,0,L|393:129,1,90
125,283,69329,2,0,L|254:255,1,90
498,65,69648,6,0,B|448:57|411:22|411:22|320:-8|263:56|263:56|220:87|161:71,1,360
358,161,70605,1,0,0:0:0:0:
358,161,70765,1,0,0:0:0:0:
358,161,70924,1,0,0:0:0:0:
358,161,71563,1,0,0:0:0:0:
277,168,71722,1,0,0:0:0:0:
235,253,71882,1,0,0:0:0:0:
154,260,72041,1,0,0:0:0:0:
84,205,72201,6,0,P|45:187|-12:214,1,90
313,83,72520,1,0,0:0:0:0:
313,83,72680,1,0,0:0:0:0:
313,83,72839,2,0,L|437:70,1,90
326,234,73158,1,0,0:0:0:0:
405,215,73318,1,0,0:0:0:0:
326,234,73477,2,0,L|449:253,1,90
276,335,73797,2,0,P|245:355|189:355,1,90
59,222,74116,5,0,0:0:0:0:
112,283,74276,1,0,0:0:0:0:
59,222,74435,2,0,P|98:202|149:209,1,90
326,234,74754,2,0,P|282:187|287:73,1,180
411,256,75233,1,0,0:0:0:0:
391,176,75392,2,0,P|398:112|489:42,1,180
471,199,75871,1,0,0:0:0:0:
411,256,76031,6,0,P|396:304|408:353,1,90
290,153,76350,2,0,L|306:261,1,90
163,53,76669,1,0,0:0:0:0:
191,129,76829,1,0,0:0:0:0:
124,199,76988,1,0,0:0:0:0:
94,274,77148,1,0,0:0:0:0:
147,364,77307,6,0,B|200:371|241:314|329:341,1,180
411,256,77786,1,0,0:0:0:0:
411,256,77946,2,0,B|384:259|364:231|320:244,1,90
191,129,78265,1,0,0:0:0:0:
191,129,78424,1,0,0:0:0:0:
191,129,78584,2,0,P|276:135|376:96,1,180
44,334,79222,2,0,L|10:244,1,90
154,327,79541,2,0,L|188:237,1,90
85,83,79860,6,0,B|106:155|90:185|90:185|105:218|98:260,1,180
14,233,80339,1,0,0:0:0:0:
182,184,80499,2,0,P|219:180|273:205,1,90
435,224,80818,2,0,P|457:253|463:313,1,90
221,357,81137,2,0,L|209:268,1,90
387,145,81456,2,0,P|422:133|480:145,1,90
144,52,81775,6,0,P|81:38|12:71,1,135
259,165,82414,6,0,P|171:178|88:144,1,180
319,111,82892,1,0,0:0:0:0:
240,89,83052,2,0,P|327:75|410:109,1,180
306,346,83531,1,0,0:0:0:0:
306,346,83690,2,0,P|264:362|220:356,1,90
458,285,84009,2,0,P|413:277|378:250,1,90
229,90,84329,1,0,0:0:0:0:
164,137,84488,1,0,0:0:0:0:
102,83,84648,2,0,P|61:62|8:69,1,90
18,64,84967,6,0,P|86:94|200:41,1,180
256,27,85446,1,0,0:0:0:0:
329,61,85605,2,0,P|410:94|493:64,1,180
411,0,86084,1,0,0:0:0:0:
401,138,86243,2,0,B|386:212|434:261|434:261|429:237|440:202,1,180
512,244,86722,1,0,0:0:0:0:
369,309,86882,5,0,0:0:0:0:
512,244,87041,1,0,0:0:0:0:
471,337,87201,1,0,0:0:0:0:
471,337,87360,1,0,0:0:0:0:
365,220,87520,6,0,B|289:206|289:206|266:225|266:225|175:207,1,180
246,135,87999,1,0,0:0:0:0:
311,302,88158,2,0,P|277:325|209:326,1,90
163,131,88477,2,0,P|125:106|81:102,1,90
37,316,88797,5,0,0:0:0:0:
365,220,89116,1,0,0:0:0:0:
311,302,89435,2,0,P|281:276|266:218,1,90
353,97,89754,2,0,P|367:60|415:26,1,90
400,337,90073,2,0,P|327:385|241:365,2,180
429,261,90871,1,0,0:0:0:0:
399,185,91031,2,0,L|299:173,1,90
57,53,91350,5,0,0:0:0:0:
309,174,91669,1,0,0:0:0:0:
119,307,91988,1,0,0:0:0:0:
250,114,92307,1,0,0:0:0:0:
231,193,92467,1,0,0:0:0:0:
168,63,92626,5,0,0:0:0:0:
256,192,92786,12,0,95180,0:0:0:0:
281,337,112094,5,0,0:0:0:0:
337,261,112414,1,0,0:0:0:0:
353,171,112733,1,0,0:0:0:0:
234,50,113052,6,0,B|341:46|388:68|403:94,1,180
385,176,114009,2,0,L|331:152,1,45
470,49,114329,2,0,P|470:118|362:174,1,180
126,43,115286,5,0,0:0:0:0:
156,253,115605,2,0,P|80:212|72:125,1,180
158,159,116563,1,0,0:0:0:0:
255,0,116722,1,0,0:0:0:0:
255,0,117201,6,0,B|318:88|230:83|288:168,1,180
481,375,118158,2,0,P|487:289|411:230,1,180
405,324,119116,1,0,0:0:0:0:
405,324,119275,1,0,0:0:0:0:
94,367,119754,5,0,0:0:0:0:
174,326,120073,1,0,0:0:0:0:
230,255,120392,1,0,0:0:0:0:
230,255,120712,2,0,P|219:147|162:90,1,180
368,225,121669,1,0,0:0:0:0:
378,135,123265,6,0,L|367:224,1,90
400,314,123903,1,0,0:0:0:0:
279,182,124222,2,0,L|290:244,1,45
274,251,124541,2,0,L|291:351,2,90
82,374,125499,5,0,0:0:0:0:
40,163,125818,2,0,L|26:270,1,90
141,31,126456,1,0,0:0:0:0:
135,157,126775,2,0,L|114:104,1,45
217,183,127094,2,0,P|184:229|117:237,1,90
265,298,127733,2,0,P|274:342|301:377,1,90
437,152,128371,6,0,P|425:236|350:309,1,180
161,351,129329,1,0,0:0:0:0:
25,235,129648,2,0,L|131:259,1,90
285,155,130286,1,0,0:0:0:0:
191,179,130605,1,0,0:0:0:0:
310,25,130924,6,0,P|325:101|311:143,2,107.999996704102
119,92,131882,1,0,0:0:0:0:
119,92,132041,1,0,0:0:0:0:
119,92,132201,6,0,P|163:165|191:180,1,107.999996704102
380,236,132839,2,0,P|421:270|441:319,1,107.999996704102
286,240,133318,1,0,0:0:0:0:
286,240,133477,6,0,P|304:172|374:137,1,135.000005149842
198,205,133956,1,0,0:0:0:0:
198,205,134116,1,0,0:0:0:0:
435,265,134435,2,0,L|463:327,1,67.5000025749208
347,357,134754,2,0,B|349:260|349:260|381:327,1,135.000005149842
219,244,135233,1,0,0:0:0:0:
219,244,135392,2,0,P|255:220|295:217,1,67.5000025749208
255,330,135712,2,0,P|219:354|179:357,1,67.5000025749208
14,174,136031,6,0,B|60:175|100:203|115:240|115:240|100:280|111:314,1,202.500007724762
111,314,136669,1,0,0:0:0:0:
117,112,136988,2,0,P|163:148|177:205,2,67.5000025749208
287,142,137626,1,0,0:0:0:0:
284,219,137786,1,0,0:0:0:0:
248,287,137946,2,0,P|321:244|386:260,1,135.000005149842
430,372,138424,1,0,0:0:0:0:
430,372,138584,6,0,L|438:303,1,67.5000025749208
512,166,138903,6,0,L|504:235,1,67.5000025749208
349,280,139222,1,0,0:0:0:0:
377,80,139541,6,0,L|369:147,2,67.5000025749208
196,0,140180,6,0,L|204:67,1,67.5000025749208
189,160,140499,1,0,0:0:0:0:
189,160,140818,6,0,B|156:151|133:124|133:124|133:160|147:190|147:190|75:172|36:209|9:265,1,270.000010299683
129,344,141616,1,0,0:0:0:0:
129,344,141775,2,0,L|105:248,1,67.5000025749208
17,60,142094,2,0,L|0:125,1,67.5000025749208
158,13,142414,6,0,B|228:22|253:94|253:94|314:33,1,202.500007724762
383,125,143052,2,0,L|337:174,1,67.5000025749208
148,316,143371,1,0,0:0:0:0:
135,229,143531,1,0,0:0:0:0:
148,316,143690,6,0,B|206:297|215:257|215:257|220:196,1,135.000005149842
388,212,144169,1,0,0:0:0:0:
329,126,144329,2,0,B|298:193|298:193|298:279,1,135.000005149842
196,54,144807,1,0,0:0:0:0:
232,128,144967,2,0,L|291:0,1,135.000005149842
163,270,145446,1,0,0:0:0:0:
199,196,145605,6,0,P|167:186|134:191,1,67.5000025749208
68,232,145924,1,0,0:0:0:0:
89,47,146084,1,0,0:0:0:0:
80,130,146243,2,0,P|125:66|187:43,1,135.000005149842
309,53,146722,1,0,0:0:0:0:
309,53,146882,2,0,L|393:77,1,67.5000025749208
394,178,147201,2,0,L|478:202,1,67.5000025749208
220,186,147520,5,0,0:0:0:0:
274,251,147680,1,0,0:0:0:0:
409,288,147839,1,0,0:0:0:0:
382,367,147999,1,0,0:0:0:0:
382,367,148158,2,0,P|460:353|488:291,1,135.000005149842
269,330,148637,1,0,0:0:0:0:
198,228,148797,6,0,B|200:264|200:264|181:303,1,67.5000025749208
134,171,149116,1,0,0:0:0:0:
134,171,149275,1,0,0:0:0:0:
54,319,149435,2,0,B|41:348|41:348|43:384,2,67.5000025749208
277,200,149914,1,0,0:0:0:0:
254,110,150073,2,0,P|316:115|369:181,1,135.000005149842
156,94,150552,1,0,0:0:0:0:
156,94,150712,2,0,P|184:37|262:10,1,135.000005149842
463,93,151350,5,0,0:0:0:0:
418,165,151509,1,0,0:0:0:0:
449,290,151669,1,0,0:0:0:0:
371,322,151829,1,0,0:0:0:0:
313,261,151988,2,0,B|277:245|277:245|209:248,1,67.5000025749208
148,363,152307,1,0,0:0:0:0:
226,384,152467,1,0,0:0:0:0:
144,283,152626,2,0,L|135:251,1,33.7500012874604
275,69,152946,5,0,0:0:0:0:
34,198,153265,1,0,0:0:0:0:
267,36,153584,2,0,L|280:93,1,33.7500012874604
244,355,153903,6,0,B|252:267|252:267|282:214|345:214,1,180
336,312,154382,1,0,0:0:0:0:
341,116,154541,2,0,B|388:123|415:166|415:166|420:256,1,180
135,181,155020,1,0,0:0:0:0:
135,181,155180,2,0,L|166:285,1,90
162,94,155499,6,0,P|92:96|60:126,1,90
16,341,155818,1,0,0:0:0:0:
49,262,155977,1,0,0:0:0:0:
16,341,156137,2,0,P|86:339|118:309,1,90
241,114,156456,6,0,P|311:87|421:127,1,180
369,366,156935,1,0,0:0:0:0:
369,366,157094,2,0,L|329:191,1,180
470,307,157573,1,0,0:0:0:0:
470,307,157733,2,0,L|444:204,1,90
181,163,158052,6,0,P|215:212|263:236,1,90
406,28,158371,1,0,0:0:0:0:
437,111,158531,1,0,0:0:0:0:
350,199,158690,1,0,0:0:0:0:
329,283,158850,1,0,0:0:0:0:
489,381,159009,6,0,P|445:322|455:205,1,180
272,35,159488,1,0,0:0:0:0:
272,35,159648,2,0,L|299:221,1,180
118,384,160126,1,0,0:0:0:0:
118,384,160286,2,0,L|133:274,1,90
157,60,160605,5,0,0:0:0:0:
390,293,160924,1,0,0:0:0:0:
72,209,161243,1,0,0:0:0:0:
388,127,161563,2,0,P|299:47|146:67,1,270
89,128,162201,2,0,P|53:154|9:160,1,90
166,237,162520,2,0,P|202:210|246:204,1,90
137,369,162839,2,0,P|84:346|58:307,1,90
375,284,163158,1,0,0:0:0:0:
334,376,163477,6,0,P|334:296|379:284,1,135
354,39,164116,6,0,P|377:89|283:158,1,180
67,232,164594,1,0,0:0:0:0:
125,110,164754,2,0,P|50:149|67:232,1,180
227,50,165233,1,0,0:0:0:0:
227,50,165392,2,0,L|208:156,1,90
167,363,165712,6,0,P|191:308|236:279,1,90
493,219,166031,1,0,0:0:0:0:
410,216,166190,1,0,0:0:0:0:
493,219,166350,2,0,P|471:275|421:301,1,90
269,87,166669,6,0,B|345:91|394:131|394:131|363:136|333:171,1,180
261,295,167148,1,0,0:0:0:0:
270,202,167307,2,0,P|201:234|176:333,1,180
39,150,167786,1,0,0:0:0:0:
39,150,167946,2,0,L|62:263,1,90
40,56,168265,6,0,P|94:74|123:118,1,90
254,94,168584,1,0,0:0:0:0:
229,178,168743,1,0,0:0:0:0:
343,245,168903,1,0,0:0:0:0:
373,332,169063,1,0,0:0:0:0:
496,360,169222,6,0,B|504:289|460:241|460:241|482:136,1,180
494,91,169701,1,0,0:0:0:0:
380,68,169860,2,0,L|339:262,1,180
216,99,170339,1,0,0:0:0:0:
199,10,170499,2,0,L|217:105,1,90
259,320,170818,6,0,P|218:309|179:258,1,90
58,62,171137,2,0,L|76:157,1,90
118,375,171456,1,0,0:0:0:0:
364,10,171775,6,0,L|331:186,1,180
400,237,172254,1,0,0:0:0:0:
422,66,172414,1,0,0:0:0:0:
422,66,172573,1,0,0:0:0:0:
267,133,172733,1,0,0:0:0:0:
267,133,172892,1,0,0:0:0:0:
480,214,173052,6,0,P|396:208|282:295,1,180
62,93,173690,6,0,P|71:133|128:187,1,90
200,227,174009,1,0,0:0:0:0:
244,297,174169,1,0,0:0:0:0:
231,374,174329,1,0,0:0:0:0:
423,92,175924,5,0,0:0:0:0:
302,169,176243,2,0,B|334:158|353:158|353:158|341:121|341:121|396:120|429:87,1,180
67,163,178477,5,0,0:0:0:0:
114,236,178797,2,0,B|100:262|100:262|69:285,1,45
67,163,179116,2,0,B|81:137|81:137|112:114,1,45
163,309,179435,1,0,0:0:0:0:
342,325,181031,5,0,0:0:0:0:
288,237,181350,1,0,0:0:0:0:
308,143,181669,1,0,0:0:0:0:
258,373,181988,1,0,0:0:0:0:
166,112,182946,5,0,0:0:0:0:
266,258,183265,2,0,P|260:204|235:151,1,90
97,49,183903,2,0,B|190:-3|188:70|293:11,1,180
394,313,186137,5,0,0:0:0:0:
351,158,186456,1,0,0:0:0:0:
351,158,186616,1,0,0:0:0:0:
351,158,186775,2,0,P|398:189|410:237,1,90
148,353,188690,5,0,0:0:0:0:
114,230,189009,2,0,P|147:282|151:301,1,45
219,149,189329,2,0,P|186:201|182:220,1,45
119,79,189648,1,0,0:0:0:0:
304,197,191243,5,0,0:0:0:0:
259,58,191563,1,0,0:0:0:0:
317,113,191722,1,0,0:0:0:0:
381,2,191882,2,0,L|334:49,2,45
77,46,193477,6,0,P|165:43|233:124,1,180
256,192,194435,1,0,0:0:0:0:
256,192,194594,1,0,0:0:0:0:
256,192,194754,12,0,196988,0:0:0:0:
366,59,197307,6,0,B|343:38|343:38|309:60|309:60|222:43,1,155.250002961159
81,140,197626,6,0,B|137:150|137:150|167:131|167:131|188:150,1,121.499996292114
344,140,197946,6,0,P|410:177|486:167,1,155.250002961159
272,224,198265,6,0,P|215:242|180:290,1,121.499996292114
424,354,198584,6,0,P|418:276|409:178,1,155.250002961159
260,138,198903,6,0,P|266:77|271:17,1,121.499996292114
483,39,199222,6,0,P|418:13|398:79,1,155.250002961159
204,255,199541,6,0,P|255:275|272:224,1,121.499996292114
149,85,199860,6,0,B|107:77|107:77|92:85|92:85|44:75,1,101.250003862381
326,143,200180,6,0,B|298:137|298:137|288:143|288:143|260:137,1,67.5
412,218,200499,6,0,P|461:227|503:201,1,101.250003862381
355,306,200818,6,0,P|326:290|316:259,1,67.5
134,255,201137,6,0,P|169:220|219:219,1,101.250003862381
299,152,201456,6,0,P|281:125|248:118,1,67.5
401,191,201775,6,0,P|442:136|430:58,1,135
458,279,202094,6,0,P|499:305|510:353,1,101.250003862381
292,365,202414,6,0,B|198:397|214:307|121:339,1,182.250000695229
333,242,202733,6,0,P|403:211|515:212,1,155.250002961159
512,58,203052,6,0,B|480:90|433:94|433:94|404:59|349:23,1,182.250000695229
193,158,203371,6,0,B|228:135|252:105|252:105|292:108|320:136,1,155.250002961159
68,47,203690,6,0,B|14:13|14:13|30:151,1,182.250000695229
97,341,204009,6,0,B|55:367|55:367|67:260,1,155.250002961159
316,135,204329,6,0,P|392:158|347:223,1,182.250000695229
149,275,204648,6,0,P|113:218|177:199,1,155.250002961159
407,317,204967,6,0,B|345:327|294:311|294:311|334:322|355:338,1,168.75
420,170,205286,6,0,B|387:207|349:223|349:223|378:209|399:208,1,135
361,11,205605,6,0,B|360:73|335:121|335:121|353:83|372:65,1,168.75
255,47,205924,6,0,B|211:36|211:36|192:39|192:39|124:25,1,135
282,227,206243,6,0,B|344:211|344:211|367:215|367:215|450:197,1,168.75
478,325,206563,6,0,B|415:312|415:312|396:315|396:315|346:302,1,135
238,139,206882,6,0,B|158:122|158:122|135:126|135:126|71:110,1,168.75
22,246,207201,6,0,B|84:233|84:233|103:236|103:236|153:223,1,135
346,302,207520,6,0,P|409:328|478:267,1,155.250002961159
436,137,207839,6,0,P|390:100|336:120,1,121.499996292114
191,300,208158,6,0,B|142:335|142:335|84:314,1,121.499996292114
245,168,208477,6,0,B|308:122|308:122|383:148,1,155.250002961159
474,320,208797,6,0,P|415:347|341:290,1,155.250002961159
246,177,209116,6,0,P|198:140|142:162,1,121.499996292114
263,41,209435,6,0,P|342:28|429:21,1,155.250002961159
501,162,209754,6,0,P|439:156|378:146,1,121.499996292114
152,45,210073,6,0,P|100:49|49:57,1,101.250003862381
44,147,210392,6,0,P|94:154|145:159,1,101.250003862381
321,199,210712,6,0,B|359:178|359:178|336:257,1,101.250003862381
186,302,211031,6,0,P|159:291|182:264,1,67.5
305,312,211350,6,0,P|350:326|419:328,1,101.250003862381
466,191,211669,6,0,P|448:219|424:243,1,67.5
400,129,211988,6,0,P|384:63|351:4,1,135
287,160,212307,6,0,P|274:209|250:253,1,101.250003862381
16,141,212626,6,0,B|103:110|88:198|186:168,1,182.250000695229
375,302,212946,6,0,B|289:275|302:352|226:325,1,155.250002961159
488,303,213265,6,0,P|533:235|465:190,1,182.250000695229
270,157,213584,6,0,P|211:194|250:252,1,155.250002961159
121,343,213903,6,0,P|64:373|32:276,1,182.250000695229
106,60,214222,6,0,B|146:8|146:8|151:111,1,155.250002961159
250,331,214541,6,0,B|271:398|271:398|314:295,1,182.250000695229
177,187,214860,6,0,B|109:180|109:180|83:199|83:199|28:194,1,155.250002961159
232,76,215180,6,0,P|295:48|415:65,1,168.75
265,289,215499,6,0,P|197:296|134:271,1,135
328,131,215818,6,0,P|396:138|491:212,1,168.75
368,367,216137,6,0,P|306:340|263:287,1,135
94,203,216456,6,0,P|85:123|146:33,1,168.75
392,54,216775,6,0,P|429:108|424:174,1,135
204,366,217094,6,0,P|170:290|190:209,1,168.75
491,246,217414,6,0,P|430:273|365:257,1,135
172,130,217733,5,0,0:0:0:0:
158,130,218052,2,0,P|125:117|99:75,1,67.5000025749208
215,269,218371,2,0,P|248:275|280:264,1,67.5000025749208
427,295,218690,2,0,P|410:323|382:340,1,67.5000025749208
259,88,219009,6,0,L|274:11,1,67.5000025749208
92,266,219329,2,0,L|152:216,1,67.5000025749208
404,114,219648,2,0,L|352:72,1,67.5000025749208
109,43,219968,2,0,L|187:41,1,67.5000025749208
461,180,220286,5,0,0:0:0:0:
26,53,220605,1,0,0:0:0:0:
409,243,220924,1,0,0:0:0:0:
39,135,221243,1,0,0:0:0:0:
357,306,221563,5,0,0:0:0:0:
52,217,221882,1,0,0:0:0:0:
461,180,222201,1,0,0:0:0:0:
26,53,222520,1,0,0:0:0:0:
357,306,222839,5,0,0:0:0:0:
368,314,223158,2,0,P|397:297|415:269,1,67.5000025749208
203,243,223477,2,0,P|235:249|267:238,1,67.5000025749208
146,104,223797,2,0,P|113:91|87:49,1,67.5000025749208
282,318,224115,6,0,L|267:395,1,67.5000025749208
387,143,224435,2,0,L|327:193,1,67.5000025749208
127,290,224754,2,0,L|179:332,1,67.5000025749208
436,312,225074,2,0,L|358:314,1,67.5000025749208
58,230,225392,6,0,P|43:180|79:88,1,135.000005149842
147,68,225871,1,0,0:0:0:0:
315,266,226031,2,0,P|367:304|485:293,1,135.000005149842
509,272,226509,1,0,0:0:0:0:
255,168,226669,6,0,P|218:215|210:315,1,135.000005149842
388,139,227307,2,0,P|405:176|400:216,1,67.5000025749208
315,266,227626,1,0,0:0:0:0:
315,266,227786,1,0,0:0:0:0:
501,179,227946,5,0,0:0:0:0:
504,161,228265,2,0,L|430:145,1,67.5000025749208
209,43,228584,2,0,L|274:28,1,67.5000025749208
315,266,228903,2,0,L|300:331,1,67.5000025749208
120,71,229222,6,0,P|113:38|123:6,1,67.5000025749208
334,99,229541,2,0,P|304:114|286:142,1,67.5000025749208
353,309,229860,2,0,P|385:302|417:312,1,67.5000025749208
150,370,230180,2,0,P|117:364|90:344,1,67.5000025749208
195,130,230499,5,0,0:0:0:0:
493,257,230818,1,0,0:0:0:0:
407,44,231137,1,0,0:0:0:0:
281,343,231456,1,0,0:0:0:0:
265,160,231775,5,0,0:0:0:0:
422,226,232094,1,0,0:0:0:0:
377,115,232413,1,0,0:0:0:0:
310,271,232732,1,0,0:0:0:0:
482,124,233052,5,0,0:0:0:0:
118,278,233371,1,0,0:0:0:0:
222,19,233690,1,0,0:0:0:0:
377,382,234009,1,0,0:0:0:0:
411,153,234329,5,0,0:0:0:0:
188,248,234648,1,0,0:0:0:0:
252,89,234967,1,0,0:0:0:0:
347,312,235286,1,0,0:0:0:0:
419,92,235605,6,0,B|437:70|410:39|365:73|414:159,1,135.000005149842
448,233,236084,1,0,0:0:0:0:
490,126,236243,6,0,B|429:110|429:110|387:127|387:127|315:112,1,180
497,36,236722,1,0,0:0:0:0:
448,233,236882,6,0,P|380:237|316:219,1,135.000005149842
64,151,237520,1,0,0:0:0:0:
218,127,237680,2,0,P|185:117|152:120,1,67.5000025749208
33,353,238158,5,0,0:0:0:0:
33,353,238637,1,0,0:0:0:0:
125,249,238797,6,0,B|162:238|162:238|175:245|175:245|237:235,1,90
239,234,239275,1,0,0:0:0:0:
168,336,239435,5,0,0:0:0:0:
168,336,239594,2,0,B|181:337|181:337|184:340|184:340|205:345,2,40.4999987640381
104,163,239913,1,0,0:0:0:0:
297,312,240073,6,0,P|353:335|403:270,1,148.50000453186
182,41,240712,6,0,B|94:31|94:31|15:77,1,180
239,234,241190,1,0,0:0:0:0:
239,234,241350,2,0,B|270:252|309:249|309:249|351:220|411:220,1,180
289,158,241829,1,0,0:0:0:0:
413,99,241989,2,0,B|352:99|310:70|310:70|271:67|240:85,1,180
386,7,242467,1,0,0:0:0:0:
197,155,242626,5,0,0:0:0:0:
110,180,242786,1,0,0:0:0:0:
28,141,242946,2,0,P|6:97|21:46,1,90
409,219,243265,6,0,P|431:297|351:320,1,180
174,241,243743,1,0,0:0:0:0:
298,185,243903,2,0,P|319:107|239:84,1,180
240,84,244382,1,0,0:0:0:0:
242,309,244541,2,0,B|186:344|186:344|60:290,1,180
242,309,245020,1,0,0:0:0:0:
174,236,245180,6,0,P|212:216|271:217,1,90
481,348,245499,2,0,P|436:346|396:325,1,90
240,84,245818,6,0,P|159:44|59:79,1,180
53,232,246297,1,0,0:0:0:0:
53,232,246456,2,0,P|92:251|135:241,1,90
341,340,246775,1,0,0:0:0:0:
341,340,246935,1,0,0:0:0:0:
341,340,247094,2,0,P|255:318|176:358,1,180
472,63,247733,2,0,L|363:34,1,90
473,199,248052,2,0,L|386:222,1,90
170,109,248371,6,0,P|254:140|343:129,1,180
266,39,248850,1,0,0:0:0:0:
239,239,249009,2,0,P|202:258|129:246,1,90
58,119,249329,2,0,P|23:96|-3:27,1,90
334,204,249648,6,0,P|338:249|317:301,1,90
154,345,249967,2,0,P|117:370|61:378,1,90
170,109,250286,6,0,P|211:65|281:81,1,135
466,322,250924,6,0,P|405:358|307:306,1,180
264,239,251403,1,0,0:0:0:0:
159,322,251563,2,0,P|220:358|318:306,1,180
361,239,252042,1,0,0:0:0:0:
105,201,252201,2,0,P|192:188|264:239,1,180
264,239,252839,2,0,P|221:249|180:231,1,90
40,105,253158,2,0,P|29:62|47:21,1,90
94,262,253477,6,0,P|97:200|205:142,1,180
264,239,253956,1,0,0:0:0:0:
341,141,254116,5,0,0:0:0:0:
427,116,254275,1,0,0:0:0:0:
488,182,254435,1,0,0:0:0:0:
488,182,254594,1,0,0:0:0:0:
360,55,254754,6,0,P|274:60|185:14,1,180
191,19,255233,1,0,0:0:0:0:
446,27,255392,1,0,0:0:0:0:
427,116,255552,1,0,0:0:0:0:
509,90,255712,1,0,0:0:0:0:
509,90,255871,1,0,0:0:0:0:
356,223,256031,6,0,P|330:138|359:54,1,180
508,238,256509,1,0,0:0:0:0:
441,298,256669,2,0,P|356:323|272:294,1,180
140,194,257148,1,0,0:0:0:0:
140,194,257307,2,0,L|255:170,1,90
58,354,257626,2,0,L|173:330,1,90
298,97,257946,2,0,B|270:88|270:88|259:75|259:75|243:82|243:82|215:77,1,90
280,343,258265,2,0,B|305:338|305:338|321:345|321:345|332:332|332:332|360:323,1,90
437,101,258584,6,0,B|400:59|339:59|298:98|298:98|240:50|171:48|113:102,1,360
280,343,259541,1,0,0:0:0:0:
280,343,259701,1,0,0:0:0:0:
280,343,259860,1,0,0:0:0:0:
298,97,260180,1,0,0:0:0:0:
457,349,260499,1,0,0:0:0:0:
376,342,260658,1,0,0:0:0:0:
334,257,260818,1,0,0:0:0:0:
253,250,260977,1,0,0:0:0:0:
183,305,261137,6,0,P|144:323|87:296,1,90
263,164,261456,1,0,0:0:0:0:
263,164,261616,1,0,0:0:0:0:
263,164,261775,2,0,B|267:115|314:94|314:94|428:90,1,180
241,39,262254,1,0,0:0:0:0:
241,39,262414,1,0,0:0:0:0:
402,90,262733,6,0,P|462:78|507:45,1,90
171,97,263052,1,0,0:0:0:0:
255,129,263212,1,0,0:0:0:0:
171,97,263371,2,0,P|120:99|50:127,1,90
338,164,263690,6,0,P|386:207|440:325,1,180
334,275,264169,1,0,0:0:0:0:
323,384,264329,2,0,P|275:341|221:223,1,180
115,208,264807,1,0,0:0:0:0:
115,208,264967,2,0,P|52:249|16:253,1,90
125,66,265286,2,0,P|182:80|221:121,1,90
133,291,265605,5,0,0:0:0:0:
200,348,265765,1,0,0:0:0:0:
276,261,265924,1,0,0:0:0:0:
355,227,266084,1,0,0:0:0:0:
458,300,266243,6,0,B|416:243|412:177|412:177|447:126,1,180
355,97,266722,1,0,0:0:0:0:
169,211,266882,2,0,B|234:183|271:129|271:129|268:67,1,180
109,118,267360,1,0,0:0:0:0:
109,118,267520,2,0,B|143:112|167:94|167:94|173:55,1,90
89,25,267839,5,0,0:0:0:0:
263,56,268158,2,0,P|292:89|296:133,1,90
237,312,268477,2,0,P|227:232|252:181,1,90
380,41,268797,6,0,P|463:28|506:52,1,90
304,141,269116,1,0,0:0:0:0:
304,141,269275,1,0,0:0:0:0:
304,141,269435,1,0,0:0:0:0:
467,277,269754,1,0,0:0:0:0:
376,97,270073,6,0,P|383:164|343:216,1,90
237,334,270392,2,0,P|278:268|325:256,1,90
455,334,270712,6,0,P|374:366|303:325,1,135
170,220,271350,6,0,P|114:204|-12:245,1,180
138,51,271829,1,0,0:0:0:0:
53,104,271988,2,0,L|35:296,1,180
139,152,272467,1,0,0:0:0:0:
139,152,272626,2,0,L|129:255,1,90
237,382,272946,6,0,L|224:274,1,90
332,132,273265,1,0,0:0:0:0:
283,205,273424,1,0,0:0:0:0:
332,132,273584,2,0,P|370:188|368:227,1,90
192,152,273903,6,0,B|153:102|168:40|168:40|245:78,1,180
64,122,274382,1,0,0:0:0:0:
64,122,274541,2,0,B|103:172|88:234|88:234|11:196,1,180
166,229,275020,1,0,0:0:0:0:
156,327,275180,2,0,P|195:299|242:301,1,90
370,348,275499,6,0,P|426:364|476:333,1,90
425,212,275818,1,0,0:0:0:0:
352,156,275977,1,0,0:0:0:0:
246,200,276137,1,0,0:0:0:0:
214,114,276297,1,0,0:0:0:0:
88,39,276456,6,0,P|70:105|122:240,1,180
178,261,276935,1,0,0:0:0:0:
270,287,277094,2,0,L|364:269,1,90
347,174,277414,2,0,L|441:156,1,90
497,60,277733,6,0,L|405:46,2,90
260,97,278371,1,0,0:0:0:0:
260,97,278531,1,0,0:0:0:0:
176,130,278690,2,0,P|166:84|185:43,1,90
333,146,279009,6,0,P|332:227|220:277,1,180
227,281,279488,1,0,0:0:0:0:
333,146,279648,1,0,0:0:0:0:
333,146,279807,1,0,0:0:0:0:
176,130,279967,1,0,0:0:0:0:
176,130,280126,1,0,0:0:0:0:
229,308,280286,6,0,B|233:322|240:331|240:331|220:353|184:356|184:356|171:289|220:266|252:221|229:168,1,270
52,83,280924,2,0,P|91:62|135:63,1,90
180,248,281243,1,0,0:0:0:0:
224,38,281403,1,0,0:0:0:0:
114,155,281563,5,0,0:0:0:0:
256,192,281722,12,0,286669,0:0:0:0:
