osu file format v14

[General]
AudioFilename: audio.mp3
AudioLeadIn: 0
PreviewTime: 28386
Countdown: 0
SampleSet: Soft
StackLeniency: 0.3
Mode: 0
LetterboxInBreaks: 0
WidescreenStoryboard: 0

[Editor]
Bookmarks: 6529,17501,28472,50415,73729,95672,117615,139558,162872,184815,206758,228701,252015,273958,295901,306872,317844
DistanceSpacing: 1.1
BeatDivisor: 4
GridSize: 8
TimelineZoom: 2.5

[Metadata]
Title:Rainscall
TitleUnicode:Rainscall
Artist:Taishi feat. Noriko Mitose
ArtistUnicode:Taishi feat. みとせのりこ
Creator:Zweib
Version:Pouring
Source:
Tags:Tashi Electro.muster sinker GWAVE DnB Drum and Bass Dubstep -Tochi
BeatmapID:1292770
BeatmapSetID:151787

[Difficulty]
HPDrainRate:6
CircleSize:4
OverallDifficulty:8.5
ApproachRate:9.2
SliderMultiplier:2
SliderTickRate:2

[Events]
//Background and Video events
0,0,"bg.jpg",0,0
//Break Periods
2,120558,125274
//Storyboard Layer 0 (Background)
//Storyboard Layer 1 (Fail)
//Storyboard Layer 2 (Pass)
//Storyboard Layer 3 (Foreground)
//Storyboard Sound Samples

[TimingPoints]
1044,342.857142857143,4,2,1,5,1,0
6444,-100,4,2,1,5,0,0
6529,-125,4,2,1,50,0,0
28129,-125,4,1,1,50,0,0
28472,-125,4,2,1,50,0,1
28515,-125,4,2,1,50,0,0
29844,-100,4,2,1,50,0,0
30529,-83.3333333333333,4,2,1,50,0,0
31215,-125,4,2,1,50,0,0
31901,-100,4,2,1,50,0,0
32586,-83.3333333333333,4,2,1,50,0,0
33015,-100,4,2,1,50,0,0
33272,-83.3333333333333,4,2,1,50,0,0
33958,-125,4,2,1,50,0,0
34644,-100,4,2,1,50,0,0
35501,-100,4,2,1,5,0,0
35586,-100,4,2,1,50,0,0
35758,-100,4,2,1,5,0,0
35844,-100,4,2,1,50,0,0
36701,-125,4,2,1,50,0,0
38072,-100,4,2,1,50,0,0
38672,-100,4,2,1,5,0,0
38758,-83.3333333333333,4,2,1,50,0,0
39444,-125,4,2,1,50,0,0
40815,-100,4,2,1,50,0,0
42186,-125,4,2,1,50,0,0
44244,-83.3333333333333,4,2,1,50,0,0
44672,-83.3333333333333,4,2,1,5,0,0
44758,-83.3333333333333,4,2,1,50,0,0
44929,-125,4,2,1,50,0,0
48015,-100,4,2,1,50,0,0
48186,-100,4,2,1,5,0,0
48272,-100,4,2,1,50,0,0
48444,-100,4,2,1,5,0,0
48529,-100,4,2,1,50,0,0
49044,-83.3333333333333,4,2,1,50,0,0
49644,-83.3333333333333,4,2,1,5,0,0
49729,-83.3333333333333,4,2,1,50,0,0
51615,-166.666666666667,4,2,1,50,0,0
51958,-83.3333333333333,4,2,1,50,0,0
52472,-166.666666666667,4,2,1,50,0,0
70815,-200,4,2,1,50,0,0
71501,-142.857142857143,4,2,1,50,0,0
73044,-83.3333333333334,4,2,1,50,0,0
73729,-100,4,2,1,65,0,1
83329,-100,4,2,1,65,0,0
83501,-71.4285714285714,4,2,1,65,0,0
84701,-100,4,2,1,65,0,1
94301,-100,4,2,1,65,0,0
94472,-200,4,2,1,40,0,0
94986,-142.857142857143,4,2,1,55,0,0
95672,-100,4,2,1,65,0,1
95758,-100,4,2,1,65,0,0
105272,-71.4285714285714,4,2,1,65,0,0
106644,-100,4,2,1,65,0,0
116415,-71.4285714285714,4,2,1,65,0,0
128501,-71.4285714285714,4,2,1,5,0,0
128586,-153.846153846154,4,2,1,50,0,0
128672,-153.846153846154,4,2,1,5,0,0
129272,-153.846153846154,4,2,1,50,0,0
129358,-153.846153846154,4,2,1,5,0,0
129958,-153.846153846154,4,2,1,50,0,0
130044,-153.846153846154,4,2,1,5,0,0
130644,-153.846153846154,4,2,1,50,0,0
130729,-153.846153846154,4,2,1,5,0,0
131329,-153.846153846154,4,2,1,50,0,0
131415,-153.846153846154,4,2,1,5,0,0
132015,-153.846153846154,4,2,1,50,0,0
132101,-153.846153846154,4,2,1,5,0,0
132701,-153.846153846154,4,2,1,50,0,0
132786,-153.846153846154,4,2,1,5,0,0
133386,-153.846153846154,4,2,1,50,0,0
133472,-153.846153846154,4,2,1,5,0,0
134072,-153.846153846154,4,2,1,50,0,0
134158,-153.846153846154,4,2,1,5,0,0
134758,-153.846153846154,4,2,1,50,0,0
134844,-153.846153846154,4,2,1,5,0,0
135444,-153.846153846154,4,2,1,50,0,0
135529,-153.846153846154,4,2,1,5,0,0
136129,-153.846153846154,4,2,1,50,0,0
136215,-153.846153846154,4,2,1,5,0,0
136815,-153.846153846154,4,2,1,50,0,0
136901,-153.846153846154,4,2,1,5,0,0
137158,-153.846153846154,4,2,1,50,0,0
137244,-153.846153846154,4,2,1,5,0,0
137501,-153.846153846154,4,2,1,50,0,0
137586,-153.846153846154,4,2,1,5,0,0
137844,-153.846153846154,4,2,1,50,0,0
137929,-153.846153846154,4,2,1,5,0,0
138186,-100,4,2,1,50,0,0
138529,-83.3333333333333,4,2,1,50,0,0
138872,-71.4285714285714,4,2,1,60,0,0
139301,-71.4285714285714,4,2,1,10,0,0
139386,-71.4285714285714,4,2,1,60,0,0
139558,-125,4,2,1,60,0,1
139601,-125,4,2,1,60,0,0
150015,-125,4,2,1,30,0,0
150186,-125,4,2,1,40,0,0
150358,-125,4,2,1,50,0,0
150529,-125,4,2,1,60,0,0
160644,-142.857142857143,4,2,1,60,0,0
160986,-166.666666666667,4,2,1,60,0,0
161672,-125,4,2,1,60,0,0
162529,-83.3333333333333,4,2,1,60,0,0
162872,-100,4,2,1,65,0,1
172472,-100,4,2,1,65,0,0
172644,-71.4285714285714,4,2,1,65,0,0
173844,-100,4,2,1,65,0,1
183444,-100,4,2,1,65,0,0
183615,-200,4,2,1,40,0,0
183958,-142.857142857143,4,2,1,50,0,0
184815,685.714285714286,4,2,1,40,1,0
187558,-200,4,2,1,40,0,0
206672,-200,4,2,1,5,0,0
206758,342.857142857143,4,2,1,40,1,0
206758,-200,4,2,1,40,0,0
228615,-200,4,2,1,5,0,0
228700,-153.846153846154,4,2,1,40,0,0
239672,-153.846153846154,4,2,1,50,0,0
243786,-153.846153846154,4,2,1,60,0,0
247900,-153.846153846154,4,2,1,60,0,0
250815,-100,4,2,1,40,0,0
252015,-100,4,2,1,65,0,1
261615,-100,4,2,1,65,0,0
261786,-71.4285714285714,4,2,1,65,0,0
262300,-100,4,2,1,65,0,0
262986,-100,4,2,1,65,0,1
272586,-100,4,2,1,65,0,0
273443,-100,4,2,1,35,0,0
273615,-100,4,2,1,45,0,0
273786,-100,4,2,1,55,0,0
273958,-100,4,2,1,65,0,1
293672,-100,4,2,1,40,0,1
293843,-100,4,2,1,45,0,1
294015,-100,4,2,1,50,0,1
294186,-100,4,2,1,55,0,1
294358,-100,4,2,1,60,0,1
294529,-100,4,2,1,65,0,1
295900,-100,4,2,1,65,0,0
306872,-100,4,2,1,10,0,0

[HitObjects]
256,192,1044,12,0,6444,0:0:0:0:
369,201,6529,6,0,P|313:180|256:192,1,120,2|0,1:0|0:0,0:0:0:0:
227,190,6872,2,0,P|185:204|149:193,1,80,8|0,0:0|0:0,0:0:0:0:
306,261,7215,1,0,0:0:0:0:
151,194,7386,2,0,L|166:106,1,80,2|8,1:0|0:0,0:0:0:0:
137,285,7729,1,0,0:0:0:0:
67,205,7901,6,0,L|227:190,1,160,2|8,1:0|0:0,0:0:0:0:
306,261,8415,1,0,0:0:0:0:
306,261,8501,1,0,0:0:0:0:
306,261,8586,2,0,L|299:307,2,40,0|0|2,0:0|0:0|1:0,0:0:0:0:
214,111,8929,2,0,L|226:190,1,80,8|0,0:0|0:0,0:0:0:0:
202,339,9272,6,0,L|213:260,1,80,2|0,1:0|0:0,0:0:0:0:
226,190,9529,1,0,0:0:0:0:
226,190,9615,1,8,0:0:0:0:
130,199,9786,1,0,0:0:0:0:
322,181,9958,1,0,0:0:0:0:
130,199,10129,1,2,1:0:0:0:
228,70,10301,2,0,L|226:190,1,120,8|0,0:0|0:0,0:0:0:0:
281,239,10644,6,0,P|343:208|432:226,1,160,2|8,1:0|0:0,0:0:0:0:
401,317,11158,1,0,0:0:0:0:
401,317,11244,1,0,0:0:0:0:
401,317,11329,2,0,L|361:311,1,40,0|0,0:0|0:0,0:0:0:0:
290,285,11501,1,2,1:0:0:0:
201,349,11672,2,0,B|158:336|158:336|81:351,1,120,8|0,0:0|0:0,0:0:0:0:
56,345,12015,6,0,P|74:292|63:228,1,120,2|0,1:0|0:0,0:0:0:0:
81,208,12358,2,0,P|75:169|92:127,1,80,0|0,0:0|0:0,0:0:0:0:
0,280,12701,1,0,0:0:0:0:
88,131,12872,2,0,L|172:145,1,80,2|8,1:0|0:0,0:0:0:0:
0,118,13215,1,0,0:0:0:0:
100,49,13386,6,0,L|81:208,1,160,2|8,1:0|0:0,0:0:0:0:
131,290,13901,2,0,L|154:329,2,40,0|0|0,0:0|0:0|0:0,0:0:0:0:
81,207,14244,1,2,1:0:0:0:
197,233,14415,2,0,L|332:225,1,120,8|0,0:0|0:0,0:0:0:0:
379,267,14758,6,0,P|393:230|384:189,1,80,2|0,1:0|0:0,0:0:0:0:
334,142,15015,1,0,0:0:0:0:
334,142,15101,1,0,0:0:0:0:
419,68,15272,1,0,0:0:0:0:
334,142,15444,1,0,0:0:0:0:
379,267,15615,1,2,1:0:0:0:
453,154,15786,2,0,L|334:142,1,120,8|0,0:0|0:0,0:0:0:0:
265,177,16129,6,0,L|89:198,1,160,2|8,1:0|0:0,0:0:0:0:
220,285,16644,2,0,L|379:267,1,160,2|8,1:0|0:0,0:0:0:0:
337,101,17158,2,0,L|333:141,1,40,8|0,0:0|0:0,0:0:0:0:
288,246,17329,2,0,L|283:206,1,40,8|0,0:0|0:0,0:0:0:0:
220,133,17501,5,4,1:2:0:0:
174,48,17672,1,0,0:0:0:0:
271,51,17844,1,8,0:0:0:0:
124,130,18015,1,0,0:0:0:0:
271,51,18186,5,0,0:0:0:0:
220,133,18358,1,0,1:0:0:0:
273,212,18529,1,8,0:0:0:0:
273,212,18701,1,0,0:0:0:0:
124,130,18872,5,0,1:0:0:0:
174,48,19044,1,0,0:0:0:0:
318,127,19215,1,8,0:0:0:0:
273,212,19387,1,0,0:0:0:0:
220,133,19558,5,0,0:0:0:0:
370,208,19729,1,0,1:0:0:0:
267,234,19901,5,8,0:0:0:0:
365,226,20072,1,0,0:0:0:0:
176,209,20244,6,0,L|193:297,2,80,0|0|8,1:0|0:0|0:0,0:0:0:0:
365,226,20758,1,0,0:0:0:0:
267,234,20929,5,0,0:0:0:0:
424,154,21101,1,0,1:0:0:0:
269,120,21272,1,8,0:0:0:0:
398,149,21444,1,0,0:0:0:0:
267,234,21615,5,0,1:0:0:0:
269,120,21786,1,0,0:0:0:0:
271,6,21958,1,8,0:0:0:0:
271,6,22129,2,0,L|191:16,1,80,0|0,0:0|0:0,0:0:0:0:
191,15,22386,1,0,0:0:0:0:
191,15,22472,1,0,1:0:0:0:
344,66,22644,2,0,L|424:76,1,80,8|0,0:0|0:0,0:0:0:0:
251,113,22986,5,4,1:2:0:0:
208,199,23158,1,0,0:0:0:0:
282,258,23329,1,8,0:0:0:0:
251,113,23501,1,0,0:0:0:0:
344,66,23672,5,0,0:0:0:0:
147,115,23844,1,0,1:0:0:0:
328,170,24015,5,8,0:0:0:0:
170,124,24187,1,0,0:0:0:0:
344,66,24358,5,0,1:0:0:0:
328,170,24529,1,0,0:0:0:0:
312,274,24701,1,8,0:0:0:0:
208,199,24872,1,0,0:0:0:0:
208,199,24958,1,0,0:0:0:0:
208,199,25044,5,0,0:0:0:0:
355,164,25215,1,0,1:0:0:0:
419,300,25386,1,8,0:0:0:0:
312,274,25557,1,0,0:0:0:0:
445,187,25729,6,0,L|432:99,2,80,0|0|8,1:0|0:0|0:0,0:0:0:0:
312,274,26244,1,0,0:0:0:0:
448,213,26415,5,0,0:0:0:0:
269,181,26586,1,0,1:0:0:0:
207,269,26758,1,8,0:0:0:0:
117,285,26929,1,0,0:0:0:0:
312,274,27101,5,0,1:0:0:0:
183,187,27272,1,0,0:0:0:0:
292,267,27444,1,8,0:0:0:0:
122,304,27615,1,0,0:0:0:0:
318,194,27786,5,0,1:0:0:0:
318,194,27872,2,0,L|312:273,1,80,0|0,1:0|1:0,0:0:0:0:
255,336,28129,2,0,L|260:372,5,26.6666666666667,0|0|0|0|0|0,0:0|0:0|0:0|0:0|0:0|0:0,0:0:0:0:
311,273,28472,6,0,P|400:264|460:298,1,160,4|10,1:2|0:0,0:0:0:0:
405,366,28986,1,2,0:0:0:0:
367,182,29158,2,0,L|384:271,1,80,2|0,0:0|1:0,0:0:0:0:
382,260,29415,1,0,0:0:0:0:
382,260,29501,1,10,0:0:0:0:
255,336,29672,1,2,0:0:0:0:
471,308,29844,6,0,L|479:198,1,100,0|0,1:0|0:0,0:0:0:0:
466,175,30101,1,0,0:0:0:0:
454,142,30186,1,8,0:0:0:0:
441,109,30272,2,0,L|433:208,1,100,0|0,0:0|0:0,0:0:0:0:
388,268,30529,6,0,B|340:259|340:259|318:271|318:271|267:262,1,119.999996337891,0|0,0:0|1:0,0:0:0:0:
192,261,30786,1,0,0:0:0:0:
192,261,30872,2,0,L|253:247,1,59.9999981689454,8|0,0:0|0:0,0:0:0:0:
386,184,31044,2,0,L|321:171,1,59.9999981689454,0|0,0:0|0:0,0:0:0:0:
250,103,31215,6,0,P|219:175|250:247,1,160,0|10,1:0|0:0,0:0:0:0:
388,268,31729,1,2,0:0:0:0:
312,345,31901,2,0,L|211:340,1,100,2|0,0:0|1:0,0:0:0:0:
188,321,32158,2,8,L|133:329,1,50,10|10,0:0|0:0,0:0:0:0:
248,186,32415,1,2,0:0:0:0:
248,186,32501,1,2,0:0:0:0:
248,186,32586,6,0,B|243:162|243:162|250:152|250:152|244:121,1,59.9999981689454,0|0,1:0|0:0,0:0:0:0:
332,57,32758,2,0,B|323:105|323:105|336:123|336:123|327:171,1,119.999996337891,0|10,0:0|0:0,0:0:0:0:
342,197,33015,2,0,L|347:257,1,50,0|2,0:0|0:0,0:0:0:0:
92,251,33272,6,0,L|212:259,1,119.999996337891,0|0,0:0|1:0,0:0:0:0:
256,327,33529,1,0,0:0:0:0:
256,327,33615,2,0,P|289:330|314:348,1,59.9999981689454,8|0,0:0|0:0,0:0:0:0:
378,232,33786,2,0,P|407:229|433:214,1,59.9999981689454,0|0,0:0|0:0,0:0:0:0:
286,114,33958,6,0,B|262:103|262:103|243:161|281:207|281:207|299:190,1,160,0|2,1:0|0:0,0:0:0:0:
360,143,34386,1,0,0:0:0:0:
380,141,34472,2,0,L|435:134,1,40,2|0,0:0|0:0,0:0:0:0:
472,194,34644,2,0,B|496:239|496:239|478:284,1,100,2|0,0:0|1:0,0:0:0:0:
279,298,34986,2,0,B|259:253|259:253|281:207,1,100,10|2,0:0|0:0,0:0:0:0:
210,146,35244,5,0,0:0:0:0:
210,146,35329,2,0,P|163:170|113:160,1,100,0|0,1:0|0:0,0:0:0:0:
38,135,35586,2,0,L|57:241,1,100,2|0,0:0|0:0,0:0:0:0:
48,257,35844,1,0,0:0:0:0:
281,206,36015,5,2,0:0:0:0:
175,276,36186,1,0,1:0:0:0:
145,161,36358,1,10,0:0:0:0:
145,161,36444,1,0,0:0:0:0:
145,161,36529,1,0,0:0:0:0:
344,150,36701,5,2,1:2:0:0:
355,166,36786,1,0,0:0:0:0:
362,185,36872,1,0,0:0:0:0:
364,204,36958,1,0,0:0:0:0:
362,224,37044,2,0,P|356:245|355:268,2,40,10|2|0,0:0|0:0|0:0,0:0:0:0:
458,139,37386,1,0,0:0:0:0:
458,139,37558,1,0,1:0:0:0:
281,206,37729,1,8,0:0:0:0:
281,206,37901,1,0,0:0:0:0:
487,266,38072,6,0,L|382:252,1,100,2|0,1:2|0:0,0:0:0:0:
354,263,38329,1,0,0:0:0:0:
320,274,38415,1,0,0:0:0:0:
286,285,38501,2,0,L|385:298,1,100,2|0,0:0|0:0,0:0:0:0:
511,192,38758,6,0,L|388:175,1,119.999996337891,2|0,0:0|1:0,0:0:0:0:
298,197,39015,2,0,B|289:149|289:149|302:131|302:131|292:76,1,119.999996337891,2|0,0:0|0:0,0:0:0:0:
226,34,39272,1,2,0:0:0:0:
226,34,39358,1,2,0:0:0:0:
226,34,39444,6,0,L|391:43,1,160,2|2,1:2|0:0,0:0:0:0:
450,100,39958,1,2,0:0:0:0:
226,34,40129,2,0,L|143:38,1,80,2|0,0:0|1:0,0:0:0:0:
340,120,40472,1,10,0:0:0:0:
146,38,40644,1,2,0:0:0:0:
72,205,40815,6,0,P|96:162|90:113,1,100,0|0,1:0|0:0,0:0:0:0:
56,26,41072,1,0,0:0:0:0:
56,26,41158,2,0,P|57:71|91:113,1,100,8|0,0:0|0:0,0:0:0:0:
226,34,41501,1,0,0:0:0:0:
226,34,41586,1,0,0:0:0:0:
226,34,41672,1,0,1:0:0:0:
255,108,41844,1,8,0:0:0:0:
175,95,42016,1,0,0:0:0:0:
344,32,42186,6,0,B|336:95|336:95|348:125|348:125|340:192,1,160,0|10,1:0|0:0,0:0:0:0:
329,183,42615,1,0,0:0:0:0:
317,178,42701,1,2,0:0:0:0:
443,102,42872,2,0,L|352:91,1,80,2|0,0:0|1:0,0:0:0:0:
227,75,43215,1,10,0:0:0:0:
417,206,43386,6,0,L|249:229,1,160,2|0,0:0|0:0,0:0:0:0:
179,172,43901,1,10,0:0:0:0:
304,317,44072,1,2,0:0:0:0:
304,317,44158,1,2,0:0:0:0:
304,317,44244,6,0,L|185:308,1,119.999996337891,2|0,0:0|1:0,0:0:0:0:
138,249,44501,2,0,L|19:258,1,119.999996337891,0|0,0:0|0:0,0:0:0:0:
2,276,44758,2,0,L|15:213,1,59.9999981689454,0|0,0:0|0:0,0:0:0:0:
0,139,44929,6,0,L|167:126,1,160,0|10,1:0|0:0,0:0:0:0:
246,58,45444,1,2,0:0:0:0:
261,226,45615,2,0,L|280:143,1,80,2|0,0:0|1:0,0:0:0:0:
162,33,45958,1,10,0:0:0:0:
417,128,46129,1,2,0:0:0:0:
417,128,46301,6,0,P|340:105|274:156,1,160,0|10,1:0|0:0,0:0:0:0:
195,307,46815,2,0,L|183:258,1,40,0|0,0:0|0:0,0:0:0:0:
196,188,46986,2,0,L|185:268,1,80,2|0,0:0|1:0,0:0:0:0:
355,191,47329,2,0,L|344:111,1,80,10|0,0:0|0:0,0:0:0:0:
157,42,47672,2,0,B|140:81|140:81|160:120,1,80,2|0,1:2|0:0,0:0:0:0:
268,267,48015,6,0,B|288:313|288:313|264:360,1,100,10|0,0:0|0:0,0:0:0:0:
187,358,48272,2,0,B|164:314|164:314|184:267,1,100,0|0,0:0|0:0,0:0:0:0:
195,250,48529,1,0,1:0:0:0:
371,274,48701,1,10,0:0:0:0:
195,250,48872,1,2,0:0:0:0:
485,269,49044,6,0,B|437:264|437:264|420:279|420:279|371:274,1,119.999996337891,2|2,1:2|0:0,0:0:0:0:
291,264,49301,1,0,0:0:0:0:
291,264,49386,1,0,0:0:0:0:
291,264,49472,2,0,B|285:216|285:216|300:198|300:198|295:149,1,119.999996337891,2|0,0:0|0:0,0:0:0:0:
326,77,49729,6,0,L|319:144,1,59.9999981689454,2|0,0:0|0:0,0:0:0:0:
304,329,49901,2,0,L|298:270,1,59.9999981689454,0|2,1:0|0:0,0:0:0:0:
397,173,50072,1,8,0:0:0:0:
197,167,50244,1,2,0:0:0:0:
382,259,50415,5,6,1:2:0:0:
382,259,50586,1,0,0:0:0:0:
309,217,50758,1,2,0:0:0:0:
309,217,50929,1,0,0:0:0:0:
237,262,51101,1,2,0:0:0:0:
237,262,51272,1,0,0:0:0:0:
382,259,51444,1,2,1:2:0:0:
177,209,51615,6,0,P|158:261|187:319,1,119.999996337891,2|0,1:2|0:0,0:0:0:0:
262,352,52129,1,2,0:0:0:0:
262,352,52301,1,0,0:0:0:0:
337,306,52472,2,0,B|340:275|340:275|327:246,1,59.9999981689454,2|0,0:0|0:0,0:0:0:0:
269,178,52815,2,0,L|271:118,1,59.9999981689454,2|0,0:0|0:0,0:0:0:0:
468,165,53158,6,0,B|420:160|420:160|402:175|402:175|351:170,1,119.999996337891,2|2,1:2|0:0,0:0:0:0:
269,178,53672,1,0,0:0:0:0:
203,232,53844,2,0,B|154:236|154:236|136:221|136:221|88:226,1,119.999996337891,2|0,0:0|0:0,0:0:0:0:
177,79,54358,6,0,L|196:141,1,59.9999981689454,2|0,1:2|0:0,0:0:0:0:
189,155,54615,2,0,L|192:220,1,59.9999981689454,2|0,0:0|0:0,0:0:0:0:
203,232,54872,1,2,0:0:0:0:
203,232,55044,1,2,0:0:0:0:
88,226,55215,1,0,0:0:0:0:
237,301,55386,2,0,P|209:310|179:306,1,59.9999981689454,0|2,1:0|0:0,0:0:0:0:
102,260,55729,1,2,0:0:0:0:
329,277,55901,6,0,L|323:340,1,59.9999981689454,2|0,1:2|0:0,0:0:0:0:
203,232,56244,2,0,L|197:172,1,59.9999981689454,2|0,0:0|0:0,0:0:0:0:
352,74,56586,2,0,L|341:194,1,119.999996337891,2|0,0:0|0:0,0:0:0:0:
323,336,57101,1,2,1:2:0:0:
214,351,57272,6,0,L|203:232,1,119.999996337891,0|2,1:0|0:0,0:0:0:0:
231,150,57786,1,0,0:0:0:0:
129,274,57958,2,0,P|119:216|154:161,1,119.999996337891,2|2,0:0|0:0,0:0:0:0:
231,150,58472,1,2,0:0:0:0:
284,214,58644,1,0,1:0:0:0:
471,214,58815,6,0,L|378:201,1,89.9999972534181,2|0,0:0|0:0,0:0:0:0:
364,214,59158,2,0,L|303:221,1,59.9999981689454,2|0,0:0|0:0,0:0:0:0:
284,214,59415,2,0,L|237:207,1,29.9999990844727,2|0,0:0|0:0,0:0:0:0:
409,294,59672,1,0,0:0:0:0:
329,338,59844,1,2,1:2:0:0:
329,338,59929,1,0,0:0:0:0:
329,338,60015,1,0,0:0:0:0:
329,338,60101,6,0,L|290:331,2,29.9999990844727,2|0|0,0:0|0:0|0:0,0:0:0:0:
232,298,60358,2,0,L|202:303,2,29.9999990844727,2|0|0,0:0|0:0|0:0,0:0:0:0:
135,338,60615,2,0,L|105:332,2,29.9999990844727,2|0|0,0:0|0:0|0:0,0:0:0:0:
194,273,60872,2,0,L|257:261,1,59.9999981689454,2|0,0:0|0:0,0:0:0:0:
271,252,61129,2,0,L|330:262,1,59.9999981689454,2|0,0:0|0:0,0:0:0:0:
408,243,61386,6,0,P|425:184|397:128,1,119.999996337891,6|2,1:2|0:0,0:0:0:0:
323,101,61901,1,0,0:0:0:0:
248,139,62072,2,0,L|127:152,1,119.999996337891,2|0,0:0|0:0,0:0:0:0:
323,101,62586,1,0,1:0:0:0:
323,101,62758,6,0,L|382:107,1,59.9999981689454,2|0,0:0|0:0,0:0:0:0:
411,138,63015,1,0,0:0:0:0:
411,138,63101,2,0,L|404:197,1,59.9999981689454,2|0,0:0|0:0,0:0:0:0:
419,237,63358,1,2,0:0:0:0:
419,237,63444,1,0,0:0:0:0:
323,225,63615,1,2,0:0:0:0:
227,214,63786,1,2,0:0:0:0:
227,214,63958,1,2,0:0:0:0:
423,261,64129,6,0,L|297:270,1,119.999996337891,2|2,1:2|0:0,0:0:0:0:
242,328,64644,1,0,0:0:0:0:
327,184,64815,2,0,P|337:133|318:59,1,119.999996337891,2|2,0:0|0:0,0:0:0:0:
240,88,65329,6,0,P|208:93|179:89,1,59.9999981689454,2|0,0:0|0:0,0:0:0:0:
151,80,65586,2,0,P|121:76|91:81,1,59.9999981689454,2|0,0:0|0:0,0:0:0:0:
64,93,65844,1,2,0:0:0:0:
239,68,66015,1,0,0:0:0:0:
130,168,66186,5,2,0:0:0:0:
130,168,66272,1,0,0:0:0:0:
130,168,66358,2,0,L|137:235,1,59.9999981689454,0|2,1:0|0:0,0:0:0:0:
146,315,66701,1,2,0:0:0:0:
248,292,66872,6,0,B|288:284|288:284|320:300|320:300|368:292,1,119.999996337891,2|0,1:2|0:0,0:0:0:0:
146,315,67386,1,0,0:0:0:0:
218,209,67558,2,0,B|226:180|226:180|216:146,1,59.9999981689454,2|2,0:0|0:0,0:0:0:0:
272,372,67901,1,0,0:0:0:0:
146,315,68072,6,0,B|117:307|117:307|83:317,1,59.9999981689454,2|0,1:2|0:0,0:0:0:0:
64,297,68329,2,0,B|72:268|72:268|62:234,1,59.9999981689454,2|0,0:0|0:0,0:0:0:0:
49,212,68586,1,2,0:0:0:0:
230,293,68758,1,0,0:0:0:0:
230,293,68844,1,2,0:0:0:0:
155,106,69101,1,2,0:0:0:0:
154,220,69272,1,2,0:0:0:0:
249,46,69444,1,2,0:0:0:0:
356,125,69615,6,0,B|212:135,1,119.999996337891,2|0,1:2|0:0,0:0:0:0:
154,220,70129,1,0,0:0:0:0:
249,46,70301,2,0,L|246:110,1,59.9999981689454,2|2,0:0|0:0,0:0:0:0:
285,231,70644,1,2,0:0:0:0:
155,22,70815,6,0,B|168:139|168:139|137:115,1,150,2|2,1:2|0:0,0:0:0:0:
299,317,71501,6,0,B|310:210|310:210|284:230,1,139.999995727539,2|2,1:2|0:0,0:0:0:0:
135,271,72015,2,0,P|169:277|204:271,1,69.9999978637696,0|0,1:0|0:0,0:0:0:0:
56,219,72358,1,0,1:0:0:0:
201,299,72701,5,0,1:0:0:0:
56,219,72872,2,0,L|45:241,3,17.4999994659424,0|0|0|0,1:0|1:0|1:0|1:0,0:0:0:0:
39,257,73044,2,0,L|24:125,1,119.999996337891,4|8,1:3|0:0,0:0:0:0:
38,60,73301,1,8,0:0:0:0:
42,42,73386,1,8,0:0:0:0:
1,342,73558,1,8,0:0:0:0:
1,342,73644,1,8,0:0:0:0:
1,342,73729,6,0,B|80:333|80:333|114:354|114:354|194:345,1,200,4|8,1:2|0:0,0:0:0:0:
329,230,74244,2,0,B|282:249|282:249|235:224,1,100,0|0,0:0|0:0,0:0:0:0:
206,211,74501,1,0,0:0:0:0:
171,205,74586,1,0,1:0:0:0:
136,209,74672,1,0,0:0:0:0:
102,220,74758,1,8,0:0:0:0:
164,305,74929,1,0,0:0:0:0:
287,162,75101,6,0,P|293:137|288:109,2,50,0|0|0,1:0|0:0|0:0,0:0:0:0:
98,345,75444,2,0,P|86:297|109:249,1,100,8|0,0:0|0:0,0:0:0:0:
206,211,75786,5,0,0:0:0:0:
98,345,75958,1,0,1:0:0:0:
127,166,76129,1,8,0:0:0:0:
112,134,76214,1,0,0:0:0:0:
106,100,76300,1,0,0:0:0:0:
109,65,76386,1,0,0:0:0:0:
122,33,76472,6,0,L|277:46,1,150,0|0,1:0|0:0,0:0:0:0:
291,41,76815,1,8,0:0:0:0:
146,241,76986,2,0,P|123:245|86:233,2,50,0|0|0,0:0|0:0|0:0,0:0:0:0:
296,167,77329,2,0,P|346:159|400:173,1,100,0|8,1:0|0:0,0:0:0:0:
393,169,77586,1,0,0:0:0:0:
393,169,77672,1,0,0:0:0:0:
214,286,77844,6,0,P|159:299|61:270,1,150,0|0,1:0|0:0,0:0:0:0:
14,219,78186,2,0,P|13:192|6:171,2,50,8|0|0,0:0|0:0|0:0,0:0:0:0:
283,331,78529,1,0,0:0:0:0:
295,303,78615,1,0,0:0:0:0:
295,272,78701,1,0,1:0:0:0:
210,116,78872,1,8,0:0:0:0:
139,333,79044,1,0,0:0:0:0:
14,219,79215,6,0,P|14:142|2:65,1,150,4|0,1:2|0:0,0:0:0:0:
1,49,79558,1,8,0:0:0:0:
183,211,79729,2,0,P|190:163|214:108,1,100,0|0,0:0|0:0,0:0:0:0:
209,115,79986,1,0,0:0:0:0:
209,115,80072,1,0,1:0:0:0:
139,333,80244,5,8,0:0:0:0:
111,311,80329,1,0,0:0:0:0:
77,302,80415,1,0,0:0:0:0:
43,305,80501,1,0,0:0:0:0:
6,336,80586,6,0,P|95:335|219:327,1,200,0|8,1:0|0:0,0:0:0:0:
350,307,81101,1,0,0:0:0:0:
350,307,81186,1,0,0:0:0:0:
350,307,81272,2,0,P|319:310|285:316,1,50,0|0,0:0|0:0,0:0:0:0:
111,311,81444,1,0,1:0:0:0:
250,215,81615,2,0,P|281:218|309:217,2,50,8|0|0,0:0|0:0|0:0,0:0:0:0:
21,116,81958,6,0,B|57:108|57:108|78:123|78:123|114:116,1,100,4|0,1:2|0:0,0:0:0:0:
395,233,82301,2,0,P|348:216|299:217,1,100,8|0,0:0|0:0,0:0:0:0:
17,335,82644,2,0,B|66:335|66:335|111:311,1,100,0|0,0:0|1:0,0:0:0:0:
150,317,82901,1,0,0:0:0:0:
182,304,82986,1,12,0:0:0:0:
217,302,83072,1,0,0:0:0:0:
251,308,83158,1,0,0:0:0:0:
42,239,83329,5,0,1:0:0:0:
257,176,83501,2,0,B|269:239|269:239|263:256|263:256|274:314,1,139.999995727539,0|8,1:0|0:0,0:0:0:0:
350,352,83758,2,0,B|376:327|412:323|412:323|383:300|367:258,1,139.999995727539,0|0,1:0|0:0,0:0:0:0:
375,191,84015,5,0,1:0:0:0:
122,237,84186,2,0,P|162:230|201:228,1,69.9999978637696,0|0,1:0|1:0,0:0:0:0:
370,267,84358,1,8,0:0:0:0:
171,85,84529,1,8,0:0:0:0:
171,85,84615,1,8,0:0:0:0:
171,85,84701,6,0,B|249:71|249:71|284:91|284:91|363:77,1,200,4|8,1:2|0:0,0:0:0:0:
473,203,85215,2,0,P|424:192|375:190,1,100,0|0,0:0|0:0,0:0:0:0:
345,193,85472,1,0,0:0:0:0:
315,198,85558,1,0,1:0:0:0:
286,206,85644,1,0,0:0:0:0:
259,218,85729,1,0,0:0:0:0:
350,352,85901,1,0,0:0:0:0:
175,243,86072,6,0,P|173:216|179:188,2,50,0|0|0,1:0|0:0|0:0,0:0:0:0:
410,293,86415,2,0,P|359:269|307:279,1,100,8|0,0:0|0:0,0:0:0:0:
219,337,86758,5,0,0:0:0:0:
143,200,86929,1,0,1:0:0:0:
317,274,87101,1,8,0:0:0:0:
314,239,87186,1,0,0:0:0:0:
319,204,87272,1,0,0:0:0:0:
333,172,87358,1,0,0:0:0:0:
356,146,87444,6,0,P|359:226|354:313,1,150,4|0,1:2|0:0,0:0:0:0:
352,315,87786,1,8,0:0:0:0:
203,238,87958,1,0,0:0:0:0:
203,238,88044,1,0,0:0:0:0:
203,238,88129,2,0,P|216:286|220:346,1,100,0|0,0:0|1:0,0:0:0:0:
256,146,88472,2,0,P|260:96|273:48,1,100,8|0,0:0|0:0,0:0:0:0:
477,250,88815,6,0,P|403:235|328:234,1,150,0|0,1:0|0:0,0:0:0:0:
308,238,89158,1,8,0:0:0:0:
187,319,89329,1,0,0:0:0:0:
157,324,89415,1,0,0:0:0:0:
127,319,89501,1,0,0:0:0:0:
39,255,89672,1,0,1:0:0:0:
278,352,89844,2,0,P|341:337|426:348,1,150,8|0,0:0|0:0,0:0:0:0:
493,296,90186,6,0,B|507:249|507:249|479:206,1,100,4|0,1:2|0:0,0:0:0:0:
479,206,90444,1,0,0:0:0:0:
479,206,90529,1,8,0:0:0:0:
278,352,90701,1,0,0:0:0:0:
337,251,90872,2,0,P|344:204|340:148,1,100,0|0,0:0|1:0,0:0:0:0:
189,38,91215,5,8,0:0:0:0:
182,72,91300,1,0,0:0:0:0:
183,107,91386,1,0,0:0:0:0:
189,141,91472,1,0,0:0:0:0:
203,173,91558,6,0,P|107:196|1:205,1,200,0|8,1:0|0:0,0:0:0:0:
185,292,92072,1,0,0:0:0:0:
185,292,92158,1,0,0:0:0:0:
185,292,92244,2,0,P|158:299|126:312,1,50,0|0,0:0|0:0,0:0:0:0:
63,375,92415,1,0,1:0:0:0:
286,338,92586,2,0,P|309:340|336:346,2,50,8|0|0,0:0|0:0|0:0,0:0:0:0:
6,204,92929,6,0,P|54:196|105:179,1,100,4|0,1:2|0:0,0:0:0:0:
398,250,93272,2,0,B|354:242|354:242|341:248|341:248|298:240,1,100,8|0,0:0|0:0,0:0:0:0:
71,92,93615,2,0,P|122:94|175:117,1,100,0|0,0:0|1:0,0:0:0:0:
369,337,93958,1,8,0:0:0:0:
204,275,94129,1,0,0:0:0:0:
342,163,94301,1,0,1:0:0:0:
305,256,94472,6,0,P|279:256|253:246,2,50,0|0|0,0:0|0:0|0:0,0:0:0:0:
398,250,94901,1,0,1:0:0:0:
410,261,94986,2,0,B|438:287|438:287|415:320,1,69.9999978637696,0|0,1:0|1:0,0:0:0:0:
410,328,95244,1,0,0:0:0:0:
401,342,95329,1,8,0:0:0:0:
339,105,95501,1,4,1:3:0:0:
335,88,95586,1,4,1:3:0:0:
332,70,95672,6,0,P|257:100|133:105,1,200,4|8,1:2|0:0,0:0:0:0:
42,79,96186,1,0,0:0:0:0:
233,207,96358,2,0,P|183:206|136:189,1,100,0|0,0:0|1:0,0:0:0:0:
42,79,96701,1,8,0:0:0:0:
42,79,96872,1,0,0:0:0:0:
195,52,97044,6,0,L|298:35,1,100,0|0,1:0|0:0,0:0:0:0:
422,139,97386,2,0,L|319:122,1,100,8|0,0:0|0:0,0:0:0:0:
303,122,97644,1,0,0:0:0:0:
303,122,97729,2,0,P|309:141|312:170,1,50,0|0,0:0|0:0,0:0:0:0:
278,310,97901,1,0,1:0:0:0:
390,235,98072,2,0,P|416:231|449:238,2,50,8|0|0,0:0|0:0|0:0,0:0:0:0:
278,310,98415,5,0,1:0:0:0:
248,317,98501,1,0,0:0:0:0:
218,312,98586,1,0,0:0:0:0:
157,232,98758,2,0,P|199:214|259:221,1,100,8|0,0:0|0:0,0:0:0:0:
365,314,99101,5,0,0:0:0:0:
456,302,99272,1,0,1:0:0:0:
356,215,99444,1,8,0:0:0:0:
265,203,99615,1,0,0:0:0:0:
151,271,99786,5,0,1:0:0:0:
263,106,99958,1,0,0:0:0:0:
263,239,100129,1,8,0:0:0:0:
88,199,100301,1,0,0:0:0:0:
88,199,100386,1,0,0:0:0:0:
88,199,100472,2,0,P|112:193|141:193,1,50,0|0,0:0|0:0,0:0:0:0:
263,239,100644,1,0,1:0:0:0:
27,249,100815,2,0,P|4:205|18:147,1,100,8|0,0:0|0:0,0:0:0:0:
168,19,101158,6,0,B|178:102|178:102|163:133|163:133|176:216,1,200,0|8,1:0|0:0,0:0:0:0:
255,153,101672,1,0,0:0:0:0:
98,86,101844,2,0,P|49:78|0:82,1,100,0|0,0:0|1:0,0:0:0:0:
255,153,102186,2,0,P|304:156|353:148,1,100,8|0,0:0|0:0,0:0:0:0:
458,86,102529,5,0,1:0:0:0:
332,257,102701,1,0,0:0:0:0:
350,48,102872,2,0,P|355:98|353:148,1,100,8|0,0:0|0:0,0:0:0:0:
351,168,103129,1,0,0:0:0:0:
351,168,103215,2,0,P|321:166|290:172,1,50,0|0,0:0|0:0,0:0:0:0:
169,236,103386,1,0,1:0:0:0:
430,259,103558,2,0,P|381:265|332:257,1,100,8|0,0:0|0:0,0:0:0:0:
196,147,103901,6,0,B|121:118|41:161|41:161|85:166,1,200,0|8,1:0|0:0,0:0:0:0:
240,70,104415,1,0,0:0:0:0:
291,142,104586,2,0,B|244:160|244:160|196:147,1,100,0|0,0:0|1:0,0:0:0:0:
16,73,104929,2,0,B|60:50|60:50|110:57,1,100,8|0,0:0|0:0,0:0:0:0:
321,251,105272,6,0,B|305:236|305:236|250:263|176:232,1,139.999995727539,0|0,1:0|0:0,0:0:0:0:
112,246,105529,2,0,B|89:265|89:265|50:224|93:155,1,139.999995727539,0|0,0:0|0:0,0:0:0:0:
105,140,105786,1,0,0:0:0:0:
199,322,105958,5,10,0:0:0:0:
199,322,106044,1,2,0:0:0:0:
199,322,106129,2,0,P|190:282|190:242,1,69.9999978637696,2|0,1:0|0:0,0:0:0:0:
266,93,106301,2,0,B|315:88|341:126|341:126|313:134|305:170,1,139.999995727539,2|8,1:0|0:0,0:0:0:0:
321,251,106558,1,8,0:0:0:0:
324,264,106644,6,0,P|419:272|515:234,1,200,4|8,1:2|0:0,0:0:0:0:
442,164,107158,1,0,0:0:0:0:
356,354,107329,2,0,P|307:358|251:327,1,100,0|0,0:0|1:0,0:0:0:0:
286,180,107672,1,0,0:0:0:0:
324,264,107844,1,0,0:0:0:0:
174,363,108015,6,0,B|170:312|170:312|200:269,1,100,0|0,1:0|0:0,0:0:0:0:
286,180,108358,2,0,B|313:139|313:139|309:88,1,100,8|0,0:0|0:0,0:0:0:0:
310,68,108615,1,0,0:0:0:0:
310,68,108701,2,0,P|283:75|259:75,1,50,0|0,0:0|0:0,0:0:0:0:
130,61,108872,1,0,1:0:0:0:
286,180,109044,2,0,P|312:174|341:176,2,50,8|0|0,0:0|0:0|0:0,0:0:0:0:
153,239,109386,5,0,1:0:0:0:
123,246,109472,1,0,0:0:0:0:
93,242,109558,1,0,0:0:0:0:
262,263,109729,2,0,P|310:276|365:273,1,100,8|0,0:0|0:0,0:0:0:0:
458,238,110072,5,0,0:0:0:0:
375,297,110244,1,0,1:0:0:0:
294,188,110415,1,8,0:0:0:0:
183,240,110587,1,0,0:0:0:0:
100,137,110758,5,0,1:0:0:0:
262,263,110929,1,0,0:0:0:0:
96,221,111101,1,8,0:0:0:0:
161,325,111272,1,0,0:0:0:0:
161,325,111358,1,0,0:0:0:0:
161,325,111444,2,0,P|137:329|109:324,1,50,0|0,0:0|0:0,0:0:0:0:
15,279,111615,1,0,1:0:0:0:
230,378,111786,2,0,P|246:334|232:278,1,100,8|0,0:0|0:0,0:0:0:0:
129,150,112129,6,0,P|78:232|111:324,1,200,0|8,1:0|0:0,0:0:0:0:
201,278,112644,1,0,0:0:0:0:
347,328,112815,1,0,0:0:0:0:
347,328,112986,1,0,1:0:0:0:
281,159,113158,2,0,P|283:207|291:266,1,100,8|0,0:0|0:0,0:0:0:0:
253,368,113501,5,0,1:0:0:0:
373,205,113672,1,0,0:0:0:0:
446,340,113844,2,0,P|399:332|345:327,1,100,8|0,0:0|0:0,0:0:0:0:
328,335,114101,1,0,0:0:0:0:
328,335,114186,2,0,P|301:343|271:342,1,50,0|0,0:0|0:0,0:0:0:0:
154,306,114358,1,0,1:0:0:0:
373,205,114529,2,0,P|326:212|272:218,1,100,8|0,0:0|0:0,0:0:0:0:
67,179,114872,6,0,B|29:155|29:155|104:116|178:161,1,200,0|8,1:0|0:0,0:0:0:0:
256,224,115386,1,0,0:0:0:0:
178,356,115558,2,0,P|165:307|162:257,1,100,0|0,0:0|1:0,0:0:0:0:
271,125,115901,2,0,P|268:175|256:224,1,100,8|0,0:0|0:0,0:0:0:0:
76,333,116244,5,0,1:0:0:0:
301,311,116415,2,0,B|241:305|241:305|223:320|223:320|156:314,1,139.999995727539,0|8,0:0|0:0,0:0:0:0:
110,269,116672,2,0,B|-1:281|-1:281|29:259,1,139.999995727539,0|0,1:0|0:0,0:0:0:0:
191,233,116929,5,0,1:0:0:0:
383,259,117101,5,8,1:2:0:0:
191,233,117272,5,8,1:0:0:0:
301,311,117444,5,8,1:2:0:0:
76,333,117615,5,0,1:0:0:0:
256,192,117701,12,0,120358,0:0:0:0:
256,192,125844,12,0,128501,0:0:0:0:
335,246,128586,6,0,L|304:240,1,32.4999985122681,0|0,1:0|0:0,0:0:0:0:
175,142,129272,2,0,L|208:144,1,32.4999985122681,0|0,1:0|0:0,0:0:0:0:
332,266,129958,6,0,L|299:252,1,32.4999985122681,0|0,1:0|0:0,0:0:0:0:
178,123,130644,2,0,L|213:130,1,32.4999985122681,0|0,1:0|0:0,0:0:0:0:
325,286,131329,6,0,L|291:266,1,32.4999985122681,0|0,1:0|0:0,0:0:0:0:
186,102,132015,2,0,L|222:117,1,32.4999985122681,0|0,1:0|0:0,0:0:0:0:
313,307,132701,6,0,L|281:279,1,32.4999985122681,0|0,1:0|0:0,0:0:0:0:
197,81,133387,2,0,L|234:104,1,32.4999985122681,0|0,1:0|0:0,0:0:0:0:
296,328,134072,6,0,L|267:290,1,32.4999985122681,0|0,1:0|0:0,0:0:0:0:
214,61,134758,2,0,L|250:92,1,32.4999985122681,0|0,1:0|0:0,0:0:0:0:
274,347,135444,6,0,L|249:301,1,32.4999985122681,0|0,1:0|0:0,0:0:0:0:
236,42,136130,2,0,L|269:83,1,32.4999985122681,0|0,1:0|0:0,0:0:0:0:
296,328,136815,6,0,L|267:290,1,32.4999985122681,0|0,1:0|0:0,0:0:0:0:
214,61,137158,2,0,L|250:92,1,32.4999985122681,0|0,1:0|0:0,0:0:0:0:
313,307,137501,6,0,L|281:279,1,32.4999985122681,0|0,1:0|0:0,0:0:0:0:
197,81,137844,2,0,L|234:104,1,32.4999985122681,0|0,1:0|0:0,0:0:0:0:
332,266,138186,6,0,B|284:247|284:247|241:277,1,100,2|2,1:2|0:0,0:0:0:0:
153,332,138444,1,2,0:0:0:0:
144,340,138529,2,0,B|105:360|105:360|64:346|89:295,1,119.999996337891,2|0,1:2|0:0,0:0:0:0:
288,349,138872,6,0,P|354:368|422:354,1,139.999995727539,2|8,1:2|0:1,0:0:0:0:
425,264,139129,2,0,P|358:244|290:259,1,139.999995727539,0|0,1:0|0:0,0:0:0:0:
223,300,139386,1,0,1:0:0:0:
73,302,139558,6,0,P|148:325|223:300,1,160,0|10,1:0|0:0,0:0:0:0:
278,245,139986,1,0,0:0:0:0:
278,245,140072,1,0,0:0:0:0:
239,94,140244,2,0,P|232:136|243:180,1,80,0|0,0:0|1:0,0:0:0:0:
325,312,140586,1,0,0:0:0:0:
436,240,140758,6,0,P|394:233|350:244,1,80,2|0,0:0|1:0,0:0:0:0:
246,318,141101,1,0,0:0:0:0:
353,216,141272,2,0,P|362:146|339:55,1,160,10|0,0:0|0:0,0:0:0:0:
257,31,141786,1,0,1:0:0:0:
272,148,141958,1,8,0:0:0:0:
168,35,142129,1,0,0:0:0:0:
272,148,142301,6,0,P|192:139|123:177,1,160,0|10,1:0|0:0,0:0:0:0:
78,237,142729,1,0,0:0:0:0:
78,237,142815,1,0,0:0:0:0:
101,81,142986,2,0,P|113:120|110:161,1,80,0|0,0:0|1:0,0:0:0:0:
20,299,143329,1,8,0:0:0:0:
159,223,143501,6,0,P|197:215|238:218,1,80,2|0,0:0|1:0,0:0:0:0:
336,253,143844,1,0,0:0:0:0:
133,295,144015,2,0,P|118:222|148:140,1,160,10|0,0:0|0:0,0:0:0:0:
228,111,144529,1,0,0:0:0:0:
218,291,144701,1,8,0:0:0:0:
218,291,144872,1,0,0:0:0:0:
388,219,145044,6,0,B|325:208|325:208|298:227|298:227|237:217,1,160,0|10,1:0|0:0,0:0:0:0:
164,205,145472,1,0,0:0:0:0:
164,205,145558,1,0,0:0:0:0:
344,300,145729,2,0,L|338:221,1,80,0|0,0:0|1:0,0:0:0:0:
436,63,146072,1,8,0:0:0:0:
495,143,146244,5,2,0:0:0:0:
495,143,146415,2,0,P|434:161|343:103,1,160,0|10,1:0|0:0,0:0:0:0:
304,62,146844,1,0,0:0:0:0:
304,62,146929,1,0,0:0:0:0:
275,214,147101,2,0,P|276:237|282:257,2,40,0|0|0,0:0|0:0|1:0,0:0:0:0:
304,62,147444,1,8,0:0:0:0:
190,168,147615,1,0,0:0:0:0:
364,227,147786,5,0,1:0:0:0:
258,132,147958,1,0,0:0:0:0:
234,129,148044,1,0,0:0:0:0:
210,135,148129,1,8,0:0:0:0:
94,250,148301,2,0,P|133:257|174:248,1,80,2|0,0:0|0:0,0:0:0:0:
286,156,148644,1,0,1:0:0:0:
200,337,148815,1,8,0:0:0:0:
129,166,148986,6,0,P|127:126|142:81,1,80,2|0,0:0|1:0,0:0:0:0:
230,21,149329,1,0,0:0:0:0:
210,135,149501,2,0,P|125:149|43:123,1,160,10|0,0:0|0:0,0:0:0:0:
279,87,150015,1,2,0:0:0:0:
290,116,150100,1,2,0:0:0:0:
292,148,150186,1,2,0:0:0:0:
281,178,150272,1,2,0:0:0:0:
264,205,150357,1,2,0:0:0:0:
248,232,150443,1,2,0:0:0:0:
245,264,150529,6,0,B|309:226|369:255|369:255|332:296,1,160,0|10,1:0|0:0,0:0:0:0:
303,339,150958,1,0,0:0:0:0:
291,350,151044,1,0,0:0:0:0:
444,293,151215,2,0,P|453:251|442:206,1,80,0|0,0:0|1:0,0:0:0:0:
350,116,151558,1,8,0:0:0:0:
368,255,151729,6,0,P|326:246|281:257,1,80,2|0,0:0|1:0,0:0:0:0:
177,316,152072,1,0,0:0:0:0:
269,175,152244,2,0,P|267:253|256:349,1,160,10|0,0:0|0:0,0:0:0:0:
177,316,152758,1,0,1:0:0:0:
352,259,152929,1,8,0:0:0:0:
240,166,153101,1,0,0:0:0:0:
273,349,153272,6,0,B|336:341|336:341|362:354|362:354|433:345,1,160,0|10,1:0|0:0,0:0:0:0:
506,333,153701,1,0,0:0:0:0:
506,333,153786,1,0,0:0:0:0:
368,246,153958,2,0,B|355:283|355:283|365:323,1,80,0|0,0:0|1:0,0:0:0:0:
506,333,154301,1,0,0:0:0:0:
368,246,154472,6,0,P|326:246|283:256,1,80,2|0,0:0|1:0,0:0:0:0:
104,353,154815,1,0,0:0:0:0:
178,285,154986,2,0,P|190:210|179:123,1,160,10|0,0:0|0:0,0:0:0:0:
131,54,155501,1,0,1:0:0:0:
97,182,155672,1,8,0:0:0:0:
263,87,155844,1,0,0:0:0:0:
63,107,156015,6,0,P|56:178|74:271,1,160,0|2,1:0|0:0,0:0:0:0:
114,331,156444,1,0,0:0:0:0:
114,331,156529,1,0,0:0:0:0:
190,197,156701,1,0,0:0:0:0:
236,281,156872,1,0,1:0:0:0:
299,148,157044,1,8,0:0:0:0:
372,281,157215,1,2,0:0:0:0:
190,197,157386,6,0,P|112:195|20:215,1,160,0|10,1:0|0:0,0:0:0:0:
0,279,157815,1,0,0:0:0:0:
0,279,157901,1,0,0:0:0:0:
95,117,158072,2,0,P|101:71|95:27,1,80,0|0,0:0|1:0,0:0:0:0:
190,197,158415,2,0,P|186:236|192:276,1,80,8|2,0:0|0:0,0:0:0:0:
277,115,158758,6,0,B|320:72|296:4|296:4|283:24|254:36,1,160,0|10,1:0|0:0,0:0:0:0:
196,58,159186,1,0,0:0:0:0:
184,62,159272,1,0,0:0:0:0:
359,148,159444,1,0,0:0:0:0:
197,239,159615,1,0,1:0:0:0:
219,160,159786,1,8,0:0:0:0:
255,297,159958,1,2,0:0:0:0:
117,259,160129,6,0,P|102:205|139:106,1,160,0|8,1:0|0:0,0:0:0:0:
219,160,160644,2,0,L|288:188,1,69.9999978637696,2|0,0:0|0:0,0:0:0:0:
117,259,160986,2,0,L|63:285,1,59.9999981689454,2|8,1:2|0:0,0:0:0:0:
345,256,161415,5,0,1:0:0:0:
371,260,161501,1,0,1:0:0:0:
211,318,161672,2,0,L|162:338,2,40,8|8|8,0:0|0:0|0:0,0:0:0:0:
371,260,162015,1,0,1:0:0:0:
219,160,162186,2,0,L|174:136,2,40,8|8|0,0:0|0:0|1:0,0:0:0:0:
371,260,162529,6,0,L|295:252,1,59.9999981689454,8|0,1:2|1:0,0:0:0:0:
197,240,162701,2,0,L|137:246,1,59.9999981689454,4|4,1:3|1:3,0:0:0:0:
5,268,162872,6,0,B|80:218|125:292|197:240,1,200,4|8,1:2|0:0,0:0:0:0:
333,149,163386,2,0,P|280:148|229:129,1,100,0|0,0:0|0:0,0:0:0:0:
203,100,163644,1,0,0:0:0:0:
173,95,163729,1,0,1:0:0:0:
142,96,163815,1,0,0:0:0:0:
113,105,163901,1,8,0:0:0:0:
304,49,164072,1,0,0:0:0:0:
158,186,164244,6,0,P|150:209|151:238,2,50,0|0|0,1:0|0:0|0:0,0:0:0:0:
234,11,164586,2,0,P|225:60|251:114,1,100,8|0,0:0|0:0,0:0:0:0:
334,187,164929,5,0,0:0:0:0:
113,105,165101,1,0,1:0:0:0:
50,181,165272,1,8,0:0:0:0:
85,199,165357,1,0,0:0:0:0:
124,202,165443,1,0,0:0:0:0:
162,189,165529,1,0,0:0:0:0:
192,163,165615,6,0,B|229:200|234:252|234:252|210:308,1,150,0|0,1:0|0:0,0:0:0:0:
206,316,165958,1,8,0:0:0:0:
334,187,166129,2,0,P|338:163|335:131,2,50,0|0|0,0:0|0:0|0:0,0:0:0:0:
146,244,166472,2,0,P|91:248|44:233,1,100,0|8,1:0|0:0,0:0:0:0:
48,235,166729,1,0,0:0:0:0:
48,235,166815,1,0,0:0:0:0:
213,146,166986,6,0,P|244:200|250:294,1,150,0|0,1:0|0:0,0:0:0:0:
211,351,167329,2,0,P|186:360|161:357,2,50,8|0|0,0:0|0:0|0:0,0:0:0:0:
355,248,167672,1,0,0:0:0:0:
363,219,167758,1,0,0:0:0:0:
361,188,167844,1,0,1:0:0:0:
322,347,168015,1,8,0:0:0:0:
244,200,168186,1,0,0:0:0:0:
449,322,168358,6,0,P|380:331|293:313,1,150,4|0,1:2|0:0,0:0:0:0:
282,309,168701,1,8,0:0:0:0:
145,213,168872,2,0,P|194:201|244:200,1,100,0|0,0:0|0:0,0:0:0:0:
244,200,169129,1,0,0:0:0:0:
244,200,169215,1,0,1:0:0:0:
73,285,169386,5,8,0:0:0:0:
50,252,169471,1,0,0:0:0:0:
42,213,169557,1,0,0:0:0:0:
50,174,169643,1,0,0:0:0:0:
93,146,169729,6,0,P|97:241|86:353,1,200,0|8,1:0|0:0,0:0:0:0:
282,309,170244,1,0,0:0:0:0:
282,309,170329,1,0,0:0:0:0:
282,309,170415,2,0,P|246:313|218:320,1,50,0|0,0:0|0:0,0:0:0:0:
87,345,170586,1,0,1:0:0:0:
348,267,170758,2,0,P|360:294|361:323,2,50,8|0|0,0:0|0:0|0:0,0:0:0:0:
194,58,171101,6,0,B|189:105|189:105|180:117|180:117|176:160,1,100,4|0,1:2|0:0,0:0:0:0:
276,358,171444,2,0,B|272:320|272:320|263:309|263:309|259:261,1,100,8|0,0:0|0:0,0:0:0:0:
95,64,171786,5,0,0:0:0:0:
298,190,171958,1,0,1:0:0:0:
146,324,172129,1,12,0:0:0:0:
136,290,172214,1,0,0:0:0:0:
135,255,172300,1,0,0:0:0:0:
143,221,172386,1,0,0:0:0:0:
158,190,172472,5,0,1:0:0:0:
371,230,172644,2,0,B|394:264|427:269|427:269|402:302|365:314,1,139.999995727539,0|8,1:0|0:0,0:0:0:0:
289,357,172901,2,0,L|279:210,1,139.999995727539,0|0,1:0|0:0,0:0:0:0:
332,157,173158,5,0,1:0:0:0:
146,324,173329,2,0,P|155:291|157:252,1,69.9999978637696,0|0,1:0|1:0,0:0:0:0:
112,93,173501,1,8,0:0:0:0:
274,267,173672,1,8,0:0:0:0:
274,267,173758,1,8,0:0:0:0:
274,267,173844,6,0,B|190:259|190:259|164:281|164:281|80:274,1,200,4|8,1:2|0:0,0:0:0:0:
331,327,174358,2,0,B|361:287|361:287|349:235,1,100,0|0,0:0|0:0,0:0:0:0:
337,211,174615,1,0,0:0:0:0:
330,181,174701,1,0,1:0:0:0:
333,151,174786,1,0,0:0:0:0:
346,124,174872,1,0,0:0:0:0:
426,175,175044,1,0,0:0:0:0:
228,184,175215,6,0,P|202:180|178:160,2,50,0|0|0,1:0|0:0|0:0,0:0:0:0:
492,220,175558,2,0,P|506:172|486:120,1,100,8|0,0:0|0:0,0:0:0:0:
373,28,175901,5,0,0:0:0:0:
426,175,176072,1,0,1:0:0:0:
259,83,176244,1,8,0:0:0:0:
220,70,176329,1,0,0:0:0:0:
181,68,176415,1,0,0:0:0:0:
141,75,176501,1,0,0:0:0:0:
105,91,176586,6,0,P|98:164|125:244,1,150,4|0,1:2|0:0,0:0:0:0:
131,253,176929,1,8,0:0:0:0:
4,121,177101,1,0,0:0:0:0:
4,121,177186,1,0,0:0:0:0:
4,121,177272,2,0,P|16:170|19:231,1,100,0|0,0:0|1:0,0:0:0:0:
115,351,177615,2,0,P|119:301|131:253,1,100,8|0,0:0|0:0,0:0:0:0:
239,101,177958,6,0,B|246:164|246:164|265:186|265:186|273:249,1,150,0|0,1:0|0:0,0:0:0:0:
275,263,178301,1,8,0:0:0:0:
82,199,178472,1,0,0:0:0:0:
82,199,178558,1,0,0:0:0:0:
82,199,178644,1,0,0:0:0:0:
195,314,178815,1,0,1:0:0:0:
45,123,178986,2,0,P|62:184|60:283,1,150,8|0,0:0|0:0,0:0:0:0:
26,349,179329,6,0,P|78:362|136:337,1,100,4|0,1:2|0:0,0:0:0:0:
121,348,179586,1,0,0:0:0:0:
121,348,179672,1,8,0:0:0:0:
275,263,179844,1,0,0:0:0:0:
191,126,180015,2,0,P|182:178|194:231,1,100,0|0,0:0|1:0,0:0:0:0:
348,340,180358,5,8,0:0:0:0:
364,309,180443,1,0,0:0:0:0:
373,275,180529,1,0,0:0:0:0:
372,240,180615,1,0,0:0:0:0:
363,207,180701,6,0,B|328:193|299:199|299:199|266:237|213:244|213:244|168:232,1,200,0|8,1:0|0:0,0:0:0:0:
225,100,181215,1,0,0:0:0:0:
225,100,181301,1,0,0:0:0:0:
225,100,181386,2,0,P|224:130|221:157,1,50,0|0,0:0|0:0,0:0:0:0:
169,319,181558,1,0,1:0:0:0:
86,111,181729,2,0,P|84:88|86:60,2,50,8|0|0,0:0|0:0|0:0,0:0:0:0:
92,359,182072,6,0,B|81:311|81:311|102:264,1,100,4|0,1:2|0:0,0:0:0:0:
225,100,182415,2,0,P|225:152|212:203,1,100,8|0,0:0|0:0,0:0:0:0:
333,373,182758,2,0,P|321:323|320:265,1,100,0|0,0:0|1:0,0:0:0:0:
372,85,183101,1,8,0:0:0:0:
437,272,183272,1,0,0:0:0:0:
192,196,183444,1,0,1:0:0:0:
365,226,183615,6,0,P|328:223|293:235,1,75,0|0,0:0|0:0,0:0:0:0:
233,286,183958,1,0,1:0:0:0:
233,286,184044,2,0,L|225:329,1,34.9999989318848,0|0,1:0|1:0,0:0:0:0:
286,145,184301,5,0,1:0:0:0:
287,127,184386,1,0,0:0:0:0:
284,109,184472,1,8,0:0:0:0:
340,308,184644,1,4,1:3:0:0:
478,164,184815,6,0,B|387:196|378:115|286:145,2,200,0|2|2,1:0|0:0|0:0,0:0:0:0:
324,227,186872,1,2,0:0:0:0:
91,277,187558,6,0,P|140:276|186:256,1,100,2|2,1:2|0:0,0:0:0:0:
252,74,188929,2,0,B|268:142|268:142|256:183,1,100,2|0,0:0|0:0,0:0:0:0:
46,173,190300,5,0,1:0:0:0:
46,173,190986,2,0,P|88:167|156:175,2,100,2|2|2,0:0|0:0|0:0,0:0:0:0:
265,305,193043,2,0,B|335:339|402:290|402:290|371:297|331:288,1,200,2|0,0:0|0:0,0:0:0:0:
180,311,195100,2,0,L|141:318,1,25,0|0,0:0|0:0,0:0:0:0:
266,52,195786,6,0,P|279:96|271:158,2,100,2|2|2,1:2|0:0|0:0,0:0:0:0:
243,232,197843,1,2,0:0:0:0:
97,121,198529,2,0,P|46:109|-14:118,1,100,2|2,0:0|0:0,0:0:0:0:
186,188,199900,2,0,P|235:192|283:180,1,100,2|0,0:0|0:0,0:0:0:0:
392,101,201272,5,0,1:0:0:0:
127,241,201958,2,0,P|108:198|117:148,2,100,2|2|2,0:0|0:0|0:0,0:0:0:0:
202,44,204015,5,2,0:0:0:0:
256,192,204100,12,0,206672,0:0:0:0:
465,315,206758,6,0,P|414:319|362:304,1,100,2|0,1:2|0:0,0:0:0:0:
289,270,207272,2,0,P|240:257|191:261,1,100,2|0,0:0|0:0,0:0:0:0:
114,299,207786,1,2,0:0:0:0:
114,299,207958,1,0,0:0:0:0:
367,306,208129,5,2,0:0:0:0:
351,222,208300,1,2,0:0:0:0:
383,142,208472,5,2,0:0:0:0:
282,279,208643,1,2,0:0:0:0:
435,250,208815,2,0,P|464:251|489:257,1,50,0|0,0:0|0:0,0:0:0:0:
282,279,209158,2,0,P|253:278|228:272,1,50,0|0,0:0|0:0,0:0:0:0:
75,170,209500,6,0,L|179:157,1,100,2|0,0:0|0:0,0:0:0:0:
253,124,210015,2,0,L|352:136,1,100,2|0,0:0|0:0,0:0:0:0:
432,108,210529,1,2,0:0:0:0:
432,108,210700,1,0,0:0:0:0:
331,216,210872,5,2,0:0:0:0:
248,196,211043,1,2,0:0:0:0:
175,240,211215,5,2,0:0:0:0:
306,131,211386,1,2,0:0:0:0:
274,277,211558,2,0,P|275:306|282:336,1,50,0|0,0:0|0:0,0:0:0:0:
306,131,211900,2,0,P|310:106|311:81,1,50,0|0,0:0|0:0,0:0:0:0:
175,240,212243,6,0,P|168:286|176:356,1,100,2|0,1:2|0:0,0:0:0:0:
204,157,212758,2,0,P|208:107|200:57,1,100,2|0,0:0|0:0,0:0:0:0:
132,6,213272,1,2,0:0:0:0:
132,6,213443,1,0,0:0:0:0:
310,81,213615,5,2,0:0:0:0:
277,159,213786,1,2,0:0:0:0:
303,240,213958,5,2,0:0:0:0:
229,92,214129,1,2,0:0:0:0:
359,148,214300,2,0,P|384:149|411:143,1,50,0|0,0:0|0:0,0:0:0:0:
229,92,214643,2,0,P|204:90|179:96,1,50,0|0,0:0|0:0,0:0:0:0:
33,242,214986,6,0,P|83:251|133:237,1,100,2|0,0:0|0:0,0:0:0:0:
207,202,215500,2,0,P|255:189|303:198,1,100,2|0,0:0|0:0,0:0:0:0:
375,245,216015,1,2,0:0:0:0:
375,245,216186,1,0,0:0:0:0:
133,154,216358,5,2,0:0:0:0:
129,238,216529,1,2,0:0:0:0:
198,286,216700,5,2,0:0:0:0:
60,192,216872,1,2,0:0:0:0:
205,201,217043,2,0,P|236:201|260:193,1,50,0|0,0:0|0:0,0:0:0:0:
60,192,217386,2,0,P|35:191|10:197,1,50,0|0,0:0|0:0,0:0:0:0:
315,248,217729,6,0,P|333:204|320:150,1,100,2|0,1:2|0:0,0:0:0:0:
255,100,218243,2,0,P|237:56|250:2,1,100,2|0,0:0|0:0,0:0:0:0:
323,51,218758,1,2,0:0:0:0:
323,51,218929,1,0,0:0:0:0:
253,197,219100,5,2,0:0:0:0:
177,158,219272,1,2,0:0:0:0:
96,183,219443,1,2,0:0:0:0:
248,114,219615,5,2,0:0:0:0:
184,242,219786,2,0,P|181:266|184:291,1,50,0|0,0:0|0:0,0:0:0:0:
248,114,220128,2,0,P|251:88|247:57,1,50,0|0,0:0|0:0,0:0:0:0:
325,241,220472,6,0,P|372:261|426:256,1,100,2|0,0:0|0:0,0:0:0:0:
249,195,220986,2,0,P|199:192|154:211,1,100,2|0,0:0|0:0,0:0:0:0:
96,275,221500,1,2,0:0:0:0:
96,275,221672,1,0,0:0:0:0:
329,157,221843,5,2,0:0:0:0:
340,72,222015,1,2,0:0:0:0:
288,5,222186,5,2,0:0:0:0:
407,125,222358,1,2,0:0:0:0:
259,106,222529,2,0,P|234:108|206:117,1,50,0|0,0:0|0:0,0:0:0:0:
407,125,222872,2,0,P|432:123|460:114,1,50,0|0,0:0|0:0,0:0:0:0:
305,227,223215,6,0,P|288:277|293:332,1,100,2|0,1:2|0:0,0:0:0:0:
221,372,223729,2,0,P|172:387|114:371,1,100,2|0,0:0|0:0,0:0:0:0:
55,327,224243,1,2,0:0:0:0:
55,327,224415,1,0,0:0:0:0:
290,323,224586,5,2,0:0:0:0:
314,241,224758,1,2,0:0:0:0:
274,166,224929,5,2,0:0:0:0:
373,303,225100,1,2,0:0:0:0:
233,261,225272,2,0,P|206:262|182:269,1,50,0|0,0:0|0:0,0:0:0:0:
373,303,225615,2,0,P|400:302|424:295,1,50,0|0,0:0|0:0,0:0:0:0:
118,216,225958,6,0,P|101:265|117:320,1,100,2|0,0:0|0:0,0:0:0:0:
177,364,226472,2,0,P|225:374|271:357,1,100,2|0,0:0|0:0,0:0:0:0:
320,287,226986,1,2,0:0:0:0:
320,287,227158,1,0,0:0:0:0:
177,364,227329,1,2,0:0:0:0:
256,192,227415,12,0,228615,0:0:0:0:
423,184,228700,6,0,L|279:173,1,129.999994049073,0|8,1:0|0:0,0:0:0:0:
426,209,229558,5,0,1:0:0:0:
237,231,229729,1,8,0:0:0:0:
237,231,230072,6,0,P|253:168|243:103,1,129.999994049073,0|8,1:0|0:0,0:0:0:0:
260,241,230929,1,0,1:0:0:0:
338,98,231100,1,8,0:0:0:0:
338,98,231443,6,0,L|351:238,1,129.999994049073,0|8,1:0|0:0,0:0:0:0:
370,94,232300,1,0,1:0:0:0:
288,278,232472,1,8,0:0:0:0:
288,278,232815,6,0,B|224:267|224:267|162:292,1,129.999994049073,0|8,1:0|0:0,0:0:0:0:
297,252,233672,1,0,1:0:0:0:
81,343,233843,1,8,0:0:0:0:
81,343,234186,6,0,P|65:281|89:211,1,129.999994049073,0|8,1:0|0:0,0:0:0:0:
58,354,235043,1,0,1:0:0:0:
150,153,235215,1,8,0:0:0:0:
150,153,235558,6,0,L|285:165,1,129.999994049073,0|8,1:0|0:0,0:0:0:0:
135,173,236415,1,0,1:0:0:0:
382,112,236586,1,8,0:0:0:0:
382,112,236929,6,0,P|393:176|374:248,1,129.999994049073,0|8,1:0|0:0,0:0:0:0:
356,110,237786,1,0,1:0:0:0:
430,343,237958,1,8,0:0:0:0:
430,343,238300,6,0,L|295:334,2,129.999994049073,0|8|0,1:0|0:0|1:0,0:0:0:0:
364,257,239158,1,0,0:0:0:0:
218,330,239329,1,0,0:0:0:0:
218,330,239500,1,0,0:0:0:0:
267,238,239672,6,0,P|277:177|262:106,1,129.999994049073,0|8,1:0|0:0,0:0:0:0:
283,91,240529,1,0,1:0:0:0:
218,330,240701,1,8,0:0:0:0:
218,330,241043,6,0,P|196:283|199:200,1,129.999994049073,0|8,1:0|0:0,0:0:0:0:
200,350,241900,1,0,1:0:0:0:
283,91,242072,1,8,0:0:0:0:
343,157,242415,6,0,P|283:180|220:151,1,129.999994049073,0|8,1:0|0:0,0:0:0:0:
360,176,243272,1,0,1:0:0:0:
76,75,243443,1,8,0:0:0:0:
145,132,243786,6,0,L|157:278,1,129.999994049073,0|8,1:0|0:0,0:0:0:0:
140,278,244643,1,0,1:0:0:0:
258,24,244815,1,8,0:0:0:0:
258,24,244986,1,0,0:0:0:0:
308,161,245158,6,0,L|447:150,1,129.999994049073,0|8,1:0|0:0,0:0:0:0:
455,165,246015,1,0,1:0:0:0:
128,98,246186,1,8,0:0:0:0:
308,161,246529,6,0,L|178:171,1,129.999994049073,0|8,1:0|0:0,0:0:0:0:
161,190,247386,1,0,1:0:0:0:
478,73,247558,1,8,0:0:0:0:
383,192,247900,6,0,P|402:130|390:67,1,129.999994049073,0|8,0:0|0:0,0:0:0:0:
401,45,248758,1,0,1:0:0:0:
446,333,248929,1,8,0:0:0:0:
446,333,249272,6,0,B|336:387|300:248|192:294,2,259.999988098145,0|0|0,1:0|1:0|0:0,0:0:0:0:
234,369,250815,2,0,P|205:378|176:376,2,50,8|8|8,0:0|0:0|0:0,0:0:0:0:
406,262,251158,2,0,P|429:253|454:253,2,50,8|8|8,0:0|0:0|0:0,0:0:0:0:
229,255,251500,5,8,0:0:0:0:
193,241,251585,1,8,0:0:0:0:
157,241,251671,1,8,0:0:0:0:
120,253,251757,1,8,0:0:0:0:
86,270,251842,1,8,0:0:0:0:
51,282,251928,1,8,0:0:0:0:
13,280,252015,6,0,P|120:284|214:305,1,200,4|8,1:2|0:0,0:0:0:0:
378,186,252529,2,0,P|331:197|270:192,1,100,0|0,0:0|0:0,0:0:0:0:
246,181,252786,1,0,0:0:0:0:
212,171,252872,1,0,1:0:0:0:
322,105,253043,1,8,0:0:0:0:
313,292,253215,1,0,0:0:0:0:
129,193,253386,6,0,P|126:167|134:134,2,50,0|0|0,1:0|0:0|0:0,0:0:0:0:
226,327,253729,2,0,P|229:269|242:225,1,100,8|0,0:0|0:0,0:0:0:0:
343,100,254072,1,0,0:0:0:0:
313,292,254243,1,0,1:0:0:0:
418,257,254415,5,8,0:0:0:0:
398,222,254500,1,0,0:0:0:0:
367,196,254586,1,0,0:0:0:0:
330,183,254672,1,0,0:0:0:0:
290,183,254758,6,0,L|124:220,1,150,0|0,1:0|0:0,0:0:0:0:
119,215,255100,1,8,0:0:0:0:
313,292,255272,2,0,L|368:313,2,50,0|0|0,0:0|0:0|0:0,0:0:0:0:
53,168,255615,2,0,P|37:223|65:277,1,100,0|8,1:0|0:0,0:0:0:0:
50,261,255872,1,0,0:0:0:0:
50,261,255958,1,0,0:0:0:0:
290,183,256129,5,0,1:0:0:0:
133,317,256300,1,0,0:0:0:0:
229,57,256472,1,8,0:0:0:0:
229,57,256558,1,0,0:0:0:0:
229,57,256643,1,0,0:0:0:0:
229,248,256815,2,0,P|204:203|213:139,1,100,0|0,0:0|1:0,0:0:0:0:
343,4,257158,5,8,0:0:0:0:
365,36,257243,1,0,0:0:0:0:
377,74,257329,1,0,0:0:0:0:
379,114,257415,1,0,0:0:0:0:
369,153,257500,6,0,B|320:135|320:135|213:148,1,150,4|0,1:2|0:0,0:0:0:0:
198,151,257843,1,8,0:0:0:0:
452,216,258015,1,0,0:0:0:0:
422,235,258100,1,0,0:0:0:0:
389,246,258186,1,0,0:0:0:0:
355,248,258272,1,0,0:0:0:0:
320,241,258357,5,0,1:0:0:0:
198,151,258529,1,8,0:0:0:0:
196,287,258700,1,0,0:0:0:0:
369,153,258872,5,0,1:0:0:0:
293,335,259043,1,0,0:0:0:0:
104,205,259215,1,8,0:0:0:0:
319,241,259386,1,0,0:0:0:0:
114,214,259558,1,0,0:0:0:0:
114,214,259643,1,0,0:0:0:0:
114,214,259729,1,0,1:0:0:0:
341,339,259900,2,0,B|277:333|277:333|262:316|262:316|190:309,1,150,8|0,0:0|0:0,0:0:0:0:
118,335,260243,6,0,P|108:289|105:221,1,100,4|0,1:2|0:0,0:0:0:0:
211,52,260586,2,0,P|208:102|197:151,1,100,8|0,0:0|0:0,0:0:0:0:
19,304,260929,1,0,0:0:0:0:
100,127,261100,1,0,1:0:0:0:
221,349,261272,1,12,0:0:0:0:
104,236,261443,1,0,0:0:0:0:
343,182,261615,5,0,1:0:0:0:
170,287,261786,2,0,B|208:270|208:270|260:272|303:301,1,139.999995727539,0|8,1:0|0:0,0:0:0:0:
387,333,262043,2,0,L|373:191,1,139.999995727539,0|0,1:0|0:0,0:0:0:0:
404,116,262300,6,0,L|419:68,1,50,0|0,1:0|0:0,0:0:0:0:
473,238,262472,2,0,L|498:285,1,50,0|0,1:0|1:0,0:0:0:0:
265,177,262643,2,0,L|210:182,3,50,8|0|8|8,0:0|0:0|0:0|0:0,0:0:0:0:
146,222,262986,6,0,B|222:183|261:260|345:212,1,200,4|8,1:2|0:0,0:0:0:0:
503,125,263500,2,0,P|453:116|404:116,1,100,0|0,0:0|0:0,0:0:0:0:
364,129,263758,1,0,0:0:0:0:
329,135,263843,1,0,1:0:0:0:
293,134,263929,1,0,0:0:0:0:
258,128,264015,2,0,P|259:149|266:181,1,50
219,337,264186,2,0,P|217:309|211:287,1,50
147,113,264358,6,0,B|174:150|176:192|176:192|141:181|105:193,1,150,0|0,1:0|0:0,0:0:0:0:
91,204,264700,1,8,0:0:0:0:
325,255,264872,1,0,0:0:0:0:
142,270,265043,1,0,0:0:0:0:
374,185,265215,1,0,1:0:0:0:
259,317,265386,2,0,B|236:274|236:274|248:212,1,100,8|0,0:0|0:0,0:0:0:0:
357,75,265729,5,4,1:2:0:0:
325,255,265900,1,0,0:0:0:0:
230,129,266072,1,8,0:0:0:0:
433,251,266243,1,0,0:0:0:0:
259,317,266415,2,0,P|210:321|155:309,1,100,0|0,0:0|1:0,0:0:0:0:
81,163,266758,5,8,0:0:0:0:
113,140,266843,1,0,0:0:0:0:
151,126,266929,1,0,0:0:0:0:
191,123,267015,1,0,0:0:0:0:
230,129,267100,6,0,P|162:130|56:90,1,150,0|0,1:0|0:0,0:0:0:0:
60,97,267443,1,8,0:0:0:0:
185,226,267615,2,0,P|192:254|192:285,2,50,0|0|0,0:0|0:0|0:0,0:0:0:0:
60,97,267958,1,0,1:0:0:0:
279,206,268129,5,8,0:0:0:0:
318,198,268214,1,0,0:0:0:0:
358,196,268300,1,0,0:0:0:0:
397,200,268386,1,0,0:0:0:0:
436,210,268472,6,0,P|413:140|405:38,1,150,4|0,1:2|0:0,0:0:0:0:
404,39,268815,1,8,0:0:0:0:
348,285,268986,1,0,0:0:0:0:
503,121,269158,1,0,0:0:0:0:
503,121,269243,1,0,0:0:0:0:
503,121,269329,1,0,1:0:0:0:
318,198,269500,2,0,P|263:203|208:194,1,100,8|0,0:0|0:0,0:0:0:0:
146,157,269758,1,0,0:0:0:0:
146,157,269843,6,0,P|179:222|169:298,1,150,0|0,1:0|0:0,0:0:0:0:
157,318,270186,1,8,0:0:0:0:
53,191,270358,2,0,P|53:138|76:84,1,100,0|0,0:0|0:0,0:0:0:0:
69,94,270615,1,0,0:0:0:0:
69,94,270700,1,0,1:0:0:0:
239,254,270872,2,0,P|255:300|255:350,1,100,8|0,0:0|0:0,0:0:0:0:
146,157,271215,5,4,1:2:0:0:
157,318,271386,1,0,0:0:0:0:
251,63,271558,1,8,0:0:0:0:
109,241,271729,2,0,P|136:239|163:234,1,50,0|0,0:0|0:0,0:0:0:0:
286,182,271900,1,0,0:0:0:0:
47,318,272072,1,0,1:0:0:0:
144,136,272243,2,0,P|156:182|155:255,1,100,12|0,0:0|0:0,0:0:0:0:
313,372,272586,6,0,P|314:319|353:228,1,150,0|0,1:0|0:0,0:0:0:0:
369,213,272929,2,0,P|366:157|352:106,1,100,0|0,0:0|1:0,0:0:0:0:
423,320,273272,1,0,1:0:0:0:
218,277,273443,5,0,1:2:0:0:
241,267,273529,1,8,0:0:0:0:
271,267,273615,1,8,0:0:0:0:
302,280,273700,1,8,0:0:0:0:
332,306,273786,1,8,0:0:0:0:
373,323,273872,1,8,0:0:0:0:
423,320,273958,6,0,P|344:330|209:361,1,200,4|8,1:2|0:0,0:0:0:0:
29,259,274472,2,0,P|77:272|137:272,1,100,0|0,0:0|0:0,0:0:0:0:
206,251,274729,1,0,0:0:0:0:
220,245,274815,1,0,1:0:0:0:
348,127,274986,2,0,P|348:96|338:69,2,50,8|0|0,0:0|0:0|0:0,0:0:0:0:
295,334,275329,6,0,P|307:273|285:184,1,150,0|0,1:0|0:0,0:0:0:0:
268,171,275672,1,8,0:0:0:0:
481,313,275843,2,0,P|432:321|373:307,1,100,0|0,0:0|0:0,0:0:0:0:
383,311,276100,1,0,0:0:0:0:
383,311,276186,1,0,1:0:0:0:
220,245,276358,5,8,0:0:0:0:
182,232,276443,1,0,0:0:0:0:
142,232,276529,1,0,0:0:0:0:
104,243,276615,1,0,0:0:0:0:
71,266,276700,6,0,P|98:191|90:108,1,150,0|0,1:0|0:0,0:0:0:0:
86,98,277043,1,8,0:0:0:0:
190,275,277215,2,0,P|190:303|183:336,2,50,0|0|0,0:0|0:0|0:0,0:0:0:0:
86,98,277558,1,0,1:0:0:0:
263,211,277729,2,0,P|312:222|363:221,1,100,8|0,0:0|0:0,0:0:0:0:
484,179,278072,5,0,1:0:0:0:
316,326,278243,1,0,0:0:0:0:
394,96,278415,1,8,0:0:0:0:
421,295,278586,1,0,0:0:0:0:
277,129,278758,2,0,P|226:118|168:125,1,100,0|0,0:0|1:0,0:0:0:0:
54,301,279100,5,8,0:0:0:0:
54,301,279186,1,0,0:0:0:0:
54,301,279272,1,0,0:0:0:0:
54,301,279358,1,0,0:0:0:0:
54,301,279443,6,0,P|85:228|71:107,1,200,4|8,1:2|0:0,0:0:0:0:
209,266,279958,1,0,0:0:0:0:
211,290,280043,1,0,0:0:0:0:
206,313,280129,2,0,P|195:269|204:197,1,100,0|0,0:0|1:0,0:0:0:0:
288,91,280472,1,8,0:0:0:0:
284,239,280643,1,0,0:0:0:0:
284,239,280729,1,0,0:0:0:0:
284,239,280815,6,0,P|336:240|388:225,1,100,0|0,1:0|0:0,0:0:0:0:
451,189,281072,1,0,0:0:0:0:
451,189,281158,1,8,0:0:0:0:
198,214,281329,1,0,0:0:0:0:
376,326,281500,2,0,P|383:276|382:227,1,100,0|0,0:0|1:0,0:0:0:0:
288,41,281843,2,0,P|291:66|288:90,1,50,8|0,0:0|0:0,0:0:0:0:
217,164,282015,2,0,P|192:167|167:163,1,50,0|0,0:0|0:0,0:0:0:0:
94,92,282186,6,0,P|133:164|120:288,1,200,4|8,1:2|0:0,0:0:0:0:
124,278,282615,1,0,0:0:0:0:
124,278,282700,1,0,0:0:0:0:
300,172,282872,2,0,P|346:161|398:165,1,100,0|0,0:0|1:0,0:0:0:0:
124,278,283215,2,0,P|74:282|25:271,1,100,8|0,0:0|0:0,0:0:0:0:
355,255,283558,6,0,P|408:271|466:349,1,150,0|0,1:0|0:0,0:0:0:0:
469,367,283900,1,8,0:0:0:0:
274,307,284072,2,0,P|260:259|273:212,1,100,0|0,0:0|1:0,0:0:0:0:
284,189,284329,2,0,P|285:168|274:135,1,50,0|0,0:0|1:0,0:0:0:0:
221,41,284500,5,0,1:0:0:0:
208,32,284586,2,0,P|188:78|208:182,1,150,8|8,0:0|0:0,0:0:0:0:
231,258,284929,6,0,B|185:266|152:244|152:244|116:262|116:262|87:279|29:276,1,200,4|8,1:2|0:0,0:0:0:0:
322,298,285443,2,0,P|329:249|314:202,1,100,0|0,0:0|0:0,0:0:0:0:
314,202,285700,1,0,0:0:0:0:
314,202,285786,1,0,1:0:0:0:
72,135,285958,2,0,P|66:159|68:193,2,50,0|0|0,0:0|0:0|0:0,0:0:0:0:
231,258,286300,5,0,1:0:0:0:
308,94,286472,1,0,0:0:0:0:
132,269,286643,2,0,P|184:257|239:258,1,100,8|0,0:0|0:0,0:0:0:0:
467,291,286986,2,0,P|417:289|368:279,1,100,0|0,0:0|1:0,0:0:0:0:
335,267,287243,1,0,0:0:0:0:
301,257,287329,1,8,0:0:0:0:
265,255,287415,1,0,0:0:0:0:
230,257,287500,1,0,0:0:0:0:
40,325,287672,5,4,1:2:0:0:
219,168,287843,1,0,0:0:0:0:
40,300,288015,1,8,0:0:0:0:
271,340,288186,1,0,0:0:0:0:
271,340,288272,1,0,0:0:0:0:
271,340,288358,2,0,P|216:341|159:354,1,100,0|0,0:0|1:0,0:0:0:0:
1,199,288700,2,0,P|50:208|99:208,1,100,8|0,0:0|0:0,0:0:0:0:
326,147,289043,5,0,1:0:0:0:
171,263,289215,1,0,0:0:0:0:
270,47,289386,1,8,0:0:0:0:
270,233,289558,1,0,0:0:0:0:
270,233,289643,1,0,0:0:0:0:
270,233,289729,1,0,0:0:0:0:
100,207,289900,1,0,1:0:0:0:
356,270,290072,2,0,B|365:221|365:221|339:169,1,100,8|0,0:0|0:0,0:0:0:0:
193,10,290415,6,0,P|168:81|171:161,1,150,4|0,1:2|0:0,0:0:0:0:
177,178,290758,1,8,0:0:0:0:
440,185,290929,2,0,P|391:173|342:176,1,100,0|0,0:0|0:0,0:0:0:0:
180,275,291272,1,0,1:0:0:0:
274,108,291443,1,8,0:0:0:0:
278,83,291529,1,0,0:0:0:0:
277,63,291615,1,0,0:0:0:0:
356,270,291786,5,0,1:0:0:0:
233,182,291958,1,0,0:0:0:0:
244,331,292129,1,8,0:0:0:0:
377,262,292300,2,0,P|350:257|317:258,1,50,0|0,0:0|0:0,0:0:0:0:
200,262,292472,6,0,P|153:270|97:268,1,100,0|0,0:0|1:0,0:0:0:0:
100,268,292729,1,0,0:0:0:0:
100,268,292815,1,8,0:0:0:0:
344,348,292986,1,8,0:0:0:0:
344,348,293072,1,8,0:0:0:0:
344,348,293158,5,12,1:2:0:0:
256,103,293329,2,0,P|254:74|259:49,2,50,8|8|8,0:0|0:0|0:0,0:0:0:0:
455,291,293672,1,8,0:0:0:0:
455,291,293758,1,8,0:0:0:0:
455,291,293843,5,8,1:2:0:0:
420,270,293929,1,8,0:0:0:0:
380,263,294015,1,8,0:0:0:0:
341,271,294100,1,8,1:2:0:0:
307,292,294186,1,12,0:0:0:0:
268,303,294272,1,8,0:0:0:0:
228,308,294358,1,8,0:0:0:0:
188,302,294443,1,8,0:0:0:0:
150,287,294529,5,12,1:2:0:0:
116,249,294615,1,8,0:0:0:0:
111,199,294700,1,8,0:0:0:0:
137,156,294786,1,8,0:0:0:0:
184,139,294872,1,8,0:0:0:0:
232,150,294958,1,8,0:0:0:0:
275,173,295043,1,8,0:0:0:0:
314,204,295129,1,8,0:0:0:0:
360,223,295215,5,10,0:0:0:0:
411,228,295300,1,10,0:0:0:0:
461,215,295386,1,10,0:0:0:0:
495,175,295472,1,10,0:0:0:0:
507,124,295558,1,10,0:0:0:0:
489,72,295643,1,10,0:0:0:0:
444,40,295729,1,10,0:0:0:0:
389,29,295815,1,10,0:0:0:0:
335,40,295900,5,0,1:2:0:0:
256,192,295986,12,0,306872,0:0:0:0:
