osu file format v14

[General]
AudioFilename: audio.mp3
AudioLeadIn: 0
PreviewTime: 616555
Countdown: 0
SampleSet: Normal
StackLeniency: 0.7
Mode: 3
LetterboxInBreaks: 0
SpecialStyle: 0
WidescreenStoryboard: 0

[Editor]
Bookmarks: 186109,192109,198109
DistanceSpacing: 0.8
BeatDivisor: 4
GridSize: 32
TimelineZoom: 1.800001

[Metadata]
Title:Unterhimmel
TitleUnicode:Unterhimmel
Artist:Taishi
ArtistUnicode:Taishi
Creator:Hugged
Version:Cosmic Trance
Source:
Tags:Taishi Kawai 河合泰志 trance electronic keysounds keysounded piano sv marathon 水 mizu water Phant_3 Phant 3 Doujin indie COCD-0014 compllege instrumental c94 コミックマーケット94 コミケ94 Comiket 94 comic market 94 instrumental
BeatmapID:2848186
BeatmapSetID:1378280

[Difficulty]
HPDrainRate:9.1
CircleSize:7
OverallDifficulty:8
ApproachRate:5
SliderMultiplier:1.4
SliderTickRate:1

[Events]
//Background and Video events
0,0,"bg.jpg",0,0
//Break Periods
2,8545,12474
2,13874,17918
2,19318,22918
2,24318,32826
2,34226,37907
2,47917,54903
2,88321,94909
2,483966,488566
//Storyboard Layer 0 (Background)
//Storyboard Layer 1 (Fail)
//Storyboard Layer 2 (Pass)
//Storyboard Layer 3 (Foreground)
//Storyboard Layer 4 (Overlay)
//Storyboard Sound Samples
Sample,528830,0,"bongos - high-heel-3.wav",100
Sample,529018,0,"bongos - high-heel-3.wav",100
Sample,529205,0,"bongos - high-heel-3.wav",100
Sample,529393,0,"bongos - high-heel-3.wav",100
Sample,640393,0,"Kick.wav",100
Sample,665143,0,"D6H.wav",35

[TimingPoints]
8342,363.6363636,100,1,1,25,1,8
8342,-206.25,100,1,1,25,0,0
13674,363.6363636,100,1,1,25,1,8
13674,-195.2385348,100,1,1,25,0,0
19118,363.6363636,100,1,1,25,1,8
19118,-185.3432779,100,1,1,25,0,0
24118,363.6363636,100,1,1,25,1,8
24118,-177.8323768,100,1,1,25,0,0
34026,363.6363636,100,1,1,25,1,8
34026,-162.0697714,100,1,1,25,0,0
39107,363.6363636,100,1,1,25,1,8
39107,-155.1918741,100,1,1,25,0,0
44108,363.6363636,100,1,1,25,1,8
44108,-149.8909833,100,1,1,25,0,0
47717,363.6363636,100,1,1,25,1,8
47717,-145.904078,100,1,1,25,0,0
56103,363.6363636,100,1,1,25,1,8
56103,-136.8068391,100,1,1,25,0,0
58136,363.6363636,100,1,1,25,1,8
58136,-135.1218474,100,1,1,25,0,0
60113,363.6363636,100,1,1,25,1,8
60113,-133.4778678,100,1,1,25,0,0
61122,363.6363636,100,1,1,25,1,8
61122,-131.8734007,100,1,1,25,0,0
62096,363.6363636,100,1,1,25,1,8
62096,-131.0855455,100,1,1,25,0,0
63100,363.6363636,100,1,1,25,1,8
63100,-130.3070482,100,1,1,25,0,0
66099,363.6363636,100,1,1,25,1,8
66099,-128.026066,100,1,1,25,0,0
67108,363.6363636,100,1,1,25,1,8
67108,-127.2833813,100,1,1,25,0,0
68084,363.6363636,100,1,1,25,1,8
68084,-125.8235654,100,1,1,25,0,0
68202,363.6363636,100,1,1,25,1,8
68202,-125.8235654,100,1,1,25,0,0
69089,363.6363636,100,1,1,25,1,8
69089,-125.106152,100,1,1,25,0,0
70107,363.6363636,100,1,1,25,1,8
70107,-124.3968642,100,1,1,25,0,0
71147,363.6363636,100,1,1,25,1,8
71147,-123.6955737,100,1,1,25,0,0
74118,363.6363636,100,1,1,25,1,8
74118,-121.6383558,100,1,1,25,0,0
75138,363.6363636,100,1,1,25,1,8
75138,-120.304476,100,1,1,25,0,0
76108,363.6363636,100,1,1,25,1,8
76108,-119.6484467,100,1,1,25,0,0
77141,363.6363636,100,1,1,25,1,8
77141,-118.9995334,100,1,1,25,0,0
78120,363.6363636,100,1,1,25,1,8
78120,-118.3576209,100,1,1,25,0,0
80134,363.6363636,100,1,1,25,1,8
80134,-117.0943498,100,1,1,25,0,0
84093,363.6363636,100,1,1,25,1,8
84093,-114.0510927,100,1,1,25,0,0
85123,363.6363636,100,1,1,25,1,8
85123,-113.461324,100,1,1,25,0,0
86126,363.6363636,100,1,1,25,1,8
86126,-112.8776235,100,1,1,25,0,0
88121,363.6363636,100,1,1,25,1,8
88121,-111.7280561,100,1,1,25,0,0
96109,375,4,1,1,25,1,0
96109,-100,4,1,1,25,0,0
167734,-102.0408163,4,1,1,25,0,0
168109,-104.1666667,4,1,1,25,0,0
168484,-106.3829787,4,1,1,25,0,0
168859,-108.6956522,4,1,1,25,0,0
169234,-111.1111111,4,1,1,25,0,0
169609,-113.6363636,4,1,1,25,0,0
169984,-116.2790698,4,1,1,25,0,0
170359,-119.047619,4,1,1,25,0,0
170734,-121.9512195,4,1,1,25,0,0
171109,-125,4,1,1,25,0,0
171484,-128.2051282,4,1,1,25,0,0
171859,-131.5789474,4,1,1,25,0,0
172234,-135.1351351,4,1,1,25,0,0
172609,-138.8888889,4,1,1,25,0,0
172984,-142.8571429,4,1,1,25,0,0
173359,-147.0588235,4,1,1,25,0,0
173452,-135.1351351,4,1,1,25,0,0
173546,-120.4819277,4,1,1,25,0,0
173640,-109.8901099,4,1,1,25,0,0
173734,-105.2631579,4,1,1,25,0,0
198109,-104.1666667,4,1,1,25,0,0
198296,-103.0927835,4,1,1,25,0,0
198484,-102.0408163,4,1,1,25,0,0
198671,-101.010101,4,1,1,25,0,0
198859,-100,4,1,1,25,0,0
202609,-50.251256281407,4,1,1,25,0,0
202632,-10000,4,1,1,25,0,0
202655,-50.251256281407,4,1,1,25,0,0
202679,-10000,4,1,1,25,0,0
202702,-50.251256281407,4,1,1,25,0,0
202726,-10000,4,1,1,25,0,0
202749,-50.251256281407,4,1,1,25,0,0
202773,-10000,4,1,1,25,0,0
202796,-50.251256281407,4,1,1,25,0,0
202819,-10000,4,1,1,25,0,0
202843,-50.251256281407,4,1,1,25,0,0
202866,-10000,4,1,1,25,0,0
202890,-50.251256281407,4,1,1,25,0,0
202913,-10000,4,1,1,25,0,0
202937,-50.251256281407,4,1,1,25,0,0
202960,-10000,4,1,1,25,0,0
202984,-100,4,1,1,25,0,0
203359,-66.66666667,4,1,1,25,0,0
203382,-200,4,1,1,25,0,0
203405,-66.66666667,4,1,1,25,0,0
203429,-200,4,1,1,25,0,0
203452,-66.66666667,4,1,1,25,0,0
203476,-200,4,1,1,25,0,0
203499,-66.66666667,4,1,1,25,0,0
203523,-200,4,1,1,25,0,0
203546,-66.66666667,4,1,1,25,0,0
203569,-200,4,1,1,25,0,0
203593,-100,4,1,1,25,0,0
203640,-66.66666667,4,1,1,25,0,0
203663,-200,4,1,1,25,0,0
203687,-100,4,1,1,25,0,0
203734,-66.66666667,4,1,1,25,0,0
203757,-200,4,1,1,25,0,0
203780,-100,4,1,1,25,0,0
203921,-66.66666667,4,1,1,25,0,0
203944,-200,4,1,1,25,0,0
203968,-100,4,1,1,25,0,0
209265,-71.4285714285714,4,1,1,25,0,0
209296,-166.666666666667,4,1,1,25,0,0
209327,-100,4,1,1,25,0,0
209359,-71.4285714285714,4,1,1,25,0,0
209390,-166.666666666667,4,1,1,25,0,0
209421,-100,4,1,1,25,0,0
214609,-50.251256281407,4,1,1,25,0,0
214632,-10000,4,1,1,25,0,0
214655,-50.251256281407,4,1,1,25,0,0
214679,-10000,4,1,1,25,0,0
214702,-50.251256281407,4,1,1,25,0,0
214726,-10000,4,1,1,25,0,0
214749,-50.251256281407,4,1,1,25,0,0
214773,-10000,4,1,1,25,0,0
214796,-50.251256281407,4,1,1,25,0,0
214819,-10000,4,1,1,25,0,0
214843,-50.251256281407,4,1,1,25,0,0
214866,-10000,4,1,1,25,0,0
214890,-50.251256281407,4,1,1,25,0,0
214913,-10000,4,1,1,25,0,0
214937,-50.251256281407,4,1,1,25,0,0
214960,-10000,4,1,1,25,0,0
214984,-100,4,1,1,25,0,0
215359,-66.66666667,4,1,1,25,0,0
215382,-200,4,1,1,25,0,0
215405,-66.66666667,4,1,1,25,0,0
215429,-200,4,1,1,25,0,0
215452,-66.66666667,4,1,1,25,0,0
215476,-200,4,1,1,25,0,0
215499,-66.66666667,4,1,1,25,0,0
215523,-200,4,1,1,25,0,0
215546,-66.66666667,4,1,1,25,0,0
215569,-200,4,1,1,25,0,0
215593,-100,4,1,1,25,0,0
215640,-66.66666667,4,1,1,25,0,0
215663,-200,4,1,1,25,0,0
215687,-100,4,1,1,25,0,0
215734,-66.66666667,4,1,1,25,0,0
215757,-200,4,1,1,25,0,0
215780,-100,4,1,1,25,0,0
215921,-66.66666667,4,1,1,25,0,0
215944,-200,4,1,1,25,0,0
215968,-100,4,1,1,25,0,0
225859,-20,4,1,1,25,0,0
225861,-153.396640331327,4,1,1,25,0,0
225882,-20,4,1,1,25,0,0
225884,-153.396640331327,4,1,1,25,0,0
225905,-20,4,1,1,25,0,0
225907,-153.396640331327,4,1,1,25,0,0
225929,-20,4,1,1,25,0,0
225931,-153.396640331327,4,1,1,25,0,0
225952,-20,4,1,1,25,0,0
225954,-153.396640331327,4,1,1,25,0,0
225976,-20,4,1,1,25,0,0
225978,-153.396640331327,4,1,1,25,0,0
225999,-20,4,1,1,25,0,0
226001,-153.396640331327,4,1,1,25,0,0
226023,-20,4,1,1,25,0,0
226025,-153.396640331327,4,1,1,25,0,0
226046,-20,4,1,1,25,0,0
226048,-153.396640331327,4,1,1,25,0,0
226069,-20,4,1,1,25,0,0
226071,-153.396640331327,4,1,1,25,0,0
226093,-20,4,1,1,25,0,0
226095,-153.396640331327,4,1,1,25,0,0
226116,-20,4,1,1,25,0,0
226118,-153.396640331327,4,1,1,25,0,0
226140,-20,4,1,1,25,0,0
226142,-153.396640331327,4,1,1,25,0,0
226163,-20,4,1,1,25,0,0
226165,-153.396640331327,4,1,1,25,0,0
226187,-20,4,1,1,25,0,0
226189,-153.396640331327,4,1,1,25,0,0
226210,-20,4,1,1,25,0,0
226212,-153.396640331327,4,1,1,25,0,0
226234,-20,4,1,1,25,0,0
226236,-153.396640331327,4,1,1,25,0,0
226257,-20,4,1,1,25,0,0
226259,-153.396640331327,4,1,1,25,0,0
226280,-20,4,1,1,25,0,0
226282,-153.396640331327,4,1,1,25,0,0
226304,-20,4,1,1,25,0,0
226306,-153.396640331327,4,1,1,25,0,0
226327,-20,4,1,1,25,0,0
226329,-153.396640331327,4,1,1,25,0,0
226351,-20,4,1,1,25,0,0
226353,-153.396640331327,4,1,1,25,0,0
226374,-20,4,1,1,25,0,0
226376,-153.396640331327,4,1,1,25,0,0
226398,-20,4,1,1,25,0,0
226400,-153.396640331327,4,1,1,25,0,0
226421,-20,4,1,1,25,0,0
226423,-153.396640331327,4,1,1,25,0,0
226444,-20,4,1,1,25,0,0
226446,-153.396640331327,4,1,1,25,0,0
226468,-20,4,1,1,25,0,0
226470,-153.396640331327,4,1,1,25,0,0
226491,-20,4,1,1,25,0,0
226493,-153.396640331327,4,1,1,25,0,0
226515,-20,4,1,1,25,0,0
226517,-153.396640331327,4,1,1,25,0,0
226538,-20,4,1,1,25,0,0
226540,-153.396640331327,4,1,1,25,0,0
226562,-20,4,1,1,25,0,0
226564,-153.396640331327,4,1,1,25,0,0
226585,-20,4,1,1,25,0,0
226587,-153.396640331327,4,1,1,25,0,0
226609,-10,4,1,1,25,0,0
226610,-160.701241078008,4,1,1,25,0,0
226632,-10,4,1,1,25,0,0
226633,-160.701241078008,4,1,1,25,0,0
226655,-10,4,1,1,25,0,0
226656,-160.701241078008,4,1,1,25,0,0
226679,-10,4,1,1,25,0,0
226680,-160.701241078008,4,1,1,25,0,0
226702,-10,4,1,1,25,0,0
226703,-160.701241078008,4,1,1,25,0,0
226726,-10,4,1,1,25,0,0
226727,-160.701241078008,4,1,1,25,0,0
226749,-10,4,1,1,25,0,0
226750,-160.701241078008,4,1,1,25,0,0
226773,-10,4,1,1,25,0,0
226774,-160.701241078008,4,1,1,25,0,0
226796,-10,4,1,1,25,0,0
226797,-160.701241078008,4,1,1,25,0,0
226819,-10,4,1,1,25,0,0
226820,-160.701241078008,4,1,1,25,0,0
226843,-10,4,1,1,25,0,0
226844,-160.701241078008,4,1,1,25,0,0
226866,-10,4,1,1,25,0,0
226867,-160.701241078008,4,1,1,25,0,0
226890,-10,4,1,1,25,0,0
226891,-160.701241078008,4,1,1,25,0,0
226913,-10,4,1,1,25,0,0
226914,-160.701241078008,4,1,1,25,0,0
226937,-10,4,1,1,25,0,0
226938,-160.701241078008,4,1,1,25,0,0
226960,-10,4,1,1,25,0,0
226961,-160.701241078008,4,1,1,25,0,0
226984,-10,4,1,1,25,0,0
226985,-160.701241078008,4,1,1,25,0,0
227007,-10,4,1,1,25,0,0
227008,-160.701241078008,4,1,1,25,0,0
227030,-10,4,1,1,25,0,0
227031,-160.701241078008,4,1,1,25,0,0
227054,-10,4,1,1,25,0,0
227055,-160.701241078008,4,1,1,25,0,0
227077,-10,4,1,1,25,0,0
227078,-160.701241078008,4,1,1,25,0,0
227101,-10,4,1,1,25,0,0
227102,-160.701241078008,4,1,1,25,0,0
227124,-10,4,1,1,25,0,0
227125,-160.701241078008,4,1,1,25,0,0
227148,-10,4,1,1,25,0,0
227149,-160.701241078008,4,1,1,25,0,0
227171,-10,4,1,1,25,0,0
227172,-160.701241078008,4,1,1,25,0,0
227194,-10,4,1,1,25,0,0
227195,-160.701241078008,4,1,1,25,0,0
227218,-10,4,1,1,25,0,0
227219,-160.701241078008,4,1,1,25,0,0
227241,-10,4,1,1,25,0,0
227242,-160.701241078008,4,1,1,25,0,0
227265,-10,4,1,1,25,0,0
227266,-160.701241078008,4,1,1,25,0,0
227288,-10,4,1,1,25,0,0
227289,-160.701241078008,4,1,1,25,0,0
227312,-10,4,1,1,25,0,0
227313,-160.701241078008,4,1,1,25,0,0
227335,-10,4,1,1,25,0,0
227336,-160.701241078008,4,1,1,25,0,0
227359,-10,4,1,1,25,0,0
227361,-569.105677176284,4,1,1,25,0,0
227382,-10,4,1,1,25,0,0
227384,-569.105677176284,4,1,1,25,0,0
227405,-10,4,1,1,25,0,0
227407,-569.105677176284,4,1,1,25,0,0
227429,-10,4,1,1,25,0,0
227431,-569.105677176284,4,1,1,25,0,0
227452,-10,4,1,1,25,0,0
227454,-569.105677176284,4,1,1,25,0,0
227476,-10,4,1,1,25,0,0
227478,-569.105677176284,4,1,1,25,0,0
227499,-10,4,1,1,25,0,0
227501,-569.105677176284,4,1,1,25,0,0
227523,-10,4,1,1,25,0,0
227525,-569.105677176284,4,1,1,25,0,0
227546,-10,4,1,1,25,0,0
227548,-569.105677176284,4,1,1,25,0,0
227569,-10,4,1,1,25,0,0
227571,-569.105677176284,4,1,1,25,0,0
227593,-10,4,1,1,25,0,0
227595,-569.105677176284,4,1,1,25,0,0
227616,-10,4,1,1,25,0,0
227618,-569.105677176284,4,1,1,25,0,0
227640,-10,4,1,1,25,0,0
227642,-569.105677176284,4,1,1,25,0,0
227663,-10,4,1,1,25,0,0
227665,-569.105677176284,4,1,1,25,0,0
227687,-10,4,1,1,25,0,0
227689,-569.105677176284,4,1,1,25,0,0
227710,-10,4,1,1,25,0,0
227712,-569.105677176284,4,1,1,25,0,0
227734,-10,4,1,1,25,0,0
227736,-569.105677176284,4,1,1,25,0,0
227757,-10,4,1,1,25,0,0
227759,-569.105677176284,4,1,1,25,0,0
227780,-10,4,1,1,25,0,0
227782,-569.105677176284,4,1,1,25,0,0
227804,-10,4,1,1,25,0,0
227806,-569.105677176284,4,1,1,25,0,0
227827,-10,4,1,1,25,0,0
227829,-569.105677176284,4,1,1,25,0,0
227851,-10,4,1,1,25,0,0
227853,-569.105677176284,4,1,1,25,0,0
227874,-10,4,1,1,25,0,0
227876,-569.105677176284,4,1,1,25,0,0
227898,-10,4,1,1,25,0,0
227900,-569.105677176284,4,1,1,25,0,0
227921,-10,4,1,1,25,0,0
227923,-569.105677176284,4,1,1,25,0,0
227944,-10,4,1,1,25,0,0
227946,-569.105677176284,4,1,1,25,0,0
227968,-10,4,1,1,25,0,0
227970,-569.105677176284,4,1,1,25,0,0
227991,-10,4,1,1,25,0,0
227993,-569.105677176284,4,1,1,25,0,0
228015,-10,4,1,1,25,0,0
228017,-569.105677176284,4,1,1,25,0,0
228038,-10,4,1,1,25,0,0
228040,-569.105677176284,4,1,1,25,0,0
228062,-10,4,1,1,25,0,0
228064,-569.105677176284,4,1,1,25,0,0
228085,-10,4,1,1,25,0,0
228087,-569.105677176284,4,1,1,25,0,0
228109,-100,4,1,1,25,0,0
237859,-20,4,1,1,25,0,0
237861,-153.396640331327,4,1,1,25,0,0
237882,-20,4,1,1,25,0,0
237884,-153.396640331327,4,1,1,25,0,0
237905,-20,4,1,1,25,0,0
237907,-153.396640331327,4,1,1,25,0,0
237929,-20,4,1,1,25,0,0
237931,-153.396640331327,4,1,1,25,0,0
237952,-20,4,1,1,25,0,0
237954,-153.396640331327,4,1,1,25,0,0
237976,-20,4,1,1,25,0,0
237978,-153.396640331327,4,1,1,25,0,0
237999,-20,4,1,1,25,0,0
238001,-153.396640331327,4,1,1,25,0,0
238023,-20,4,1,1,25,0,0
238025,-153.396640331327,4,1,1,25,0,0
238046,-20,4,1,1,25,0,0
238048,-153.396640331327,4,1,1,25,0,0
238069,-20,4,1,1,25,0,0
238071,-153.396640331327,4,1,1,25,0,0
238093,-20,4,1,1,25,0,0
238095,-153.396640331327,4,1,1,25,0,0
238116,-20,4,1,1,25,0,0
238118,-153.396640331327,4,1,1,25,0,0
238140,-20,4,1,1,25,0,0
238142,-153.396640331327,4,1,1,25,0,0
238163,-20,4,1,1,25,0,0
238165,-153.396640331327,4,1,1,25,0,0
238187,-20,4,1,1,25,0,0
238189,-153.396640331327,4,1,1,25,0,0
238210,-20,4,1,1,25,0,0
238212,-153.396640331327,4,1,1,25,0,0
238234,-20,4,1,1,25,0,0
238236,-153.396640331327,4,1,1,25,0,0
238257,-20,4,1,1,25,0,0
238259,-153.396640331327,4,1,1,25,0,0
238280,-20,4,1,1,25,0,0
238282,-153.396640331327,4,1,1,25,0,0
238304,-20,4,1,1,25,0,0
238306,-153.396640331327,4,1,1,25,0,0
238327,-20,4,1,1,25,0,0
238329,-153.396640331327,4,1,1,25,0,0
238351,-20,4,1,1,25,0,0
238353,-153.396640331327,4,1,1,25,0,0
238374,-20,4,1,1,25,0,0
238376,-153.396640331327,4,1,1,25,0,0
238398,-20,4,1,1,25,0,0
238400,-153.396640331327,4,1,1,25,0,0
238421,-20,4,1,1,25,0,0
238423,-153.396640331327,4,1,1,25,0,0
238444,-20,4,1,1,25,0,0
238446,-153.396640331327,4,1,1,25,0,0
238468,-20,4,1,1,25,0,0
238470,-153.396640331327,4,1,1,25,0,0
238491,-20,4,1,1,25,0,0
238493,-153.396640331327,4,1,1,25,0,0
238515,-20,4,1,1,25,0,0
238517,-153.396640331327,4,1,1,25,0,0
238538,-20,4,1,1,25,0,0
238540,-153.396640331327,4,1,1,25,0,0
238562,-20,4,1,1,25,0,0
238564,-153.396640331327,4,1,1,25,0,0
238585,-20,4,1,1,25,0,0
238587,-153.396640331327,4,1,1,25,0,0
238609,-10,4,1,1,25,0,0
238610,-160.701241078008,4,1,1,25,0,0
238632,-10,4,1,1,25,0,0
238633,-160.701241078008,4,1,1,25,0,0
238655,-10,4,1,1,25,0,0
238656,-160.701241078008,4,1,1,25,0,0
238679,-10,4,1,1,25,0,0
238680,-160.701241078008,4,1,1,25,0,0
238702,-10,4,1,1,25,0,0
238703,-160.701241078008,4,1,1,25,0,0
238726,-10,4,1,1,25,0,0
238727,-160.701241078008,4,1,1,25,0,0
238749,-10,4,1,1,25,0,0
238750,-160.701241078008,4,1,1,25,0,0
238773,-10,4,1,1,25,0,0
238774,-160.701241078008,4,1,1,25,0,0
238796,-10,4,1,1,25,0,0
238797,-160.701241078008,4,1,1,25,0,0
238819,-10,4,1,1,25,0,0
238820,-160.701241078008,4,1,1,25,0,0
238843,-10,4,1,1,25,0,0
238844,-160.701241078008,4,1,1,25,0,0
238866,-10,4,1,1,25,0,0
238867,-160.701241078008,4,1,1,25,0,0
238890,-10,4,1,1,25,0,0
238891,-160.701241078008,4,1,1,25,0,0
238913,-10,4,1,1,25,0,0
238914,-160.701241078008,4,1,1,25,0,0
238937,-10,4,1,1,25,0,0
238938,-160.701241078008,4,1,1,25,0,0
238960,-10,4,1,1,25,0,0
238961,-160.701241078008,4,1,1,25,0,0
238984,-10,4,1,1,25,0,0
238985,-160.701241078008,4,1,1,25,0,0
239007,-10,4,1,1,25,0,0
239008,-160.701241078008,4,1,1,25,0,0
239030,-10,4,1,1,25,0,0
239031,-160.701241078008,4,1,1,25,0,0
239054,-10,4,1,1,25,0,0
239055,-160.701241078008,4,1,1,25,0,0
239077,-10,4,1,1,25,0,0
239078,-160.701241078008,4,1,1,25,0,0
239101,-10,4,1,1,25,0,0
239102,-160.701241078008,4,1,1,25,0,0
239124,-10,4,1,1,25,0,0
239125,-160.701241078008,4,1,1,25,0,0
239148,-10,4,1,1,25,0,0
239149,-160.701241078008,4,1,1,25,0,0
239171,-10,4,1,1,25,0,0
239172,-160.701241078008,4,1,1,25,0,0
239194,-10,4,1,1,25,0,0
239195,-160.701241078008,4,1,1,25,0,0
239218,-10,4,1,1,25,0,0
239219,-160.701241078008,4,1,1,25,0,0
239241,-10,4,1,1,25,0,0
239242,-160.701241078008,4,1,1,25,0,0
239265,-10,4,1,1,25,0,0
239266,-160.701241078008,4,1,1,25,0,0
239288,-10,4,1,1,25,0,0
239289,-160.701241078008,4,1,1,25,0,0
239312,-10,4,1,1,25,0,0
239313,-160.701241078008,4,1,1,25,0,0
239335,-10,4,1,1,25,0,0
239336,-160.701241078008,4,1,1,25,0,0
239359,-10,4,1,1,25,0,0
239361,-569.105677176284,4,1,1,25,0,0
239382,-10,4,1,1,25,0,0
239384,-569.105677176284,4,1,1,25,0,0
239405,-10,4,1,1,25,0,0
239407,-569.105677176284,4,1,1,25,0,0
239429,-10,4,1,1,25,0,0
239431,-569.105677176284,4,1,1,25,0,0
239452,-10,4,1,1,25,0,0
239454,-569.105677176284,4,1,1,25,0,0
239476,-10,4,1,1,25,0,0
239478,-569.105677176284,4,1,1,25,0,0
239499,-10,4,1,1,25,0,0
239501,-569.105677176284,4,1,1,25,0,0
239523,-10,4,1,1,25,0,0
239525,-569.105677176284,4,1,1,25,0,0
239546,-10,4,1,1,25,0,0
239548,-569.105677176284,4,1,1,25,0,0
239569,-10,4,1,1,25,0,0
239571,-569.105677176284,4,1,1,25,0,0
239593,-10,4,1,1,25,0,0
239595,-569.105677176284,4,1,1,25,0,0
239616,-10,4,1,1,25,0,0
239618,-569.105677176284,4,1,1,25,0,0
239640,-10,4,1,1,25,0,0
239642,-569.105677176284,4,1,1,25,0,0
239663,-10,4,1,1,25,0,0
239665,-569.105677176284,4,1,1,25,0,0
239687,-10,4,1,1,25,0,0
239689,-569.105677176284,4,1,1,25,0,0
239710,-10,4,1,1,25,0,0
239712,-569.105677176284,4,1,1,25,0,0
239734,-10,4,1,1,25,0,0
239736,-569.105677176284,4,1,1,25,0,0
239757,-10,4,1,1,25,0,0
239759,-569.105677176284,4,1,1,25,0,0
239780,-10,4,1,1,25,0,0
239782,-569.105677176284,4,1,1,25,0,0
239804,-10,4,1,1,25,0,0
239806,-569.105677176284,4,1,1,25,0,0
239827,-10,4,1,1,25,0,0
239829,-569.105677176284,4,1,1,25,0,0
239851,-10,4,1,1,25,0,0
239853,-569.105677176284,4,1,1,25,0,0
239874,-10,4,1,1,25,0,0
239876,-569.105677176284,4,1,1,25,0,0
239898,-10,4,1,1,25,0,0
239900,-569.105677176284,4,1,1,25,0,0
239921,-10,4,1,1,25,0,0
239923,-569.105677176284,4,1,1,25,0,0
239944,-10,4,1,1,25,0,0
239946,-569.105677176284,4,1,1,25,0,0
239968,-10,4,1,1,25,0,0
239970,-569.105677176284,4,1,1,25,0,0
239991,-10,4,1,1,25,0,0
239993,-569.105677176284,4,1,1,25,0,0
240015,-10,4,1,1,25,0,0
240017,-569.105677176284,4,1,1,25,0,0
240038,-10,4,1,1,25,0,0
240040,-569.105677176284,4,1,1,25,0,0
240062,-10,4,1,1,25,0,0
240064,-569.105677176284,4,1,1,25,0,0
240085,-10,4,1,1,25,0,0
240087,-569.105677176284,4,1,1,25,0,0
240109,-100,4,1,1,25,0,0
243859,-20,4,1,1,25,0,0
243861,-153.396640331327,4,1,1,25,0,0
243882,-20,4,1,1,25,0,0
243884,-153.396640331327,4,1,1,25,0,0
243905,-20,4,1,1,25,0,0
243907,-153.396640331327,4,1,1,25,0,0
243929,-20,4,1,1,25,0,0
243931,-153.396640331327,4,1,1,25,0,0
243952,-20,4,1,1,25,0,0
243954,-153.396640331327,4,1,1,25,0,0
243976,-20,4,1,1,25,0,0
243978,-153.396640331327,4,1,1,25,0,0
243999,-20,4,1,1,25,0,0
244001,-153.396640331327,4,1,1,25,0,0
244023,-20,4,1,1,25,0,0
244025,-153.396640331327,4,1,1,25,0,0
244046,-20,4,1,1,25,0,0
244048,-153.396640331327,4,1,1,25,0,0
244069,-20,4,1,1,25,0,0
244071,-153.396640331327,4,1,1,25,0,0
244093,-20,4,1,1,25,0,0
244095,-153.396640331327,4,1,1,25,0,0
244116,-20,4,1,1,25,0,0
244118,-153.396640331327,4,1,1,25,0,0
244140,-20,4,1,1,25,0,0
244142,-153.396640331327,4,1,1,25,0,0
244163,-20,4,1,1,25,0,0
244165,-153.396640331327,4,1,1,25,0,0
244187,-20,4,1,1,25,0,0
244189,-153.396640331327,4,1,1,25,0,0
244210,-20,4,1,1,25,0,0
244212,-153.396640331327,4,1,1,25,0,0
244234,-20,4,1,1,25,0,0
244236,-153.396640331327,4,1,1,25,0,0
244257,-20,4,1,1,25,0,0
244259,-153.396640331327,4,1,1,25,0,0
244280,-20,4,1,1,25,0,0
244282,-153.396640331327,4,1,1,25,0,0
244304,-20,4,1,1,25,0,0
244306,-153.396640331327,4,1,1,25,0,0
244327,-20,4,1,1,25,0,0
244329,-153.396640331327,4,1,1,25,0,0
244351,-20,4,1,1,25,0,0
244353,-153.396640331327,4,1,1,25,0,0
244374,-20,4,1,1,25,0,0
244376,-153.396640331327,4,1,1,25,0,0
244398,-20,4,1,1,25,0,0
244400,-153.396640331327,4,1,1,25,0,0
244421,-20,4,1,1,25,0,0
244423,-153.396640331327,4,1,1,25,0,0
244444,-20,4,1,1,25,0,0
244446,-153.396640331327,4,1,1,25,0,0
244468,-20,4,1,1,25,0,0
244470,-153.396640331327,4,1,1,25,0,0
244491,-20,4,1,1,25,0,0
244493,-153.396640331327,4,1,1,25,0,0
244515,-20,4,1,1,25,0,0
244517,-153.396640331327,4,1,1,25,0,0
244538,-20,4,1,1,25,0,0
244540,-153.396640331327,4,1,1,25,0,0
244562,-20,4,1,1,25,0,0
244564,-153.396640331327,4,1,1,25,0,0
244585,-20,4,1,1,25,0,0
244587,-153.396640331327,4,1,1,25,0,0
244609,-10,4,1,1,25,0,0
244610,-160.701241078008,4,1,1,25,0,0
244632,-10,4,1,1,25,0,0
244633,-160.701241078008,4,1,1,25,0,0
244655,-10,4,1,1,25,0,0
244656,-160.701241078008,4,1,1,25,0,0
244679,-10,4,1,1,25,0,0
244680,-160.701241078008,4,1,1,25,0,0
244702,-10,4,1,1,25,0,0
244703,-160.701241078008,4,1,1,25,0,0
244726,-10,4,1,1,25,0,0
244727,-160.701241078008,4,1,1,25,0,0
244749,-10,4,1,1,25,0,0
244750,-160.701241078008,4,1,1,25,0,0
244773,-10,4,1,1,25,0,0
244774,-160.701241078008,4,1,1,25,0,0
244796,-10,4,1,1,25,0,0
244797,-160.701241078008,4,1,1,25,0,0
244819,-10,4,1,1,25,0,0
244820,-160.701241078008,4,1,1,25,0,0
244843,-10,4,1,1,25,0,0
244844,-160.701241078008,4,1,1,25,0,0
244866,-10,4,1,1,25,0,0
244867,-160.701241078008,4,1,1,25,0,0
244890,-10,4,1,1,25,0,0
244891,-160.701241078008,4,1,1,25,0,0
244913,-10,4,1,1,25,0,0
244914,-160.701241078008,4,1,1,25,0,0
244937,-10,4,1,1,25,0,0
244938,-160.701241078008,4,1,1,25,0,0
244960,-10,4,1,1,25,0,0
244961,-160.701241078008,4,1,1,25,0,0
244984,-10,4,1,1,25,0,0
244985,-160.701241078008,4,1,1,25,0,0
245007,-10,4,1,1,25,0,0
245008,-160.701241078008,4,1,1,25,0,0
245030,-10,4,1,1,25,0,0
245031,-160.701241078008,4,1,1,25,0,0
245054,-10,4,1,1,25,0,0
245055,-160.701241078008,4,1,1,25,0,0
245077,-10,4,1,1,25,0,0
245078,-160.701241078008,4,1,1,25,0,0
245101,-10,4,1,1,25,0,0
245102,-160.701241078008,4,1,1,25,0,0
245124,-10,4,1,1,25,0,0
245125,-160.701241078008,4,1,1,25,0,0
245148,-10,4,1,1,25,0,0
245149,-160.701241078008,4,1,1,25,0,0
245171,-10,4,1,1,25,0,0
245172,-160.701241078008,4,1,1,25,0,0
245194,-10,4,1,1,25,0,0
245195,-160.701241078008,4,1,1,25,0,0
245218,-10,4,1,1,25,0,0
245219,-160.701241078008,4,1,1,25,0,0
245241,-10,4,1,1,25,0,0
245242,-160.701241078008,4,1,1,25,0,0
245265,-10,4,1,1,25,0,0
245266,-160.701241078008,4,1,1,25,0,0
245288,-10,4,1,1,25,0,0
245289,-160.701241078008,4,1,1,25,0,0
245312,-10,4,1,1,25,0,0
245313,-160.701241078008,4,1,1,25,0,0
245335,-10,4,1,1,25,0,0
245336,-160.701241078008,4,1,1,25,0,0
245359,-10,4,1,1,25,0,0
245361,-569.105677176284,4,1,1,25,0,0
245382,-10,4,1,1,25,0,0
245384,-569.105677176284,4,1,1,25,0,0
245405,-10,4,1,1,25,0,0
245407,-569.105677176284,4,1,1,25,0,0
245429,-10,4,1,1,25,0,0
245431,-569.105677176284,4,1,1,25,0,0
245452,-10,4,1,1,25,0,0
245454,-569.105677176284,4,1,1,25,0,0
245476,-10,4,1,1,25,0,0
245478,-569.105677176284,4,1,1,25,0,0
245499,-10,4,1,1,25,0,0
245501,-569.105677176284,4,1,1,25,0,0
245523,-10,4,1,1,25,0,0
245525,-569.105677176284,4,1,1,25,0,0
245546,-10,4,1,1,25,0,0
245548,-569.105677176284,4,1,1,25,0,0
245569,-10,4,1,1,25,0,0
245571,-569.105677176284,4,1,1,25,0,0
245593,-10,4,1,1,25,0,0
245595,-569.105677176284,4,1,1,25,0,0
245616,-10,4,1,1,25,0,0
245618,-569.105677176284,4,1,1,25,0,0
245640,-10,4,1,1,25,0,0
245642,-569.105677176284,4,1,1,25,0,0
245663,-10,4,1,1,25,0,0
245665,-569.105677176284,4,1,1,25,0,0
245687,-10,4,1,1,25,0,0
245689,-569.105677176284,4,1,1,25,0,0
245710,-10,4,1,1,25,0,0
245712,-569.105677176284,4,1,1,25,0,0
245734,-10,4,1,1,25,0,0
245736,-569.105677176284,4,1,1,25,0,0
245757,-10,4,1,1,25,0,0
245759,-569.105677176284,4,1,1,25,0,0
245780,-10,4,1,1,25,0,0
245782,-569.105677176284,4,1,1,25,0,0
245804,-10,4,1,1,25,0,0
245806,-569.105677176284,4,1,1,25,0,0
245827,-10,4,1,1,25,0,0
245829,-569.105677176284,4,1,1,25,0,0
245851,-10,4,1,1,25,0,0
245853,-569.105677176284,4,1,1,25,0,0
245874,-10,4,1,1,25,0,0
245876,-569.105677176284,4,1,1,25,0,0
245898,-10,4,1,1,25,0,0
245900,-569.105677176284,4,1,1,25,0,0
245921,-10,4,1,1,25,0,0
245923,-569.105677176284,4,1,1,25,0,0
245944,-10,4,1,1,25,0,0
245946,-569.105677176284,4,1,1,25,0,0
245968,-10,4,1,1,25,0,0
245970,-569.105677176284,4,1,1,25,0,0
245991,-100,4,1,1,25,0,0
246015,-10,4,1,1,25,0,0
246017,-569.105677176284,4,1,1,25,0,0
246038,-10,4,1,1,25,0,0
246040,-569.105677176284,4,1,1,25,0,0
246062,-10,4,1,1,25,0,0
246064,-569.105677176284,4,1,1,25,0,0
246085,-10,4,1,1,25,0,0
246087,-569.105677176284,4,1,1,25,0,0
246109,-100,4,1,1,25,0,0
255109,-10,4,1,1,25,0,0
255110,-117.647058823529,4,1,1,25,0,0
255171,-10,4,1,1,25,0,0
255172,-117.647058823529,4,1,1,25,0,0
255234,-10,4,1,1,25,0,0
255235,-117.647058823529,4,1,1,25,0,0
255296,-10,4,1,1,25,0,0
255297,-117.647058823529,4,1,1,25,0,0
255359,-10,4,1,1,25,0,0
255360,-117.647058823529,4,1,1,25,0,0
255421,-10,4,1,1,25,0,0
255422,-117.647058823529,4,1,1,25,0,0
255484,-10,4,1,1,25,0,0
255485,-117.647058823529,4,1,1,25,0,0
255546,-10,4,1,1,25,0,0
255547,-117.647058823529,4,1,1,25,0,0
255609,-10,4,1,1,25,0,0
255610,-117.647058823529,4,1,1,25,0,0
255671,-10,4,1,1,25,0,0
255672,-117.647058823529,4,1,1,25,0,0
255734,-10,4,1,1,25,0,0
255735,-117.647058823529,4,1,1,25,0,0
255796,-10,4,1,1,25,0,0
255797,-117.647058823529,4,1,1,25,0,0
255859,-10,4,1,1,25,0,0
255860,-117.647058823529,4,1,1,25,0,0
255921,-10,4,1,1,25,0,0
255922,-117.647058823529,4,1,1,25,0,0
255984,-10,4,1,1,25,0,0
255985,-117.647058823529,4,1,1,25,0,0
256046,-10,4,1,1,25,0,0
256047,-117.647058823529,4,1,1,25,0,0
256109,-10,4,1,1,25,0,0
256110,-117.647058823529,4,1,1,25,0,0
256171,-10,4,1,1,25,0,0
256172,-117.647058823529,4,1,1,25,0,0
256234,-10,4,1,1,25,0,0
256235,-117.647058823529,4,1,1,25,0,0
256296,-10,4,1,1,25,0,0
256297,-117.647058823529,4,1,1,25,0,0
256359,-10,4,1,1,25,0,0
256360,-117.647058823529,4,1,1,25,0,0
256421,-10,4,1,1,25,0,0
256422,-117.647058823529,4,1,1,25,0,0
256484,-10,4,1,1,25,0,0
256485,-117.647058823529,4,1,1,25,0,0
256546,-10,4,1,1,25,0,0
256547,-117.647058823529,4,1,1,25,0,0
256609,-10,4,1,1,25,0,0
256610,-117.647058823529,4,1,1,25,0,0
256671,-10,4,1,1,25,0,0
256672,-117.647058823529,4,1,1,25,0,0
256734,-10,4,1,1,25,0,0
256735,-117.647058823529,4,1,1,25,0,0
256796,-10,4,1,1,25,0,0
256797,-117.647058823529,4,1,1,25,0,0
256859,-10,4,1,1,25,0,0
256860,-117.647058823529,4,1,1,25,0,0
256921,-10,4,1,1,25,0,0
256922,-117.647058823529,4,1,1,25,0,0
256984,-10,4,1,1,25,0,0
256985,-117.647058823529,4,1,1,25,0,0
257046,-10,4,1,1,25,0,0
257047,-117.647058823529,4,1,1,25,0,0
257109,-10,4,1,1,25,0,0
257110,-117.647058823529,4,1,1,25,0,0
257171,-10,4,1,1,25,0,0
257172,-117.647058823529,4,1,1,25,0,0
257234,-10,4,1,1,25,0,0
257235,-117.647058823529,4,1,1,25,0,0
257296,-10,4,1,1,25,0,0
257297,-117.647058823529,4,1,1,25,0,0
257359,-10,4,1,1,25,0,0
257360,-117.647058823529,4,1,1,25,0,0
257421,-10,4,1,1,25,0,0
257422,-117.647058823529,4,1,1,25,0,0
257484,-10,4,1,1,25,0,0
257485,-117.647058823529,4,1,1,25,0,0
257546,-10,4,1,1,25,0,0
257547,-117.647058823529,4,1,1,25,0,0
257609,-10,4,1,1,25,0,0
257610,-117.647058823529,4,1,1,25,0,0
257671,-10,4,1,1,25,0,0
257672,-117.647058823529,4,1,1,25,0,0
257734,-10,4,1,1,25,0,0
257735,-117.647058823529,4,1,1,25,0,0
257796,-10,4,1,1,25,0,0
257797,-117.647058823529,4,1,1,25,0,0
257859,-10,4,1,1,25,0,0
257860,-117.647058823529,4,1,1,25,0,0
257921,-10,4,1,1,25,0,0
257922,-117.647058823529,4,1,1,25,0,0
257984,-100,4,1,1,25,0,0
258046,-10,4,1,1,25,0,0
258047,-117.647058823529,4,1,1,25,0,0
258109,-10,4,1,1,25,0,0
258111,-142.857142857143,4,1,1,25,0,0
258171,-100,4,1,1,25,0,0
258234,-10,4,1,1,25,0,0
258236,-142.857142857143,4,1,1,25,0,0
258296,-10,4,1,1,25,0,0
258298,-142.857142857143,4,1,1,25,0,0
258359,-10,4,1,1,25,0,0
258361,-142.857142857143,4,1,1,25,0,0
258421,-10,4,1,1,25,0,0
258423,-142.857142857143,4,1,1,25,0,0
258484,-10,4,1,1,25,0,0
258486,-142.857142857143,4,1,1,25,0,0
258546,-10,4,1,1,25,0,0
258548,-142.857142857143,4,1,1,25,0,0
258609,-10,4,1,1,25,0,0
258611,-142.857142857143,4,1,1,25,0,0
258671,-10,4,1,1,25,0,0
258673,-142.857142857143,4,1,1,25,0,0
258734,-10,4,1,1,25,0,0
258736,-142.857142857143,4,1,1,25,0,0
258796,-10,4,1,1,25,0,0
258798,-142.857142857143,4,1,1,25,0,0
258859,-10,4,1,1,25,0,0
258861,-142.857142857143,4,1,1,25,0,0
258921,-10,4,1,1,25,0,0
258923,-142.857142857143,4,1,1,25,0,0
258984,-10,4,1,1,25,0,0
258986,-142.857142857143,4,1,1,25,0,0
259046,-10,4,1,1,25,0,0
259048,-142.857142857143,4,1,1,25,0,0
259109,-10,4,1,1,25,0,0
259111,-142.857142857143,4,1,1,25,0,0
259171,-10,4,1,1,25,0,0
259173,-142.857142857143,4,1,1,25,0,0
259234,-10,4,1,1,25,0,0
259236,-142.857142857143,4,1,1,25,0,0
259296,-10,4,1,1,25,0,0
259298,-142.857142857143,4,1,1,25,0,0
259359,-10,4,1,1,25,0,0
259361,-142.857142857143,4,1,1,25,0,0
259421,-10,4,1,1,25,0,0
259423,-142.857142857143,4,1,1,25,0,0
259484,-10,4,1,1,25,0,0
259486,-142.857142857143,4,1,1,25,0,0
259546,-10,4,1,1,25,0,0
259548,-142.857142857143,4,1,1,25,0,0
259609,-10,4,1,1,25,0,0
259611,-142.857142857143,4,1,1,25,0,0
259671,-10,4,1,1,25,0,0
259673,-142.857142857143,4,1,1,25,0,0
259734,-10,4,1,1,25,0,0
259736,-142.857142857143,4,1,1,25,0,0
259796,-10,4,1,1,25,0,0
259798,-142.857142857143,4,1,1,25,0,0
259859,-10,4,1,1,25,0,0
259861,-142.857142857143,4,1,1,25,0,0
259921,-10,4,1,1,25,0,0
259923,-142.857142857143,4,1,1,25,0,0
259984,-10,4,1,1,25,0,0
259986,-142.857142857143,4,1,1,25,0,0
260046,-10,4,1,1,25,0,0
260048,-142.857142857143,4,1,1,25,0,0
260109,-10,4,1,1,25,0,0
260111,-142.857142857143,4,1,1,25,0,0
260171,-10,4,1,1,25,0,0
260173,-142.857142857143,4,1,1,25,0,0
260234,-10,4,1,1,25,0,0
260236,-142.857142857143,4,1,1,25,0,0
260296,-10,4,1,1,25,0,0
260298,-142.857142857143,4,1,1,25,0,0
260359,-10,4,1,1,25,0,0
260361,-142.857142857143,4,1,1,25,0,0
260421,-10,4,1,1,25,0,0
260423,-142.857142857143,4,1,1,25,0,0
260484,-10,4,1,1,25,0,0
260486,-142.857142857143,4,1,1,25,0,0
260546,-10,4,1,1,25,0,0
260548,-142.857142857143,4,1,1,25,0,0
260609,-10,4,1,1,25,0,0
260611,-142.857142857143,4,1,1,25,0,0
260671,-10,4,1,1,25,0,0
260673,-142.857142857143,4,1,1,25,0,0
260734,-10,4,1,1,25,0,0
260736,-142.857142857143,4,1,1,25,0,0
260796,-10,4,1,1,25,0,0
260798,-142.857142857143,4,1,1,25,0,0
260859,-10,4,1,1,25,0,0
260861,-142.857142857143,4,1,1,25,0,0
260921,-10,4,1,1,25,0,0
260923,-142.857142857143,4,1,1,25,0,0
260984,-10,4,1,1,25,0,0
260986,-142.857142857143,4,1,1,25,0,0
261046,-10,4,1,1,25,0,0
261048,-142.857142857143,4,1,1,25,0,0
261109,-10,4,1,1,25,0,0
261110,-117.647058823529,4,1,1,25,0,0
261171,-10,4,1,1,25,0,0
261172,-117.647058823529,4,1,1,25,0,0
261174,-185.185185185185,4,1,1,25,0,0
261234,-10,4,1,1,25,0,0
261235,-117.647058823529,4,1,1,25,0,0
261237,-185.185185185185,4,1,1,25,0,0
261296,-10,4,1,1,25,0,0
261297,-117.647058823529,4,1,1,25,0,0
261299,-185.185185185185,4,1,1,25,0,0
261359,-10,4,1,1,25,0,0
261360,-117.647058823529,4,1,1,25,0,0
261362,-185.185185185185,4,1,1,25,0,0
261421,-10,4,1,1,25,0,0
261422,-117.647058823529,4,1,1,25,0,0
261424,-185.185185185185,4,1,1,25,0,0
261484,-10,4,1,1,25,0,0
261485,-117.647058823529,4,1,1,25,0,0
261487,-185.185185185185,4,1,1,25,0,0
261546,-10,4,1,1,25,0,0
261547,-117.647058823529,4,1,1,25,0,0
261549,-185.185185185185,4,1,1,25,0,0
261609,-10,4,1,1,25,0,0
261610,-117.647058823529,4,1,1,25,0,0
261612,-185.185185185185,4,1,1,25,0,0
261671,-10,4,1,1,25,0,0
261672,-117.647058823529,4,1,1,25,0,0
261674,-185.185185185185,4,1,1,25,0,0
261734,-10,4,1,1,25,0,0
261735,-117.647058823529,4,1,1,25,0,0
261737,-185.185185185185,4,1,1,25,0,0
261796,-10,4,1,1,25,0,0
261797,-117.647058823529,4,1,1,25,0,0
261799,-185.185185185185,4,1,1,25,0,0
261859,-10,4,1,1,25,0,0
261860,-117.647058823529,4,1,1,25,0,0
261862,-185.185185185185,4,1,1,25,0,0
261921,-10,4,1,1,25,0,0
261922,-117.647058823529,4,1,1,25,0,0
261924,-185.185185185185,4,1,1,25,0,0
261984,-10,4,1,1,25,0,0
261985,-117.647058823529,4,1,1,25,0,0
261987,-185.185185185185,4,1,1,25,0,0
262046,-10,4,1,1,25,0,0
262047,-117.647058823529,4,1,1,25,0,0
262049,-185.185185185185,4,1,1,25,0,0
262109,-10,4,1,1,25,0,0
262110,-117.647058823529,4,1,1,25,0,0
262112,-185.185185185185,4,1,1,25,0,0
262171,-10,4,1,1,25,0,0
262172,-117.647058823529,4,1,1,25,0,0
262174,-185.185185185185,4,1,1,25,0,0
262234,-10,4,1,1,25,0,0
262235,-117.647058823529,4,1,1,25,0,0
262237,-185.185185185185,4,1,1,25,0,0
262296,-10,4,1,1,25,0,0
262297,-117.647058823529,4,1,1,25,0,0
262299,-185.185185185185,4,1,1,25,0,0
262359,-10,4,1,1,25,0,0
262360,-117.647058823529,4,1,1,25,0,0
262362,-185.185185185185,4,1,1,25,0,0
262421,-10,4,1,1,25,0,0
262422,-117.647058823529,4,1,1,25,0,0
262424,-185.185185185185,4,1,1,25,0,0
262484,-10,4,1,1,25,0,0
262485,-117.647058823529,4,1,1,25,0,0
262487,-185.185185185185,4,1,1,25,0,0
262546,-10,4,1,1,25,0,0
262547,-117.647058823529,4,1,1,25,0,0
262549,-185.185185185185,4,1,1,25,0,0
262609,-10,4,1,1,25,0,0
262610,-117.647058823529,4,1,1,25,0,0
262612,-185.185185185185,4,1,1,25,0,0
262671,-10,4,1,1,25,0,0
262672,-117.647058823529,4,1,1,25,0,0
262674,-185.185185185185,4,1,1,25,0,0
262734,-10,4,1,1,25,0,0
262735,-117.647058823529,4,1,1,25,0,0
262737,-185.185185185185,4,1,1,25,0,0
262796,-10,4,1,1,25,0,0
262797,-117.647058823529,4,1,1,25,0,0
262799,-185.185185185185,4,1,1,25,0,0
262859,-10,4,1,1,25,0,0
262860,-117.647058823529,4,1,1,25,0,0
262862,-185.185185185185,4,1,1,25,0,0
262921,-10,4,1,1,25,0,0
262922,-117.647058823529,4,1,1,25,0,0
262924,-185.185185185185,4,1,1,25,0,0
262984,-10,4,1,1,25,0,0
262985,-117.647058823529,4,1,1,25,0,0
262987,-185.185185185185,4,1,1,25,0,0
263046,-10,4,1,1,25,0,0
263047,-117.647058823529,4,1,1,25,0,0
263049,-185.185185185185,4,1,1,25,0,0
263109,-10,4,1,1,25,0,0
263110,-117.647058823529,4,1,1,25,0,0
263112,-185.185185185185,4,1,1,25,0,0
263171,-10,4,1,1,25,0,0
263172,-117.647058823529,4,1,1,25,0,0
263174,-185.185185185185,4,1,1,25,0,0
263234,-10,4,1,1,25,0,0
263235,-117.647058823529,4,1,1,25,0,0
263237,-185.185185185185,4,1,1,25,0,0
263296,-10,4,1,1,25,0,0
263297,-117.647058823529,4,1,1,25,0,0
263299,-185.185185185185,4,1,1,25,0,0
263359,-10,4,1,1,25,0,0
263360,-117.647058823529,4,1,1,25,0,0
263362,-185.185185185185,4,1,1,25,0,0
263421,-10,4,1,1,25,0,0
263422,-117.647058823529,4,1,1,25,0,0
263424,-185.185185185185,4,1,1,25,0,0
263484,-10,4,1,1,25,0,0
263485,-117.647058823529,4,1,1,25,0,0
263487,-185.185185185185,4,1,1,25,0,0
263546,-10,4,1,1,25,0,0
263547,-117.647058823529,4,1,1,25,0,0
263549,-185.185185185185,4,1,1,25,0,0
263609,-10,4,1,1,25,0,0
263610,-117.647058823529,4,1,1,25,0,0
263612,-185.185185185185,4,1,1,25,0,0
263671,-10,4,1,1,25,0,0
263672,-117.647058823529,4,1,1,25,0,0
263674,-185.185185185185,4,1,1,25,0,0
263734,-10,4,1,1,25,0,0
263735,-117.647058823529,4,1,1,25,0,0
263737,-185.185185185185,4,1,1,25,0,0
263796,-10,4,1,1,25,0,0
263797,-117.647058823529,4,1,1,25,0,0
263799,-185.185185185185,4,1,1,25,0,0
263859,-10,4,1,1,25,0,0
263860,-117.647058823529,4,1,1,25,0,0
263862,-185.185185185185,4,1,1,25,0,0
263921,-10,4,1,1,25,0,0
263922,-117.647058823529,4,1,1,25,0,0
263924,-185.185185185185,4,1,1,25,0,0
263984,-100,4,1,1,25,0,0
264046,-10,4,1,1,25,0,0
264047,-117.647058823529,4,1,1,25,0,0
264049,-185.185185185185,4,1,1,25,0,0
264109,-10,4,1,1,25,0,0
264111,-142.857142857143,4,1,1,25,0,0
264113,-263.157894736842,4,1,1,25,0,0
264171,-10,4,1,1,25,0,0
264175,-263.157894736842,4,1,1,25,0,0
264234,-10,4,1,1,25,0,0
264238,-263.157894736842,4,1,1,25,0,0
264296,-10,4,1,1,25,0,0
264300,-263.157894736842,4,1,1,25,0,0
264359,-10,4,1,1,25,0,0
264363,-263.157894736842,4,1,1,25,0,0
264421,-10,4,1,1,25,0,0
264425,-263.157894736842,4,1,1,25,0,0
264484,-10,4,1,1,25,0,0
264488,-263.157894736842,4,1,1,25,0,0
264546,-10,4,1,1,25,0,0
264550,-263.157894736842,4,1,1,25,0,0
264609,-10,4,1,1,25,0,0
264613,-263.157894736842,4,1,1,25,0,0
264671,-10,4,1,1,25,0,0
264675,-263.157894736842,4,1,1,25,0,0
264734,-10,4,1,1,25,0,0
264738,-263.157894736842,4,1,1,25,0,0
264796,-10,4,1,1,25,0,0
264800,-263.157894736842,4,1,1,25,0,0
264859,-10,4,1,1,25,0,0
264863,-263.157894736842,4,1,1,25,0,0
264921,-10,4,1,1,25,0,0
264925,-263.157894736842,4,1,1,25,0,0
264984,-10,4,1,1,25,0,0
264988,-263.157894736842,4,1,1,25,0,0
265046,-10,4,1,1,25,0,0
265050,-263.157894736842,4,1,1,25,0,0
265109,-10,4,1,1,25,0,0
265113,-263.157894736842,4,1,1,25,0,0
265171,-10,4,1,1,25,0,0
265175,-263.157894736842,4,1,1,25,0,0
265234,-10,4,1,1,25,0,0
265238,-263.157894736842,4,1,1,25,0,0
265296,-10,4,1,1,25,0,0
265300,-263.157894736842,4,1,1,25,0,0
265359,-10,4,1,1,25,0,0
265363,-263.157894736842,4,1,1,25,0,0
265421,-10,4,1,1,25,0,0
265425,-263.157894736842,4,1,1,25,0,0
265484,-10,4,1,1,25,0,0
265488,-263.157894736842,4,1,1,25,0,0
265546,-10,4,1,1,25,0,0
265550,-263.157894736842,4,1,1,25,0,0
265609,-10,4,1,1,25,0,0
265613,-263.157894736842,4,1,1,25,0,0
265671,-10,4,1,1,25,0,0
265675,-263.157894736842,4,1,1,25,0,0
265734,-10,4,1,1,25,0,0
265738,-263.157894736842,4,1,1,25,0,0
265796,-10,4,1,1,25,0,0
265800,-263.157894736842,4,1,1,25,0,0
265859,-10,4,1,1,25,0,0
265863,-263.157894736842,4,1,1,25,0,0
265921,-10,4,1,1,25,0,0
265925,-263.157894736842,4,1,1,25,0,0
265984,-10,4,1,1,25,0,0
265988,-263.157894736842,4,1,1,25,0,0
266046,-10,4,1,1,25,0,0
266050,-263.157894736842,4,1,1,25,0,0
266109,-10,4,1,1,25,0,0
266113,-263.157894736842,4,1,1,25,0,0
266171,-10,4,1,1,25,0,0
266175,-263.157894736842,4,1,1,25,0,0
266234,-10,4,1,1,25,0,0
266238,-263.157894736842,4,1,1,25,0,0
266296,-10,4,1,1,25,0,0
266300,-263.157894736842,4,1,1,25,0,0
266359,-10,4,1,1,25,0,0
266363,-263.157894736842,4,1,1,25,0,0
266421,-10,4,1,1,25,0,0
266425,-263.157894736842,4,1,1,25,0,0
266484,-10,4,1,1,25,0,0
266488,-263.157894736842,4,1,1,25,0,0
266546,-10,4,1,1,25,0,0
266550,-263.157894736842,4,1,1,25,0,0
266609,-10,4,1,1,25,0,0
266613,-263.157894736842,4,1,1,25,0,0
266671,-10,4,1,1,25,0,0
266675,-263.157894736842,4,1,1,25,0,0
266734,-100,4,1,1,25,0,0
266796,-10,4,1,1,25,0,0
266800,-263.157894736842,4,1,1,25,0,0
266859,-100,4,1,1,25,0,0
266921,-10,4,1,1,25,0,0
266925,-263.157894736842,4,1,1,25,0,0
266984,-100,4,1,1,25,0,0
267046,-10,4,1,1,25,0,0
267050,-263.157894736842,4,1,1,25,0,0
267109,-100,4,1,1,25,0,0
267179,-25.41970337,4,1,1,25,0,0
267202,-10309.27835,4,1,1,25,0,0
267273,-25.82969964,4,1,1,25,0,0
267296,-10309.27835,4,1,1,25,0,0
267367,-26.25313685,4,1,1,25,0,0
267390,-10309.27835,4,1,1,25,0,0
267461,-26.69068862,4,1,1,25,0,0
267484,-10309.27835,4,1,1,25,0,0
267554,-27.14307433,4,1,1,25,0,0
267577,-10309.27835,4,1,1,25,0,0
267648,-27.61105784,4,1,1,25,0,0
267671,-10309.27835,4,1,1,25,0,0
267742,-28.09546179,4,1,1,25,0,0
267765,-10309.27835,4,1,1,25,0,0
267836,-28.59716587,4,1,1,25,0,0
267859,-10309.27835,4,1,1,25,0,0
267929,-29.11711567,4,1,1,25,0,0
267952,-10309.27835,4,1,1,25,0,0
268023,-29.65632089,4,1,1,25,0,0
268046,-10309.27835,4,1,1,25,0,0
268117,-30.21587344,4,1,1,25,0,0
268140,-10309.27835,4,1,1,25,0,0
268211,-30.79694942,4,1,1,25,0,0
268234,-10309.27835,4,1,1,25,0,0
268304,-31.40081047,4,1,1,25,0,0
268327,-10309.27835,4,1,1,25,0,0
268398,-32.02882595,4,1,1,25,0,0
268421,-10309.27835,4,1,1,25,0,0
268492,-32.68247713,4,1,1,25,0,0
268515,-10309.27835,4,1,1,25,0,0
268586,-33.36336129,4,1,1,25,0,0
268609,-10309.27835,4,1,1,25,0,0
268679,-34.0732192,4,1,1,25,0,0
268702,-10309.27835,4,1,1,25,0,0
268773,-34.81394326,4,1,1,25,0,0
268796,-10309.27835,4,1,1,25,0,0
268867,-35.58758556,4,1,1,25,0,0
268890,-10309.27835,4,1,1,25,0,0
268961,-36.39639336,4,1,1,25,0,0
268984,-10309.27835,4,1,1,25,0,0
269054,-37.2428233,4,1,1,25,0,0
269077,-10309.27835,4,1,1,25,0,0
269148,-38.12955618,4,1,1,25,0,0
269171,-10309.27835,4,1,1,25,0,0
269242,-39.05954426,4,1,1,25,0,0
269265,-10309.27835,4,1,1,25,0,0
269336,-40.03603539,4,1,1,25,0,0
269359,-10309.27835,4,1,1,25,0,0
269429,-39.42009677,4,1,1,25,0,0
269452,-9896.907593,4,1,1,25,0,0
269523,-38.16742117,4,1,1,25,0,0
269546,-9336.705257,4,1,1,25,0,0
269617,-37.09902686,4,1,1,25,0,0
269640,-8836.524601,4,1,1,25,0,0
269711,-36.19076689,4,1,1,25,0,0
269734,-8247.42268,4,1,1,25,0,0
269804,-35.42358813,4,1,1,25,0,0
269827,-7981.377033,4,1,1,25,0,0
269898,-34.78243598,4,1,1,25,0,0
269921,-7613.005774,4,1,1,25,0,0
269992,-34.25543193,4,1,1,25,0,0
270015,-7277.137863,4,1,1,25,0,0
270087,-100,4,1,1,25,0,0
270649,-105.2631579,4,1,1,25,0,0
270672,-117.6470588,4,1,1,25,0,0
270696,-133.3333333,4,1,1,25,0,0
270719,-153.8461538,4,1,1,25,0,0
270743,-181.8181818,4,1,1,25,0,0
270766,-222.2222222,4,1,1,25,0,0
270790,-142.8571453,4,1,1,25,0,0
270802,-10000,4,1,1,25,0,0
270813,-144.9275367,4,1,1,25,0,0
270825,-7692.307534,4,1,1,25,0,0
270836,-147.058822,4,1,1,25,0,0
270848,-6249.999703,4,1,1,25,0,0
270860,-149.2537276,4,1,1,25,0,0
270872,-5263.158064,4,1,1,25,0,0
270883,-151.5151592,4,1,1,25,0,0
270895,-4545.45457,4,1,1,25,0,0
270907,-153.8461595,4,1,1,25,0,0
270919,-3999.99994,4,1,1,25,0,0
270930,-156.2500035,4,1,1,25,0,0
270942,-3571.428461,4,1,1,25,0,0
270954,-158.7301599,4,1,1,25,0,0
270966,-3225.806504,4,1,1,25,0,0
270977,-161.2903213,4,1,1,25,0,0
270989,-2941.176311,4,1,1,25,0,0
271000,-163.9344224,4,1,1,25,0,0
271012,-2702.702668,4,1,1,25,0,0
271024,-166.66666,4,1,1,25,0,0
271036,-2500.000056,4,1,1,25,0,0
271047,-169.491533,4,1,1,25,0,0
271059,-2325.581316,4,1,1,25,0,0
271071,-172.4137981,4,1,1,25,0,0
271083,-2173.913039,4,1,1,25,0,0
271094,-175.4385987,4,1,1,25,0,0
271106,-2040.81638,4,1,1,25,0,0
271118,-178.5714278,4,1,1,25,0,0
271130,-1923.076883,4,1,1,25,0,0
271141,-181.8181779,4,1,1,25,0,0
271153,-1818.181828,4,1,1,25,0,0
271164,-185.1851778,4,1,1,25,0,0
271176,-1724.13787,4,1,1,25,0,0
271188,-188.6792555,4,1,1,25,0,0
271200,-1639.344244,4,1,1,25,0,0
271211,-192.3076994,4,1,1,25,0,0
271223,-1562.499926,4,1,1,25,0,0
271235,-196.078435,4,1,1,25,0,0
271247,-1492.537276,4,1,1,25,0,0
271258,-200,4,1,1,25,0,0
271270,-1428.571422,4,1,1,25,0,0
271282,-204.0816287,4,1,1,25,0,0
271294,-1369.863034,4,1,1,25,0,0
271305,-208.333338,4,1,1,25,0,0
271317,-1315.789516,4,1,1,25,0,0
271328,-212.765958,4,1,1,25,0,0
271340,-1265.822727,4,1,1,25,0,0
271352,-217.3913004,4,1,1,25,0,0
271364,-1219.512161,4,1,1,25,0,0
271375,-222.2222281,4,1,1,25,0,0
271387,-1176.470576,4,1,1,25,0,0
271399,-227.2727285,4,1,1,25,0,0
271411,-1136.363643,4,1,1,25,0,0
271422,-232.5581357,4,1,1,25,0,0
271434,-1098.901121,4,1,1,25,0,0
271446,-238.0952286,4,1,1,25,0,0
271458,-1063.829739,4,1,1,25,0,0
271469,-243.9024412,4,1,1,25,0,0
271481,-1030.927805,4,1,1,25,0,0
271493,-249.9999963,4,1,1,25,0,0
271505,-999.9999851,4,1,1,25,0,0
271516,-100,4,1,1,25,0,0
271540,-10000,4,1,1,25,0,0
271563,-400,4,1,1,25,0,0
271610,-125,4,1,1,25,0,0
271633,-10000,4,1,1,25,0,0
271657,-400,4,1,1,25,0,0
271680,-125,4,1,1,25,0,0
271704,-10000,4,1,1,25,0,0
271727,-400,4,1,1,25,0,0
271751,-10000,4,1,1,25,0,0
271773,-415.9733753,4,1,1,25,0,0
271797,-10000,4,1,1,25,0,0
271820,-433.275558,4,1,1,25,0,0
271844,-10000,4,1,1,25,0,0
271867,-452.0795574,4,1,1,25,0,0
271891,-10000,4,1,1,25,0,0
271914,-472.5897795,4,1,1,25,0,0
271938,-10000,4,1,1,25,0,0
271961,-495.0494877,4,1,1,25,0,0
271985,-10000,4,1,1,25,0,0
272008,-519.7505372,4,1,1,25,0,0
272032,-10000,4,1,1,25,0,0
272055,-547.045967,4,1,1,25,0,0
272079,-10000,4,1,1,25,0,0
272102,-577.3672177,4,1,1,25,0,0
272126,-10000,4,1,1,25,0,0
272148,-611.2469521,4,1,1,25,0,0
272172,-10000,4,1,1,25,0,0
272195,-649.3506529,4,1,1,25,0,0
272219,-10000,4,1,1,25,0,0
272242,-692.5207729,4,1,1,25,0,0
272266,-10000,4,1,1,25,0,0
272289,-741.8397517,4,1,1,25,0,0
272313,-10000,4,1,1,25,0,0
272336,-798.7220231,4,1,1,25,0,0
272360,-10000,4,1,1,25,0,0
272383,-865.051923,4,1,1,25,0,0
272407,-10000,4,1,1,25,0,0
272430,-943.3962376,4,1,1,25,0,0
272454,-10000,4,1,1,25,0,0
272477,-1037.344397,4,1,1,25,0,0
272501,-10000,4,1,1,25,0,0
272523,-1152.073712,4,1,1,25,0,0
272547,-10000,4,1,1,25,0,0
272570,-1295.336738,4,1,1,25,0,0
272594,-10000,4,1,1,25,0,0
272617,-1479.290008,4,1,1,25,0,0
272641,-10000,4,1,1,25,0,0
272664,-1724.137981,4,1,1,25,0,0
272688,-10000,4,1,1,25,0,0
272711,-2066.115714,4,1,1,25,0,0
272735,-10000,4,1,1,25,0,0
272758,-2577.319512,4,1,1,25,0,0
272782,-10000,4,1,1,25,0,0
272805,-3424.657454,4,1,1,25,0,0
272829,-10000,4,1,1,25,0,0
272852,-5102.040756,4,1,1,25,0,0
272876,-10000,4,1,1,25,0,0
272899,-10000,4,1,1,25,0,0
272922,-125,4,1,1,25,0,0
272946,-10000,4,1,1,25,0,0
272969,-166.6666667,4,1,1,25,0,0
272993,-1000,4,1,1,25,0,0
273016,-250,4,1,1,25,0,0
273040,-1000,4,1,1,25,0,0
273087,-10000,4,1,1,25,0,0
273111,-10000,4,1,1,25,0,0
273133,-2457.62715,4,1,1,25,0,0
273157,-10000,4,1,1,25,0,0
273180,-1400.966163,4,1,1,25,0,0
273204,-10000,4,1,1,25,0,0
273227,-979.7297763,4,1,1,25,0,0
273251,-10000,4,1,1,25,0,0
273274,-753.2467719,4,1,1,25,0,0
273298,-10000,4,1,1,25,0,0
273321,-611.8143525,4,1,1,25,0,0
273345,-10000,4,1,1,25,0,0
273368,-515.0976914,4,1,1,25,0,0
273392,-10000,4,1,1,25,0,0
273415,-444.7852733,4,1,1,25,0,0
273439,-10000,4,1,1,25,0,0
273461,-391.3630184,4,1,1,25,0,0
273485,-10000,4,1,1,25,0,0
273508,-349.3975848,4,1,1,25,0,0
273532,-10000,4,1,1,25,0,0
273555,-315.5603857,4,1,1,25,0,0
273579,-10000,4,1,1,25,0,0
273602,-287.698431,4,1,1,25,0,0
273626,-10000,4,1,1,25,0,0
273649,-264.3573526,4,1,1,25,0,0
273673,-10000,4,1,1,25,0,0
273696,-244.5194043,4,1,1,25,0,0
273720,-10000,4,1,1,25,0,0
273743,-227.4509894,4,1,1,25,0,0
273767,-10000,4,1,1,25,0,0
273789,-212.6099779,4,1,1,25,0,0
273813,-10000,4,1,1,25,0,0
273836,-199.5870551,4,1,1,25,0,0
273860,-10000,4,1,1,25,0,0
273883,-188.0674599,4,1,1,25,0,0
273907,-10000,4,1,1,25,0,0
273930,-177.8050406,4,1,1,25,0,0
273954,-10000,4,1,1,25,0,0
273977,-168.6046624,4,1,1,25,0,0
274001,-10000,4,1,1,25,0,0
274024,-160.309573,4,1,1,25,0,0
274048,-10000,4,1,1,25,0,0
274071,-152.7924215,4,1,1,25,0,0
274095,-10000,4,1,1,25,0,0
274117,-145.9486737,4,1,1,25,0,0
274141,-10000,4,1,1,25,0,0
274164,-139.6917213,4,1,1,25,0,0
274188,-10000,4,1,1,25,0,0
274211,-133.9491974,4,1,1,25,0,0
274235,-10000,4,1,1,25,0,0
274258,-128.6601647,4,1,1,25,0,0
274282,-10000,4,1,1,25,0,0
274305,-123.772945,4,1,1,25,0,0
274329,-10000,4,1,1,25,0,0
274352,-119.2434249,4,1,1,25,0,0
274376,-10000,4,1,1,25,0,0
274399,-115.0337201,4,1,1,25,0,0
274423,-10000,4,1,1,25,0,0
274446,-111.1111141,4,1,1,25,0,0
274470,-10000,4,1,1,25,0,0
274493,-133.3333333,4,1,1,25,0,0
274505,-444.4444268,4,1,1,25,0,0
274516,-133.3333333,4,1,1,25,0,0
274528,-444.4444268,4,1,1,25,0,0
274539,-133.3333333,4,1,1,25,0,0
274551,-444.4444268,4,1,1,25,0,0
274563,-133.3333333,4,1,1,25,0,0
274575,-444.4444268,4,1,1,25,0,0
274586,-133.3333333,4,1,1,25,0,0
274598,-444.4444268,4,1,1,25,0,0
274610,-133.3333333,4,1,1,25,0,0
274622,-444.4444268,4,1,1,25,0,0
274633,-133.3333333,4,1,1,25,0,0
274645,-444.4444268,4,1,1,25,0,0
274656,-133.3333333,4,1,1,25,0,0
274668,-444.4444268,4,1,1,25,0,0
274680,-133.3333333,4,1,1,25,0,0
274692,-444.4444268,4,1,1,25,0,0
274703,-133.3333333,4,1,1,25,0,0
274715,-444.4444268,4,1,1,25,0,0
274727,-133.3333333,4,1,1,25,0,0
274739,-444.4444268,4,1,1,25,0,0
274750,-133.3333333,4,1,1,25,0,0
274762,-444.4444268,4,1,1,25,0,0
274773,-133.3333333,4,1,1,25,0,0
274785,-444.4444268,4,1,1,25,0,0
274797,-133.3333333,4,1,1,25,0,0
274809,-444.4444268,4,1,1,25,0,0
274820,-133.3333333,4,1,1,25,0,0
274832,-444.4444268,4,1,1,25,0,0
274844,-133.3333333,4,1,1,25,0,0
274856,-444.4444268,4,1,1,25,0,0
274867,-133.3333333,4,1,1,25,0,0
274879,-444.4444268,4,1,1,25,0,0
274891,-133.3333333,4,1,1,25,0,0
274903,-444.4444268,4,1,1,25,0,0
274915,-222.2222223,4,1,1,25,0,0
275116,-74.07407408,4,1,1,25,0,0
275163,-10000,4,1,1,25,0,0
275210,-74.07407408,4,1,1,25,0,0
275257,-10000,4,1,1,25,0,0
275304,-74.07407408,4,1,1,25,0,0
275351,-10000,4,1,1,25,0,0
275398,-88.88888889,4,1,1,25,0,0
275444,-10000,4,1,1,25,0,0
275491,-88.88888889,4,1,1,25,0,0
275538,-10000,4,1,1,25,0,0
275585,-88.88888889,4,1,1,25,0,0
275632,-10000,4,1,1,25,0,0
275679,-88.88888889,4,1,1,25,0,0
275726,-10000,4,1,1,25,0,0
275773,-88.88888889,4,1,1,25,0,0
275819,-10000,4,1,1,25,0,0
275866,-88.88888889,4,1,1,25,0,0
275913,-10000,4,1,1,25,0,0
275960,-88.88888889,4,1,1,25,0,0
276007,-10000,4,1,1,25,0,0
276054,-88.88888889,4,1,1,25,0,0
276109,363.6363636,4,1,1,25,1,0
276109,-103.092783505155,4,1,1,25,0,0
298836,-79.30214116,4,1,1,25,0,0
298881,-147.275405,4,1,1,25,0,0
298972,-79.30214116,4,1,1,25,0,0
299018,-41.2371134,4,1,1,25,0,0
299048,-412.371134,4,1,1,25,0,0
299108,-41.2371134,4,1,1,25,0,0
299138,-412.371134,4,1,1,25,0,0
299199,-103.0927835,4,1,1,25,0,0
299381,-51.54639175,4,1,1,25,0,1
299427,-10309.27835,4,1,1,25,0,1
299472,-68.72852234,4,1,1,25,0,1
299495,-206.185567,4,1,1,25,0,1
299518,-68.72852234,4,1,1,25,0,1
299541,-206.185567,4,1,1,25,0,1
299563,-68.72852234,4,1,1,25,0,1
299586,-206.185567,4,1,1,25,0,1
299609,-68.72852234,4,1,1,25,0,1
299632,-206.185567,4,1,1,25,0,1
299654,-68.72852234,4,1,1,25,0,1
299677,-206.185567,4,1,1,25,0,1
299700,-68.72852234,4,1,1,25,0,1
299723,-206.185567,4,1,1,25,0,1
299745,-51.54639175,4,1,1,25,0,1
299791,-10309.27835,4,1,1,25,0,1
299836,-103.0927835,4,1,1,25,0,1
300108,-51.54639175,4,1,1,25,0,1
300154,-10309.27835,4,1,1,25,0,1
300199,-68.72852234,4,1,1,25,0,1
300222,-206.185567,4,1,1,25,0,1
300245,-68.72852234,4,1,1,25,0,1
300268,-206.185567,4,1,1,25,0,1
300290,-68.72852234,4,1,1,25,0,1
300313,-206.185567,4,1,1,25,0,1
300336,-68.72852234,4,1,1,25,0,1
300359,-206.185567,4,1,1,25,0,1
300381,-68.72852234,4,1,1,25,0,1
300404,-206.185567,4,1,1,25,0,1
300427,-103.092783505155,4,1,1,25,0,1
300472,-51.54639175,4,1,1,25,0,1
300518,-10309.27835,4,1,1,25,0,1
300563,-103.092783505155,4,1,1,25,0,1
300836,-51.54639175,4,1,1,25,0,1
300882,-10309.27835,4,1,1,25,0,1
300927,-68.72852234,4,1,1,25,0,1
300950,-206.185567,4,1,1,25,0,1
300972,-68.72852234,4,1,1,25,0,1
300995,-206.185567,4,1,1,25,0,1
301018,-68.72852234,4,1,1,25,0,1
301041,-206.185567,4,1,1,25,0,1
301063,-68.72852234,4,1,1,25,0,1
301086,-206.185567,4,1,1,25,0,1
301108,-103.092783505155,4,1,1,25,0,1
301199,-51.54639175,4,1,1,25,0,1
301245,-10309.27835,4,1,1,25,0,1
301290,-103.092783505155,4,1,1,25,0,1
301563,-51.54639175,4,1,1,25,0,1
301609,-10309.27835,4,1,1,25,0,1
301654,-68.72852234,4,1,1,25,0,1
301677,-206.185567,4,1,1,25,0,1
301699,-68.72852234,4,1,1,25,0,1
301722,-206.185567,4,1,1,25,0,1
301745,-68.72852234,4,1,1,25,0,1
301768,-206.185567,4,1,1,25,0,1
301790,-103.092783505155,4,1,1,25,0,1
301927,-51.54639175,4,1,1,25,0,1
301973,-10309.27835,4,1,1,25,0,1
302018,-103.092783505155,4,1,1,25,0,1
302290,-51.54639175,4,1,1,25,0,1
302336,-10309.27835,4,1,1,25,0,1
302381,-68.72852234,4,1,1,25,0,1
302404,-206.185567,4,1,1,25,0,1
302427,-68.72852234,4,1,1,25,0,1
302450,-206.185567,4,1,1,25,0,1
302472,-103.092783505155,4,1,1,25,0,1
302654,-51.54639175,4,1,1,25,0,1
302700,-10309.27835,4,1,1,25,0,1
302745,-103.092783505155,4,1,1,25,0,1
303018,-51.54639175,4,1,1,25,0,1
303064,-10309.27835,4,1,1,25,0,1
303108,-68.72852234,4,1,1,25,0,1
303131,-206.185567,4,1,1,25,0,1
303154,-103.092783505155,4,1,1,25,0,1
303381,-51.54639175,4,1,1,25,0,1
303427,-10309.27835,4,1,1,25,0,1
303472,-103.092783505155,4,1,1,25,0,1
303745,-51.54639175,4,1,1,25,0,1
303791,-10309.27835,4,1,1,25,0,1
303836,-103.092783505155,4,1,1,25,0,1
304108,-51.54639175,4,1,1,25,0,1
304154,-10309.27835,4,1,1,25,0,1
304199,-103.092783505155,4,1,1,25,0,1
304472,-51.54639175,4,1,1,25,0,1
304495,-10309.27835,4,1,1,25,0,1
304518,-103.0927835,4,1,1,25,0,1
304836,-51.54639175,4,1,1,25,0,1
304882,-10309.27835,4,1,1,25,0,1
304927,-103.0927835,4,1,1,25,0,1
305199,-51.54639175,4,1,1,25,0,1
305245,-10309.27835,4,1,1,25,0,1
305290,-103.0927835,4,1,1,25,0,1
305381,-73.63770251,4,1,1,25,0,1
305427,-171.8213059,4,1,1,25,0,1
305472,-73.63770251,4,1,1,25,0,1
305518,-171.8213059,4,1,1,25,0,1
305563,-51.54639175,4,1,1,25,0,1
305609,-10309.27835,4,1,1,25,0,1
305654,-103.092783505155,4,1,1,25,0,1
305745,-73.63770251,4,1,1,25,0,1
305791,-171.8213059,4,1,1,25,0,1
305836,-73.63770251,4,1,1,25,0,1
305882,-171.8213059,4,1,1,25,0,1
305927,-51.54639175,4,1,1,25,0,1
305973,-10309.27835,4,1,1,25,0,1
306018,-103.092783505155,4,1,1,25,0,1
306108,-73.63770251,4,1,1,25,0,1
306154,-171.8213059,4,1,1,25,0,1
306199,-73.63770251,4,1,1,25,0,1
306245,-171.8213059,4,1,1,25,0,1
306290,-51.54639175,4,1,1,25,0,1
306336,-10309.27835,4,1,1,25,0,1
306381,-103.092783505155,4,1,1,25,0,1
306472,-73.63770251,4,1,1,25,0,1
306518,-171.8213059,4,1,1,25,0,1
306563,-73.63770251,4,1,1,25,0,1
306609,-171.8213059,4,1,1,25,0,1
306654,-51.54639175,4,1,1,25,0,1
306700,-10309.27835,4,1,1,25,0,1
306745,-103.092783505155,4,1,1,25,0,1
306836,-73.63770251,4,1,1,25,0,1
306882,-171.8213059,4,1,1,25,0,1
306927,-73.63770251,4,1,1,25,0,1
306973,-171.8213059,4,1,1,25,0,1
307018,-51.54639175,4,1,1,25,0,1
307064,-10309.27835,4,1,1,25,0,1
307108,-103.092783505155,4,1,1,25,0,1
307199,-73.63770251,4,1,1,25,0,1
307245,-171.8213059,4,1,1,25,0,1
307290,-73.63770251,4,1,1,25,0,1
307336,-171.8213059,4,1,1,25,0,1
307381,-51.54639175,4,1,1,25,0,1
307427,-10309.27835,4,1,1,25,0,1
307472,-103.092783505155,4,1,1,25,0,1
307563,-73.63770251,4,1,1,25,0,1
307609,-171.8213059,4,1,1,25,0,1
307654,-73.63770251,4,1,1,25,0,1
307700,-171.8213059,4,1,1,25,0,1
307745,-51.54639175,4,1,1,25,0,1
307791,-10309.27835,4,1,1,25,0,1
307836,-103.092783505155,4,1,1,25,0,1
307927,-73.63770251,4,1,1,25,0,1
307973,-171.8213059,4,1,1,25,0,1
308018,-73.63770251,4,1,1,25,0,1
308064,-171.8213059,4,1,1,25,0,1
308108,-51.54639175,4,1,1,25,0,1
308154,-10309.27835,4,1,1,25,0,1
308199,-103.092783505155,4,1,1,25,0,1
308290,-73.63770251,4,1,1,25,0,1
308336,-171.8213059,4,1,1,25,0,1
308381,-73.63770251,4,1,1,25,0,1
308427,-171.8213059,4,1,1,25,0,1
308472,-51.54639175,4,1,1,25,0,1
308518,-10309.27835,4,1,1,25,0,1
308563,-103.092783505155,4,1,1,25,0,1
308654,-73.63770251,4,1,1,25,0,1
308700,-171.8213059,4,1,1,25,0,1
308745,-73.63770251,4,1,1,25,0,1
308791,-171.8213059,4,1,1,25,0,1
308836,-51.54639175,4,1,1,25,0,1
308882,-10309.27835,4,1,1,25,0,1
308927,-103.092783505155,4,1,1,25,0,1
309018,-73.63770251,4,1,1,25,0,1
309064,-171.8213059,4,1,1,25,0,1
309108,-73.63770251,4,1,1,25,0,1
309154,-171.8213059,4,1,1,25,0,1
309199,-51.54639175,4,1,1,25,0,1
309245,-10309.27835,4,1,1,25,0,1
309290,-103.092783505155,4,1,1,25,0,1
309381,-73.63770251,4,1,1,25,0,1
309427,-171.8213059,4,1,1,25,0,1
309472,-73.63770251,4,1,1,25,0,1
309518,-171.8213059,4,1,1,25,0,1
309563,-51.54639175,4,1,1,25,0,1
309609,-10309.27835,4,1,1,25,0,1
309654,-103.092783505155,4,1,1,25,0,1
309745,-73.63770251,4,1,1,25,0,1
309791,-171.8213059,4,1,1,25,0,1
309836,-73.63770251,4,1,1,25,0,1
309882,-171.8213059,4,1,1,25,0,1
309927,-51.54639175,4,1,1,25,0,1
309973,-10309.27835,4,1,1,25,0,1
310018,-103.092783505155,4,1,1,25,0,1
310108,-73.63770251,4,1,1,25,0,1
310154,-171.8213059,4,1,1,25,0,1
310199,-73.63770251,4,1,1,25,0,1
310245,-171.8213059,4,1,1,25,0,1
310290,-51.54639175,4,1,1,25,0,1
310336,-10309.27835,4,1,1,25,0,1
310381,-103.092783505155,4,1,1,25,0,1
310472,-73.63770251,4,1,1,25,0,1
310518,-171.8213059,4,1,1,25,0,1
310563,-73.63770251,4,1,1,25,0,1
310609,-171.8213059,4,1,1,25,0,1
310654,-51.54639175,4,1,1,25,0,1
310700,-10309.27835,4,1,1,25,0,1
310745,-103.092783505155,4,1,1,25,0,1
310836,-73.63770251,4,1,1,25,0,1
310882,-171.8213059,4,1,1,25,0,1
310927,-73.63770251,4,1,1,25,0,1
310973,-171.8213059,4,1,1,25,0,1
311018,-51.54639175,4,1,1,25,0,1
311063,-10309.27835,4,1,1,25,0,1
311108,-68.72852234,4,1,1,25,0,1
311131,-206.185567,4,1,1,25,0,1
311154,-68.72852234,4,1,1,25,0,1
311177,-206.185567,4,1,1,25,0,1
311199,-68.72852234,4,1,1,25,0,1
311222,-206.185567,4,1,1,25,0,1
311245,-68.72852234,4,1,1,25,0,1
311268,-206.185567,4,1,1,25,0,1
311290,-68.72852234,4,1,1,25,0,1
311313,-206.185567,4,1,1,25,0,1
311336,-68.72852234,4,1,1,25,0,1
311359,-206.185567,4,1,1,25,0,1
311381,-51.54639175,4,1,1,25,0,1
311427,-10309.27835,4,1,1,25,0,1
311472,-103.0927835,4,1,1,25,0,1
311745,-51.54639175,4,1,1,25,0,1
311791,-10309.27835,4,1,1,25,0,1
311836,-68.72852234,4,1,1,25,0,1
311859,-206.185567,4,1,1,25,0,1
311881,-68.72852234,4,1,1,25,0,1
311904,-206.185567,4,1,1,25,0,1
311927,-68.72852234,4,1,1,25,0,1
311950,-206.185567,4,1,1,25,0,1
311972,-68.72852234,4,1,1,25,0,1
311995,-206.185567,4,1,1,25,0,1
312018,-68.72852234,4,1,1,25,0,1
312041,-206.185567,4,1,1,25,0,1
312063,-103.0927835,4,1,1,25,0,1
312108,-51.54639175,4,1,1,25,0,1
312154,-10309.27835,4,1,1,25,0,1
312199,-103.0927835,4,1,1,25,0,1
312472,-51.54639175,4,1,1,25,0,1
312518,-10309.27835,4,1,1,25,0,1
312563,-68.72852234,4,1,1,25,0,1
312586,-206.185567,4,1,1,25,0,1
312608,-68.72852234,4,1,1,25,0,1
312631,-206.185567,4,1,1,25,0,1
312654,-68.72852234,4,1,1,25,0,1
312677,-206.185567,4,1,1,25,0,1
312699,-68.72852234,4,1,1,25,0,1
312722,-206.185567,4,1,1,25,0,1
312745,-103.0927835,4,1,1,25,0,1
312836,-51.54639175,4,1,1,25,0,1
312882,-10309.27835,4,1,1,25,0,1
312927,-103.0927835,4,1,1,25,0,1
313199,-51.54639175,4,1,1,25,0,1
313245,-10309.27835,4,1,1,25,0,1
313290,-68.72852234,4,1,1,25,0,1
313313,-206.185567,4,1,1,25,0,1
313336,-68.72852234,4,1,1,25,0,1
313359,-206.185567,4,1,1,25,0,1
313381,-68.72852234,4,1,1,25,0,1
313404,-206.185567,4,1,1,25,0,1
313427,-103.0927835,4,1,1,25,0,1
313563,-51.54639175,4,1,1,25,0,1
313586,-10309.27835,4,1,1,25,0,1
313608,-103.0927835,4,1,1,25,0,1
313927,-51.54639175,4,1,1,25,0,1
313973,-10309.27835,4,1,1,25,0,1
314018,-68.72852234,4,1,1,25,0,1
314041,-206.185567,4,1,1,25,0,1
314063,-68.72852234,4,1,1,25,0,1
314086,-206.185567,4,1,1,25,0,1
314108,-103.0927835,4,1,1,25,0,1
314290,-51.54639175,4,1,1,25,0,1
314336,-10309.27835,4,1,1,25,0,1
314381,-103.0927835,4,1,1,25,0,1
314654,-51.54639175,4,1,1,25,0,1
314700,-10309.27835,4,1,1,25,0,1
314745,-68.72852234,4,1,1,25,0,1
314768,-206.185567,4,1,1,25,0,1
314790,-103.0927835,4,1,1,25,0,1
315018,-51.54639175,4,1,1,25,0,1
315064,-10309.27835,4,1,1,25,0,1
315108,-103.0927835,4,1,1,25,0,1
315381,-51.54639175,4,1,1,25,0,1
315427,-10309.27835,4,1,1,25,0,1
315472,-103.0927835,4,1,1,25,0,1
315745,-51.54639175,4,1,1,25,0,1
315791,-10309.27835,4,1,1,25,0,1
315836,-103.0927835,4,1,1,25,0,1
316108,-51.54639175,4,1,1,25,0,1
316131,-10309.27835,4,1,1,25,0,1
316154,-103.0927835,4,1,1,25,0,1
316472,-51.54639175,4,1,1,25,0,1
316495,-10309.27835,4,1,1,25,0,1
316518,-103.0927835,4,1,1,25,0,1
316836,-51.54639175,4,1,1,25,0,1
316882,-10309.27835,4,1,1,25,0,1
316927,-103.092783505155,4,1,1,25,0,1
317018,-73.63770251,4,1,1,25,0,1
317064,-171.8213059,4,1,1,25,0,1
317108,-73.63770251,4,1,1,25,0,1
317154,-171.8213059,4,1,1,25,0,1
317199,-51.54639175,4,1,1,25,0,1
317245,-10309.27835,4,1,1,25,0,1
317290,-103.092783505155,4,1,1,25,0,1
317381,-73.63770251,4,1,1,25,0,1
317427,-171.8213059,4,1,1,25,0,1
317472,-73.63770251,4,1,1,25,0,1
317518,-171.8213059,4,1,1,25,0,1
317563,-51.54639175,4,1,1,25,0,1
317609,-10309.27835,4,1,1,25,0,1
317654,-103.092783505155,4,1,1,25,0,1
317745,-73.63770251,4,1,1,25,0,1
317791,-171.8213059,4,1,1,25,0,1
317836,-73.63770251,4,1,1,25,0,1
317882,-171.8213059,4,1,1,25,0,1
317927,-51.54639175,4,1,1,25,0,1
317973,-10309.27835,4,1,1,25,0,1
318018,-103.092783505155,4,1,1,25,0,1
318108,-73.63770251,4,1,1,25,0,1
318154,-171.8213059,4,1,1,25,0,1
318199,-73.63770251,4,1,1,25,0,1
318245,-171.8213059,4,1,1,25,0,1
318290,-51.54639175,4,1,1,25,0,1
318336,-10309.27835,4,1,1,25,0,1
318381,-103.092783505155,4,1,1,25,0,1
318472,-73.63770251,4,1,1,25,0,1
318518,-171.8213059,4,1,1,25,0,1
318563,-73.63770251,4,1,1,25,0,1
318609,-171.8213059,4,1,1,25,0,1
318654,-51.54639175,4,1,1,25,0,1
318700,-10309.27835,4,1,1,25,0,1
318745,-103.092783505155,4,1,1,25,0,1
318836,-73.63770251,4,1,1,25,0,1
318882,-171.8213059,4,1,1,25,0,1
318927,-73.63770251,4,1,1,25,0,1
318973,-171.8213059,4,1,1,25,0,1
319018,-51.54639175,4,1,1,25,0,1
319064,-10309.27835,4,1,1,25,0,1
319108,-103.092783505155,4,1,1,25,0,1
319199,-73.63770251,4,1,1,25,0,1
319245,-171.8213059,4,1,1,25,0,1
319290,-73.63770251,4,1,1,25,0,1
319336,-171.8213059,4,1,1,25,0,1
319381,-51.54639175,4,1,1,25,0,1
319427,-10309.27835,4,1,1,25,0,1
319472,-103.092783505155,4,1,1,25,0,1
319563,-73.63770251,4,1,1,25,0,1
319609,-171.8213059,4,1,1,25,0,1
319654,-73.63770251,4,1,1,25,0,1
319700,-171.8213059,4,1,1,25,0,1
319745,-51.54639175,4,1,1,25,0,1
319791,-10309.27835,4,1,1,25,0,1
319836,-103.092783505155,4,1,1,25,0,1
319927,-73.63770251,4,1,1,25,0,1
319973,-171.8213059,4,1,1,25,0,1
320018,-73.63770251,4,1,1,25,0,1
320064,-171.8213059,4,1,1,25,0,1
320108,-51.54639175,4,1,1,25,0,1
320154,-10309.27835,4,1,1,25,0,1
320199,-103.092783505155,4,1,1,25,0,1
320290,-73.63770251,4,1,1,25,0,1
320336,-171.8213059,4,1,1,25,0,1
320381,-73.63770251,4,1,1,25,0,1
320427,-171.8213059,4,1,1,25,0,1
320472,-51.54639175,4,1,1,25,0,1
320518,-10309.27835,4,1,1,25,0,1
320563,-103.092783505155,4,1,1,25,0,1
320654,-73.63770251,4,1,1,25,0,1
320700,-171.8213059,4,1,1,25,0,1
320745,-73.63770251,4,1,1,25,0,1
320791,-171.8213059,4,1,1,25,0,1
320836,-51.54639175,4,1,1,25,0,1
320882,-10309.27835,4,1,1,25,0,1
320927,-103.092783505155,4,1,1,25,0,1
321018,-73.63770251,4,1,1,25,0,1
321064,-171.8213059,4,1,1,25,0,1
321108,-73.63770251,4,1,1,25,0,1
321154,-171.8213059,4,1,1,25,0,1
321200,-41.2371134,4,1,1,25,0,1
321245,-206.185567,4,1,1,25,0,1
321382,-103.0927835,4,1,1,25,0,1
321745,-206.185567,4,1,1,25,0,1
321882,-41.2371134,4,1,1,25,0,1
321927,-103.0927835,4,1,1,25,0,1
322290,-60.64281383,4,1,1,25,0,1
322336,-343.6426117,4,1,1,25,0,1
322427,-60.6060606060606,4,1,1,25,0,1
322472,-103.0927835,4,1,1,25,0,1
322654,-51.54639175,4,1,1,25,0,1
322700,-10309.27835,4,1,1,25,0,1
322745,-68.72852234,4,1,1,25,0,1
322768,-206.185567,4,1,1,25,0,1
322790,-68.72852234,4,1,1,25,0,1
322813,-206.185567,4,1,1,25,0,1
322836,-68.72852234,4,1,1,25,0,1
322859,-206.185567,4,1,1,25,0,1
322881,-68.72852234,4,1,1,25,0,1
322904,-206.185567,4,1,1,25,0,1
322927,-68.72852234,4,1,1,25,0,1
322950,-206.185567,4,1,1,25,0,1
322972,-68.72852234,4,1,1,25,0,1
322995,-206.185567,4,1,1,25,0,1
323018,-51.54639175,4,1,1,25,0,1
323064,-10309.27835,4,1,1,25,0,1
323108,-103.092783505155,4,1,1,25,0,1
323381,-51.54639175,4,1,1,25,0,1
323427,-10309.27835,4,1,1,25,0,1
323472,-68.72852234,4,1,1,25,0,1
323495,-206.185567,4,1,1,25,0,1
323518,-68.72852234,4,1,1,25,0,1
323541,-206.185567,4,1,1,25,0,1
323563,-68.72852234,4,1,1,25,0,1
323586,-206.185567,4,1,1,25,0,1
323608,-68.72852234,4,1,1,25,0,1
323631,-206.185567,4,1,1,25,0,1
323654,-68.72852234,4,1,1,25,0,1
323677,-206.185567,4,1,1,25,0,1
323699,-103.092783505155,4,1,1,25,0,1
323745,-51.54639175,4,1,1,25,0,1
323791,-10309.27835,4,1,1,25,0,1
323836,-103.092783505155,4,1,1,25,0,1
324108,-51.54639175,4,1,1,25,0,1
324154,-10309.27835,4,1,1,25,0,1
324199,-68.72852234,4,1,1,25,0,1
324222,-206.185567,4,1,1,25,0,1
324245,-68.72852234,4,1,1,25,0,1
324268,-206.185567,4,1,1,25,0,1
324290,-68.72852234,4,1,1,25,0,1
324313,-206.185567,4,1,1,25,0,1
324336,-68.72852234,4,1,1,25,0,1
324359,-206.185567,4,1,1,25,0,1
324381,-103.092783505155,4,1,1,25,0,1
324472,-51.54639175,4,1,1,25,0,1
324518,-10309.27835,4,1,1,25,0,1
324563,-103.092783505155,4,1,1,25,0,1
324836,-51.54639175,4,1,1,25,0,1
324882,-10309.27835,4,1,1,25,0,1
324927,-68.72852234,4,1,1,25,0,1
324950,-206.185567,4,1,1,25,0,1
324972,-68.72852234,4,1,1,25,0,1
324995,-206.185567,4,1,1,25,0,1
325018,-68.72852234,4,1,1,25,0,1
325041,-206.185567,4,1,1,25,0,1
325063,-103.092783505155,4,1,1,25,0,1
325199,-51.54639175,4,1,1,25,0,1
325245,-10309.27835,4,1,1,25,0,1
325290,-103.092783505155,4,1,1,25,0,1
325563,-51.54639175,4,1,1,25,0,1
325609,-10309.27835,4,1,1,25,0,1
325654,-68.72852234,4,1,1,25,0,1
325677,-206.185567,4,1,1,25,0,1
325699,-68.72852234,4,1,1,25,0,1
325722,-206.185567,4,1,1,25,0,1
325745,-103.092783505155,4,1,1,25,0,1
325927,-51.54639175,4,1,1,25,0,1
325973,-10309.27835,4,1,1,25,0,1
326018,-103.092783505155,4,1,1,25,0,1
326290,-51.54639175,4,1,1,25,0,1
326336,-10309.27835,4,1,1,25,0,1
326381,-68.72852234,4,1,1,25,0,1
326404,-206.185567,4,1,1,25,0,1
326427,-103.092783505155,4,1,1,25,0,1
326654,-51.54639175,4,1,1,25,0,1
326700,-10309.27835,4,1,1,25,0,1
326745,-103.092783505155,4,1,1,25,0,1
327018,-51.54639175,4,1,1,25,0,1
327064,-10309.27835,4,1,1,25,0,1
327108,-103.092783505155,4,1,1,25,0,1
327381,-51.54639175,4,1,1,25,0,1
327427,-10309.27835,4,1,1,25,0,1
327472,-103.092783505155,4,1,1,25,0,1
327745,-51.54639175,4,1,1,25,0,1
327767,-10309.27835,4,1,1,25,0,1
327790,-103.0927835,4,1,1,25,0,1
328108,-51.54639175,4,1,1,25,0,1
328154,-10309.27835,4,1,1,25,0,1
328199,-103.0927835,4,1,1,25,0,1
328472,-51.54639175,4,1,1,25,0,1
328518,-10309.27835,4,1,1,25,0,1
328563,-103.092783505155,4,1,1,25,0,1
328654,-73.63770251,4,1,1,25,0,1
328700,-171.8213059,4,1,1,25,0,1
328745,-73.63770251,4,1,1,25,0,1
328791,-171.8213059,4,1,1,25,0,1
328836,-51.54639175,4,1,1,25,0,1
328882,-10309.27835,4,1,1,25,0,1
328927,-103.092783505155,4,1,1,25,0,1
329018,-73.63770251,4,1,1,25,0,1
329064,-171.8213059,4,1,1,25,0,1
329108,-73.63770251,4,1,1,25,0,1
329154,-171.8213059,4,1,1,25,0,1
329199,-51.54639175,4,1,1,25,0,1
329245,-10309.27835,4,1,1,25,0,1
329290,-103.092783505155,4,1,1,25,0,1
329381,-73.63770251,4,1,1,25,0,1
329427,-171.8213059,4,1,1,25,0,1
329472,-73.63770251,4,1,1,25,0,1
329518,-171.8213059,4,1,1,25,0,1
329563,-51.54639175,4,1,1,25,0,1
329609,-10309.27835,4,1,1,25,0,1
329654,-103.092783505155,4,1,1,25,0,1
329745,-73.63770251,4,1,1,25,0,1
329791,-171.8213059,4,1,1,25,0,1
329836,-73.63770251,4,1,1,25,0,1
329882,-171.8213059,4,1,1,25,0,1
329927,-51.54639175,4,1,1,25,0,1
329973,-10309.27835,4,1,1,25,0,1
330018,-103.092783505155,4,1,1,25,0,1
330108,-73.63770251,4,1,1,25,0,1
330154,-171.8213059,4,1,1,25,0,1
330199,-73.63770251,4,1,1,25,0,1
330245,-171.8213059,4,1,1,25,0,1
330290,-51.54639175,4,1,1,25,0,1
330336,-10309.27835,4,1,1,25,0,1
330381,-103.092783505155,4,1,1,25,0,1
330472,-73.63770251,4,1,1,25,0,1
330518,-171.8213059,4,1,1,25,0,1
330563,-73.63770251,4,1,1,25,0,1
330609,-171.8213059,4,1,1,25,0,1
330654,-51.54639175,4,1,1,25,0,1
330700,-10309.27835,4,1,1,25,0,1
330745,-103.092783505155,4,1,1,25,0,1
330836,-73.63770251,4,1,1,25,0,1
330882,-171.8213059,4,1,1,25,0,1
330927,-73.63770251,4,1,1,25,0,1
330973,-171.8213059,4,1,1,25,0,1
331018,-51.54639175,4,1,1,25,0,1
331064,-10309.27835,4,1,1,25,0,1
331108,-103.092783505155,4,1,1,25,0,1
331199,-73.63770251,4,1,1,25,0,1
331245,-171.8213059,4,1,1,25,0,1
331290,-73.63770251,4,1,1,25,0,1
331336,-171.8213059,4,1,1,25,0,1
331381,-51.54639175,4,1,1,25,0,1
331427,-10309.27835,4,1,1,25,0,1
331472,-103.092783505155,4,1,1,25,0,1
331563,-73.63770251,4,1,1,25,0,1
331609,-171.8213059,4,1,1,25,0,1
331654,-73.63770251,4,1,1,25,0,1
331700,-171.8213059,4,1,1,25,0,1
331745,-51.54639175,4,1,1,25,0,1
331791,-10309.27835,4,1,1,25,0,1
331836,-103.092783505155,4,1,1,25,0,1
331927,-73.63770251,4,1,1,25,0,1
331973,-171.8213059,4,1,1,25,0,1
332018,-73.63770251,4,1,1,25,0,1
332064,-171.8213059,4,1,1,25,0,1
332108,-51.54639175,4,1,1,25,0,1
332154,-10309.27835,4,1,1,25,0,1
332199,-103.092783505155,4,1,1,25,0,1
332290,-73.63770251,4,1,1,25,0,1
332336,-171.8213059,4,1,1,25,0,1
332381,-73.63770251,4,1,1,25,0,1
332427,-171.8213059,4,1,1,25,0,1
332472,-51.54639175,4,1,1,25,0,1
332518,-10309.27835,4,1,1,25,0,1
332563,-103.092783505155,4,1,1,25,0,1
332654,-73.63770251,4,1,1,25,0,1
332700,-171.8213059,4,1,1,25,0,1
332745,-73.63770251,4,1,1,25,0,1
332791,-171.8213059,4,1,1,25,0,1
332836,-51.54639175,4,1,1,25,0,1
332882,-10309.27835,4,1,1,25,0,1
332927,-103.092783505155,4,1,1,25,0,1
333018,-73.63770251,4,1,1,25,0,1
333064,-171.8213059,4,1,1,25,0,1
333108,-73.63770251,4,1,1,25,0,1
333154,-171.8213059,4,1,1,25,0,1
333199,-51.54639175,4,1,1,25,0,1
333245,-10309.27835,4,1,1,25,0,1
333290,-103.092783505155,4,1,1,25,0,1
333381,-73.63770251,4,1,1,25,0,1
333427,-171.8213059,4,1,1,25,0,1
333472,-73.63770251,4,1,1,25,0,1
333518,-171.8213059,4,1,1,25,0,1
333563,-51.54639175,4,1,1,25,0,1
333609,-10309.27835,4,1,1,25,0,1
333654,-103.092783505155,4,1,1,25,0,1
333745,-73.63770251,4,1,1,25,0,1
333791,-171.8213059,4,1,1,25,0,1
333836,-73.63770251,4,1,1,25,0,1
333882,-171.8213059,4,1,1,25,0,1
333927,-51.54639175,4,1,1,25,0,1
333973,-10309.27835,4,1,1,25,0,1
334018,-103.092783505155,4,1,1,25,0,1
334108,-73.63770251,4,1,1,25,0,1
334154,-171.8213059,4,1,1,25,0,1
334199,-73.63770251,4,1,1,25,0,1
334245,-171.8213059,4,1,1,25,0,1
334290,-51.54639175,4,1,1,25,0,1
334336,-10309.27835,4,1,1,25,0,1
334381,-68.72852234,4,1,1,25,0,1
334404,-206.185567,4,1,1,25,0,1
334427,-68.72852234,4,1,1,25,0,1
334450,-206.185567,4,1,1,25,0,1
334472,-68.72852234,4,1,1,25,0,1
334495,-206.185567,4,1,1,25,0,1
334518,-68.72852234,4,1,1,25,0,1
334541,-206.185567,4,1,1,25,0,1
334563,-68.72852234,4,1,1,25,0,1
334586,-206.185567,4,1,1,25,0,1
334608,-68.72852234,4,1,1,25,0,1
334631,-206.185567,4,1,1,25,0,1
334654,-51.54639175,4,1,1,25,0,1
334700,-10309.27835,4,1,1,25,0,1
334745,-103.092783505155,4,1,1,25,0,1
335018,-51.54639175,4,1,1,25,0,1
335064,-10309.27835,4,1,1,25,0,1
335108,-68.72852234,4,1,1,25,0,1
335131,-206.185567,4,1,1,25,0,1
335154,-68.72852234,4,1,1,25,0,1
335177,-206.185567,4,1,1,25,0,1
335199,-68.72852234,4,1,1,25,0,1
335222,-206.185567,4,1,1,25,0,1
335245,-68.72852234,4,1,1,25,0,1
335268,-206.185567,4,1,1,25,0,1
335290,-68.72852234,4,1,1,25,0,1
335313,-206.185567,4,1,1,25,0,1
335336,-103.092783505155,4,1,1,25,0,1
335381,-51.54639175,4,1,1,25,0,1
335427,-10309.27835,4,1,1,25,0,1
335472,-103.092783505155,4,1,1,25,0,1
335745,-51.54639175,4,1,1,25,0,1
335791,-10309.27835,4,1,1,25,0,1
335836,-68.72852234,4,1,1,25,0,1
335859,-206.185567,4,1,1,25,0,1
335881,-68.72852234,4,1,1,25,0,1
335904,-206.185567,4,1,1,25,0,1
335927,-68.72852234,4,1,1,25,0,1
335950,-206.185567,4,1,1,25,0,1
335972,-68.72852234,4,1,1,25,0,1
335995,-206.185567,4,1,1,25,0,1
336018,-103.092783505155,4,1,1,25,0,1
336108,-51.54639175,4,1,1,25,0,1
336154,-10309.27835,4,1,1,25,0,1
336199,-103.092783505155,4,1,1,25,0,1
336472,-51.54639175,4,1,1,25,0,1
336518,-10309.27835,4,1,1,25,0,1
336563,-68.72852234,4,1,1,25,0,1
336586,-206.185567,4,1,1,25,0,1
336608,-68.72852234,4,1,1,25,0,1
336631,-206.185567,4,1,1,25,0,1
336654,-68.72852234,4,1,1,25,0,1
336677,-206.185567,4,1,1,25,0,1
336699,-103.092783505155,4,1,1,25,0,1
336836,-51.54639175,4,1,1,25,0,1
336882,-10309.27835,4,1,1,25,0,1
336927,-103.092783505155,4,1,1,25,0,1
337199,-51.54639175,4,1,1,25,0,1
337245,-10309.27835,4,1,1,25,0,1
337290,-68.72852234,4,1,1,25,0,1
337313,-206.185567,4,1,1,25,0,1
337336,-68.72852234,4,1,1,25,0,1
337359,-206.185567,4,1,1,25,0,1
337381,-103.092783505155,4,1,1,25,0,1
337563,-51.54639175,4,1,1,25,0,1
337609,-10309.27835,4,1,1,25,0,1
337654,-103.092783505155,4,1,1,25,0,1
337927,-51.54639175,4,1,1,25,0,1
337973,-10309.27835,4,1,1,25,0,1
338018,-68.72852234,4,1,1,25,0,1
338041,-206.185567,4,1,1,25,0,1
338063,-103.092783505155,4,1,1,25,0,1
338290,-51.54639175,4,1,1,25,0,1
338336,-10309.27835,4,1,1,25,0,1
338381,-103.092783505155,4,1,1,25,0,1
338654,-51.54639175,4,1,1,25,0,1
338700,-10309.27835,4,1,1,25,0,1
338745,-103.092783505155,4,1,1,25,0,1
339018,-51.54639175,4,1,1,25,0,1
339064,-10309.27835,4,1,1,25,0,1
339108,-103.092783505155,4,1,1,25,0,1
339381,-51.54639175,4,1,1,25,0,1
339404,-10309.27835,4,1,1,25,0,1
339427,-103.0927835,4,1,1,25,0,1
339745,-51.54639175,4,1,1,25,0,1
339790,-10309.27835,4,1,1,25,0,1
339836,-103.0927835,4,1,1,25,0,1
339927,-73.63770251,4,1,1,25,0,1
339973,-171.8213059,4,1,1,25,0,1
340018,-73.63770251,4,1,1,25,0,1
340064,-171.8213059,4,1,1,25,0,1
340108,-51.54639175,4,1,1,25,0,1
340154,-10309.27835,4,1,1,25,0,1
340199,-103.092783505155,4,1,1,25,0,1
340290,-73.63770251,4,1,1,25,0,1
340336,-171.8213059,4,1,1,25,0,1
340381,-73.63770251,4,1,1,25,0,1
340427,-171.8213059,4,1,1,25,0,1
340472,-51.54639175,4,1,1,25,0,1
340518,-10309.27835,4,1,1,25,0,1
340563,-103.092783505155,4,1,1,25,0,1
340654,-73.63770251,4,1,1,25,0,1
340700,-171.8213059,4,1,1,25,0,1
340745,-73.63770251,4,1,1,25,0,1
340791,-171.8213059,4,1,1,25,0,1
340836,-51.54639175,4,1,1,25,0,1
340882,-10309.27835,4,1,1,25,0,1
340927,-103.092783505155,4,1,1,25,0,1
341018,-73.63770251,4,1,1,25,0,1
341064,-171.8213059,4,1,1,25,0,1
341108,-73.63770251,4,1,1,25,0,1
341154,-171.8213059,4,1,1,25,0,1
341199,-51.54639175,4,1,1,25,0,1
341245,-10309.27835,4,1,1,25,0,1
341290,-103.092783505155,4,1,1,25,0,1
341381,-73.63770251,4,1,1,25,0,1
341427,-171.8213059,4,1,1,25,0,1
341472,-73.63770251,4,1,1,25,0,1
341518,-171.8213059,4,1,1,25,0,1
341563,-51.54639175,4,1,1,25,0,1
341609,-10309.27835,4,1,1,25,0,1
341654,-103.092783505155,4,1,1,25,0,1
341745,-73.63770251,4,1,1,25,0,1
341791,-171.8213059,4,1,1,25,0,1
341836,-73.63770251,4,1,1,25,0,1
341882,-171.8213059,4,1,1,25,0,1
341927,-51.54639175,4,1,1,25,0,1
341973,-10309.27835,4,1,1,25,0,1
342018,-103.092783505155,4,1,1,25,0,1
342108,-73.63770251,4,1,1,25,0,1
342154,-171.8213059,4,1,1,25,0,1
342199,-73.63770251,4,1,1,25,0,1
342245,-171.8213059,4,1,1,25,0,1
342290,-51.54639175,4,1,1,25,0,1
342336,-10309.27835,4,1,1,25,0,1
342381,-103.092783505155,4,1,1,25,0,1
342472,-73.63770251,4,1,1,25,0,1
342518,-171.8213059,4,1,1,25,0,1
342563,-73.63770251,4,1,1,25,0,1
342609,-171.8213059,4,1,1,25,0,1
342654,-51.54639175,4,1,1,25,0,1
342700,-10309.27835,4,1,1,25,0,1
342745,-103.092783505155,4,1,1,25,0,1
342836,-73.63770251,4,1,1,25,0,1
342882,-171.8213059,4,1,1,25,0,1
342927,-73.63770251,4,1,1,25,0,1
342973,-171.8213059,4,1,1,25,0,1
343018,-103.092783505155,4,1,1,25,0,1
343199,-73.63770251,4,1,1,25,0,1
343245,-171.8213059,4,1,1,25,0,1
343290,-73.63770251,4,1,1,25,0,1
343336,-171.8213059,4,1,1,25,0,1
343381,-103.092783505155,4,1,1,25,0,1
343563,-73.63770251,4,1,1,25,0,1
343609,-171.8213059,4,1,1,25,0,1
343654,-73.63770251,4,1,1,25,0,1
343700,-171.8213059,4,1,1,25,0,1
343745,-103.092783505155,4,1,1,25,0,1
343927,-73.63770251,4,1,1,25,0,1
343973,-171.8213059,4,1,1,25,0,1
344018,-73.63770251,4,1,1,25,0,1
344064,-171.8213059,4,1,1,25,0,1
344108,-103.092783505155,4,1,1,25,0,1
344290,-73.63770251,4,1,1,25,0,1
344336,-171.8213059,4,1,1,25,0,1
344381,-73.63770251,4,1,1,25,0,1
344427,-171.8213059,4,1,1,25,0,1
344472,-103.092783505155,4,1,1,25,0,1
344654,-73.63770251,4,1,1,25,0,1
344700,-171.8213059,4,1,1,25,0,1
344745,-73.63770251,4,1,1,25,0,1
344791,-171.8213059,4,1,1,25,0,1
344836,-103.092783505155,4,1,1,25,0,1
345018,-73.63770251,4,1,1,25,0,1
345064,-171.8213059,4,1,1,25,0,1
345108,-73.63770251,4,1,1,25,0,1
345154,-171.8213059,4,1,1,25,0,1
345199,-103.0927835,4,1,1,25,0,1
345381,-73.63770251,4,1,1,25,0,1
345427,-171.8213059,4,1,1,25,0,1
345472,-73.63770251,4,1,1,25,0,1
345518,-171.8213059,4,1,1,25,0,1
345563,-41.2371134,4,1,1,25,0,1
345593,-412.371134,4,1,1,25,0,1
345654,-41.2371134,4,1,1,25,0,1
345684,-412.371134,4,1,1,25,0,1
345745,-73.63770251,4,1,1,25,0,1
345790,-171.8213059,4,1,1,25,0,1
345836,-73.63770251,4,1,1,25,0,1
345881,-171.8213059,4,1,1,25,0,1
345927,-34.36426116,4,1,1,25,0,0
345930,-34.50324306,4,1,1,25,0,0
345934,-34.85272344,4,1,1,25,0,0
345938,-35.64230287,4,1,1,25,0,0
345943,-37.09343814,4,1,1,25,0,0
345949,-39.46802394,4,1,1,25,0,0
345956,-43.1353853,4,1,1,25,0,0
345967,-48.67760393,4,1,1,25,0,0
345980,-57.07794464,4,1,1,25,0,0
345996,-70.08412466,4,1,1,25,0,0
346017,-90.90956332,4,1,1,25,0,0
346043,-125.3249236,4,1,1,25,0,0
346076,-180.9515571,4,1,1,25,0,0
346116,-249.0274791,4,1,1,25,0,0
346164,-257.9890834,4,1,1,25,0,0
346221,-178.8424748,4,1,1,25,0,0
346290,-50,4,1,1,25,0,0
346304,-58.2251905,4,1,1,25,0,0
346321,-67.99471547,4,1,1,25,0,0
346342,-79.38408171,4,1,1,25,0,0
346365,-92.21201334,4,1,1,25,0,0
346391,-105.8224094,4,1,1,25,0,0
346420,-118.8686643,4,1,1,25,0,0
346451,-129.3137771,4,1,1,25,0,0
346486,-134.9301701,4,1,1,25,0,0
346524,-134.2825381,4,1,1,25,0,0
346564,-127.5451766,4,1,1,25,0,0
346607,-116.3959526,4,1,1,25,0,0
346654,-103.0927805,4,1,1,25,0,0
405563,400,4,1,1,25,1,0
405563,-93.72071228,4,1,1,25,0,0
405763,-94.58053533,4,1,1,25,0,0
405963,-95.45628102,4,1,1,25,0,0
406163,-96.3483958,4,1,1,25,0,0
406363,-97.25734293,4,1,1,25,0,0
406563,-98.18360334,4,1,1,25,0,0
406763,-99.12767644,4,1,1,25,0,0
406963,-100.0900811,4,1,1,25,0,0
407163,389.6103896,4,1,1,25,1,0
407163,-104.1341248,4,1,1,25,0,0
407357,-105.1967179,4,1,1,25,0,0
407552,-106.2812201,4,1,1,25,0,0
407747,-107.3883162,4,1,1,25,0,0
407942,402.6845638,4,1,1,25,1,0
407942,-105.1967179,4,1,1,25,0,0
408143,-106.2812201,4,1,1,25,0,0
408344,-107.3883162,4,1,1,25,0,0
408546,-108.5187195,4,1,1,25,0,0
408747,392.1568627,4,1,1,25,1,0
408747,-112.0573734,4,1,1,25,0,0
408943,-113.2887731,4,1,1,25,0,0
409139,-114.5475372,4,1,1,25,0,0
409335,-115.8345882,4,1,1,25,0,0
409531,402.6845638,4,1,1,25,1,0
409531,-114.5475372,4,1,1,25,0,0
409732,-115.8345882,4,1,1,25,0,0
409933,-117.1508903,4,1,1,25,0,0
410135,-118.4974523,4,1,1,25,0,0
410336,428.5714286,4,1,1,25,1,0
410336,-112.0573734,4,1,1,25,0,0
410550,-113.2887731,4,1,1,25,0,0
410764,-114.5475372,4,1,1,25,0,0
410978,-115.8345882,4,1,1,25,0,0
411193,-117.1508903,4,1,1,25,0,0
411407,-118.4974523,4,1,1,25,0,0
411621,-119.8753297,4,1,1,25,0,0
411836,-121.2856277,4,1,1,25,0,0
412050,508.4745763,4,1,1,25,1,0
412050,-103.0927835,4,1,1,25,0,0
412304,-104.1341248,4,1,1,25,0,0
412558,-105.1967179,4,1,1,25,0,0
412812,-106.2812201,4,1,1,25,0,0
413066,-107.3883162,4,1,1,25,0,0
414083,595.3165,4,1,1,25,1,0
414083,-92.87638154,4,1,1,25,0,0
423139,375,4,1,1,25,1,8
423139,-144.927536231884,4,1,1,25,0,0
423161,-142.857142857143,4,1,1,25,0,0
423190,-140.845070422535,4,1,1,25,0,0
423219,-138.888888888889,4,1,1,25,0,0
423248,-136.986301369863,4,1,1,25,0,0
423277,-135.135135135135,4,1,1,25,0,0
423306,-133.333333333333,4,1,1,25,0,0
423335,-131.578947368421,4,1,1,25,0,0
423364,-129.8701299,4,1,1,25,0,0
423393,-125.5886993,4,1,1,25,0,0
423422,-119.047619,4,1,1,25,0,0
423451,-113.6363636,4,1,1,25,0,0
423480,-108.6956522,4,1,1,25,0,0
423509,-104.1666667,4,1,1,25,0,0
423538,-100,4,1,1,25,0,0
423608,375,4,1,1,25,1,0
423608,-100,4,1,1,25,0,0
434483,-83.33333333,4,1,1,25,0,0
434529,-125,4,1,1,25,0,0
434576,-71.42857143,4,1,1,25,0,0
434623,-166.666666666667,4,1,1,25,0,0
434670,-66.6666666666667,4,1,1,25,0,0
434717,-200,4,1,1,25,0,0
434764,-58.82352941,4,1,1,25,0,0
434811,-333.333333333333,4,1,1,25,0,0
434858,-100,4,1,1,25,0,0
435045,-71.42857143,4,1,1,25,0,0
435092,-166.666666666667,4,1,1,25,0,0
435139,-66.66666667,4,1,1,25,0,0
435186,-200,4,1,1,25,0,0
435233,-100,4,1,1,25,0,0
435420,-55.55555703,4,1,1,25,0,0
435443,-500,4,1,1,25,0,0
435467,-55.55555556,4,1,1,25,0,0
435490,-500,4,1,1,25,0,0
435514,-55.55555556,4,1,1,25,0,0
435537,-500,4,1,1,25,0,0
435561,-55.55555556,4,1,1,25,0,0
435584,-500,4,1,1,25,0,0
435608,-100,4,1,1,25,0,0
439920,-250,4,1,1,25,0,0
440014,-62.5,4,1,1,25,0,0
440108,-250,4,1,1,25,0,0
440201,-62.5,4,1,1,25,0,0
440295,-250,4,1,1,25,0,0
440389,-62.5,4,1,1,25,0,0
440483,-100,4,1,1,25,0,0
440670,-142.857142857143,4,1,1,25,0,0
440764,-76.92307692,4,1,1,25,0,0
440858,-142.857142857143,4,1,1,25,0,0
440951,-76.92307692,4,1,1,25,0,0
441045,-100,4,1,1,25,0,0
441108,-50.251256281407,4,1,1,25,0,0
441139,-10000,4,1,1,25,0,0
441170,-50.251256281407,4,1,1,25,0,0
441201,-10000,4,1,1,25,0,0
441233,-100,4,1,1,25,0,0
441514,-50.251256281407,4,1,1,25,0,0
441537,-10000,4,1,1,25,0,0
441561,-100,4,1,1,25,0,0
445920,-250,4,1,1,25,0,0
446014,-50.251256281407,4,1,1,25,0,0
446037,-10000,4,1,1,25,0,0
446061,-50.251256281407,4,1,1,25,0,0
446084,-10000,4,1,1,25,0,0
446108,-100,4,1,1,25,0,0
446295,-66.66666667,4,1,1,25,0,0
446318,-200,4,1,1,25,0,0
446342,-66.66666667,4,1,1,25,0,0
446365,-200,4,1,1,25,0,0
446389,-66.66666667,4,1,1,25,0,0
446412,-200,4,1,1,25,0,0
446436,-66.66666667,4,1,1,25,0,0
446459,-200,4,1,1,25,0,0
446483,-100,4,1,1,25,0,0
446858,-66.66666667,4,1,1,25,0,0
446881,-200,4,1,1,25,0,0
446904,-66.66666667,4,1,1,25,0,0
446928,-200,4,1,1,25,0,0
446951,-66.66666667,4,1,1,25,0,0
446975,-200,4,1,1,25,0,0
446998,-66.66666667,4,1,1,25,0,0
447022,-200,4,1,1,25,0,0
447045,-142.8571429,4,1,1,25,0,0
447092,-76.9230769230769,4,1,1,25,0,0
447139,-142.8571429,4,1,1,25,0,0
447186,-76.9230769230769,4,1,1,25,0,0
447233,-100,4,1,1,25,0,0
452108,-50.251256281407,4,1,1,25,0,0
452131,-10000,4,1,1,25,0,0
452154,-50.251256281407,4,1,1,25,0,0
452178,-10000,4,1,1,25,0,0
452201,-50.251256281407,4,1,1,25,0,0
452225,-10000,4,1,1,25,0,0
452248,-50.251256281407,4,1,1,25,0,0
452272,-10000,4,1,1,25,0,0
452295,-50.251256281407,4,1,1,25,0,0
452318,-10000,4,1,1,25,0,0
452342,-50.251256281407,4,1,1,25,0,0
452365,-10000,4,1,1,25,0,0
452389,-50.251256281407,4,1,1,25,0,0
452412,-10000,4,1,1,25,0,0
452436,-50.251256281407,4,1,1,25,0,0
452459,-10000,4,1,1,25,0,0
452483,-100,4,1,1,25,0,0
452858,-66.66666667,4,1,1,25,0,0
452881,-200,4,1,1,25,0,0
452904,-66.66666667,4,1,1,25,0,0
452928,-200,4,1,1,25,0,0
452951,-66.66666667,4,1,1,25,0,0
452975,-200,4,1,1,25,0,0
452998,-66.66666667,4,1,1,25,0,0
453022,-200,4,1,1,25,0,0
453045,-66.66666667,4,1,1,25,0,0
453068,-200,4,1,1,25,0,0
453092,-100,4,1,1,25,0,0
453139,-66.66666667,4,1,1,25,0,0
453162,-200,4,1,1,25,0,0
453186,-100,4,1,1,25,0,0
453233,-66.66666667,4,1,1,25,0,0
453256,-200,4,1,1,25,0,0
453279,-100,4,1,1,25,0,0
453420,-66.66666667,4,1,1,25,0,0
453443,-200,4,1,1,25,0,0
453467,-100,4,1,1,25,0,0
456608,-10,4,1,1,25,0,0
456609,-117.647058823529,4,1,1,25,0,0
456670,-10,4,1,1,25,0,0
456671,-117.647058823529,4,1,1,25,0,0
456733,-10,4,1,1,25,0,0
456734,-117.647058823529,4,1,1,25,0,0
456795,-10,4,1,1,25,0,0
456796,-117.647058823529,4,1,1,25,0,0
456858,-10,4,1,1,25,0,0
456859,-117.647058823529,4,1,1,25,0,0
456920,-10,4,1,1,25,0,0
456921,-117.647058823529,4,1,1,25,0,0
456983,-10,4,1,1,25,0,0
456984,-117.647058823529,4,1,1,25,0,0
457045,-10,4,1,1,25,0,0
457046,-117.647058823529,4,1,1,25,0,0
457108,-10,4,1,1,25,0,0
457109,-117.647058823529,4,1,1,25,0,0
457170,-10,4,1,1,25,0,0
457171,-117.647058823529,4,1,1,25,0,0
457233,-10,4,1,1,25,0,0
457234,-117.647058823529,4,1,1,25,0,0
457295,-10,4,1,1,25,0,0
457296,-117.647058823529,4,1,1,25,0,0
457358,-10,4,1,1,25,0,0
457359,-117.647058823529,4,1,1,25,0,0
457420,-10,4,1,1,25,0,0
457421,-117.647058823529,4,1,1,25,0,0
457483,-10,4,1,1,25,0,0
457484,-117.647058823529,4,1,1,25,0,0
457545,-10,4,1,1,25,0,0
457546,-117.647058823529,4,1,1,25,0,0
457608,-10,4,1,1,25,0,0
457609,-117.647058823529,4,1,1,25,0,0
457670,-10,4,1,1,25,0,0
457671,-117.647058823529,4,1,1,25,0,0
457733,-10,4,1,1,25,0,0
457734,-117.647058823529,4,1,1,25,0,0
457795,-10,4,1,1,25,0,0
457796,-117.647058823529,4,1,1,25,0,0
457858,-10,4,1,1,25,0,0
457859,-117.647058823529,4,1,1,25,0,0
457920,-10,4,1,1,25,0,0
457921,-117.647058823529,4,1,1,25,0,0
457983,-10,4,1,1,25,0,0
457984,-117.647058823529,4,1,1,25,0,0
458045,-10,4,1,1,25,0,0
458046,-117.647058823529,4,1,1,25,0,0
458108,-10,4,1,1,25,0,0
458109,-117.647058823529,4,1,1,25,0,0
458170,-10,4,1,1,25,0,0
458171,-117.647058823529,4,1,1,25,0,0
458233,-10,4,1,1,25,0,0
458234,-117.647058823529,4,1,1,25,0,0
458295,-10,4,1,1,25,0,0
458296,-117.647058823529,4,1,1,25,0,0
458358,-10,4,1,1,25,0,0
458359,-117.647058823529,4,1,1,25,0,0
458420,-10,4,1,1,25,0,0
458421,-117.647058823529,4,1,1,25,0,0
458483,-10,4,1,1,25,0,0
458484,-117.647058823529,4,1,1,25,0,0
458545,-10,4,1,1,25,0,0
458546,-117.647058823529,4,1,1,25,0,0
458608,-10,4,1,1,25,0,0
458609,-117.647058823529,4,1,1,25,0,0
458670,-10,4,1,1,25,0,0
458671,-117.647058823529,4,1,1,25,0,0
458733,-10,4,1,1,25,0,0
458734,-117.647058823529,4,1,1,25,0,0
458795,-10,4,1,1,25,0,0
458796,-117.647058823529,4,1,1,25,0,0
458858,-10,4,1,1,25,0,0
458859,-117.647058823529,4,1,1,25,0,0
458920,-10,4,1,1,25,0,0
458921,-117.647058823529,4,1,1,25,0,0
458983,-10,4,1,1,25,0,0
458984,-117.647058823529,4,1,1,25,0,0
459045,-10,4,1,1,25,0,0
459046,-117.647058823529,4,1,1,25,0,0
459108,-10,4,1,1,25,0,0
459109,-117.647058823529,4,1,1,25,0,0
459170,-10,4,1,1,25,0,0
459171,-117.647058823529,4,1,1,25,0,0
459233,-10,4,1,1,25,0,0
459234,-117.647058823529,4,1,1,25,0,0
459295,-10,4,1,1,25,0,0
459296,-117.647058823529,4,1,1,25,0,0
459358,-10,4,1,1,25,0,0
459359,-117.647058823529,4,1,1,25,0,0
459420,-10,4,1,1,25,0,0
459421,-117.647058823529,4,1,1,25,0,0
459483,-100,4,1,1,25,0,0
459545,-10,4,1,1,25,0,0
459546,-117.647058823529,4,1,1,25,0,0
459608,-100,4,1,1,25,0,0
459733,-10,4,1,1,25,0,0
459735,-142.857142857143,4,1,1,25,0,0
459795,-10,4,1,1,25,0,0
459797,-142.857142857143,4,1,1,25,0,0
459858,-10,4,1,1,25,0,0
459860,-142.857142857143,4,1,1,25,0,0
459920,-10,4,1,1,25,0,0
459922,-142.857142857143,4,1,1,25,0,0
459983,-10,4,1,1,25,0,0
459985,-142.857142857143,4,1,1,25,0,0
460045,-10,4,1,1,25,0,0
460047,-142.857142857143,4,1,1,25,0,0
460108,-10,4,1,1,25,0,0
460110,-142.857142857143,4,1,1,25,0,0
460170,-10,4,1,1,25,0,0
460172,-142.857142857143,4,1,1,25,0,0
460233,-10,4,1,1,25,0,0
460235,-142.857142857143,4,1,1,25,0,0
460295,-10,4,1,1,25,0,0
460297,-142.857142857143,4,1,1,25,0,0
460358,-10,4,1,1,25,0,0
460360,-142.857142857143,4,1,1,25,0,0
460420,-10,4,1,1,25,0,0
460422,-142.857142857143,4,1,1,25,0,0
460483,-10,4,1,1,25,0,0
460485,-142.857142857143,4,1,1,25,0,0
460545,-10,4,1,1,25,0,0
460547,-142.857142857143,4,1,1,25,0,0
460608,-10,4,1,1,25,0,0
460610,-142.857142857143,4,1,1,25,0,0
460670,-10,4,1,1,25,0,0
460672,-142.857142857143,4,1,1,25,0,0
460733,-10,4,1,1,25,0,0
460735,-142.857142857143,4,1,1,25,0,0
460795,-10,4,1,1,25,0,0
460797,-142.857142857143,4,1,1,25,0,0
460858,-10,4,1,1,25,0,0
460860,-142.857142857143,4,1,1,25,0,0
460920,-10,4,1,1,25,0,0
460922,-142.857142857143,4,1,1,25,0,0
460983,-10,4,1,1,25,0,0
460985,-142.857142857143,4,1,1,25,0,0
461045,-10,4,1,1,25,0,0
461047,-142.857142857143,4,1,1,25,0,0
461108,-10,4,1,1,25,0,0
461110,-142.857142857143,4,1,1,25,0,0
461170,-10,4,1,1,25,0,0
461172,-142.857142857143,4,1,1,25,0,0
461233,-10,4,1,1,25,0,0
461235,-142.857142857143,4,1,1,25,0,0
461295,-10,4,1,1,25,0,0
461297,-142.857142857143,4,1,1,25,0,0
461358,-10,4,1,1,25,0,0
461360,-142.857142857143,4,1,1,25,0,0
461420,-10,4,1,1,25,0,0
461422,-142.857142857143,4,1,1,25,0,0
461483,-10,4,1,1,25,0,0
461485,-142.857142857143,4,1,1,25,0,0
461545,-10,4,1,1,25,0,0
461547,-142.857142857143,4,1,1,25,0,0
461608,-10,4,1,1,25,0,0
461610,-142.857142857143,4,1,1,25,0,0
461670,-10,4,1,1,25,0,0
461672,-142.857142857143,4,1,1,25,0,0
461733,-10,4,1,1,25,0,0
461735,-142.857142857143,4,1,1,25,0,0
461795,-10,4,1,1,25,0,0
461797,-142.857142857143,4,1,1,25,0,0
461858,-10,4,1,1,25,0,0
461860,-142.857142857143,4,1,1,25,0,0
461920,-10,4,1,1,25,0,0
461922,-142.857142857143,4,1,1,25,0,0
461983,-10,4,1,1,25,0,0
461985,-142.857142857143,4,1,1,25,0,0
462045,-10,4,1,1,25,0,0
462047,-142.857142857143,4,1,1,25,0,0
462108,-10,4,1,1,25,0,0
462110,-142.857142857143,4,1,1,25,0,0
462170,-10,4,1,1,25,0,0
462172,-142.857142857143,4,1,1,25,0,0
462233,-10,4,1,1,25,0,0
462235,-142.857142857143,4,1,1,25,0,0
462295,-10,4,1,1,25,0,0
462297,-142.857142857143,4,1,1,25,0,0
462358,-10,4,1,1,25,0,0
462360,-142.857142857143,4,1,1,25,0,0
462420,-10,4,1,1,25,0,0
462422,-142.857142857143,4,1,1,25,0,0
462483,-10,4,1,1,25,0,0
462485,-142.857142857143,4,1,1,25,0,0
462545,-10,4,1,1,25,0,0
462547,-142.857142857143,4,1,1,25,0,0
462608,-10,4,1,1,25,0,0
462611,-185.185185185185,4,1,1,25,0,0
462670,-10,4,1,1,25,0,0
462673,-185.185185185185,4,1,1,25,0,0
462733,-10,4,1,1,25,0,0
462736,-185.185185185185,4,1,1,25,0,0
462795,-10,4,1,1,25,0,0
462798,-185.185185185185,4,1,1,25,0,0
462858,-10,4,1,1,25,0,0
462861,-185.185185185185,4,1,1,25,0,0
462920,-10,4,1,1,25,0,0
462923,-185.185185185185,4,1,1,25,0,0
462983,-10,4,1,1,25,0,0
462986,-185.185185185185,4,1,1,25,0,0
463045,-10,4,1,1,25,0,0
463048,-185.185185185185,4,1,1,25,0,0
463108,-10,4,1,1,25,0,0
463111,-185.185185185185,4,1,1,25,0,0
463170,-10,4,1,1,25,0,0
463173,-185.185185185185,4,1,1,25,0,0
463233,-10,4,1,1,25,0,0
463236,-185.185185185185,4,1,1,25,0,0
463295,-10,4,1,1,25,0,0
463298,-185.185185185185,4,1,1,25,0,0
463358,-10,4,1,1,25,0,0
463361,-185.185185185185,4,1,1,25,0,0
463420,-10,4,1,1,25,0,0
463423,-185.185185185185,4,1,1,25,0,0
463483,-10,4,1,1,25,0,0
463486,-185.185185185185,4,1,1,25,0,0
463545,-10,4,1,1,25,0,0
463548,-185.185185185185,4,1,1,25,0,0
463608,-10,4,1,1,25,0,0
463611,-185.185185185185,4,1,1,25,0,0
463670,-10,4,1,1,25,0,0
463673,-185.185185185185,4,1,1,25,0,0
463733,-10,4,1,1,25,0,0
463736,-185.185185185185,4,1,1,25,0,0
463795,-10,4,1,1,25,0,0
463798,-185.185185185185,4,1,1,25,0,0
463858,-10,4,1,1,25,0,0
463861,-185.185185185185,4,1,1,25,0,0
463920,-10,4,1,1,25,0,0
463923,-185.185185185185,4,1,1,25,0,0
463983,-10,4,1,1,25,0,0
463986,-185.185185185185,4,1,1,25,0,0
464045,-10,4,1,1,25,0,0
464048,-185.185185185185,4,1,1,25,0,0
464108,-10,4,1,1,25,0,0
464111,-185.185185185185,4,1,1,25,0,0
464170,-10,4,1,1,25,0,0
464173,-185.185185185185,4,1,1,25,0,0
464233,-10,4,1,1,25,0,0
464236,-185.185185185185,4,1,1,25,0,0
464295,-10,4,1,1,25,0,0
464298,-185.185185185185,4,1,1,25,0,0
464358,-10,4,1,1,25,0,0
464361,-185.185185185185,4,1,1,25,0,0
464420,-10,4,1,1,25,0,0
464423,-185.185185185185,4,1,1,25,0,0
464483,-10,4,1,1,25,0,0
464486,-185.185185185185,4,1,1,25,0,0
464545,-10,4,1,1,25,0,0
464548,-185.185185185185,4,1,1,25,0,0
464608,-10,4,1,1,25,0,0
464611,-185.185185185185,4,1,1,25,0,0
464670,-10,4,1,1,25,0,0
464673,-185.185185185185,4,1,1,25,0,0
464733,-10,4,1,1,25,0,0
464736,-185.185185185185,4,1,1,25,0,0
464795,-10,4,1,1,25,0,0
464798,-185.185185185185,4,1,1,25,0,0
464858,-10,4,1,1,25,0,0
464861,-185.185185185185,4,1,1,25,0,0
464920,-10,4,1,1,25,0,0
464923,-185.185185185185,4,1,1,25,0,0
464983,-10,4,1,1,25,0,0
464986,-185.185185185185,4,1,1,25,0,0
465045,-10,4,1,1,25,0,0
465048,-185.185185185185,4,1,1,25,0,0
465108,-10,4,1,1,25,0,0
465111,-185.185185185185,4,1,1,25,0,0
465170,-10,4,1,1,25,0,0
465173,-185.185185185185,4,1,1,25,0,0
465233,-10,4,1,1,25,0,0
465236,-185.185185185185,4,1,1,25,0,0
465295,-10,4,1,1,25,0,0
465298,-185.185185185185,4,1,1,25,0,0
465358,-10,4,1,1,25,0,0
465361,-185.185185185185,4,1,1,25,0,0
465420,-10,4,1,1,25,0,0
465423,-185.185185185185,4,1,1,25,0,0
465483,-10,4,1,1,25,0,0
465486,-185.185185185185,4,1,1,25,0,0
465545,-10,4,1,1,25,0,0
465548,-185.185185185185,4,1,1,25,0,0
465608,-10,4,1,1,25,0,0
465612,-263.157894736842,4,1,1,25,0,0
465670,-100,4,1,1,25,0,0
465733,-10,4,1,1,25,0,0
465737,-263.157894736842,4,1,1,25,0,0
465795,-100,4,1,1,25,0,0
465858,-10,4,1,1,25,0,0
465862,-263.157894736842,4,1,1,25,0,0
465920,-10,4,1,1,25,0,0
465924,-263.157894736842,4,1,1,25,0,0
465983,-10,4,1,1,25,0,0
465987,-263.157894736842,4,1,1,25,0,0
466045,-10,4,1,1,25,0,0
466049,-263.157894736842,4,1,1,25,0,0
466108,-10,4,1,1,25,0,0
466112,-263.157894736842,4,1,1,25,0,0
466170,-10,4,1,1,25,0,0
466174,-263.157894736842,4,1,1,25,0,0
466233,-10,4,1,1,25,0,0
466237,-263.157894736842,4,1,1,25,0,0
466295,-10,4,1,1,25,0,0
466299,-263.157894736842,4,1,1,25,0,0
466358,-10,4,1,1,25,0,0
466362,-263.157894736842,4,1,1,25,0,0
466420,-10,4,1,1,25,0,0
466424,-263.157894736842,4,1,1,25,0,0
466483,-10,4,1,1,25,0,0
466487,-263.157894736842,4,1,1,25,0,0
466545,-10,4,1,1,25,0,0
466549,-263.157894736842,4,1,1,25,0,0
466608,-10,4,1,1,25,0,0
466612,-263.157894736842,4,1,1,25,0,0
466670,-10,4,1,1,25,0,0
466674,-263.157894736842,4,1,1,25,0,0
466733,-10,4,1,1,25,0,0
466737,-263.157894736842,4,1,1,25,0,0
466795,-10,4,1,1,25,0,0
466799,-263.157894736842,4,1,1,25,0,0
466858,-10,4,1,1,25,0,0
466862,-263.157894736842,4,1,1,25,0,0
466920,-10,4,1,1,25,0,0
466924,-263.157894736842,4,1,1,25,0,0
466983,-10,4,1,1,25,0,0
466987,-263.157894736842,4,1,1,25,0,0
467045,-10,4,1,1,25,0,0
467049,-263.157894736842,4,1,1,25,0,0
467108,-10,4,1,1,25,0,0
467112,-263.157894736842,4,1,1,25,0,0
467170,-10,4,1,1,25,0,0
467174,-263.157894736842,4,1,1,25,0,0
467233,-10,4,1,1,25,0,0
467237,-263.157894736842,4,1,1,25,0,0
467295,-10,4,1,1,25,0,0
467299,-263.157894736842,4,1,1,25,0,0
467358,-10,4,1,1,25,0,0
467362,-263.157894736842,4,1,1,25,0,0
467420,-10,4,1,1,25,0,0
467424,-263.157894736842,4,1,1,25,0,0
467483,-10,4,1,1,25,0,0
467487,-263.157894736842,4,1,1,25,0,0
467545,-10,4,1,1,25,0,0
467549,-263.157894736842,4,1,1,25,0,0
467608,-10,4,1,1,25,0,0
467612,-263.157894736842,4,1,1,25,0,0
467670,-10,4,1,1,25,0,0
467674,-263.157894736842,4,1,1,25,0,0
467733,-10,4,1,1,25,0,0
467737,-263.157894736842,4,1,1,25,0,0
467795,-10,4,1,1,25,0,0
467799,-263.157894736842,4,1,1,25,0,0
467858,-10,4,1,1,25,0,0
467862,-263.157894736842,4,1,1,25,0,0
467920,-10,4,1,1,25,0,0
467924,-263.157894736842,4,1,1,25,0,0
467983,-10,4,1,1,25,0,0
467987,-263.157894736842,4,1,1,25,0,0
468045,-10,4,1,1,25,0,0
468049,-263.157894736842,4,1,1,25,0,0
468108,-10,4,1,1,25,0,0
468112,-263.157894736842,4,1,1,25,0,0
468170,-10,4,1,1,25,0,0
468174,-263.157894736842,4,1,1,25,0,0
468233,-10,4,1,1,25,0,0
468237,-263.157894736842,4,1,1,25,0,0
468295,-10,4,1,1,25,0,0
468299,-263.157894736842,4,1,1,25,0,0
468358,-10,4,1,1,25,0,0
468362,-263.157894736842,4,1,1,25,0,0
468420,-10,4,1,1,25,0,0
468424,-263.157894736842,4,1,1,25,0,0
468483,-10,4,1,1,25,0,0
468487,-263.157894736842,4,1,1,25,0,0
468545,-10,4,1,1,25,0,0
468549,-263.157894736842,4,1,1,25,0,0
468608,-100,4,1,1,25,0,0
468678,-25.41970337,4,1,1,25,0,0
468701,-10309.27835,4,1,1,25,0,0
468772,-25.82969964,4,1,1,25,0,0
468795,-10309.27835,4,1,1,25,0,0
468866,-26.25313685,4,1,1,25,0,0
468889,-10309.27835,4,1,1,25,0,0
468960,-26.69068862,4,1,1,25,0,0
468983,-10309.27835,4,1,1,25,0,0
469053,-27.14307433,4,1,1,25,0,0
469076,-10309.27835,4,1,1,25,0,0
469147,-27.61105784,4,1,1,25,0,0
469170,-10309.27835,4,1,1,25,0,0
469241,-28.09546179,4,1,1,25,0,0
469264,-10309.27835,4,1,1,25,0,0
469335,-28.59716587,4,1,1,25,0,0
469358,-10309.27835,4,1,1,25,0,0
469428,-29.11711567,4,1,1,25,0,0
469451,-10309.27835,4,1,1,25,0,0
469522,-29.65632089,4,1,1,25,0,0
469545,-10309.27835,4,1,1,25,0,0
469616,-30.21587344,4,1,1,25,0,0
469639,-10309.27835,4,1,1,25,0,0
469710,-30.79694942,4,1,1,25,0,0
469733,-10309.27835,4,1,1,25,0,0
469803,-31.40081047,4,1,1,25,0,0
469826,-10309.27835,4,1,1,25,0,0
469897,-32.02882595,4,1,1,25,0,0
469920,-10309.27835,4,1,1,25,0,0
469991,-32.68247713,4,1,1,25,0,0
470014,-10309.27835,4,1,1,25,0,0
470085,-33.36336129,4,1,1,25,0,0
470108,-10309.27835,4,1,1,25,0,0
470178,-34.0732192,4,1,1,25,0,0
470201,-10309.27835,4,1,1,25,0,0
470272,-34.81394326,4,1,1,25,0,0
470295,-10309.27835,4,1,1,25,0,0
470366,-35.58758556,4,1,1,25,0,0
470389,-10309.27835,4,1,1,25,0,0
470460,-36.39639336,4,1,1,25,0,0
470483,-10309.27835,4,1,1,25,0,0
470553,-37.2428233,4,1,1,25,0,0
470576,-10309.27835,4,1,1,25,0,0
470647,-38.12955618,4,1,1,25,0,0
470670,-10309.27835,4,1,1,25,0,0
470741,-39.05954426,4,1,1,25,0,0
470764,-10309.27835,4,1,1,25,0,0
470835,-40.03603539,4,1,1,25,0,0
470858,-10309.27835,4,1,1,25,0,0
470928,-41.06259924,4,1,1,25,0,0
470951,-10309.27835,4,1,1,25,0,0
471022,-42.14319269,4,1,1,25,0,0
471045,-10309.27835,4,1,1,25,0,0
471116,-43.28219653,4,1,1,25,0,0
471139,-10309.27835,4,1,1,25,0,0
471210,-44.48448286,4,1,1,25,0,0
471233,-10309.27835,4,1,1,25,0,0
471303,-45.7554666,4,1,1,25,0,0
471326,-10309.27835,4,1,1,25,0,0
471397,-47.10121401,4,1,1,25,0,0
471420,-10309.27835,4,1,1,25,0,0
471491,-48.52852721,4,1,1,25,0,0
471514,-10309.27835,4,1,1,25,0,0
471608,420.375,4,1,1,25,1,0
471608,-97.08737864,4,1,1,25,0,0
471631,-125,4,1,1,25,0,0
471654,-166.6666667,4,1,1,25,0,0
471678,-250,4,1,1,25,0,0
471701,-500,4,1,1,25,0,0
471725,-3333.333333,4,1,1,25,0,0
472076,-500,4,1,1,25,0,0
472100,-3333.333333,4,1,1,25,0,0
472287,-181.8181818,4,1,1,25,0,0
472311,-666.6666667,4,1,1,25,0,0
472334,-181.8181818,4,1,1,25,0,0
472358,-666.6666667,4,1,1,25,0,0
472381,-181.8181818,4,1,1,25,0,0
472404,-666.6666667,4,1,1,25,0,0
472428,-181.8181818,4,1,1,25,0,0
472451,-666.6666667,4,1,1,25,0,0
472475,-3333.333333,4,1,1,25,0,0
472686,-181.8181818,4,1,1,25,0,0
472710,-666.6666667,4,1,1,25,0,0
472733,-181.8181818,4,1,1,25,0,0
472757,-666.6666667,4,1,1,25,0,0
472780,-181.8181818,4,1,1,25,0,0
472803,-666.6666667,4,1,1,25,0,0
472827,-181.8181818,4,1,1,25,0,0
472850,-666.6666667,4,1,1,25,0,0
472874,-3333.333333,4,1,1,25,0,0
472967,-1000,4,1,1,25,0,0
472990,-666.6666667,4,1,1,25,0,0
473014,-500,4,1,1,25,0,0
473037,-400,4,1,1,25,0,0
473061,-333.3333333,4,1,1,25,0,0
473084,-285.7142857,4,1,1,25,0,0
473108,-285.7142906,4,1,1,25,0,0
473131,-301.0033435,4,1,1,25,0,0
473154,-318.0211932,4,1,1,25,0,0
473178,-337.0786684,4,1,1,25,0,0
473201,-358.5657469,4,1,1,25,0,0
473224,-382.9787244,4,1,1,25,0,0
473248,-410.9589185,4,1,1,25,0,0
473271,-443.3497567,4,1,1,25,0,0
473295,-481.2834442,4,1,1,25,0,0
473318,-526.3157961,4,1,1,25,0,0
473341,-580.6451959,4,1,1,25,0,0
473365,-647.482028,4,1,1,25,0,0
473388,-731.7072969,4,1,1,25,0,0
473412,-841.1215244,4,1,1,25,0,0
473435,-989.0110334,4,1,1,25,0,0
473458,-1200.000072,4,1,1,25,0,0
473482,-1525.423681,4,1,1,25,0,0
473505,-2093.023348,4,1,1,25,0,0
473529,-3333.333408,4,1,1,25,0,0
473740,-181.8181818,4,1,1,25,0,0
473764,-666.6666667,4,1,1,25,0,0
473787,-181.8181818,4,1,1,25,0,0
473811,-666.6666667,4,1,1,25,0,0
473834,-181.8181818,4,1,1,25,0,0
473857,-666.6666667,4,1,1,25,0,0
473881,-181.8181818,4,1,1,25,0,0
473904,-666.6666667,4,1,1,25,0,0
473928,-3333.333333,4,1,1,25,0,0
474045,-1000,4,1,1,25,0,0
474068,-666.6666667,4,1,1,25,0,0
474092,-500,4,1,1,25,0,0
474115,-400,4,1,1,25,0,0
474139,-333.3333333,4,1,1,25,0,0
474162,-285.7142857,4,1,1,25,0,0
474186,-285.7142906,4,1,1,25,0,0
474209,-301.0033435,4,1,1,25,0,0
474232,-318.0211932,4,1,1,25,0,0
474256,-337.0786684,4,1,1,25,0,0
474279,-358.5657469,4,1,1,25,0,0
474302,-382.9787244,4,1,1,25,0,0
474326,-410.9589185,4,1,1,25,0,0
474349,-443.3497567,4,1,1,25,0,0
474373,-481.2834442,4,1,1,25,0,0
474396,-526.3157961,4,1,1,25,0,0
474419,-580.6451959,4,1,1,25,0,0
474443,-647.482028,4,1,1,25,0,0
474466,-731.7072969,4,1,1,25,0,0
474490,-841.1215244,4,1,1,25,0,0
474513,-989.0110334,4,1,1,25,0,0
474536,-1200.000072,4,1,1,25,0,0
474560,-1525.423681,4,1,1,25,0,0
474583,-2093.023348,4,1,1,25,0,0
474607,-3333.333408,4,1,1,25,0,0
474639,-1000,4,1,1,25,0,0
474670,-526.3157895,4,1,1,25,0,0
474701,-370.3703704,4,1,1,25,0,0
474733,-294.1176471,4,1,1,25,0,0
474764,-250,4,1,1,25,0,0
474795,-222.2222222,4,1,1,25,0,0
474826,-204.0816327,4,1,1,25,0,0
474858,-192.3076923,4,1,1,25,0,0
474889,-185.1851852,4,1,1,25,0,0
474920,-181.8181818,4,1,1,25,0,0
474971,366.524129505192,4,1,1,25,1,0
474971,-48.54368932,4,1,1,25,0,0
474994,-10000,4,1,1,25,0,0
475017,-62.5,4,1,1,25,0,0
475041,-10000,4,1,1,25,0,0
475064,-83.33333333,4,1,1,25,0,0
475088,-10000,4,1,1,25,0,0
475111,-125,4,1,1,25,0,0
475135,-10000,4,1,1,25,0,0
475158,-250,4,1,1,25,0,0
475181,-10000,4,1,1,25,0,0
475205,-500,4,1,1,25,0,0
475228,-10000,4,1,1,25,0,0
475252,-666.6666667,4,1,1,25,0,0
475275,-10000,4,1,1,25,0,0
475299,-666.6666667,4,1,1,25,0,0
475322,-10000,4,1,1,25,0,0
475346,-666.6666667,4,1,1,25,0,0
475369,-10000,4,1,1,25,0,0
475392,-666.6666667,4,1,1,25,0,0
475416,-10000,4,1,1,25,0,0
475439,-666.6666667,4,1,1,25,0,0
475463,-10000,4,1,1,25,0,0
475486,-666.6666667,4,1,1,25,0,0
475510,-10000,4,1,1,25,0,0
475533,-666.6666667,4,1,1,25,0,0
475556,-10000,4,1,1,25,0,0
475580,-1250.000028,4,1,1,25,0,0
475603,-1083.743826,4,1,1,25,0,0
475626,-956.5217652,4,1,1,25,0,0
475650,-856.0311258,4,1,1,25,0,0
475673,-774.6479107,4,1,1,25,0,0
475697,-707.3955019,4,1,1,25,0,0
475720,-650.8875634,4,1,1,25,0,0
475744,-602.7397595,4,1,1,25,0,0
475767,-561.2245087,4,1,1,25,0,0
475791,-525.0596736,4,1,1,25,0,0
475814,-493.2735417,4,1,1,25,0,0
475838,-465.1162713,4,1,1,25,0,0
475861,-440.0000157,4,1,1,25,0,0
475884,-417.4573141,4,1,1,25,0,0
475908,-397.1119161,4,1,1,25,0,0
475931,-378.6575064,4,1,1,25,0,0
475955,-361.8420992,4,1,1,25,0,0
475978,-346.4567014,4,1,1,25,0,0
476002,-332.3263047,4,1,1,25,0,0
476025,-319.3033388,4,1,1,25,0,0
476049,-307.2625815,4,1,1,25,0,0
476072,-296.0968994,4,1,1,25,0,0
476096,-285.7142906,4,1,1,25,0,0
476119,-333.3333333,4,1,1,25,0,0
476142,-384.6153846,4,1,1,25,0,0
476166,-454.5454545,4,1,1,25,0,0
476189,-555.5555556,4,1,1,25,0,0
476213,-714.2857143,4,1,1,25,0,0
476236,-1000,4,1,1,25,0,0
476260,-1666.666667,4,1,1,25,0,0
476283,-3333.333333,4,1,1,25,0,0
476658,-3333.333408,4,1,1,25,0,0
476670,-2889.208081,4,1,1,25,0,0
476683,-2549.516739,4,1,1,25,0,0
476696,-2281.298601,4,1,1,25,0,0
476709,-2064.143602,4,1,1,25,0,0
476722,-1884.736988,4,1,1,25,0,0
476735,-1734.022941,4,1,1,25,0,0
476748,-1605.628096,4,1,1,25,0,0
476761,-1494.936299,4,1,1,25,0,0
476774,-1398.522347,4,1,1,25,0,0
476787,-1313.790986,4,1,1,25,0,0
476799,-1238.740355,4,1,1,25,0,0
476812,-1171.800939,4,1,1,25,0,0
476825,-1111.725205,4,1,1,25,0,0
476838,-1057.508977,4,1,1,25,0,0
476851,-1008.334777,4,1,1,25,0,0
476864,-963.5306451,4,1,1,25,0,0
476877,-922.5387553,4,1,1,25,0,0
476890,-884.8924052,4,1,1,25,0,0
476903,-850.1980852,4,1,1,25,0,0
476916,-818.1216214,4,1,1,25,0,0
476929,-788.3776298,4,1,1,25,0,0
476941,-760.7204511,4,1,1,25,0,0
476954,-734.9379952,4,1,1,25,0,0
476967,-710.8459708,4,1,1,25,0,0
476980,-688.2832637,4,1,1,25,0,0
476993,-667.1088686,4,1,1,25,0,0
477006,-647.1983485,4,1,1,25,0,0
477019,-628.4418826,4,1,1,25,0,0
477032,-610.7420154,4,1,1,25,0,0
477045,-594.0118064,4,1,1,25,0,0
477058,-578.173798,4,1,1,25,0,0
477071,-563.1583792,4,1,1,25,0,0
477083,-548.9031321,4,1,1,25,0,0
477096,-535.3517977,4,1,1,25,0,0
477109,-522.453413,4,1,1,25,0,0
477122,-510.1619737,4,1,1,25,0,0
477135,-498.4355499,4,1,1,25,0,0
477148,-487.2360932,4,1,1,25,0,0
477161,-476.5288965,4,1,1,25,0,0
477174,-466.2821378,4,1,1,25,0,0
477187,-456.4668041,4,1,1,25,0,0
477200,-447.056151,4,1,1,25,0,0
477213,-438.025714,4,1,1,25,0,0
477225,-429.3528517,4,1,1,25,0,0
477238,-421.0167649,4,1,1,25,0,0
477251,-412.9982364,4,1,1,25,0,0
477264,-405.2794108,4,1,1,25,0,0
477277,-397.8438408,4,1,1,25,0,0
477290,-390.6761472,4,1,1,25,0,0
477303,-383.7621981,4,1,1,25,0,0
477316,-377.0887112,4,1,1,25,0,0
477329,-370.6433563,4,1,1,25,0,0
477342,-364.4145923,4,1,1,25,0,0
477354,-358.3917588,4,1,1,25,0,0
477367,-352.5647722,4,1,1,25,0,0
477380,-346.9241969,4,1,1,25,0,0
477393,-341.461298,4,1,1,25,0,0
477406,-336.1677768,4,1,1,25,0,0
477419,-331.0358435,4,1,1,25,0,0
477432,-326.058274,4,1,1,25,0,0
477445,-321.228176,4,1,1,25,0,0
477458,-316.5390914,4,1,1,25,0,0
477471,-311.9849047,4,1,1,25,0,0
477484,-200,4,1,1,25,0,0
477519,-202.763847,4,1,1,25,0,0
477555,-205.701337,4,1,1,25,0,0
477590,-208.8243163,4,1,1,25,0,0
477625,-212.1458746,4,1,1,25,0,0
477660,-215.6805603,4,1,1,25,0,0
477694,-219.4444622,4,1,1,25,0,0
477728,-223.4555815,4,1,1,25,0,0
477762,-227.733936,4,1,1,25,0,0
477796,-232.3019795,4,1,1,25,0,0
477829,-237.184903,4,1,1,25,0,0
477862,-242.4110756,4,1,1,25,0,0
477895,-248.0125363,4,1,1,25,0,0
477927,-254.0256575,4,1,1,25,0,0
477959,-260.4918103,4,1,1,25,0,0
477991,-267.4583557,4,1,1,25,0,0
478023,-274.9795964,4,1,1,25,0,0
478054,-283.1182636,4,1,1,25,0,0
478085,-291.947075,4,1,1,25,0,0
478115,-301.5509354,4,1,1,25,0,0
478146,-312.0293803,4,1,1,25,0,0
478176,-323.500057,4,1,1,25,0,0
478206,-336.1030241,4,1,1,25,0,0
478235,-350.0061178,4,1,1,25,0,0
478264,-365.4124782,4,1,1,25,0,0
478293,-382.5701051,4,1,1,25,0,0
478322,-401.7851994,4,1,1,25,0,0
478350,-423.4398995,4,1,1,25,0,0
478378,-448.0177699,4,1,1,25,0,0
478406,-476.1396433,4,1,1,25,0,0
478434,-508.6159916,4,1,1,25,0,0
478461,-546.5253033,4,1,1,25,0,0
478488,-591.3349416,4,1,1,25,0,0
478514,-645.0937488,4,1,1,25,0,0
478541,-710.7514871,4,1,1,25,0,0
478567,-792.7155402,4,1,1,25,0,0
478592,-897.8776227,4,1,1,25,0,0
478618,-1037.651877,4,1,1,25,0,0
478643,-1232.411898,4,1,1,25,0,0
478668,-1522.427868,4,1,1,25,0,0
478693,-1999.99997,4,1,1,25,0,0
478721,-666.6666402,4,1,1,25,0,0
478723,-706.3186116,4,1,1,25,0,0
478726,-749.3117682,4,1,1,25,0,0
478729,-795.988841,4,1,1,25,0,0
478733,-846.7296171,4,1,1,25,0,0
478738,-901.9533986,4,1,1,25,0,0
478743,-962.1216985,4,1,1,25,0,0
478750,-1027.739623,4,1,1,25,0,0
478756,-1099.356298,4,1,1,25,0,0
478764,-1177.562312,4,1,1,25,0,0
478772,-1262.98449,4,1,1,25,0,0
478781,-1356.275355,4,1,1,25,0,0
478790,-1458.095588,4,1,1,25,0,0
478800,-1569.086669,4,1,1,25,0,0
478811,-1689.830397,4,1,1,25,0,0
478822,-1820.790683,4,1,1,25,0,0
478834,-1962.234146,4,1,1,25,0,0
478847,-2114.124455,4,1,1,25,0,0
478860,-2275.988315,4,1,1,25,0,0
478874,-2446.7544,4,1,1,25,0,0
478889,-2624.572058,4,1,1,25,0,0
478905,-2806.632229,4,1,1,25,0,0
478921,-2989.018656,4,1,1,25,0,0
478937,-3166.644678,4,1,1,25,0,0
478955,-3333.333408,4,1,1,25,0,0
479072,-999.9999851,4,1,1,25,0,0
479074,-1045.379589,4,1,1,25,0,0
479077,-1093.590491,4,1,1,25,0,0
479080,-1144.837516,4,1,1,25,0,0
479084,-1199.339539,4,1,1,25,0,0
479089,-1257.329186,4,1,1,25,0,0
479094,-1319.053092,4,1,1,25,0,0
479101,-1384.77118,4,1,1,25,0,0
479107,-1454.754946,4,1,1,25,0,0
479115,-1529.287084,4,1,1,25,0,0
479123,-1608.65722,4,1,1,25,0,0
479132,-1693.158977,4,1,1,25,0,0
479141,-1783.084036,4,1,1,25,0,0
479151,-1878.715115,4,1,1,25,0,0
479162,-1980.316425,4,1,1,25,0,0
479173,-2088.12104,4,1,1,25,0,0
479185,-2202.315128,4,1,1,25,0,0
479198,-2323.018951,4,1,1,25,0,0
479211,-2450.262373,4,1,1,25,0,0
479225,-2583.957227,4,1,1,25,0,0
479240,-2723.863381,4,1,1,25,0,0
479256,-2869.55231,4,1,1,25,0,0
479272,-3020.365715,4,1,1,25,0,0
479288,-3175.373335,4,1,1,25,0,0
479306,-3333.333408,4,1,1,25,0,0
479424,-499.9999925,4,1,1,25,0,0
479426,-533.3352831,4,1,1,25,0,0
479429,-569.8990223,4,1,1,25,0,0
479432,-610.0866272,4,1,1,25,0,0
479436,-654.3488904,4,1,1,25,0,0
479441,-703.1988808,4,1,1,25,0,0
479446,-757.2203326,4,1,1,25,0,0
479453,-817.0754741,4,1,1,25,0,0
479459,-883.5128782,4,1,1,25,0,0
479467,-957.3734626,4,1,1,25,0,0
479475,-1039.593748,4,1,1,25,0,0
479484,-1131.202761,4,1,1,25,0,0
479493,-1233.310156,4,1,1,25,0,0
479503,-1347.076868,4,1,1,25,0,0
479514,-1473.663587,4,1,1,25,0,0
479525,-1614.141281,4,1,1,25,0,0
479537,-1769.351796,4,1,1,25,0,0
479550,-1939.699472,4,1,1,25,0,0
479563,-2124.858663,4,1,1,25,0,0
479577,-2323.387301,4,1,1,25,0,0
479592,-2532.264954,4,1,1,25,0,0
479608,-2746.412216,4,1,1,25,0,0
479624,-2958.315587,4,1,1,25,0,0
479640,-3157.964248,4,1,1,25,0,0
479658,-3333.333408,4,1,1,25,0,0
479775,-499.9999925,4,1,1,25,0,0
479777,-533.3352831,4,1,1,25,0,0
479780,-569.8990223,4,1,1,25,0,0
479783,-610.0866272,4,1,1,25,0,0
479787,-654.3488904,4,1,1,25,0,0
479792,-703.1988808,4,1,1,25,0,0
479798,-757.2203326,4,1,1,25,0,0
479804,-817.0754741,4,1,1,25,0,0
479810,-883.5128782,4,1,1,25,0,0
479818,-957.3734626,4,1,1,25,0,0
479826,-1039.593748,4,1,1,25,0,0
479835,-1131.202761,4,1,1,25,0,0
479844,-1233.310156,4,1,1,25,0,0
479854,-1347.076868,4,1,1,25,0,0
479865,-1473.663587,4,1,1,25,0,0
479877,-1614.141281,4,1,1,25,0,0
479889,-1769.351796,4,1,1,25,0,0
479902,-1939.699472,4,1,1,25,0,0
479915,-2124.858663,4,1,1,25,0,0
479929,-2323.387301,4,1,1,25,0,0
479944,-2532.264954,4,1,1,25,0,0
479959,-2746.412216,4,1,1,25,0,0
479975,-2958.315587,4,1,1,25,0,0
479992,-3157.964248,4,1,1,25,0,0
480010,-3333.333408,4,1,1,25,0,0
480150,-400,4,1,1,25,0,0
480152,-428.4133169,4,1,1,25,0,0
480155,-459.8048273,4,1,1,25,0,0
480158,-494.5784412,4,1,1,25,0,0
480162,-533.2028179,4,1,1,25,0,0
480167,-576.2224821,4,1,1,25,0,0
480173,-624.2705348,4,1,1,25,0,0
480179,-678.0832724,4,1,1,25,0,0
480185,-738.5155531,4,1,1,25,0,0
480193,-806.5576616,4,1,1,25,0,0
480201,-883.3507611,4,1,1,25,0,0
480210,-970.1992144,4,1,1,25,0,0
480219,-1068.574625,4,1,1,25,0,0
480229,-1180.104138,4,1,1,25,0,0
480240,-1306.529536,4,1,1,25,0,0
480252,-1449.617884,4,1,1,25,0,0
480264,-1610.995283,4,1,1,25,0,0
480277,-1791.862694,4,1,1,25,0,0
480290,-1992.54968,4,1,1,25,0,0
480304,-2211.863382,4,1,1,25,0,0
480319,-2446.230196,4,1,1,25,0,0
480334,-2688.72212,4,1,1,25,0,0
480350,-2928.237186,4,1,1,25,0,0
480367,-3149.330908,4,1,1,25,0,0
480385,-3333.333408,4,1,1,25,0,0
480502,-357.1428556,4,1,1,25,0,0
480504,-383.1835803,4,1,1,25,0,0
480507,-412.0450589,4,1,1,25,0,0
480510,-444.1263805,4,1,1,25,0,0
480514,-479.8942913,4,1,1,25,0,0
480519,-519.8959757,4,1,1,25,0,0
480524,-564.7740483,4,1,1,25,0,0
480531,-615.2839261,4,1,1,25,0,0
480537,-672.3136627,4,1,1,25,0,0
480545,-736.9063924,4,1,1,25,0,0
480553,-810.2831759,4,1,1,25,0,0
480562,-893.8651257,4,1,1,25,0,0
480571,-989.2898677,4,1,1,25,0,0
480581,-1098.413869,4,1,1,25,0,0
480592,-1223.286773,4,1,1,25,0,0
480603,-1366.074569,4,1,1,25,0,0
480615,-1528.893907,4,1,1,25,0,0
480628,-1713.504391,4,1,1,25,0,0
480641,-1920.788364,4,1,1,25,0,0
480655,-2149.944388,4,1,1,25,0,0
480670,-2397.359466,4,1,1,25,0,0
480686,-2655.256927,4,1,1,25,0,0
480702,-2910.481826,4,1,1,25,0,0
480718,-3144.173599,4,1,1,25,0,0
480736,-3333.333408,4,1,1,25,0,0
480853,-294.117644,4,1,1,25,0,0
480855,-316.3799226,4,1,1,25,0,0
480858,-341.1704944,4,1,1,25,0,0
480861,-368.8694222,4,1,1,25,0,0
480865,-399.9265806,4,1,1,25,0,0
480870,-434.8765068,4,1,1,25,0,0
480876,-474.3563936,4,1,1,25,0,0
480882,-519.127869,4,1,1,25,0,0
480888,-570.1034265,4,1,1,25,0,0
480896,-628.377742,4,1,1,25,0,0
480904,-695.2637245,4,1,1,25,0,0
480913,-772.3327341,4,1,1,25,0,0
480922,-861.4554852,4,1,1,25,0,0
480932,-964.8362073,4,1,1,25,0,0
480943,-1085.026534,4,1,1,25,0,0
480955,-1224.890578,4,1,1,25,0,0
480967,-1387.473862,4,1,1,25,0,0
480980,-1575.694033,4,1,1,25,0,0
480993,-1791.730773,4,1,1,25,0,0
481007,-2035.95501,4,1,1,25,0,0
481022,-2305.250967,4,1,1,25,0,0
481037,-2590.764738,4,1,1,25,0,0
481053,-2875.609015,4,1,1,25,0,0
481070,-3133.909489,4,1,1,25,0,0
481088,-3333.333408,4,1,1,25,0,0
481228,-322.5806427,4,1,1,25,0,0
481230,-346.5920812,4,1,1,25,0,0
481233,-373.2732912,4,1,1,25,0,0
481236,-403.0147285,4,1,1,25,0,0
481240,-436.2762532,4,1,1,25,0,0
481245,-473.6009006,4,1,1,25,0,0
481251,-515.6314741,4,1,1,25,0,0
481257,-563.1306398,4,1,1,25,0,0
481263,-617.0042672,4,1,1,25,0,0
481271,-678.328508,4,1,1,25,0,0
481279,-748.3798935,4,1,1,25,0,0
481288,-828.6666465,4,1,1,25,0,0
481297,-920.9577986,4,1,1,25,0,0
481307,-1027.300998,4,1,1,25,0,0
481318,-1150.015941,4,1,1,25,0,0
481330,-1291.635953,4,1,1,25,0,0
481580,-322.5806427,4,1,1,25,0,0
481582,-346.5920812,4,1,1,25,0,0
481585,-373.2732912,4,1,1,25,0,0
481588,-403.0147285,4,1,1,25,0,0
481592,-436.2762532,4,1,1,25,0,0
481597,-473.6009006,4,1,1,25,0,0
481603,-515.6314741,4,1,1,25,0,0
481609,-563.1306398,4,1,1,25,0,0
481615,-617.0042672,4,1,1,25,0,0
481623,-678.328508,4,1,1,25,0,0
481631,-748.3798935,4,1,1,25,0,0
481640,-828.6666465,4,1,1,25,0,0
481649,-920.9577986,4,1,1,25,0,0
481659,-1027.300998,4,1,1,25,0,0
481670,-1150.015941,4,1,1,25,0,0
481682,-1291.635953,4,1,1,25,0,0
481978,-666.6666402,4,1,1,25,0,0
481980,-690.8578838,4,1,1,25,0,0
481984,-715.8285699,4,1,1,25,0,0
481988,-741.5535008,4,1,1,25,0,0
481992,-767.9964258,4,1,1,25,0,0
481997,-795.1088427,4,1,1,25,0,0
482003,-822.8281478,4,1,1,25,0,0
482010,-851.0762441,4,1,1,25,0,0
482017,-879.7580002,4,1,1,25,0,0
482024,-908.759884,4,1,1,25,0,0
482033,-937.9488203,4,1,1,25,0,0
482041,-967.1713765,4,1,1,25,0,0
482051,-996.2533944,4,1,1,25,0,0
482061,-1025.000116,4,1,1,25,0,0
482072,-1053.197397,4,1,1,25,0,0
482083,-1080.612966,4,1,1,25,0,0
482095,-1106.999362,4,1,1,25,0,0
482108,-1132.097463,4,1,1,25,0,0
482121,-1155.641091,4,1,1,25,0,0
482135,-1177.362537,4,1,1,25,0,0
482149,-1196.999015,4,1,1,25,0,0
482164,-1214.299189,4,1,1,25,0,0
482179,-1229.031081,4,1,1,25,0,0
482196,-1240.988906,4,1,1,25,0,0
482213,-1250.000028,4,1,1,25,0,0
482330,-285.7142906,4,1,1,25,0,0
482333,-304.1130502,4,1,1,25,0,0
482337,-324.0590828,4,1,1,25,0,0
482341,-345.6836715,4,1,1,25,0,0
482346,-369.121656,4,1,1,25,0,0
482352,-394.5076736,4,1,1,25,0,0
482358,-421.9710349,4,1,1,25,0,0
482365,-451.6279745,4,1,1,25,0,0
482372,-483.5711923,4,1,1,25,0,0
482380,-517.8560259,4,1,1,25,0,0
482388,-554.4821523,4,1,1,25,0,0
482397,-593.3713,4,1,1,25,0,0
482407,-634.340172,4,1,1,25,0,0
482417,-677.0700119,4,1,1,25,0,0
482427,-721.0751562,4,1,1,25,0,0
482438,-765.6741258,4,1,1,25,0,0
482450,-809.9694431,4,1,1,25,0,0
482462,-852.8455481,4,1,1,25,0,0
482475,-892.9919042,4,1,1,25,0,0
482488,-928.9607624,4,1,1,25,0,0
482502,-959.2625832,4,1,1,25,0,0
482517,-982.4938476,4,1,1,25,0,0
482532,-997.4826032,4,1,1,25,0,0
482547,-1003.427336,4,1,1,25,0,0
482564,-999.9999851,4,1,1,25,0,0
482705,-249.9999963,4,1,1,25,0,0
482708,-265.2399931,4,1,1,25,0,0
482712,-281.6470221,4,1,1,25,0,0
482717,-299.3008969,4,1,1,25,0,0
482722,-318.2790199,4,1,1,25,0,0
482727,-338.6526433,4,1,1,25,0,0
482734,-360.4823057,4,1,1,25,0,0
482740,-383.8112744,4,1,1,25,0,0
482748,-408.6576978,4,1,1,25,0,0
482755,-435.0045131,4,1,1,25,0,0
482764,-462.787197,4,1,1,25,0,0
482773,-491.8799514,4,1,1,25,0,0
482782,-522.0800094,4,1,1,25,0,0
482792,-553.0923131,4,1,1,25,0,0
482803,-584.5149093,4,1,1,25,0,0
482814,-615.8292923,4,1,1,25,0,0
482826,-646.3974843,4,1,1,25,0,0
482838,-675.4715724,4,1,1,25,0,0
482851,-702.2169336,4,1,1,25,0,0
482864,-725.7536378,4,1,1,25,0,0
482878,-745.2135404,4,1,1,25,0,0
482892,-759.8096356,4,1,1,25,0,0
482907,-768.9092784,4,1,1,25,0,0
482922,-772.0991258,4,1,1,25,0,0
482939,-769.2307974,4,1,1,25,0,0
483056,-222.2222281,4,1,1,25,0,0
483060,-233.2233077,4,1,1,25,0,0
483065,-244.9143161,4,1,1,25,0,0
483070,-257.3358012,4,1,1,25,0,0
483076,-270.5280882,4,1,1,25,0,0
483082,-284.5304079,4,1,1,25,0,0
483089,-299.3797012,4,1,1,25,0,0
483096,-315.1089973,4,1,1,25,0,0
483104,-331.7455351,4,1,1,25,0,0
483112,-349.3083619,4,1,1,25,0,0
483120,-367.8053351,4,1,1,25,0,0
483130,-387.2295968,4,1,1,25,0,0
483139,-407.5555557,4,1,1,25,0,0
483149,-428.7342275,4,1,1,25,0,0
483160,-450.6880681,4,1,1,25,0,0
483171,-473.3055589,4,1,1,25,0,0
483182,-496.4359644,4,1,1,25,0,0
483194,-519.8842152,4,1,1,25,0,0
483206,-543.4073635,4,1,1,25,0,0
483219,-566.7125438,4,1,1,25,0,0
483233,-589.4578626,4,1,1,25,0,0
483246,-611.256918,4,1,1,25,0,0
483261,-631.6876889,4,1,1,25,0,0
483275,-650.306534,4,1,1,25,0,0
483291,-666.6666402,4,1,1,25,0,0
483408,-166.66666,4,1,1,25,0,0
483411,-174.1256208,4,1,1,25,0,0
483416,-181.9988065,4,1,1,25,0,0
483421,-190.3063976,4,1,1,25,0,0
483426,-199.0680456,4,1,1,25,0,0
483432,-208.3023632,4,1,1,25,0,0
483439,-218.0263792,4,1,1,25,0,0
483446,-228.2547653,4,1,1,25,0,0
483453,-238.9989156,4,1,1,25,0,0
483461,-250.265836,4,1,1,25,0,0
483470,-262.0569684,4,1,1,25,0,0
483479,-274.3666035,4,1,1,25,0,0
483488,-287.1801894,4,1,1,25,0,0
483498,-300.4724809,4,1,1,25,0,0
483509,-314.2054938,4,1,1,25,0,0
483520,-328.3262641,4,1,1,25,0,0
483531,-342.7647626,4,1,1,25,0,0
483543,-357.4318753,4,1,1,25,0,0
483556,-372.217578,4,1,1,25,0,0
483569,-386.9898622,4,1,1,25,0,0
483582,-401.5943884,4,1,1,25,0,0
483596,-415.8550859,4,1,1,25,0,0
483611,-429.5764315,4,1,1,25,0,0
483626,-442.5470965,4,1,1,25,0,0
483642,-454.545457,4,1,1,25,0,0
483766,187.5,4,1,1,25,1,0
483766,-142.8571429,4,1,1,25,0,0
483789,-10000,4,1,1,25,0,0
483812,-10000,4,1,1,25,0,0
483859,-142.8571429,4,1,1,25,0,0
483883,-10000,4,1,1,25,0,0
483888,-9956.314503,4,1,1,25,0,0
483953,-142.8571429,4,1,1,25,0,0
483976,-10000,4,1,1,25,0,0
484039,-9740.154944,4,1,1,25,0,0
484047,-142.8571429,4,1,1,25,0,0
484070,-10000,4,1,1,25,0,0
484114,-9573.225044,4,1,1,25,0,0
484189,-9372.183514,4,1,1,25,0,0
484263,-9141.609518,4,1,1,25,0,0
484336,-8886.391729,4,1,1,25,0,0
484409,-8611.499854,4,1,1,25,0,0
484482,-8321.789879,4,1,1,25,0,0
484554,-8021.844866,4,1,1,25,0,0
484625,-7715.856448,4,1,1,25,0,0
484696,-7407.552346,4,1,1,25,0,0
484767,-7100.156472,4,1,1,25,0,0
484837,-6796.384492,4,1,1,25,0,0
484906,-6498.459083,4,1,1,25,0,0
484937,-1000,4,1,1,25,0,0
484984,-10000,4,1,1,25,0,0
485031,-5926.795114,4,1,1,25,0,0
485101,-909.0909091,4,1,1,25,0,0
485125,-10000,4,1,1,25,0,0
485148,-5394.621646,4,1,1,25,0,0
485246,-5144.88452,4,1,1,25,0,0
485313,-4906.378162,4,1,1,25,0,0
485379,-4679.122097,4,1,1,25,0,0
485444,-4462.995135,4,1,1,25,0,0
485510,-4257.769717,4,1,1,25,0,0
485574,-4063.138278,4,1,1,25,0,0
485638,-3878.73357,4,1,1,25,0,0
485702,-3704.149265,4,1,1,25,0,0
485765,-3538.953184,4,1,1,25,0,0
485828,-714.2857143,4,1,1,25,0,0
485851,-3333.333333,4,1,1,25,0,0
485992,-555.5555556,4,1,1,25,0,0
486016,-3333.333333,4,1,1,25,0,0
486073,-2838.197944,4,1,1,25,0,0
486133,-2720.044536,4,1,1,25,0,0
486192,-2608.266978,4,1,1,25,0,0
486251,-2502.489163,4,1,1,25,0,0
486310,-2402.353781,4,1,1,25,0,0
486368,-2307.522717,4,1,1,25,0,0
486414,-555.5555556,4,1,1,25,0,0
486437,-10000,4,1,1,25,0,0
486461,-555.5555556,4,1,1,25,0,0
486484,-10000,4,1,1,25,0,0
486508,-555.5555556,4,1,1,25,0,0
486531,-10000,4,1,1,25,0,0
486555,-555.5555556,4,1,1,25,0,0
486578,-10000,4,1,1,25,0,0
486601,-1975.124924,4,1,1,25,0,0
486651,-1902.383725,4,1,1,25,0,0
486672,-555.5555556,4,1,1,25,0,0
486695,-10000,4,1,1,25,0,0
486719,-555.5555556,4,1,1,25,0,0
486742,-10000,4,1,1,25,0,0
486766,-555.5555556,4,1,1,25,0,0
486789,-10000,4,1,1,25,0,0
486813,-555.5555556,4,1,1,25,0,0
486836,-10000,4,1,1,25,0,0
486859,-1975.124924,4,1,1,25,0,0
486922,-1589.295578,4,1,1,25,0,0
486976,-416.6666667,4,1,1,25,0,0
487000,-10000,4,1,1,25,0,0
487023,-416.6666667,4,1,1,25,0,0
487047,-10000,4,1,1,25,0,0
487070,-1435.240422,4,1,1,25,0,0
487130,-1388.578577,4,1,1,25,0,0
487180,-1344.040927,4,1,1,25,0,0
487231,-1301.507892,4,1,1,25,0,0
487280,-1260.867823,4,1,1,25,0,0
487330,-1222.015739,4,1,1,25,0,0
487378,-1184.853603,4,1,1,25,0,0
487426,-1149.289791,4,1,1,25,0,0
487474,-1115.238047,4,1,1,25,0,0
487521,-1082.617818,4,1,1,25,0,0
487568,-1051.35338,4,1,1,25,0,0
487614,-1021.373862,4,1,1,25,0,0
487633,-250,4,1,1,25,0,0
487656,-10000,4,1,1,25,0,0
487680,-212.7659574,4,1,1,25,0,0
487703,-10000,4,1,1,25,0,0
487726,-965.0072053,4,1,1,25,0,0
487750,-938.498683,4,1,1,25,0,0
487773,-370.3703704,4,1,1,25,0,0
487867,-865.0188065,4,1,1,25,0,0
487924,-842.3776213,4,1,1,25,0,0
487966,-820.5879978,4,1,1,25,0,0
488008,-799.608994,4,1,1,25,0,0
488049,-779.4022484,4,1,1,25,0,0
488090,-759.9313819,4,1,1,25,0,0
488130,-741.162108,4,1,1,25,0,0
488170,-723.0619731,4,1,1,25,0,0
488209,-705.6004766,4,1,1,25,0,0
488248,-688.7487786,4,1,1,25,0,0
488286,-672.4793946,4,1,1,25,0,0
488324,-656.766468,4,1,1,25,0,0
488362,-641.5856449,4,1,1,25,0,0
488398,-626.9136112,4,1,1,25,0,0
488435,-612.728516,4,1,1,25,0,0
488471,-599.0094175,4,1,1,25,0,0
488506,-585.7366223,4,1,1,25,0,0
488523,-232.5581395,4,1,1,25,0,0
488547,-10000,4,1,1,25,0,0
488570,-227.2727273,4,1,1,25,0,0
488594,-10000,4,1,1,25,0,0
488617,-548.4133009,4,1,1,25,0,0
488642,-536.747503,4,1,1,25,0,0
488652,-400,4,1,1,25,0,0
488699,-192.3076923,4,1,1,25,0,0
488723,-10000,4,1,1,25,0,0
488746,-493.5584349,4,1,1,25,0,0
488781,-185.1851852,4,1,1,25,0,0
488793,-10000,4,1,1,25,0,0
488805,-185.1851852,4,1,1,25,0,0
488816,-10000,4,1,1,25,0,0
488828,-185.1851852,4,1,1,25,0,0
488840,-10000,4,1,1,25,0,0
488851,-464.4456317,4,1,1,25,0,0
488891,-455.303013,4,1,1,25,0,0
488920,-446.4235982,4,1,1,25,0,0
488948,-437.7975391,4,1,1,25,0,0
488976,-429.4154086,4,1,1,25,0,0
489004,-421.2682882,4,1,1,25,0,0
489031,-413.3475516,4,1,1,25,0,0
489057,-405.6450352,4,1,1,25,0,0
489083,-398.1529094,4,1,1,25,0,0
489108,-390.8636877,4,1,1,25,0,0
489133,-383.7701864,4,1,1,25,0,0
489158,-376.8655977,4,1,1,25,0,0
489181,-370.1433187,4,1,1,25,0,0
489205,-363.5971096,4,1,1,25,0,0
489228,-357.2209137,4,1,1,25,0,0
489250,-351.0089678,4,1,1,25,0,0
489272,-344.9557831,4,1,1,25,0,0
489294,-339.056025,4,1,1,25,0,0
489297,-166.6666667,4,1,1,25,0,0
489320,-10000,4,1,1,25,0,0
489344,-166.6666667,4,1,1,25,0,0
489367,-10000,4,1,1,25,0,0
489391,-166.6666667,4,1,1,25,0,0
489414,-10000,4,1,1,25,0,0
489437,-166.6666667,4,1,1,25,0,0
489449,-10000,4,1,1,25,0,0
489469,-156.25,4,1,1,25,0,0
489500,-10000,4,1,1,25,0,0
489531,-142.8571429,4,1,1,25,0,0
489562,-10000,4,1,1,25,0,0
489594,-129.8701299,4,1,1,25,0,0
489625,-10000,4,1,1,25,0,0
489656,-117.6470588,4,1,1,25,0,0
489687,-10000,4,1,1,25,0,0
489719,-105.2631579,4,1,1,25,0,0
489750,-10000,4,1,1,25,0,0
489766,1628.222524,4,1,1,25,1,0
489766,-10000,4,1,1,25,0,0
494243,-2500.000056,4,1,1,25,0,0
494809,-2215.731913,4,1,1,25,0,0
494939,-1567.942864,4,1,1,25,0,0
495063,-1067.67283,4,1,1,25,0,0
495182,-730.302597,4,1,1,25,0,0
495296,-510.9135603,4,1,1,25,0,0
495405,-367.3732037,4,1,1,25,0,0
495507,-271.369964,4,1,1,25,0,0
495604,-205.4367989,4,1,1,25,0,0
495694,-158.9445242,4,1,1,25,0,0
495778,-125.3455213,4,1,1,25,0,0
495856,-100,4,1,1,25,0,0
495928,-78.7401574803149,4,1,1,25,0,0
495992,-62.5,4,1,1,25,0,0
496050,-50,4,1,1,25,0,0
496101,-43.4782608695652,4,1,1,25,0,0
496144,-37.037037037037,4,1,1,25,0,0
496180,-31.25,4,1,1,25,0,0
496209,-22.7272727272727,4,1,1,25,0,0
496230,-20,4,1,1,25,0,0
496243,-16.6666666666667,4,1,1,25,0,0
496249,-12.5,4,1,1,25,0,0
496278,403.7685061,4,1,1,25,1,0
496278,-10000,4,1,1,25,0,0
496320,-3422.247394,4,1,1,25,0,0
496362,-1798.831289,4,1,1,25,0,0
496405,-1122.16748,4,1,1,25,0,0
496448,-770.5027584,4,1,1,25,0,0
496491,-563.0375648,4,1,1,25,0,0
496534,-429.9573412,4,1,1,25,0,0
496577,-339.3224721,4,1,1,25,0,0
496620,-274.7410263,4,1,1,25,0,0
496663,-227.0643036,4,1,1,25,0,0
496707,-190.8472967,4,1,1,25,0,0
496750,-162.679684,4,1,1,25,0,0
496794,-140.3348805,4,1,1,25,0,0
496838,-122.3079922,4,1,1,25,0,0
496882,-107.551696,4,1,1,25,0,0
496926,-95.31859191,4,1,1,25,0,0
496971,-85.06354663,4,1,1,25,0,0
497015,-76.38132461,4,1,1,25,0,0
497060,-68.96551497,4,1,1,25,0,0
497085,-10000,4,1,1,25,0,0
497146,-2224.222712,4,1,1,25,0,0
497205,-1168.979113,4,1,1,25,0,0
497262,-758.9809917,4,1,1,25,0,0
497318,-544.6855372,4,1,1,25,0,0
497371,-414.8441168,4,1,1,25,0,0
497422,-328.7934668,4,1,1,25,0,0
497471,-268.2001265,4,1,1,25,0,0
497519,-223.6160246,4,1,1,25,0,0
497564,-189.6956892,4,1,1,25,0,0
497607,-163.1985056,4,1,1,25,0,0
497648,-142.0521182,4,1,1,25,0,0
497687,-124.8737267,4,1,1,25,0,0
497725,-110.7080572,4,1,1,25,0,0
497760,-98.87578787,4,1,1,25,0,0
497793,-88.88186287,4,1,1,25,0,0
497824,-80.35784044,4,1,1,25,0,0
497853,-73.02447126,4,1,1,25,0,0
497881,-66.66666667,4,1,1,25,0,0
497893,375,4,1,1,25,1,0
569893,-76.9230769230769,4,1,1,25,0,0
569934,-117.647058823529,4,1,1,25,0,0
570018,-100,4,1,1,25,0,0
570268,-76.9230769230769,4,1,1,25,0,0
570309,-117.647058823529,4,1,1,25,0,0
570393,-100,4,1,1,25,0,0
570643,-76.9230769230769,4,1,1,25,0,0
570684,-117.647058823529,4,1,1,25,0,0
570768,-100,4,1,1,25,0,0
571018,-76.9230769230769,4,1,1,25,0,0
571059,-117.647058823529,4,1,1,25,0,0
571143,-100,4,1,1,25,0,0
571393,-71.4285714285714,4,1,1,25,0,0
571434,-125,4,1,1,25,0,0
571518,-100,4,1,1,25,0,0
571768,-71.4285714285714,4,1,1,25,0,0
571809,-125,4,1,1,25,0,0
571893,-100,4,1,1,25,0,0
572143,-71.4285714285714,4,1,1,25,0,0
572184,-125,4,1,1,25,0,0
572268,-100,4,1,1,25,0,0
572518,-71.4285714285714,4,1,1,25,0,0
572559,-125,4,1,1,25,0,0
572643,-100,4,1,1,25,0,0
572893,-66.6666666666667,4,1,1,25,0,0
572934,-133.333333333333,4,1,1,25,0,0
573018,-100,4,1,1,25,0,0
573268,-66.6666666666667,4,1,1,25,0,0
573309,-133.333333333333,4,1,1,25,0,0
573393,-100,4,1,1,25,0,0
573643,-66.6666666666667,4,1,1,25,0,0
573684,-133.333333333333,4,1,1,25,0,0
573768,-100,4,1,1,25,0,0
574018,-66.6666666666667,4,1,1,25,0,0
574059,-133.333333333333,4,1,1,25,0,0
574143,-100,4,1,1,25,0,0
574393,-62.5,4,1,1,25,0,0
574434,-142.857142857143,4,1,1,25,0,0
574518,-100,4,1,1,25,0,0
574768,-62.5,4,1,1,25,0,0
574809,-142.857142857143,4,1,1,25,0,0
574893,-100,4,1,1,25,0,0
575143,-62.5,4,1,1,25,0,0
575184,-142.857142857143,4,1,1,25,0,0
575268,-100,4,1,1,25,0,0
575518,-62.5,4,1,1,25,0,0
575559,-142.857142857143,4,1,1,25,0,0
575643,-100,4,1,1,25,0,0
575893,-58.8235294117647,4,1,1,25,0,0
575934,-153.846153846154,4,1,1,25,0,0
576018,-100,4,1,1,25,0,0
576268,-58.8235294117647,4,1,1,25,0,0
576309,-153.846153846154,4,1,1,25,0,0
576393,-100,4,1,1,25,0,0
576643,-58.8235294117647,4,1,1,25,0,0
576684,-153.846153846154,4,1,1,25,0,0
576768,-100,4,1,1,25,0,0
577018,-58.8235294117647,4,1,1,25,0,0
577059,-153.846153846154,4,1,1,25,0,0
577143,-100,4,1,1,25,0,0
577393,-55.5555555555556,4,1,1,25,0,0
577434,-166.666666666667,4,1,1,25,0,0
577518,-100,4,1,1,25,0,0
577768,-55.5555555555556,4,1,1,25,0,0
577809,-166.666666666667,4,1,1,25,0,0
577893,-100,4,1,1,25,0,0
578143,-55.5555555555556,4,1,1,25,0,0
578184,-166.666666666667,4,1,1,25,0,0
578268,-100,4,1,1,25,0,0
578518,-55.5555555555556,4,1,1,25,0,0
578559,-166.666666666667,4,1,1,25,0,0
578643,-100,4,1,1,25,0,0
578893,-55.5555555555556,4,1,1,25,0,0
578934,-166.666666666667,4,1,1,25,0,0
579018,-100,4,1,1,25,0,0
579268,-52.6315789473684,4,1,1,25,0,0
579309,-181.818181818182,4,1,1,25,0,0
579393,-100,4,1,1,25,0,0
579643,-52.6315789473684,4,1,1,25,0,0
579684,-181.818181818182,4,1,1,25,0,0
579768,-100,4,1,1,25,0,0
580018,-52.6315789473684,4,1,1,25,0,0
580059,-181.818181818182,4,1,1,25,0,0
580143,-100,4,1,1,25,0,0
580393,-50,4,1,1,25,0,0
580434,-200,4,1,1,25,0,0
580518,-100,4,1,1,25,0,0
580768,-50,4,1,1,25,0,0
580809,-200,4,1,1,25,0,0
580893,-100,4,1,1,25,0,0
581143,-50,4,1,1,25,0,0
581184,-200,4,1,1,25,0,0
581268,-100,4,1,1,25,0,0
581518,-50,4,1,1,25,0,0
581559,-200,4,1,1,25,0,0
581643,-100,4,1,1,25,0,0
581893,-47.6190476190476,4,1,1,25,0,0
581934,-222.222222222222,4,1,1,25,0,0
582018,-100,4,1,1,25,0,0
582268,-47.6190476190476,4,1,1,25,0,0
582309,-222.222222222222,4,1,1,25,0,0
582393,-100,4,1,1,25,0,0
582643,-47.6190476190476,4,1,1,25,0,0
582684,-222.222222222222,4,1,1,25,0,0
582768,-100,4,1,1,25,0,0
583018,-47.6190476190476,4,1,1,25,0,0
583059,-222.222222222222,4,1,1,25,0,0
583143,-100,4,1,1,25,0,0
583393,-45.4545454545455,4,1,1,25,0,0
583434,-250,4,1,1,25,0,0
583518,-100,4,1,1,25,0,0
583768,-45.4545454545455,4,1,1,25,0,0
583809,-250,4,1,1,25,0,0
583893,-100,4,1,1,25,0,0
584143,-45.4545454545455,4,1,1,25,0,0
584184,-250,4,1,1,25,0,0
584268,-100,4,1,1,25,0,0
584518,-45.4545454545455,4,1,1,25,0,0
584559,-250,4,1,1,25,0,0
584643,-100,4,1,1,25,0,0
584893,-43.4782608695652,4,1,1,25,0,0
584934,-285.714285714286,4,1,1,25,0,0
585018,-100,4,1,1,25,0,0
585268,-43.4782608695652,4,1,1,25,0,0
585309,-285.714285714286,4,1,1,25,0,0
585393,-100,4,1,1,25,0,0
585643,-43.4782608695652,4,1,1,25,0,0
585684,-285.714285714286,4,1,1,25,0,0
585768,-100,4,1,1,25,0,0
586018,-43.4782608695652,4,1,1,25,0,0
586059,-285.714285714286,4,1,1,25,0,0
586143,-100,4,1,1,25,0,0
586393,-41.6666666666667,4,1,1,25,0,0
586434,-333.333333333333,4,1,1,25,0,0
586518,-100,4,1,1,25,0,0
586768,-41.6666666666667,4,1,1,25,0,0
586809,-333.333333333333,4,1,1,25,0,0
586893,-100,4,1,1,25,0,0
587143,-41.6666666666667,4,1,1,25,0,0
587184,-333.333333333333,4,1,1,25,0,0
587268,-100,4,1,1,25,0,0
587518,-41.6666666666667,4,1,1,25,0,0
587559,-333.333333333333,4,1,1,25,0,0
587643,-100,4,1,1,25,0,0
587893,-40,4,1,1,25,0,0
587934,-400,4,1,1,25,0,0
588018,-100,4,1,1,25,0,0
588268,-40,4,1,1,25,0,0
588309,-400,4,1,1,25,0,0
588393,-100,4,1,1,25,0,0
588643,-40,4,1,1,25,0,0
588684,-400,4,1,1,25,0,0
588768,-100,4,1,1,25,0,0
589018,-40,4,1,1,25,0,0
589059,-400,4,1,1,25,0,0
589143,-100,4,1,1,25,0,0
589393,-50.251256281407,4,1,1,25,0,0
589455,-10000,4,1,1,25,0,0
589518,-100,4,1,1,25,0,0
590893,-10,4,1,1,25,0,0
590894,-117.647058823529,4,1,1,25,0,0
590955,-10,4,1,1,25,0,0
590956,-117.647058823529,4,1,1,25,0,0
591018,-10,4,1,1,25,0,0
591019,-117.647058823529,4,1,1,25,0,0
591080,-10,4,1,1,25,0,0
591081,-117.647058823529,4,1,1,25,0,0
591143,-10,4,1,1,25,0,0
591144,-117.647058823529,4,1,1,25,0,0
591205,-10,4,1,1,25,0,0
591206,-117.647058823529,4,1,1,25,0,0
591268,-10,4,1,1,25,0,0
591269,-117.647058823529,4,1,1,25,0,0
591330,-10,4,1,1,25,0,0
591331,-117.647058823529,4,1,1,25,0,0
591393,-10,4,1,1,25,0,0
591394,-117.647058823529,4,1,1,25,0,0
591455,-10,4,1,1,25,0,0
591456,-117.647058823529,4,1,1,25,0,0
591518,-10,4,1,1,25,0,0
591519,-117.647058823529,4,1,1,25,0,0
591580,-10,4,1,1,25,0,0
591581,-117.647058823529,4,1,1,25,0,0
591643,-10,4,1,1,25,0,0
591645,-142.857142857143,4,1,1,25,0,0
591705,-10,4,1,1,25,0,0
591707,-142.857142857143,4,1,1,25,0,0
591768,-10,4,1,1,25,0,0
591770,-142.857142857143,4,1,1,25,0,0
591830,-10,4,1,1,25,0,0
591832,-142.857142857143,4,1,1,25,0,0
591893,-10,4,1,1,25,0,0
591895,-142.857142857143,4,1,1,25,0,0
591955,-10,4,1,1,25,0,0
591957,-142.857142857143,4,1,1,25,0,0
592018,-10,4,1,1,25,0,0
592020,-142.857142857143,4,1,1,25,0,0
592080,-10,4,1,1,25,0,0
592082,-142.857142857143,4,1,1,25,0,0
592143,-10,4,1,1,25,0,0
592145,-142.857142857143,4,1,1,25,0,0
592205,-10,4,1,1,25,0,0
592207,-142.857142857143,4,1,1,25,0,0
592268,-10,4,1,1,25,0,0
592270,-142.857142857143,4,1,1,25,0,0
592330,-10,4,1,1,25,0,0
592332,-142.857142857143,4,1,1,25,0,0
592393,-10,4,1,1,25,0,0
592396,-181.818181818182,4,1,1,25,0,0
592455,-10,4,1,1,25,0,0
592458,-181.818181818182,4,1,1,25,0,0
592518,-10,4,1,1,25,0,0
592521,-181.818181818182,4,1,1,25,0,0
592580,-10,4,1,1,25,0,0
592583,-181.818181818182,4,1,1,25,0,0
592643,-10,4,1,1,25,0,0
592646,-181.818181818182,4,1,1,25,0,0
592705,-10,4,1,1,25,0,0
592708,-181.818181818182,4,1,1,25,0,0
592768,-10,4,1,1,25,0,0
592771,-181.818181818182,4,1,1,25,0,0
592830,-10,4,1,1,25,0,0
592833,-181.818181818182,4,1,1,25,0,0
592893,-10,4,1,1,25,0,0
592896,-181.818181818182,4,1,1,25,0,0
592955,-10,4,1,1,25,0,0
592958,-181.818181818182,4,1,1,25,0,0
593018,-10,4,1,1,25,0,0
593021,-181.818181818182,4,1,1,25,0,0
593080,-10,4,1,1,25,0,0
593083,-181.818181818182,4,1,1,25,0,0
593143,-100,4,1,1,25,0,0
593307,-50.251256281407,4,1,1,25,0,0
593319,-10000,4,1,1,25,0,0
593330,-50.251256281407,4,1,1,25,0,0
593342,-10000,4,1,1,25,0,0
593353,-50.251256281407,4,1,1,25,0,0
593365,-10000,4,1,1,25,0,0
593377,-50.251256281407,4,1,1,25,0,0
593388,-10000,4,1,1,25,0,0
593400,-50.251256281407,4,1,1,25,0,0
593412,-10000,4,1,1,25,0,0
593424,-100,4,1,1,25,0,0
593564,-50.251256281407,4,1,1,25,0,0
593575,-10000,4,1,1,25,0,0
593587,-50.251256281407,4,1,1,25,0,0
593599,-10000,4,1,1,25,0,0
593611,-100,4,1,1,25,0,0
593658,-50.251256281407,4,1,1,25,0,0
593669,-10000,4,1,1,25,0,0
593681,-50.251256281407,4,1,1,25,0,0
593693,-10000,4,1,1,25,0,0
593705,-100,4,1,1,25,0,0
593727,-10000,4,1,1,25,0,0
593750,-50.251256281407,4,1,1,25,0,0
593774,-10000,4,1,1,25,0,0
593797,-50.251256281407,4,1,1,25,0,0
593821,-10000,4,1,1,25,0,0
593844,-100,4,1,1,25,0,0
593893,-50.251256281407,4,1,1,25,0,0
593924,-10000,4,1,1,25,0,0
593955,-50.251256281407,4,1,1,25,0,0
593986,-10000,4,1,1,25,0,0
594018,-50.251256281407,4,1,1,25,0,0
594049,-10000,4,1,1,25,0,0
594080,-50.251256281407,4,1,1,25,0,0
594111,-10000,4,1,1,25,0,0
594143,-100,4,1,1,25,0,0
594268,-50.251256281407,4,1,1,25,0,0
594314,-10000,4,1,1,25,0,0
594361,-100,4,1,1,25,0,0
594643,-50.251256281407,4,1,1,25,0,0
594689,-10000,4,1,1,25,0,0
594736,-100,4,1,1,25,0,0
595018,-50.251256281407,4,1,1,25,0,0
595064,-10000,4,1,1,25,0,0
595111,-100,4,1,1,25,0,0
595393,-50.251256281407,4,1,1,25,0,0
595424,-10000,4,1,1,25,0,0
595455,-50.251256281407,4,1,1,25,0,0
595486,-10000,4,1,1,25,0,0
595518,-50.251256281407,4,1,1,25,0,0
595549,-10000,4,1,1,25,0,0
595580,-50.251256281407,4,1,1,25,0,0
595611,-10000,4,1,1,25,0,0
595643,-100,4,1,1,25,0,0
595768,-50.251256281407,4,1,1,25,0,0
595814,-10000,4,1,1,25,0,0
595861,-100,4,1,1,25,0,0
596143,-50.04504054,4,1,1,25,0,0
596189,-10309.27835,4,1,1,25,0,0
596236,-100.0900811,4,1,1,25,0,0
596518,-50.28916268,4,1,1,25,0,0
596533,-10309.27835,4,1,1,25,0,0
596549,-50.28916268,4,1,1,25,0,0
596564,-10309.27835,4,1,1,25,0,0
596580,-50.28916268,4,1,1,25,0,0
596595,-10309.27835,4,1,1,25,0,0
596611,-50.28916268,4,1,1,25,0,0
596627,-10309.27835,4,1,1,25,0,0
596643,-50.28916268,4,1,1,25,0,0
596658,-10309.27835,4,1,1,25,0,0
596674,-50.28916268,4,1,1,25,0,0
596689,-10309.27835,4,1,1,25,0,0
596705,-50.28916268,4,1,1,25,0,0
596720,-10309.27835,4,1,1,25,0,0
596736,-50.28916268,4,1,1,25,0,0
596752,-10309.27835,4,1,1,25,0,0
596768,-50.28916268,4,1,1,25,0,0
596783,-10309.27835,4,1,1,25,0,0
596799,-50.28916268,4,1,1,25,0,0
596814,-10309.27835,4,1,1,25,0,0
596830,-50.28916268,4,1,1,25,0,0
596845,-10309.27835,4,1,1,25,0,0
596861,-50.28916268,4,1,1,25,0,0
596877,-10309.27835,4,1,1,25,0,0
596893,-50.251256281407,4,1,1,25,0,0
596924,-10309.27835,4,1,1,25,0,0
596955,-50.251256281407,4,1,1,25,0,0
596986,-10309.27835,4,1,1,25,0,0
597018,-50.251256281407,4,1,1,25,0,0
597049,-10309.27835,4,1,1,25,0,0
597080,-50.251256281407,4,1,1,25,0,0
597111,-10309.27835,4,1,1,25,0,0
597143,-100.0900811,4,1,1,25,0,0
597268,-50.251256281407,4,1,1,25,0,0
597314,-10309.27835,4,1,1,25,0,0
597361,-100.0900811,4,1,1,25,0,0
597643,-50.251256281407,4,1,1,25,0,0
597689,-10309.27835,4,1,1,25,0,0
597736,-100.0900811,4,1,1,25,0,0
598018,-50.251256281407,4,1,1,25,0,0
598049,-10309.27835,4,1,1,25,0,0
598080,-100.0900811,4,1,1,25,0,0
598393,-50.251256281407,4,1,1,25,0,0
598424,-10309.27835,4,1,1,25,0,0
598455,-50.251256281407,4,1,1,25,0,0
598486,-10309.27835,4,1,1,25,0,0
598518,-50.251256281407,4,1,1,25,0,0
598549,-10309.27835,4,1,1,25,0,0
598580,-50.251256281407,4,1,1,25,0,0
598611,-10309.27835,4,1,1,25,0,0
598643,-100.0900811,4,1,1,25,0,0
598768,-50.251256281407,4,1,1,25,0,0
598814,-10309.27835,4,1,1,25,0,0
598861,-100,4,1,1,25,0,0
599143,-50.251256281407,4,1,1,25,0,0
599189,-10309.27835,4,1,1,25,0,0
599236,-100.0900811,4,1,1,25,0,0
599518,-50.251256281407,4,1,1,25,0,0
599549,-10309.27835,4,1,1,25,0,0
599580,-50.251256281407,4,1,1,25,0,0
599611,-10309.27835,4,1,1,25,0,0
599643,-50.251256281407,4,1,1,25,0,0
599674,-10309.27835,4,1,1,25,0,0
599705,-100.0900811,4,1,1,25,0,0
599893,-50.251256281407,4,1,1,25,0,0
599924,-10309.27835,4,1,1,25,0,0
599955,-50.251256281407,4,1,1,25,0,0
599986,-10309.27835,4,1,1,25,0,0
600018,-50.251256281407,4,1,1,25,0,0
600049,-10309.27835,4,1,1,25,0,0
600080,-50.251256281407,4,1,1,25,0,0
600111,-10309.27835,4,1,1,25,0,0
600143,-100.0900811,4,1,1,25,0,0
600268,-50.251256281407,4,1,1,25,0,0
600314,-10309.27835,4,1,1,25,0,0
600361,-100.0900811,4,1,1,25,0,0
600643,-50.251256281407,4,1,1,25,0,0
600689,-10309.27835,4,1,1,25,0,0
600736,-100.0900811,4,1,1,25,0,0
601018,-50.251256281407,4,1,1,25,0,0
601064,-10309.27835,4,1,1,25,0,0
601111,-100.0900811,4,1,1,25,0,0
601393,-50.251256281407,4,1,1,25,0,0
601424,-10309.27835,4,1,1,25,0,0
601455,-50.251256281407,4,1,1,25,0,0
601486,-10309.27835,4,1,1,25,0,0
601518,-50.251256281407,4,1,1,25,0,0
601549,-10309.27835,4,1,1,25,0,0
601580,-50.251256281407,4,1,1,25,0,0
601611,-10309.27835,4,1,1,25,0,0
601643,-100.0900811,4,1,1,25,0,0
601768,-50.251256281407,4,1,1,25,0,0
601814,-10309.27835,4,1,1,25,0,0
601861,-100.0900811,4,1,1,25,0,0
602143,-50.251256281407,4,1,1,25,0,0
602189,-10309.27835,4,1,1,25,0,0
602236,-100.0900811,4,1,1,25,0,0
602518,-50.28916268,4,1,1,25,0,0
602533,-10309.27835,4,1,1,25,0,0
602549,-50.28916268,4,1,1,25,0,0
602564,-10309.27835,4,1,1,25,0,0
602580,-50.28916268,4,1,1,25,0,0
602595,-10309.27835,4,1,1,25,0,0
602611,-50.28916268,4,1,1,25,0,0
602627,-10309.27835,4,1,1,25,0,0
602643,-50.28916268,4,1,1,25,0,0
602658,-10309.27835,4,1,1,25,0,0
602674,-50.28916268,4,1,1,25,0,0
602689,-10309.27835,4,1,1,25,0,0
602705,-50.28916268,4,1,1,25,0,0
602720,-10309.27835,4,1,1,25,0,0
602736,-50.28916268,4,1,1,25,0,0
602752,-10309.27835,4,1,1,25,0,0
602768,-50.28916268,4,1,1,25,0,0
602783,-10309.27835,4,1,1,25,0,0
602799,-50.28916268,4,1,1,25,0,0
602814,-10309.27835,4,1,1,25,0,0
602830,-100.0900811,4,1,1,25,0,0
602893,-50.251256281407,4,1,1,25,0,0
602924,-10309.27835,4,1,1,25,0,0
602955,-50.251256281407,4,1,1,25,0,0
602986,-10309.27835,4,1,1,25,0,0
603018,-50.251256281407,4,1,1,25,0,0
603049,-10309.27835,4,1,1,25,0,0
603080,-50.251256281407,4,1,1,25,0,0
603111,-10309.27835,4,1,1,25,0,0
603143,-100.0900811,4,1,1,25,0,0
603268,-50.251256281407,4,1,1,25,0,0
603314,-10309.27835,4,1,1,25,0,0
603361,-100.0900811,4,1,1,25,0,0
603643,-50.251256281407,4,1,1,25,0,0
603689,-10309.27835,4,1,1,25,0,0
603736,-100.0900811,4,1,1,25,0,0
604018,-50.251256281407,4,1,1,25,0,0
604049,-10309.27835,4,1,1,25,0,0
604080,-100.0900811,4,1,1,25,0,0
604393,-50.251256281407,4,1,1,25,0,0
604424,-10309.27835,4,1,1,25,0,0
604455,-50.251256281407,4,1,1,25,0,0
604486,-10309.27835,4,1,1,25,0,0
604518,-50.251256281407,4,1,1,25,0,0
604549,-10309.27835,4,1,1,25,0,0
604580,-50.251256281407,4,1,1,25,0,0
604611,-10309.27835,4,1,1,25,0,0
604643,-100.0900811,4,1,1,25,0,0
604768,-50.251256281407,4,1,1,25,0,0
604814,-10309.27835,4,1,1,25,0,0
604861,-100,4,1,1,25,0,0
605143,-50.251256281407,4,1,1,25,0,0
605189,-10309.27835,4,1,1,25,0,0
605236,-100.0900811,4,1,1,25,0,0
605330,-79.30214115,4,1,1,25,0,0
605377,-135.6483994,4,1,1,25,0,0
605424,-79.30214115,4,1,1,25,0,0
605471,-135.6483994,4,1,1,25,0,0
605518,-50.28916268,4,1,1,25,0,0
605534,-10309.27835,4,1,1,25,0,0
605549,-50.28916268,4,1,1,25,0,0
605565,-10309.27835,4,1,1,25,0,0
605580,-50.28916268,4,1,1,25,0,0
605596,-10309.27835,4,1,1,25,0,0
605611,-50.28916268,4,1,1,25,0,0
605627,-10309.27835,4,1,1,25,0,0
605643,-50.28916268,4,1,1,25,0,0
605659,-10309.27835,4,1,1,25,0,0
605674,-100.0900811,4,1,1,25,0,0
605893,-50.251256281407,4,1,1,25,0,0
605924,-10309.27835,4,1,1,25,0,0
605955,-50.251256281407,4,1,1,25,0,0
605986,-10309.27835,4,1,1,25,0,0
606018,-50.251256281407,4,1,1,25,0,0
606049,-10309.27835,4,1,1,25,0,0
606080,-50.251256281407,4,1,1,25,0,0
606111,-10309.27835,4,1,1,25,0,0
606143,-100.0900811,4,1,1,25,0,0
606268,-50.251256281407,4,1,1,25,0,0
606314,-10309.27835,4,1,1,25,0,0
606361,-100.0900811,4,1,1,25,0,0
606643,-50.251256281407,4,1,1,25,0,0
606689,-10309.27835,4,1,1,25,0,0
606736,-100.0900811,4,1,1,25,0,0
607018,-50.251256281407,4,1,1,25,0,0
607064,-10309.27835,4,1,1,25,0,0
607111,-100.0900811,4,1,1,25,0,0
607393,-50.251256281407,4,1,1,25,0,0
607424,-10309.27835,4,1,1,25,0,0
607455,-50.251256281407,4,1,1,25,0,0
607486,-10309.27835,4,1,1,25,0,0
607518,-50.251256281407,4,1,1,25,0,0
607549,-10309.27835,4,1,1,25,0,0
607580,-50.251256281407,4,1,1,25,0,0
607611,-10309.27835,4,1,1,25,0,0
607643,-100.0900811,4,1,1,25,0,0
607768,-50.251256281407,4,1,1,25,0,0
607814,-10309.27835,4,1,1,25,0,0
607861,-100.0900811,4,1,1,25,0,0
608143,-50.251256281407,4,1,1,25,0,0
608189,-10309.27835,4,1,1,25,0,0
608236,-100.0900811,4,1,1,25,0,0
608518,-50.251256281407,4,1,1,25,0,0
608564,-10309.27835,4,1,1,25,0,0
608611,-100.0900811,4,1,1,25,0,0
608893,-50.251256281407,4,1,1,25,0,0
608924,-10309.27835,4,1,1,25,0,0
608955,-50.251256281407,4,1,1,25,0,0
608986,-10309.27835,4,1,1,25,0,0
609018,-50.251256281407,4,1,1,25,0,0
609049,-10309.27835,4,1,1,25,0,0
609080,-50.251256281407,4,1,1,25,0,0
609111,-10309.27835,4,1,1,25,0,0
609143,-100.0900811,4,1,1,25,0,0
609268,-50.251256281407,4,1,1,25,0,0
609314,-10309.27835,4,1,1,25,0,0
609361,-100.0900811,4,1,1,25,0,0
609643,-50.251256281407,4,1,1,25,0,0
609689,-10309.27835,4,1,1,25,0,0
609736,-100.0900811,4,1,1,25,0,0
610018,-50.251256281407,4,1,1,25,0,0
610064,-10309.27835,4,1,1,25,0,0
610111,-100.0900811,4,1,1,25,0,0
610393,-50.251256281407,4,1,1,25,0,0
610424,-10309.27835,4,1,1,25,0,0
610455,-50.251256281407,4,1,1,25,0,0
610486,-10309.27835,4,1,1,25,0,0
610518,-50.251256281407,4,1,1,25,0,0
610549,-10309.27835,4,1,1,25,0,0
610580,-50.251256281407,4,1,1,25,0,0
610611,-10309.27835,4,1,1,25,0,0
610643,-100.0900811,4,1,1,25,0,0
610768,-50.251256281407,4,1,1,25,0,0
610814,-10309.27835,4,1,1,25,0,0
610861,-100,4,1,1,25,0,0
611143,-50.251256281407,4,1,1,25,0,0
611189,-10309.27835,4,1,1,25,0,0
611236,-100.0900811,4,1,1,25,0,0
611518,-50.251256281407,4,1,1,25,0,0
611564,-10309.27835,4,1,1,25,0,0
611611,-100.0900811,4,1,1,25,0,0
611893,-50.251256281407,4,1,1,25,0,0
611924,-10309.27835,4,1,1,25,0,0
611955,-50.251256281407,4,1,1,25,0,0
611986,-10309.27835,4,1,1,25,0,0
612018,-50.251256281407,4,1,1,25,0,0
612049,-10309.27835,4,1,1,25,0,0
612080,-50.251256281407,4,1,1,25,0,0
612111,-10309.27835,4,1,1,25,0,0
612143,-100.0900811,4,1,1,25,0,0
612268,-50.251256281407,4,1,1,25,0,0
612314,-10309.27835,4,1,1,25,0,0
612361,-100.0900811,4,1,1,25,0,0
612643,-50.251256281407,4,1,1,25,0,0
612689,-10309.27835,4,1,1,25,0,0
612736,-100.0900811,4,1,1,25,0,0
613018,-50.251256281407,4,1,1,25,0,0
613064,-10309.27835,4,1,1,25,0,0
613111,-100.0900811,4,1,1,25,0,0
613393,-50.251256281407,4,1,1,25,0,0
613424,-10309.27835,4,1,1,25,0,0
613455,-50.251256281407,4,1,1,25,0,0
613486,-10309.27835,4,1,1,25,0,0
613518,-50.251256281407,4,1,1,25,0,0
613549,-10309.27835,4,1,1,25,0,0
613580,-50.251256281407,4,1,1,25,0,0
613611,-10309.27835,4,1,1,25,0,0
613643,-100.0900811,4,1,1,25,0,0
613768,-50.251256281407,4,1,1,25,0,0
613814,-10309.27835,4,1,1,25,0,0
613861,-100.0900811,4,1,1,25,0,0
614143,-50.251256281407,4,1,1,25,0,0
614189,-10309.27835,4,1,1,25,0,0
614236,-100.0900811,4,1,1,25,0,0
614518,-50.251256281407,4,1,1,25,0,0
614564,-10309.27835,4,1,1,25,0,0
614611,-100.0900811,4,1,1,25,0,0
614893,-50.251256281407,4,1,1,25,0,0
614924,-10309.27835,4,1,1,25,0,0
614955,-50.251256281407,4,1,1,25,0,0
614986,-10309.27835,4,1,1,25,0,0
615018,-50.251256281407,4,1,1,25,0,0
615049,-10309.27835,4,1,1,25,0,0
615080,-50.251256281407,4,1,1,25,0,0
615111,-10309.27835,4,1,1,25,0,0
615143,-100.0900811,4,1,1,25,0,0
615268,-50.251256281407,4,1,1,25,0,0
615314,-10309.27835,4,1,1,25,0,0
615361,-100.0900811,4,1,1,25,0,0
615643,-50.251256281407,4,1,1,25,0,0
615689,-10309.27835,4,1,1,25,0,0
615736,-100.0900811,4,1,1,25,0,0
616018,-50.251256281407,4,1,1,25,0,0
616064,-10309.27835,4,1,1,25,0,0
616111,-100.0900811,4,1,1,25,0,0
616393,-50.251256281407,4,1,1,25,0,0
616424,-10309.27835,4,1,1,25,0,0
616455,-50.251256281407,4,1,1,25,0,0
616486,-10309.27835,4,1,1,25,0,0
616518,-50.251256281407,4,1,1,25,0,0
616549,-10309.27835,4,1,1,25,0,0
616580,-50.251256281407,4,1,1,25,0,0
616611,-10309.27835,4,1,1,25,0,0
616643,-50.251256281407,4,1,1,25,0,0
616674,-10309.27835,4,1,1,25,0,0
616705,-50.251256281407,4,1,1,25,0,0
616736,-10309.27835,4,1,1,25,0,0
616768,-50.251256281407,4,1,1,25,0,0
616830,-10309.27835,4,1,1,25,0,0
616893,-50.251256281407,4,1,1,25,0,0
616955,-10309.27835,4,1,1,25,0,0
617018,-50.251256281407,4,1,1,25,0,0
617080,-10309.27835,4,1,1,25,0,0
617143,-50.251256281407,4,1,1,25,0,0
617158,-10309.27835,4,1,1,25,0,0
617174,-50.251256281407,4,1,1,25,0,0
617189,-10309.27835,4,1,1,25,0,0
617205,-50.251256281407,4,1,1,25,0,0
617220,-10309.27835,4,1,1,25,0,0
617236,-50.251256281407,4,1,1,25,0,0
617251,-10309.27835,4,1,1,25,0,0
617268,-50.251256281407,4,1,1,25,0,0
617283,-10309.27835,4,1,1,25,0,0
617299,-100.0900811,4,1,1,25,0,0
617393,-133.333333333333,4,1,1,25,0,0
617455,-80,4,1,1,25,0,0
617518,-200,4,1,1,25,0,0
617580,-66.6666666666667,4,1,1,25,0,0
617643,-400,4,1,1,25,0,0
617705,-57.1428571428571,4,1,1,25,0,0
617768,-10000,4,1,1,25,0,0
617830,-50.251256281407,4,1,1,25,0,0
617893,-100.0900811,4,1,1,25,0,1
618018,-184.0942563,4,1,1,25,0,1
618080,-68.72852234,4,1,1,25,0,1
618143,-184.0942563,4,1,1,25,0,1
618205,-68.72852234,4,1,1,25,0,1
618268,-100.0900811,4,1,1,25,0,1
618393,-184.0942563,4,1,1,25,0,1
618455,-68.72852234,4,1,1,25,0,1
618518,-184.0942563,4,1,1,25,0,1
618580,-68.72852234,4,1,1,25,0,1
618643,-100.0900811,4,1,1,25,0,1
618768,-184.0942563,4,1,1,25,0,1
618830,-68.72852234,4,1,1,25,0,1
618893,-184.0942563,4,1,1,25,0,1
618955,-68.72852234,4,1,1,25,0,1
619018,-100.0900811,4,1,1,25,0,1
619143,-184.0942563,4,1,1,25,0,1
619205,-68.72852234,4,1,1,25,0,1
619268,-184.0942563,4,1,1,25,0,1
619330,-68.72852234,4,1,1,25,0,1
619393,-100.0900811,4,1,1,25,0,1
619518,-184.0942563,4,1,1,25,0,1
619580,-68.72852234,4,1,1,25,0,1
619643,-184.0942563,4,1,1,25,0,1
619705,-68.72852234,4,1,1,25,0,1
619768,-100.0900811,4,1,1,25,0,1
619893,-184.0942563,4,1,1,25,0,1
619955,-68.72852234,4,1,1,25,0,1
620018,-184.0942563,4,1,1,25,0,1
620080,-68.72852234,4,1,1,25,0,1
620143,-100.0900811,4,1,1,25,0,1
620268,-184.0942563,4,1,1,25,0,1
620330,-68.72852234,4,1,1,25,0,1
620393,-184.0942563,4,1,1,25,0,1
620455,-68.72852234,4,1,1,25,0,1
620518,-100.0900811,4,1,1,25,0,1
620643,-184.0942563,4,1,1,25,0,1
620705,-68.72852234,4,1,1,25,0,1
620768,-184.0942563,4,1,1,25,0,1
620830,-68.72852234,4,1,1,25,0,1
620893,-100.0900811,4,1,1,25,0,1
621018,-184.0942563,4,1,1,25,0,1
621080,-68.72852234,4,1,1,25,0,1
621143,-184.0942563,4,1,1,25,0,1
621205,-68.72852234,4,1,1,25,0,1
621268,-100.0900811,4,1,1,25,0,1
621393,-184.0942563,4,1,1,25,0,1
621455,-68.72852234,4,1,1,25,0,1
621518,-184.0942563,4,1,1,25,0,1
621580,-68.72852234,4,1,1,25,0,1
621643,-100.0900811,4,1,1,25,0,1
621768,-184.0942563,4,1,1,25,0,1
621830,-68.72852234,4,1,1,25,0,1
621893,-184.0942563,4,1,1,25,0,1
621955,-68.72852234,4,1,1,25,0,1
622018,-100.0900811,4,1,1,25,0,1
622143,-184.0942563,4,1,1,25,0,1
622205,-68.72852234,4,1,1,25,0,1
622268,-184.0942563,4,1,1,25,0,1
622330,-68.72852234,4,1,1,25,0,1
622393,-100.0900811,4,1,1,25,0,1
622518,-184.0942563,4,1,1,25,0,1
622580,-68.72852234,4,1,1,25,0,1
622643,-184.0942563,4,1,1,25,0,1
622705,-68.72852234,4,1,1,25,0,1
622768,-100.0900811,4,1,1,25,0,1
622893,-184.0942563,4,1,1,25,0,1
622955,-68.72852234,4,1,1,25,0,1
623018,-184.0942563,4,1,1,25,0,1
623080,-68.72852234,4,1,1,25,0,1
623143,-100.0900811,4,1,1,25,0,1
623268,-184.0942563,4,1,1,25,0,1
623330,-68.72852234,4,1,1,25,0,1
623393,-184.0942563,4,1,1,25,0,1
623455,-68.72852234,4,1,1,25,0,1
623518,-100.0900811,4,1,1,25,0,1
623643,-184.0942563,4,1,1,25,0,1
623705,-68.72852234,4,1,1,25,0,1
623768,-184.0942563,4,1,1,25,0,1
623830,-68.72852234,4,1,1,25,0,1
623893,-100.0900811,4,1,1,25,0,1
624018,-184.0942563,4,1,1,25,0,1
624080,-68.72852234,4,1,1,25,0,1
624143,-184.0942563,4,1,1,25,0,1
624205,-68.72852234,4,1,1,25,0,1
624268,-100.0900811,4,1,1,25,0,1
624393,-184.0942563,4,1,1,25,0,1
624455,-68.72852234,4,1,1,25,0,1
624518,-184.0942563,4,1,1,25,0,1
624580,-68.72852234,4,1,1,25,0,1
624643,-100.0900811,4,1,1,25,0,1
624768,-184.0942563,4,1,1,25,0,1
624830,-68.72852234,4,1,1,25,0,1
624893,-184.0942563,4,1,1,25,0,1
624955,-68.72852234,4,1,1,25,0,1
625018,-100.0900811,4,1,1,25,0,1
625143,-184.0942563,4,1,1,25,0,1
625205,-68.72852234,4,1,1,25,0,1
625268,-184.0942563,4,1,1,25,0,1
625330,-68.72852234,4,1,1,25,0,1
625393,-100.0900811,4,1,1,25,0,1
625518,-184.0942563,4,1,1,25,0,1
625580,-68.72852234,4,1,1,25,0,1
625643,-184.0942563,4,1,1,25,0,1
625705,-68.72852234,4,1,1,25,0,1
625768,-100.0900811,4,1,1,25,0,1
625893,-184.0942563,4,1,1,25,0,1
625955,-68.72852234,4,1,1,25,0,1
626018,-184.0942563,4,1,1,25,0,1
626080,-68.72852234,4,1,1,25,0,1
626143,-100.0900811,4,1,1,25,0,1
626268,-184.0942563,4,1,1,25,0,1
626330,-68.72852234,4,1,1,25,0,1
626393,-184.0942563,4,1,1,25,0,1
626455,-68.72852234,4,1,1,25,0,1
626518,-100.0900811,4,1,1,25,0,1
626643,-184.0942563,4,1,1,25,0,1
626705,-68.72852234,4,1,1,25,0,1
626768,-184.0942563,4,1,1,25,0,1
626830,-68.72852234,4,1,1,25,0,1
626893,-100.0900811,4,1,1,25,0,1
627018,-184.0942563,4,1,1,25,0,1
627080,-68.72852234,4,1,1,25,0,1
627143,-184.0942563,4,1,1,25,0,1
627205,-68.72852234,4,1,1,25,0,1
627268,-100.0900811,4,1,1,25,0,1
627393,-184.0942563,4,1,1,25,0,1
627455,-68.72852234,4,1,1,25,0,1
627518,-184.0942563,4,1,1,25,0,1
627580,-68.72852234,4,1,1,25,0,1
627643,-100.0900811,4,1,1,25,0,1
627768,-184.0942563,4,1,1,25,0,1
627830,-68.72852234,4,1,1,25,0,1
627893,-184.0942563,4,1,1,25,0,1
627955,-68.72852234,4,1,1,25,0,1
628018,-100.0900811,4,1,1,25,0,1
628143,-184.0942563,4,1,1,25,0,1
628205,-68.72852234,4,1,1,25,0,1
628268,-184.0942563,4,1,1,25,0,1
628330,-68.72852234,4,1,1,25,0,1
628393,-50.251256281407,4,1,1,25,0,1
628424,-10309.27835,4,1,1,25,0,1
628455,-50.251256281407,4,1,1,25,0,1
628486,-10309.27835,4,1,1,25,0,1
628518,-50.251256281407,4,1,1,25,0,1
628549,-10309.27835,4,1,1,25,0,1
628580,-50.251256281407,4,1,1,25,0,1
628611,-10309.27835,4,1,1,25,0,1
628643,-50.251256281407,4,1,1,25,0,1
628674,-10309.27835,4,1,1,25,0,1
628705,-50.251256281407,4,1,1,25,0,1
628736,-10309.27835,4,1,1,25,0,1
628768,-50.251256281407,4,1,1,25,0,1
628830,-10309.27835,4,1,1,25,0,1
628893,-50.251256281407,4,1,1,25,0,1
628955,-10309.27835,4,1,1,25,0,1
629018,-50.251256281407,4,1,1,25,0,1
629080,-10309.27835,4,1,1,25,0,1
629143,-66.08511763,4,1,1,25,0,1
629205,-206.185567,4,1,1,25,0,1
629268,-66.08511763,4,1,1,25,0,1
629330,-206.185567,4,1,1,25,0,1
629393,-66.08511763,4,1,1,25,0,1
629455,-206.185567,4,1,1,25,0,1
629518,-50.251256281407,4,1,1,25,0,1
629580,-10309.27835,4,1,1,25,0,1
629643,-50.251256281407,4,1,1,25,0,1
629705,-10309.27835,4,1,1,25,0,1
629768,-50.251256281407,4,1,1,25,0,1
629830,-10309.27835,4,1,1,25,0,1
629893,-100.0900811,4,1,1,25,0,1
630018,-181.818181818182,4,1,1,25,0,1
630080,-68.72852234,4,1,1,25,0,1
630143,-181.818181818182,4,1,1,25,0,1
630205,-68.72852234,4,1,1,25,0,1
630268,-100.0900811,4,1,1,25,0,1
630393,-181.818181818182,4,1,1,25,0,1
630455,-68.72852234,4,1,1,25,0,1
630518,-181.818181818182,4,1,1,25,0,1
630580,-68.72852234,4,1,1,25,0,1
630643,-100.0900811,4,1,1,25,0,1
630768,-181.818181818182,4,1,1,25,0,1
630830,-68.72852234,4,1,1,25,0,1
630893,-181.818181818182,4,1,1,25,0,1
630955,-68.72852234,4,1,1,25,0,1
631018,-100.0900811,4,1,1,25,0,1
631143,-181.818181818182,4,1,1,25,0,1
631205,-68.72852234,4,1,1,25,0,1
631268,-181.818181818182,4,1,1,25,0,1
631330,-68.72852234,4,1,1,25,0,1
631393,-100.0900811,4,1,1,25,0,1
631518,-181.818181818182,4,1,1,25,0,1
631580,-68.72852234,4,1,1,25,0,1
631643,-181.818181818182,4,1,1,25,0,1
631705,-68.72852234,4,1,1,25,0,1
631768,-100.0900811,4,1,1,25,0,1
631893,-181.818181818182,4,1,1,25,0,1
631955,-68.72852234,4,1,1,25,0,1
632018,-181.818181818182,4,1,1,25,0,1
632080,-68.72852234,4,1,1,25,0,1
632143,-100.0900811,4,1,1,25,0,1
632268,-181.818181818182,4,1,1,25,0,1
632330,-68.72852234,4,1,1,25,0,1
632393,-181.818181818182,4,1,1,25,0,1
632455,-68.72852234,4,1,1,25,0,1
632518,-100.0900811,4,1,1,25,0,1
632643,-181.818181818182,4,1,1,25,0,1
632705,-68.72852234,4,1,1,25,0,1
632768,-181.818181818182,4,1,1,25,0,1
632830,-68.72852234,4,1,1,25,0,1
632893,-100.0900811,4,1,1,25,0,1
633018,-181.818181818182,4,1,1,25,0,1
633080,-68.72852234,4,1,1,25,0,1
633143,-181.818181818182,4,1,1,25,0,1
633205,-68.72852234,4,1,1,25,0,1
633268,-100.0900811,4,1,1,25,0,1
633393,-181.818181818182,4,1,1,25,0,1
633455,-68.72852234,4,1,1,25,0,1
633518,-181.818181818182,4,1,1,25,0,1
633580,-68.72852234,4,1,1,25,0,1
633643,-100.0900811,4,1,1,25,0,1
633768,-181.818181818182,4,1,1,25,0,1
633830,-68.72852234,4,1,1,25,0,1
633893,-181.818181818182,4,1,1,25,0,1
633955,-68.72852234,4,1,1,25,0,1
634018,-100.0900811,4,1,1,25,0,1
634143,-181.818181818182,4,1,1,25,0,1
634205,-68.72852234,4,1,1,25,0,1
634268,-181.818181818182,4,1,1,25,0,1
634330,-68.72852234,4,1,1,25,0,1
634393,-100.0900811,4,1,1,25,0,1
634518,-181.818181818182,4,1,1,25,0,1
634580,-68.72852234,4,1,1,25,0,1
634643,-181.818181818182,4,1,1,25,0,1
634705,-68.72852234,4,1,1,25,0,1
634768,-100.0900811,4,1,1,25,0,1
634893,-181.818181818182,4,1,1,25,0,1
634955,-68.72852234,4,1,1,25,0,1
635018,-181.818181818182,4,1,1,25,0,1
635080,-68.72852234,4,1,1,25,0,1
635143,-100.0900811,4,1,1,25,0,1
635268,-181.818181818182,4,1,1,25,0,1
635330,-68.72852234,4,1,1,25,0,1
635393,-181.818181818182,4,1,1,25,0,1
635455,-68.72852234,4,1,1,25,0,1
635518,-100.0900811,4,1,1,25,0,1
635643,-181.818181818182,4,1,1,25,0,1
635705,-68.72852234,4,1,1,25,0,1
635768,-181.818181818182,4,1,1,25,0,1
635830,-68.72852234,4,1,1,25,0,1
635893,-100.0900811,4,1,1,25,0,1
636018,-181.818181818182,4,1,1,25,0,1
636080,-68.72852234,4,1,1,25,0,1
636143,-181.818181818182,4,1,1,25,0,1
636205,-68.72852234,4,1,1,25,0,1
636268,-100.0900811,4,1,1,25,0,1
636393,-181.818181818182,4,1,1,25,0,1
636455,-68.72852234,4,1,1,25,0,1
636518,-181.818181818182,4,1,1,25,0,1
636580,-68.72852234,4,1,1,25,0,1
636643,-100.0900811,4,1,1,25,0,1
636768,-181.818181818182,4,1,1,25,0,1
636830,-68.72852234,4,1,1,25,0,1
636893,-181.818181818182,4,1,1,25,0,1
636955,-68.72852234,4,1,1,25,0,1
637018,-100.0900811,4,1,1,25,0,1
637143,-181.818181818182,4,1,1,25,0,1
637205,-68.72852234,4,1,1,25,0,1
637268,-181.818181818182,4,1,1,25,0,1
637330,-68.72852234,4,1,1,25,0,1
637393,-100.0900811,4,1,1,25,0,1
637518,-181.818181818182,4,1,1,25,0,1
637580,-68.72852234,4,1,1,25,0,1
637643,-181.818181818182,4,1,1,25,0,1
637705,-68.72852234,4,1,1,25,0,1
637768,-100.0900811,4,1,1,25,0,1
637893,-181.818181818182,4,1,1,25,0,1
637955,-68.72852234,4,1,1,25,0,1
638018,-181.818181818182,4,1,1,25,0,1
638080,-68.72852234,4,1,1,25,0,1
638143,-100.0900811,4,1,1,25,0,1
638268,-181.818181818182,4,1,1,25,0,1
638330,-68.72852234,4,1,1,25,0,1
638393,-181.818181818182,4,1,1,25,0,1
638455,-68.72852234,4,1,1,25,0,1
638518,-100.0900811,4,1,1,25,0,1
638893,-34.36426116,4,1,1,25,0,0
638908,-39.7152709,4,1,1,25,0,0
638926,-46.24920695,4,1,1,25,0,0
638949,-54.26442994,4,1,1,25,0,0
638974,-64.11040125,4,1,1,25,0,0
639003,-76.15314589,4,1,1,25,0,0
639035,-90.6757822,4,1,1,25,0,0
639071,-107.6576946,4,1,1,25,0,0
639111,-126.3803331,4,1,1,25,0,0
639153,-144.925961,4,1,1,25,0,0
639199,-159.9730349,4,1,1,25,0,0
639249,-167.6288826,4,1,1,25,0,0
639359,-154.198364,4,1,1,25,0,0
639418,-137.1696655,4,1,1,25,0,0
639482,-118.2192801,4,1,1,25,0,0
639549,-100.0900839,4,1,1,25,0,0
639643,-51.54639175,4,1,1,25,0,0
639673,-59.33236165,4,1,1,25,0,0
639706,-68.49617372,4,1,1,25,0,0
639740,-79.14246124,4,1,1,25,0,0
639778,-91.22034021,4,1,1,25,0,0
639817,-104.3794394,4,1,1,25,0,0
639858,-117.7948795,4,1,1,25,0,0
639902,-130.0529658,4,1,1,25,0,0
639948,-139.2766302,4,1,1,25,0,0
639995,-143.6435912,4,1,1,25,0,0
640098,-135.1729359,4,1,1,25,0,0
640153,-124.1855501,4,1,1,25,0,0
640209,-111.1365281,4,1,1,25,0,0
640268,-97.71011294,4,1,1,25,0,0
640329,-85.02166757,4,1,1,25,0,0
640393,-50.251256281407,4,1,1,25,0,0
640424,-10309.27835,4,1,1,25,0,0
640455,-50.251256281407,4,1,1,25,0,0
640486,-10309.27835,4,1,1,25,0,0
640518,-50.251256281407,4,1,1,25,0,0
640549,-10309.27835,4,1,1,25,0,0
640580,-50.251256281407,4,1,1,25,0,0
640611,-10309.27835,4,1,1,25,0,0
640643,-50.251256281407,4,1,1,25,0,0
640674,-10309.27835,4,1,1,25,0,0
640705,-50.251256281407,4,1,1,25,0,0
640736,-10309.27835,4,1,1,25,0,0
640768,-50.251256281407,4,1,1,25,0,0
640830,-10309.27835,4,1,1,25,0,0
640893,-50.251256281407,4,1,1,25,0,0
640955,-10309.27835,4,1,1,25,0,0
641018,-50.251256281407,4,1,1,25,0,0
641080,-10309.27835,4,1,1,25,0,0
641143,-34.36426116,4,1,1,25,0,0
641156,-33.36246546,4,1,1,25,0,0
641175,-36.62518893,4,1,1,25,0,0
641201,-43.84230753,4,1,1,25,0,0
641238,-56.42829644,4,1,1,25,0,0
641284,-77.66801054,4,1,1,25,0,0
641339,-113.7872352,4,1,1,25,0,0
641401,-174.3223953,4,1,1,25,0,0
641467,-261.9021667,4,1,1,25,0,0
641535,-332.1247852,4,1,1,25,0,0
641602,-310.6578409,4,1,1,25,0,0
641666,-231.8449614,4,1,1,25,0,0
641726,-162.2866349,4,1,1,25,0,0
641780,-115.5626352,4,1,1,25,0,0
641826,-85.40036807,4,1,1,25,0,0
641864,-65.39217793,4,1,1,25,0,0
641893,-25.77319588,4,1,1,25,0,0
641912,-25.73761439,4,1,1,25,0,0
641929,-26.23749042,4,1,1,25,0,0
641944,-27.5867273,4,1,1,25,0,0
641957,-30.05612513,4,1,1,25,0,0
641970,-33.99912535,4,1,1,25,0,0
641982,-39.94863565,4,1,1,25,0,0
641994,-48.70896349,4,1,1,25,0,0
642008,-61.42033052,4,1,1,25,0,0
642026,-79.46280843,4,1,1,25,0,0
642050,-103.8598458,4,1,1,25,0,0
642084,-133.8199519,4,1,1,25,0,0
642133,-165.3733464,4,1,1,25,0,0
642204,-193.6511425,4,1,1,25,0,0
642305,-219.7394682,4,1,1,25,0,0
642447,-256.6979927,4,1,1,25,0,0
642643,-50.251256281407,4,1,1,25,0,0
642689,-10309.27835,4,1,1,25,0,0
642736,-250,4,1,1,25,0,0
643018,-51.54639175,4,1,1,25,0,0
643064,-1718.213059,4,1,1,25,0,0
643111,-222.222222222222,4,1,1,25,0,0
643393,-52.8680941,4,1,1,25,0,0
643439,-9372.071228,4,1,1,25,0,0
643486,-200,4,1,1,25,0,0
643768,-54.25935974,4,1,1,25,0,0
643814,-644.3298969,4,1,1,25,0,0
643861,-181.818181818182,4,1,1,25,0,0
644143,-55.72582892,4,1,1,25,0,0
644189,-490.9180167,4,1,1,25,0,0
644236,-166.666666666667,4,1,1,25,0,0
644518,-57.27376862,4,1,1,25,0,0
644564,-396.5107058,4,1,1,25,0,0
644611,-153.846153846154,4,1,1,25,0,0
644893,-58.910162,4,1,1,25,0,0
644939,-332.5573662,4,1,1,25,0,0
644986,-142.857142857143,4,1,1,25,0,0
645268,-60.64281382,4,1,1,25,0,0
645314,-286.3688431,4,1,1,25,0,0
645361,-133.333333333333,4,1,1,25,0,0
645643,-62.48047486,4,1,1,25,0,0
645689,-251.4458134,4,1,1,25,0,0
645736,-125,4,1,1,25,0,0
646018,-64.43298969,4,1,1,25,0,0
646064,-224.1147467,4,1,1,25,0,0
646111,-117.647058823529,4,1,1,25,0,0
646393,-66.51147323,4,1,1,25,0,0
646439,-200,4,1,1,25,0,0
646486,-111.111111111111,4,1,1,25,0,0
646768,-68.72852234,4,1,1,25,0,0
646814,-181.818181818182,4,1,1,25,0,0
646861,-105.263157894737,4,1,1,25,0,0
647143,-68.72852234,4,1,1,25,0,0
647189,-181.818181818182,4,1,1,25,0,0
647236,-100.0900811,4,1,1,25,0,0
647518,-68.72852234,4,1,1,25,0,0
647564,-181.818181818182,4,1,1,25,0,0
647611,-100.0900811,4,1,1,25,0,0
647893,-68.72852234,4,1,1,25,0,0
647939,-181.818181818182,4,1,1,25,0,0
647986,-100.0900811,4,1,1,25,0,0
648268,-68.72852234,4,1,1,25,0,0
648314,-181.818181818182,4,1,1,25,0,0
648361,-100.0900811,4,1,1,25,0,0
648643,-68.72852234,4,1,1,25,0,0
648689,-181.818181818182,4,1,1,25,0,0
648736,-100.0900811,4,1,1,25,0,0
649018,-68.72852234,4,1,1,25,0,0
649064,-181.818181818182,4,1,1,25,0,0
649111,-100.0900811,4,1,1,25,0,0
649393,-68.72852234,4,1,1,25,0,0
649439,-181.818181818182,4,1,1,25,0,0
649486,-100.0900811,4,1,1,25,0,0
649768,-68.72852234,4,1,1,25,0,0
649814,-181.818181818182,4,1,1,25,0,0
649861,-100.0900811,4,1,1,25,0,0
650143,-68.72852234,4,1,1,25,0,0
650189,-181.818181818182,4,1,1,25,0,0
650236,-100.0900811,4,1,1,25,0,0
650518,-68.72852234,4,1,1,25,0,0
650564,-181.818181818182,4,1,1,25,0,0
650611,-100.0900811,4,1,1,25,0,0
650893,-68.72852234,4,1,1,25,0,0
650939,-181.818181818182,4,1,1,25,0,0
650986,-100.0900811,4,1,1,25,0,0
651268,-68.72852234,4,1,1,25,0,0
651314,-181.818181818182,4,1,1,25,0,0
651361,-100.0900811,4,1,1,25,0,0
651643,-68.72852234,4,1,1,25,0,0
651689,-181.818181818182,4,1,1,25,0,0
651736,-100.0900811,4,1,1,25,0,0
652018,-68.72852234,4,1,1,25,0,0
652064,-181.818181818182,4,1,1,25,0,0
652111,-100.0900811,4,1,1,25,0,0
652393,-40.27061856,4,1,1,25,0,0
652439,-184.0942563,4,1,1,25,0,0
652580,-100.0900811,4,1,1,25,0,0
652955,-184.0942563,4,1,1,25,0,0
653096,-40.27061856,4,1,1,25,0,0
653143,-100.0900811,4,1,1,25,0,0
653518,-60.6060606060606,4,1,1,25,0,0
653564,-285.714285714286,4,1,1,25,0,0
653658,-60.6060606060606,4,1,1,25,0,0
653705,-100.0900811,4,1,1,25,0,0
653893,-49.32669067,4,1,1,25,0,0
653955,-206.185567,4,1,1,25,0,0
654080,-100.0900811,4,1,1,25,0,0
654268,-58.57544517,4,1,1,25,0,0
654314,-343.6426117,4,1,1,25,0,0
654361,-100.0900811,4,1,1,25,0,0
654455,-206.185567,4,1,1,25,0,0
654502,-128.8659794,4,1,1,25,0,0
654549,-85.91065292,4,1,1,25,0,0
654596,-63.63752068,4,1,1,25,0,0
654643,-100.0900811,4,1,1,25,0,0
655018,-58.57544517,4,1,1,25,0,0
655064,-343.6426117,4,1,1,25,0,0
655111,-100.0900811,4,1,1,25,0,0
655393,-49.32669067,4,1,1,25,0,0
655455,-206.185567,4,1,1,25,0,0
655580,-100.0900811,4,1,1,25,0,0
655768,-58.57544517,4,1,1,25,0,0
655814,-343.6426117,4,1,1,25,0,0
655861,-100.0900811,4,1,1,25,0,0
655955,-206.185567,4,1,1,25,0,0
656002,-128.8659794,4,1,1,25,0,0
656049,-85.91065292,4,1,1,25,0,0
656096,-63.63752068,4,1,1,25,0,0
656143,-100.0900811,4,1,1,25,0,0
656518,-58.57544517,4,1,1,25,0,0
656564,-343.6426117,4,1,1,25,0,0
656611,-100.0900811,4,1,1,25,0,0
656893,-66.72672072,4,1,1,25,0,0
656955,-100.0900811,4,1,1,25,0,0
657018,-200.1801621,4,1,1,25,0,0
657080,-100.0900811,4,1,1,25,0,0
657268,-58.57544517,4,1,1,25,0,0
657314,-343.6426117,4,1,1,25,0,0
657361,-100.0900811,4,1,1,25,0,0
657455,-206.185567,4,1,1,25,0,0
657502,-128.8659794,4,1,1,25,0,0
657549,-85.91065292,4,1,1,25,0,0
657596,-63.63752068,4,1,1,25,0,0
657643,-100.0900811,4,1,1,25,0,0
658018,-58.57544517,4,1,1,25,0,0
658064,-343.6426117,4,1,1,25,0,0
658111,-100.0900811,4,1,1,25,0,0
658393,-49.32669067,4,1,1,25,0,0
658455,-206.185567,4,1,1,25,0,0
658580,-100.0900811,4,1,1,25,0,0
658768,-58.57544517,4,1,1,25,0,0
658814,-343.6426117,4,1,1,25,0,0
658861,-100.0900811,4,1,1,25,0,0
658955,-206.185567,4,1,1,25,0,0
659002,-128.8659794,4,1,1,25,0,0
659049,-85.91065292,4,1,1,25,0,0
659096,-63.63752068,4,1,1,25,0,0
659143,-100.0900811,4,1,1,25,0,0
659518,-58.57544517,4,1,1,25,0,0
659564,-343.6426117,4,1,1,25,0,0
659611,-100.0900811,4,1,1,25,0,0
659893,-66.72672072,4,1,1,25,0,0
659955,-100.0900811,4,1,1,25,0,0
660018,-200.1801621,4,1,1,25,0,0
660080,-100.0900811,4,1,1,25,0,0
660268,-58.57544517,4,1,1,25,0,0
660314,-343.6426117,4,1,1,25,0,0
660361,-100.0900811,4,1,1,25,0,0
660455,-206.185567,4,1,1,25,0,0
660502,-128.8659794,4,1,1,25,0,0
660549,-85.91065292,4,1,1,25,0,0
660596,-63.63752068,4,1,1,25,0,0
660643,-100.0900811,4,1,1,25,0,0
661018,-58.57544517,4,1,1,25,0,0
661064,-343.6426117,4,1,1,25,0,0
661111,-100.0900811,4,1,1,25,0,0
661393,-49.32669067,4,1,1,25,0,0
661455,-206.185567,4,1,1,25,0,0
661580,-100.0900811,4,1,1,25,0,0
661768,-58.57544517,4,1,1,25,0,0
661814,-343.6426117,4,1,1,25,0,0
661861,-100.0900811,4,1,1,25,0,0
661955,-206.185567,4,1,1,25,0,0
662002,-128.8659794,4,1,1,25,0,0
662049,-85.91065292,4,1,1,25,0,0
662096,-63.63752068,4,1,1,25,0,0
662143,-100.0900811,4,1,1,25,0,0
662518,-58.57544517,4,1,1,25,0,0
662564,-343.6426117,4,1,1,25,0,0
662611,-100.0900811,4,1,1,25,0,0
662893,-66.72672072,4,1,1,25,0,0
662955,-100.0900811,4,1,1,25,0,0
663018,-200.1801621,4,1,1,25,0,0
663080,-100.0900811,4,1,1,25,0,0
663268,-58.57544517,4,1,1,25,0,0
663314,-343.6426117,4,1,1,25,0,0
663361,-100.0900811,4,1,1,25,0,0
663643,-58.57544517,4,1,1,25,0,0
663689,-343.6426117,4,1,1,25,0,0
663736,-100.0900811,4,1,1,25,0,0
664018,-58.57544517,4,1,1,25,0,0
664064,-343.6426117,4,1,1,25,0,0
664111,-100.0900811,4,1,1,25,0,0
664393,-58.57544517,4,1,1,25,0,0
664439,-343.6426117,4,1,1,25,0,0
664486,-100.0900811,4,1,1,25,0,0
665330,-58.57544517,4,1,1,25,0,0
665376,-343.6426117,4,1,1,25,0,0
665424,-58.57544517,4,1,1,25,0,0
665470,-343.6426117,4,1,1,25,0,0
665518,-41.2371134,4,1,1,25,0,0
665548,-412.371134,4,1,1,25,0,0
665611,-41.2371134,4,1,1,25,0,0
665641,-412.371134,4,1,1,25,0,0
665705,-58.57544517,4,1,1,25,0,0
665751,-343.6426117,4,1,1,25,0,0
665799,-58.57544517,4,1,1,25,0,0
665845,-343.6426117,4,1,1,25,0,0
665893,-52.6315789473684,4,1,1,25,0,0
665916,-10309.27835,4,1,1,25,0,0
665939,-52.6315789473684,4,1,1,25,0,0
665963,-10309.27835,4,1,1,25,0,0
665986,-52.6315789473684,4,1,1,25,0,0
666010,-10309.27835,4,1,1,25,0,0
666033,-52.6315789473684,4,1,1,25,0,0
666057,-10309.27835,4,1,1,25,0,0
666080,-52.6315789473684,4,1,1,25,0,0
666127,-10309.27835,4,1,1,25,0,0
666174,-52.6315789473684,4,1,1,25,0,0
666221,-10309.27835,4,1,1,25,0,0
666268,-25.1889168765743,4,1,1,25,0,0
666291,-10309.27835,4,1,1,25,0,0
666361,-25.1889168765743,4,1,1,25,0,0
666385,-10309.27835,4,1,1,25,0,0
666455,-50.251256281407,4,1,1,25,0,0
666502,-10309.27835,4,1,1,25,0,0
666549,-50.251256281407,4,1,1,25,0,0
666596,-10309.27835,4,1,1,25,0,0
666643,-50.251256281407,4,1,1,25,0,1
666689,-10309.27835,4,1,1,25,0,1
666736,-100.0900811,4,1,1,25,0,1
667018,-50.251256281407,4,1,1,25,0,1
667064,-10309.27835,4,1,1,25,0,1
667111,-100.0900811,4,1,1,25,0,1
667393,-50.251256281407,4,1,1,25,0,1
667439,-10309.27835,4,1,1,25,0,1
667486,-100.0900811,4,1,1,25,0,1
667768,-50.251256281407,4,1,1,25,0,1
667814,-10309.27835,4,1,1,25,0,1
667861,-100.0900811,4,1,1,25,0,1
668143,-50.251256281407,4,1,1,25,0,1
668189,-10309.27835,4,1,1,25,0,1
668236,-100.0900811,4,1,1,25,0,1
668518,-50.251256281407,4,1,1,25,0,1
668564,-10309.27835,4,1,1,25,0,1
668611,-100.0900811,4,1,1,25,0,1
668893,-50.251256281407,4,1,1,25,0,1
668939,-10309.27835,4,1,1,25,0,1
668986,-100.0900811,4,1,1,25,0,1
669268,-50.251256281407,4,1,1,25,0,1
669314,-10309.27835,4,1,1,25,0,1
669361,-100.0900811,4,1,1,25,0,1
669643,-50.251256281407,4,1,1,25,0,1
669689,-10309.27835,4,1,1,25,0,1
669736,-100.0900811,4,1,1,25,0,1
670018,-50.251256281407,4,1,1,25,0,1
670064,-10309.27835,4,1,1,25,0,1
670111,-100.0900811,4,1,1,25,0,1
670393,-50.251256281407,4,1,1,25,0,1
670439,-10309.27835,4,1,1,25,0,1
670486,-100.0900811,4,1,1,25,0,1
670768,-50.251256281407,4,1,1,25,0,1
670814,-10309.27835,4,1,1,25,0,1
670861,-100.0900811,4,1,1,25,0,1
671143,-50.251256281407,4,1,1,25,0,1
671189,-10309.27835,4,1,1,25,0,1
671236,-100.0900811,4,1,1,25,0,1
671518,-50.251256281407,4,1,1,25,0,1
671541,-10309.27835,4,1,1,25,0,1
671564,-100.0900811,4,1,1,25,0,1
671893,-50.251256281407,4,1,1,25,0,1
671939,-10309.27835,4,1,1,25,0,1
671986,-100.0900811,4,1,1,25,0,1
672268,-50.251256281407,4,1,1,25,0,1
672314,-10309.27835,4,1,1,25,0,1
672361,-100.0900811,4,1,1,25,0,1
672643,-50.251256281407,4,1,1,25,0,1
672689,-10309.27835,4,1,1,25,0,1
672736,-100.0900811,4,1,1,25,0,1
673018,-50.251256281407,4,1,1,25,0,1
673064,-10309.27835,4,1,1,25,0,1
673111,-100.0900811,4,1,1,25,0,1
673393,-50.251256281407,4,1,1,25,0,1
673439,-10309.27835,4,1,1,25,0,1
673486,-100.0900811,4,1,1,25,0,1
673768,-50.251256281407,4,1,1,25,0,1
673814,-10309.27835,4,1,1,25,0,1
673861,-100.0900811,4,1,1,25,0,1
674143,-50.251256281407,4,1,1,25,0,1
674189,-10309.27835,4,1,1,25,0,1
674236,-100.0900811,4,1,1,25,0,1
674518,-50.251256281407,4,1,1,25,0,1
674564,-10309.27835,4,1,1,25,0,1
674611,-100.0900811,4,1,1,25,0,1
674893,-50.251256281407,4,1,1,25,0,1
674939,-10309.27835,4,1,1,25,0,1
674986,-100.0900811,4,1,1,25,0,1
675268,-50.251256281407,4,1,1,25,0,1
675314,-10309.27835,4,1,1,25,0,1
675361,-100.0900811,4,1,1,25,0,1
675643,-50.251256281407,4,1,1,25,0,1
675689,-10309.27835,4,1,1,25,0,1
675736,-100.0900811,4,1,1,25,0,1
676018,-50.251256281407,4,1,1,25,0,1
676064,-10309.27835,4,1,1,25,0,1
676111,-100.0900811,4,1,1,25,0,1
676393,-50.251256281407,4,1,1,25,0,1
676439,-10309.27835,4,1,1,25,0,1
676486,-100.0900811,4,1,1,25,0,1
676768,-50.251256281407,4,1,1,25,0,1
676814,-10309.27835,4,1,1,25,0,1
676861,-100.0900811,4,1,1,25,0,1
677143,-50.251256281407,4,1,1,25,0,1
677166,-10309.27835,4,1,1,25,0,1
677189,-50.251256281407,4,1,1,25,0,1
677213,-10309.27835,4,1,1,25,0,1
677236,-50.251256281407,4,1,1,25,0,1
677260,-10309.27835,4,1,1,25,0,1
677283,-50.251256281407,4,1,1,25,0,1
677307,-10309.27835,4,1,1,25,0,1
677330,-50.251256281407,4,1,1,25,0,1
677353,-10309.27835,4,1,1,25,0,1
677377,-50.251256281407,4,1,1,25,0,1
677400,-10309.27835,4,1,1,25,0,1
677424,-50.251256281407,4,1,1,25,0,1
677447,-10309.27835,4,1,1,25,0,1
677471,-50.251256281407,4,1,1,25,0,1
677494,-10309.27835,4,1,1,25,0,1
677518,-50.251256281407,4,1,1,25,0,1
677564,-10309.27835,4,1,1,25,0,1
677611,-100.0900811,4,1,1,25,0,1
677893,-50.251256281407,4,1,1,25,0,1
677916,-10309.27835,4,1,1,25,0,1
677939,-50.251256281407,4,1,1,25,0,1
677963,-10309.27835,4,1,1,25,0,1
677986,-50.251256281407,4,1,1,25,0,1
678010,-10309.27835,4,1,1,25,0,1
678033,-50.251256281407,4,1,1,25,0,1
678057,-10309.27835,4,1,1,25,0,1
678080,-50.251256281407,4,1,1,25,0,1
678103,-10309.27835,4,1,1,25,0,1
678127,-50.251256281407,4,1,1,25,0,1
678150,-10309.27835,4,1,1,25,0,1
678174,-50.251256281407,4,1,1,25,0,1
678197,-10309.27835,4,1,1,25,0,1
678221,-50.251256281407,4,1,1,25,0,1
678244,-10309.27835,4,1,1,25,0,1
678268,-50.251256281407,4,1,1,25,0,1
678314,-10309.27835,4,1,1,25,0,1
678361,-100.0900811,4,1,1,25,0,1
678643,-50.251256281407,4,1,1,25,0,1
678689,-10309.27835,4,1,1,25,0,1
678736,-100.0900811,4,1,1,25,0,1
679018,-50.251256281407,4,1,1,25,0,1
679064,-10309.27835,4,1,1,25,0,1
679111,-100.0900811,4,1,1,25,0,1
679393,-50.251256281407,4,1,1,25,0,1
679439,-10309.27835,4,1,1,25,0,1
679486,-100.0900811,4,1,1,25,0,1
679768,-50.251256281407,4,1,1,25,0,1
679814,-10309.27835,4,1,1,25,0,1
679861,-100.0900811,4,1,1,25,0,1
680143,-50.251256281407,4,1,1,25,0,1
680189,-10309.27835,4,1,1,25,0,1
680236,-100.0900811,4,1,1,25,0,1
680518,-50.251256281407,4,1,1,25,0,1
680541,-10309.27835,4,1,1,25,0,1
680564,-100.0900811,4,1,1,25,0,1
680893,-50.251256281407,4,1,1,25,0,1
680939,-10309.27835,4,1,1,25,0,1
680986,-100.0900811,4,1,1,25,0,1
681268,-50.251256281407,4,1,1,25,0,1
681314,-10309.27835,4,1,1,25,0,1
681361,-100.0900811,4,1,1,25,0,1
681643,-50.251256281407,4,1,1,25,0,1
681689,-10309.27835,4,1,1,25,0,1
681736,-100.0900811,4,1,1,25,0,1
682018,-50.251256281407,4,1,1,25,0,1
682064,-10309.27835,4,1,1,25,0,1
682111,-100.0900811,4,1,1,25,0,1
682393,-50.251256281407,4,1,1,25,0,1
682439,-10309.27835,4,1,1,25,0,1
682486,-100.0900811,4,1,1,25,0,1
682768,-50.251256281407,4,1,1,25,0,1
682814,-10309.27835,4,1,1,25,0,1
682861,-100.0900811,4,1,1,25,0,1
683143,-50.251256281407,4,1,1,25,0,1
683189,-10309.27835,4,1,1,25,0,1
683236,-100.0900811,4,1,1,25,0,1
683518,-50.251256281407,4,1,1,25,0,1
683541,-10309.27835,4,1,1,25,0,1
683564,-100.0900811,4,1,1,25,0,1
683893,-50.251256281407,4,1,1,25,0,1
683939,-10309.27835,4,1,1,25,0,1
683986,-100.0900811,4,1,1,25,0,1
686893,-50.251256281407,4,1,1,25,0,1
686939,-10309.27835,4,1,1,25,0,1
686986,-100.0900811,4,1,1,25,0,1
688768,-50.251256281407,4,1,1,25,0,1
688814,-10309.27835,4,1,1,25,0,1
688861,-50.251256281407,4,1,1,25,0,1
688908,-10309.27835,4,1,1,25,0,1
688955,-73.63770251,4,1,1,25,0,1
689000,-171.8213059,4,1,1,25,0,1
689049,-73.63770251,4,1,1,25,0,1
689094,-171.8213059,4,1,1,25,0,1
689143,-100.0900811,4,1,1,25,0,1
689330,-58.57544517,4,1,1,25,0,1
689376,-343.6426117,4,1,1,25,0,1
689424,-58.57544517,4,1,1,25,0,1
689470,-343.6426117,4,1,1,25,0,1
689518,-41.2371134,4,1,1,25,0,1
689548,-412.371134,4,1,1,25,0,1
689611,-41.2371134,4,1,1,25,0,1
689641,-412.371134,4,1,1,25,0,1
689705,-70.61149555,4,1,1,25,0,1
689751,-171.8213058,4,1,1,25,0,1
689799,-100.0900811,4,1,1,25,0,1
689893,-101.0101,4,1,1,25,0,0
691816,-102.0861089,4,1,1,25,0,0
693740,-103.1852826,4,1,1,25,0,0
695664,-104.3083902,4,1,1,25,0,0
697588,-105.456209,4,1,1,25,0,0
699512,-106.629577,4,1,1,25,0,0
701436,-107.8293499,4,1,1,25,0,0
703360,-109.0564222,4,1,1,25,0,0
705284,-110.3117508,4,1,1,25,0,0
707208,-111.5963082,4,1,1,25,0,0
709132,-112.9111425,4,1,1,25,0,0
711056,-114.2573291,4,1,1,25,0,0
712979,-115.635995,4,1,1,25,0,0
714903,-117.0483462,4,1,1,25,0,0
716827,-118.4956243,4,1,1,25,0,0
718751,-119.9791325,4,1,1,25,0,0
720675,-121.500266,4,1,1,25,0,0
722599,-123.0604566,4,1,1,25,0,0
724523,-124.6612467,4,1,1,25,0,0
726447,-126.3042323,4,1,1,25,0,0
728371,-127.9910944,4,1,1,25,0,0
730295,-129.7236343,4,1,1,25,0,0
732219,-131.5037123,4,1,1,25,0,0
734143,-133.3333333,4,1,1,25,0,0

[HitObjects]
475,192,8342,5,0,0:0:0:85:D7S.wav
329,192,13674,5,0,0:0:0:75:A6S.wav
402,192,19118,5,0,0:0:0:30:B6S.wav
182,192,24118,5,0,0:0:0:40:1G6S.wav
475,192,34026,5,0,0:0:0:75:D7S.wav
329,192,39107,5,0,0:0:0:45:A6S.wav
109,192,44106,1,0,0:0:0:35:E6S.wav
182,192,47717,1,0,0:0:0:35:1F6S.wav
36,192,56103,5,0,0:0:0:60:D6S.wav
256,192,58136,1,0,0:0:0:45:A6S.wav
182,192,60113,1,0,0:0:0:20:D5S.wav
329,192,60135,1,0,0:0:0:40:1G6S.wav
256,192,61122,1,0,0:0:0:35:1G5S.wav
329,192,62096,1,0,0:0:0:35:A5S.wav
475,192,63100,1,0,0:0:0:40:D6S.wav
256,192,66099,1,0,0:0:0:40:D6S.wav
402,192,67108,1,0,0:0:0:45:A6S.wav
109,192,68084,1,0,0:0:0:30:D5S.wav
256,192,68202,1,0,0:0:0:30:E6S.wav
182,192,69089,1,0,0:0:0:30:1G5S.wav
256,192,70107,1,0,0:0:0:20:A5S.wav
329,192,70107,1,0,0:0:0:20:D6S.wav
402,192,71147,1,0,0:0:0:40:E6S.wav
256,192,74118,1,0,0:0:0:25:D6S.wav
475,192,75138,1,0,0:0:0:35:A6S.wav
182,192,76108,1,0,0:0:0:15:D5S.wav
329,192,76153,1,0,0:0:0:35:1G6S.wav
256,192,77141,1,0,0:0:0:40:1G5S.wav
329,192,78118,1,0,0:0:0:35:D6S.wav
475,192,78118,1,0,0:0:0:40:A5S.wav
402,192,80134,1,0,0:0:0:40:1F6S.wav
329,192,84093,1,0,0:0:0:20:E6S.wav
36,192,84093,1,0,0:0:0:25:D5S.wav
109,192,85123,1,0,0:0:0:20:1G5S.wav
182,192,86126,1,0,0:0:0:30:A5S.wav
329,192,88121,1,0,0:0:0:35:D6S.wav
36,192,96109,5,0,0:0:0:0:
182,192,96109,1,0,0:0:0:0:
402,192,96484,1,0,0:0:0:0:
256,192,96671,1,0,0:0:0:0:
402,192,96859,1,0,0:0:0:0:
256,192,97046,1,0,0:0:0:0:
475,192,97234,1,0,0:0:0:0:
182,192,97421,1,0,0:0:0:0:
256,192,97609,1,0,0:0:0:0:
36,192,97796,1,0,0:0:0:0:
402,192,97984,1,0,0:0:0:0:
256,192,98171,1,0,0:0:0:0:
402,192,98359,1,0,0:0:0:0:
475,192,98546,1,0,0:0:0:0:
402,192,98734,1,0,0:0:0:0:
256,192,98921,1,0,0:0:0:0:
36,192,99109,1,0,0:0:0:0:
182,192,99109,1,0,0:0:0:0:
402,192,99484,1,0,0:0:0:0:
256,192,99671,1,0,0:0:0:0:
402,192,99859,1,0,0:0:0:0:
256,192,100046,1,0,0:0:0:0:
475,192,100234,1,0,0:0:0:0:
182,192,100421,1,0,0:0:0:0:
256,192,100609,1,0,0:0:0:0:
36,192,100796,1,0,0:0:0:0:
402,192,100984,1,0,0:0:0:0:
256,192,101171,1,0,0:0:0:0:
402,192,101359,1,0,0:0:0:0:
475,192,101546,1,0,0:0:0:0:
402,192,101734,1,0,0:0:0:0:
256,192,101921,1,0,0:0:0:0:
36,192,102109,1,0,0:0:0:0:
182,192,102109,1,0,0:0:0:0:
402,192,102484,1,0,0:0:0:0:
256,192,102671,1,0,0:0:0:0:
402,192,102859,1,0,0:0:0:0:
256,192,103046,1,0,0:0:0:0:
475,192,103234,1,0,0:0:0:0:
182,192,103421,1,0,0:0:0:0:
256,192,103609,1,0,0:0:0:0:
36,192,103796,1,0,0:0:0:0:
402,192,103984,1,0,0:0:0:0:
256,192,104171,1,0,0:0:0:0:
402,192,104359,1,0,0:0:0:0:
475,192,104546,1,0,0:0:0:0:
402,192,104734,1,0,0:0:0:0:
256,192,104921,1,0,0:0:0:0:
36,192,105109,1,0,0:0:0:0:
182,192,105109,1,0,0:0:0:0:
402,192,105484,1,0,0:0:0:0:
256,192,105671,1,0,0:0:0:0:
402,192,105859,1,0,0:0:0:0:
256,192,106046,1,0,0:0:0:0:
475,192,106234,1,0,0:0:0:0:
182,192,106421,1,0,0:0:0:0:
256,192,106609,1,0,0:0:0:0:
36,192,106796,1,0,0:0:0:0:
402,192,106984,1,0,0:0:0:0:
256,192,107171,1,0,0:0:0:0:
402,192,107359,1,0,0:0:0:0:
475,192,107546,1,0,0:0:0:0:
402,192,107734,1,0,0:0:0:0:
256,192,107921,1,0,0:0:0:0:
36,192,108109,1,0,0:0:0:30:D2S.wav
109,192,108109,1,0,0:0:0:50:D3S.wav
182,192,108109,1,0,0:0:0:0:
329,192,108109,128,0,111109:0:0:0:0:
402,192,108484,1,0,0:0:0:0:
256,192,108671,1,0,0:0:0:0:
402,192,108859,1,0,0:0:0:0:
256,192,109046,1,0,0:0:0:0:
475,192,109234,1,0,0:0:0:0:
182,192,109421,1,0,0:0:0:0:
256,192,109609,1,0,0:0:0:0:
109,192,109796,1,0,0:0:0:0:
402,192,109984,1,0,0:0:0:0:
256,192,110171,1,0,0:0:0:0:
402,192,110359,1,0,0:0:0:0:
475,192,110546,1,0,0:0:0:0:
256,192,110734,1,0,0:0:0:0:
475,192,110921,1,0,0:0:0:0:
36,192,111109,1,0,0:0:0:0:
182,192,111109,1,0,0:0:0:0:
402,192,111484,1,0,0:0:0:0:
329,192,111671,1,0,0:0:0:0:
402,192,111859,1,0,0:0:0:0:
329,192,112046,1,0,0:0:0:0:
475,192,112234,1,0,0:0:0:0:
182,192,112421,1,0,0:0:0:0:
329,192,112609,1,0,0:0:0:0:
109,192,112796,1,0,0:0:0:0:
402,192,112984,1,0,0:0:0:0:
256,192,113171,1,0,0:0:0:0:
402,192,113359,1,0,0:0:0:0:
475,192,113546,1,0,0:0:0:0:
256,192,113734,1,0,0:0:0:0:
402,192,113921,1,0,0:0:0:0:
36,192,114109,1,0,0:0:0:45:D2S.wav
109,192,114109,1,0,0:0:0:0:
182,192,114109,1,0,0:0:0:0:
256,192,114109,128,0,117109:0:0:0:0:
402,192,114484,1,0,0:0:0:0:
329,192,114671,1,0,0:0:0:0:
402,192,114859,1,0,0:0:0:0:
329,192,115046,1,0,0:0:0:0:
475,192,115234,1,0,0:0:0:0:
182,192,115421,1,0,0:0:0:0:
329,192,115609,1,0,0:0:0:0:
109,192,115796,1,0,0:0:0:0:
475,192,115984,1,0,0:0:0:0:
182,192,116171,1,0,0:0:0:0:
329,192,116359,1,0,0:0:0:0:
475,192,116546,1,0,0:0:0:0:
182,192,116734,1,0,0:0:0:0:
329,192,116921,1,0,0:0:0:0:
36,192,117109,1,0,0:0:0:0:
182,192,117109,1,0,0:0:0:0:
475,192,117109,128,0,120109:0:0:0:0:
329,192,117484,1,0,0:0:0:0:
256,192,117671,1,0,0:0:0:0:
329,192,117859,1,0,0:0:0:0:
256,192,118046,1,0,0:0:0:0:
402,192,118234,1,0,0:0:0:0:
182,192,118421,1,0,0:0:0:0:
329,192,118609,1,0,0:0:0:0:
109,192,118796,1,0,0:0:0:0:
402,192,118984,1,0,0:0:0:0:
256,192,119171,1,0,0:0:0:0:
329,192,119359,1,0,0:0:0:0:
402,192,119546,1,0,0:0:0:0:
182,192,119734,1,0,0:0:0:0:
329,192,119921,1,0,0:0:0:0:
36,192,120109,1,0,0:0:0:40:D3S.wav
109,192,120109,1,0,0:0:0:0:
182,192,120109,1,0,0:0:0:0:
329,192,120484,1,0,0:0:0:0:
182,192,120671,1,0,0:0:0:0:
329,192,120859,1,0,0:0:0:0:
182,192,121046,1,0,0:0:0:0:
475,192,121234,1,0,0:0:0:0:
256,192,121421,1,0,0:0:0:0:
402,192,121609,1,0,0:0:0:0:
36,192,121796,1,0,0:0:0:0:
329,192,121984,1,0,0:0:0:0:
182,192,122171,1,0,0:0:0:0:
329,192,122359,1,0,0:0:0:0:
475,192,122546,1,0,0:0:0:0:
329,192,122734,1,0,0:0:0:0:
256,192,122921,1,0,0:0:0:0:
36,192,123109,1,0,0:0:0:0:
182,192,123109,1,0,0:0:0:0:
329,192,123484,1,0,0:0:0:0:
182,192,123671,1,0,0:0:0:0:
329,192,123859,1,0,0:0:0:0:
182,192,124046,1,0,0:0:0:0:
475,192,124234,1,0,0:0:0:0:
256,192,124421,1,0,0:0:0:0:
402,192,124609,1,0,0:0:0:0:
36,192,124796,1,0,0:0:0:0:
329,192,124984,1,0,0:0:0:0:
182,192,125171,1,0,0:0:0:0:
329,192,125359,1,0,0:0:0:0:
475,192,125546,1,0,0:0:0:0:
329,192,125734,1,0,0:0:0:0:
256,192,125921,1,0,0:0:0:0:
36,192,126109,1,0,0:0:0:30:D2S.wav
109,192,126109,1,0,0:0:0:0:
182,192,126109,1,0,0:0:0:0:
329,192,126109,128,0,129109:0:0:0:0:
402,192,126484,1,0,0:0:0:0:
182,192,126671,1,0,0:0:0:0:
402,192,126859,1,0,0:0:0:0:
182,192,127046,1,0,0:0:0:0:
475,192,127234,1,0,0:0:0:0:
256,192,127421,1,0,0:0:0:0:
402,192,127609,1,0,0:0:0:0:
36,192,127796,1,0,0:0:0:0:
256,192,127984,1,0,0:0:0:0:
109,192,128171,1,0,0:0:0:0:
256,192,128359,1,0,0:0:0:0:
475,192,128546,1,0,0:0:0:0:
182,192,128734,1,0,0:0:0:0:
402,192,128921,1,0,0:0:0:0:
36,192,129109,1,0,0:0:0:0:
182,192,129109,1,0,0:0:0:0:
475,192,129109,128,0,132109:0:0:0:0:
329,192,129484,1,0,0:0:0:0:
182,192,129671,1,0,0:0:0:0:
329,192,129859,1,0,0:0:0:0:
182,192,130046,1,0,0:0:0:0:
402,192,130234,1,0,0:0:0:0:
256,192,130421,1,0,0:0:0:0:
402,192,130609,1,0,0:0:0:0:
36,192,130796,1,0,0:0:0:0:
329,192,130984,1,0,0:0:0:0:
182,192,131171,1,0,0:0:0:0:
329,192,131359,1,0,0:0:0:0:
402,192,131546,1,0,0:0:0:0:
329,192,131734,1,0,0:0:0:0:
256,192,131921,1,0,0:0:0:0:
36,192,132109,1,0,0:0:0:25:D2S.wav
109,192,132109,1,0,0:0:0:0:
182,192,132109,1,0,0:0:0:0:
402,192,132109,128,0,135109:0:0:0:0:
329,192,132484,1,0,0:0:0:0:
182,192,132671,1,0,0:0:0:0:
329,192,132859,1,0,0:0:0:0:
182,192,133046,1,0,0:0:0:0:
475,192,133234,1,0,0:0:0:0:
109,192,133421,1,0,0:0:0:0:
256,192,133609,1,0,0:0:0:0:
36,192,133796,1,0,0:0:0:0:
329,192,133984,1,0,0:0:0:0:
182,192,134171,1,0,0:0:0:0:
329,192,134359,1,0,0:0:0:0:
475,192,134546,1,0,0:0:0:0:
329,192,134734,1,0,0:0:0:0:
256,192,134921,1,0,0:0:0:0:
36,192,135109,1,0,0:0:0:0:
182,192,135109,1,0,0:0:0:0:
402,192,135484,1,0,0:0:0:0:
256,192,135671,1,0,0:0:0:0:
402,192,135859,1,0,0:0:0:0:
256,192,136046,1,0,0:0:0:0:
475,192,136234,1,0,0:0:0:0:
182,192,136421,1,0,0:0:0:0:
329,192,136609,1,0,0:0:0:0:
36,192,136796,1,0,0:0:0:0:
402,192,136984,1,0,0:0:0:0:
182,192,137171,1,0,0:0:0:0:
402,192,137359,1,0,0:0:0:0:
475,192,137546,1,0,0:0:0:0:
402,192,137734,1,0,0:0:0:0:
329,192,137921,1,0,0:0:0:0:
36,192,138109,1,0,0:0:0:15:D2S.wav
109,192,138109,1,0,0:0:0:0:
182,192,138109,1,0,0:0:0:0:
475,192,138109,128,0,141109:0:0:0:0:
329,192,138484,1,0,0:0:0:0:
182,192,138671,1,0,0:0:0:0:
329,192,138859,1,0,0:0:0:0:
182,192,139046,1,0,0:0:0:0:
402,192,139234,1,0,0:0:0:0:
182,192,139421,1,0,0:0:0:0:
329,192,139609,1,0,0:0:0:0:
36,192,139796,1,0,0:0:0:0:
402,192,139984,1,0,0:0:0:0:
182,192,140171,1,0,0:0:0:0:
329,192,140359,1,0,0:0:0:0:
402,192,140546,1,0,0:0:0:0:
329,192,140734,1,0,0:0:0:0:
256,192,140921,1,0,0:0:0:0:
36,192,141109,1,0,0:0:0:0:
182,192,141109,1,0,0:0:0:0:
402,192,141484,1,0,0:0:0:0:
256,192,141671,1,0,0:0:0:0:
402,192,141859,1,0,0:0:0:0:
256,192,142046,1,0,0:0:0:0:
475,192,142234,1,0,0:0:0:0:
182,192,142421,1,0,0:0:0:0:
329,192,142609,1,0,0:0:0:0:
36,192,142796,1,0,0:0:0:0:
402,192,142984,1,0,0:0:0:0:
182,192,143171,1,0,0:0:0:0:
402,192,143359,1,0,0:0:0:0:
475,192,143546,1,0,0:0:0:0:
402,192,143734,1,0,0:0:0:0:
329,192,143921,1,0,0:0:0:0:
36,192,144109,128,0,147109:0:0:0:0:
182,192,144109,1,0,0:0:0:0:
402,192,144484,128,0,145046:0:0:0:0:
329,192,144671,128,0,145234:0:0:0:0:
256,192,144859,128,0,145421:0:0:0:0:
475,192,145046,128,0,145609:0:0:0:0:
402,192,145234,128,0,145609:0:0:0:0:
329,192,145421,128,0,145609:0:0:0:0:
256,192,145609,1,0,0:0:0:0:
402,192,145984,128,0,146734:0:0:0:0:
329,192,146171,128,0,146546:0:0:0:0:
182,192,146359,128,0,146921:0:0:0:0:
256,192,146546,128,0,147109:0:0:0:0:
475,192,146734,128,0,147109:0:0:0:0:
402,192,146921,128,0,147109:0:0:0:0:
182,192,147109,1,0,0:0:0:0:
402,192,147484,128,0,148046:0:0:0:0:
329,192,147671,128,0,148234:0:0:0:0:
256,192,147859,128,0,148421:0:0:0:0:
475,192,148046,128,0,148609:0:0:0:0:
402,192,148234,128,0,148609:0:0:0:0:
329,192,148421,128,0,148609:0:0:0:0:
256,192,148609,1,0,0:0:0:0:
402,192,148984,128,0,149734:0:0:0:0:
329,192,149171,128,0,149546:0:0:0:0:
182,192,149359,128,0,149921:0:0:0:0:
256,192,149546,128,0,150109:0:0:0:0:
475,192,149734,128,0,150109:0:0:0:0:
402,192,149921,128,0,150109:0:0:0:0:
109,192,150109,128,0,153109:0:0:0:0:
182,192,150109,1,0,0:0:0:0:
402,192,150484,128,0,151046:0:0:0:0:
329,192,150671,128,0,151234:0:0:0:0:
256,192,150859,128,0,151421:0:0:0:0:
475,192,151046,128,0,151609:0:0:0:0:
402,192,151234,128,0,151609:0:0:0:0:
329,192,151421,128,0,151609:0:0:0:0:
256,192,151609,1,0,0:0:0:0:
402,192,151984,128,0,152734:0:0:0:0:
329,192,152171,128,0,152546:0:0:0:0:
182,192,152359,128,0,152921:0:0:0:0:
256,192,152546,128,0,153109:0:0:0:0:
475,192,152734,128,0,153109:0:0:0:0:
402,192,152921,128,0,153109:0:0:0:0:
182,192,153109,1,0,0:0:0:0:
402,192,153484,128,0,154046:0:0:0:0:
329,192,153671,128,0,154234:0:0:0:0:
256,192,153859,128,0,154421:0:0:0:0:
475,192,154046,128,0,154609:0:0:0:0:
402,192,154234,128,0,154609:0:0:0:0:
329,192,154421,128,0,154609:0:0:0:0:
256,192,154609,1,0,0:0:0:0:
329,192,154984,128,0,155734:0:0:0:0:
256,192,155171,128,0,155546:0:0:0:0:
109,192,155359,128,0,155921:0:0:0:0:
182,192,155546,128,0,156109:0:0:0:0:
402,192,155734,128,0,156109:0:0:0:0:
329,192,155921,128,0,156109:0:0:0:0:
109,192,156109,1,0,0:0:0:0:
475,192,156109,128,0,159109:0:0:0:0:
109,192,156484,128,0,157046:0:0:0:0:
182,192,156671,128,0,157234:0:0:0:0:
256,192,156859,128,0,157421:0:0:0:0:
36,192,157046,128,0,157609:0:0:0:0:
109,192,157234,128,0,157609:0:0:0:0:
182,192,157421,128,0,157609:0:0:0:0:
256,192,157609,1,0,0:0:0:0:
109,192,157984,128,0,158734:0:0:0:0:
182,192,158171,128,0,158546:0:0:0:0:
329,192,158359,128,0,158921:0:0:0:0:
256,192,158546,128,0,159109:0:0:0:0:
36,192,158734,128,0,159109:0:0:0:0:
109,192,158921,128,0,159109:0:0:0:0:
402,192,159109,128,0,174109:0:0:0:0:
182,192,159109,1,0,0:0:0:0:
109,192,159484,128,0,160046:0:0:0:0:
182,192,159671,128,0,160234:0:0:0:0:
256,192,159859,128,0,160421:0:0:0:0:
36,192,160046,128,0,160609:0:0:0:0:
109,192,160234,128,0,160609:0:0:0:0:
182,192,160421,128,0,160609:0:0:0:0:
256,192,160609,1,0,0:0:0:0:
109,192,160984,128,0,161734:0:0:0:0:
182,192,161171,128,0,161546:0:0:0:0:
329,192,161359,128,0,161921:0:0:0:0:
256,192,161546,128,0,162109:0:0:0:0:
36,192,161734,128,0,162109:0:0:0:0:
109,192,161921,128,0,162109:0:0:0:0:
329,192,162109,1,0,0:0:0:0:
109,192,162484,128,0,163046:0:0:0:0:
182,192,162671,128,0,163234:0:0:0:0:
256,192,162859,128,0,163421:0:0:0:0:
36,192,163046,128,0,163609:0:0:0:0:
109,192,163234,128,0,163609:0:0:0:0:
182,192,163421,128,0,163609:0:0:0:0:
256,192,163609,1,0,0:0:0:0:
109,192,163984,128,0,164734:0:0:0:0:
182,192,164171,128,0,164546:0:0:0:0:
329,192,164359,128,0,164921:0:0:0:0:
256,192,164546,128,0,165109:0:0:0:0:
36,192,164734,128,0,165109:0:0:0:0:
109,192,164921,128,0,165109:0:0:0:0:
109,192,165484,128,0,166234:0:0:0:0:
256,192,165671,128,0,166046:0:0:0:0:
329,192,165859,128,0,166234:0:0:0:0:
182,192,166046,128,0,166421:0:0:0:0:
256,192,166234,128,0,166609:0:0:0:0:
329,192,166421,128,0,174109:0:0:0:0:
36,192,174038,1,0,0:0:0:45:C5S.wav
109,192,174109,1,0,0:0:0:55:E5S.wav
256,192,174109,1,0,0:0:0:40:1LR_Drum Hit Beat Long.wav
475,192,174109,1,0,0:0:0:0:
182,192,174184,1,0,0:0:0:50:B5S.wav
329,192,174317,1,0,0:0:0:70:E6S.wav
402,192,174484,1,0,0:0:0:40:1LR_Drum Hit Beat Long.wav
475,192,174484,1,0,0:0:0:0:
329,192,174859,1,0,0:0:0:100:LR_Snare Wet.wav
402,192,174859,1,0,0:0:0:0:
329,192,175234,1,0,0:0:0:100:LR_Snare Wet.wav
402,192,175234,1,0,0:0:0:0:
475,192,175421,1,0,0:0:0:0:
109,192,175609,1,0,0:0:0:70:A6S.wav
256,192,175609,1,0,0:0:0:40:1LR_Drum Hit Beat Long.wav
329,192,175609,1,0,0:0:0:0:
329,192,175984,1,0,0:0:0:100:LR_Snare Wet.wav
402,192,175984,1,0,0:0:0:0:
256,192,176359,1,0,0:0:0:0:
475,192,176546,1,0,0:0:0:0:
329,192,176734,1,0,0:0:0:100:LR_Snare Wet.wav
402,192,176734,1,0,0:0:0:0:
36,192,177109,1,0,0:0:0:70:D7S.wav
402,192,177109,1,0,0:0:0:40:1LR_Drum Hit Beat Long.wav
475,192,177109,1,0,0:0:0:0:
402,192,177484,1,0,0:0:0:40:1LR_Drum Hit Beat Long.wav
475,192,177484,1,0,0:0:0:0:
329,192,177859,1,0,0:0:0:100:LR_Snare Wet.wav
402,192,177859,1,0,0:0:0:0:
256,192,178234,1,0,0:0:0:40:1LR_Drum Hit Beat Long.wav
329,192,178234,1,0,0:0:0:0:
475,192,178421,1,0,0:0:0:0:
329,192,178609,1,0,0:0:0:0:
475,192,178796,1,0,0:0:0:0:
329,192,178984,1,0,0:0:0:100:LR_Snare Wet.wav
402,192,178984,1,0,0:0:0:0:
475,192,179359,1,0,0:0:0:0:
256,192,179546,1,0,0:0:0:0:
475,192,179734,1,0,0:0:0:0:
256,192,179921,1,0,0:0:0:0:
36,192,180062,1,0,0:0:0:45:B4S.wav
402,192,180109,1,0,0:0:0:40:1LR_Drum Hit Beat Long.wav
475,192,180109,1,0,0:0:0:0:
109,192,180155,1,0,0:0:0:65:1F#5S_Gb5S.wav
182,192,180273,1,0,0:0:0:80:D6S.wav
402,192,180484,1,0,0:0:0:40:1LR_Drum Hit Beat Long.wav
475,192,180484,1,0,0:0:0:0:
329,192,180859,1,0,0:0:0:100:LR_Snare Wet.wav
402,192,180859,1,0,0:0:0:0:
329,192,181234,1,0,0:0:0:100:LR_Snare Wet.wav
402,192,181234,1,0,0:0:0:0:
475,192,181421,1,0,0:0:0:0:
256,192,181609,1,0,0:0:0:40:1LR_Drum Hit Beat Long.wav
329,192,181609,1,0,0:0:0:0:
109,192,181640,1,0,0:0:0:40:A6S.wav
36,192,181662,1,0,0:0:0:65:B6S.wav
329,192,181984,1,0,0:0:0:100:LR_Snare Wet.wav
402,192,181984,1,0,0:0:0:0:
256,192,182359,1,0,0:0:0:0:
475,192,182546,1,0,0:0:0:0:
329,192,182734,1,0,0:0:0:100:LR_Snare Wet.wav
402,192,182734,1,0,0:0:0:0:
182,192,183109,1,0,0:0:0:50:A6S.wav
402,192,183109,1,0,0:0:0:40:1LR_Drum Hit Beat Long.wav
475,192,183109,1,0,0:0:0:0:
402,192,183484,1,0,0:0:0:40:1LR_Drum Hit Beat Long.wav
475,192,183484,1,0,0:0:0:0:
329,192,183859,1,0,0:0:0:100:LR_Snare Wet.wav
402,192,183859,1,0,0:0:0:0:
256,192,184234,1,0,0:0:0:40:1LR_Drum Hit Beat Long.wav
329,192,184234,1,0,0:0:0:0:
475,192,184421,1,0,0:0:0:0:
329,192,184609,1,0,0:0:0:0:
475,192,184796,1,0,0:0:0:0:
329,192,184984,1,0,0:0:0:100:LR_Snare Wet.wav
402,192,184984,1,0,0:0:0:0:
475,192,185359,1,0,0:0:0:0:
256,192,185546,1,0,0:0:0:0:
475,192,185734,1,0,0:0:0:0:
256,192,185921,1,0,0:0:0:0:
36,192,186001,1,0,0:0:0:45:C5S.wav
109,192,186109,1,0,0:0:0:45:A5S.wav
402,192,186109,1,0,0:0:0:40:1LR_Drum Hit Beat Long.wav
475,192,186109,1,0,0:0:0:0:
182,192,186192,1,0,0:0:0:75:E6S.wav
402,192,186484,1,0,0:0:0:40:1LR_Drum Hit Beat Long.wav
475,192,186484,1,0,0:0:0:0:
182,192,186859,1,0,0:0:0:100:LR_Snare Wet.wav
329,192,186859,1,0,0:0:0:0:
402,192,186859,1,0,0:0:0:0:
329,192,187234,1,0,0:0:0:100:LR_Snare Wet.wav
182,192,187234,1,0,0:0:0:0:
475,192,187421,1,0,0:0:0:0:
109,192,187609,1,0,0:0:0:30:A6S.wav
182,192,187609,1,0,0:0:0:25:D6S.wav
402,192,187609,1,0,0:0:0:40:1LR_Drum Hit Beat Long.wav
256,192,187609,1,0,0:0:0:0:
329,192,187796,1,0,0:0:0:0:
256,192,187984,1,0,0:0:0:100:LR_Snare Wet.wav
402,192,187984,1,0,0:0:0:0:
475,192,187984,1,0,0:0:0:0:
329,192,188359,1,0,0:0:0:40:1LR_Drum Hit Beat Long.wav
475,192,188359,1,0,0:0:0:0:
402,192,188546,1,0,0:0:0:0:
256,192,188734,1,0,0:0:0:100:LR_Snare Wet.wav
329,192,188734,1,0,0:0:0:0:
475,192,188734,1,0,0:0:0:0:
36,192,189109,1,0,0:0:0:30:A6S.wav
109,192,189109,1,0,0:0:0:30:D7S.wav
402,192,189109,1,0,0:0:0:40:1LR_Drum Hit Beat Long.wav
475,192,189109,1,0,0:0:0:0:
402,192,189484,1,0,0:0:0:40:1LR_Drum Hit Beat Long.wav
475,192,189484,1,0,0:0:0:0:
329,192,189859,1,0,0:0:0:100:LR_Snare Wet.wav
402,192,189859,1,0,0:0:0:0:
182,192,189859,1,0,0:0:0:0:
329,192,190234,1,0,0:0:0:40:1LR_Drum Hit Beat Long.wav
182,192,190234,1,0,0:0:0:0:
475,192,190421,1,0,0:0:0:0:
182,192,190609,1,0,0:0:0:55:E7S.wav
256,192,190609,1,0,0:0:0:0:
402,192,190796,1,0,0:0:0:0:
256,192,190984,1,0,0:0:0:100:LR_Snare Wet.wav
475,192,190984,1,0,0:0:0:0:
329,192,190984,1,0,0:0:0:0:
402,192,191359,1,0,0:0:0:0:
182,192,191359,1,0,0:0:0:0:
329,192,191546,1,0,0:0:0:0:
402,192,191734,1,0,0:0:0:0:
182,192,191734,1,0,0:0:0:0:
329,192,191921,1,0,0:0:0:0:
256,192,192046,1,0,0:0:0:35:E4S.wav
402,192,192109,1,0,0:0:0:40:1LR_Drum Hit Beat Long.wav
475,192,192109,1,0,0:0:0:0:
36,192,192226,1,0,0:0:0:55:1G6S.wav
109,192,192275,1,0,0:0:0:55:A6S.wav
182,192,192343,1,0,0:0:0:80:D7S.wav
402,192,192484,1,0,0:0:0:40:1LR_Drum Hit Beat Long.wav
475,192,192484,1,0,0:0:0:0:
329,192,192859,1,0,0:0:0:100:LR_Snare Wet.wav
402,192,192859,1,0,0:0:0:0:
182,192,192859,1,0,0:0:0:0:
329,192,193234,1,0,0:0:0:0:
182,192,193234,1,0,0:0:0:0:
475,192,193421,1,0,0:0:0:0:
402,192,193609,1,0,0:0:0:40:1LR_Drum Hit Beat Long.wav
256,192,193609,1,0,0:0:0:0:
329,192,193796,1,0,0:0:0:0:
256,192,193984,1,0,0:0:0:100:LR_Snare Wet.wav
402,192,193984,1,0,0:0:0:0:
475,192,193984,1,0,0:0:0:0:
329,192,194359,1,0,0:0:0:0:
475,192,194359,1,0,0:0:0:0:
402,192,194546,1,0,0:0:0:0:
256,192,194734,1,0,0:0:0:100:LR_Snare Wet.wav
329,192,194734,1,0,0:0:0:0:
475,192,194734,1,0,0:0:0:0:
109,192,194827,1,0,0:0:0:20:1F#6S_Gb6S.wav
182,192,194944,1,0,0:0:0:35:1G6S.wav
109,192,195046,1,0,0:0:0:20:1F#6S_Gb6S.wav
402,192,195109,1,0,0:0:0:40:1LR_Drum Hit Beat Long.wav
475,192,195109,1,0,0:0:0:0:
36,192,195171,1,0,0:0:0:40:E6S.wav
402,192,195484,1,0,0:0:0:40:1LR_Drum Hit Beat Long.wav
475,192,195484,1,0,0:0:0:0:
329,192,195859,1,0,0:0:0:100:LR_Snare Wet.wav
402,192,195859,1,0,0:0:0:0:
182,192,195859,1,0,0:0:0:0:
329,192,196234,1,0,0:0:0:40:1LR_Drum Hit Beat Long.wav
182,192,196234,1,0,0:0:0:0:
475,192,196421,1,0,0:0:0:0:
256,192,196609,1,0,0:0:0:0:
475,192,196796,1,0,0:0:0:0:
256,192,196984,1,0,0:0:0:100:LR_Snare Wet.wav
402,192,196984,1,0,0:0:0:0:
182,192,196984,1,0,0:0:0:0:
182,192,197359,1,0,0:0:0:0:
329,192,197359,1,0,0:0:0:0:
402,192,197546,1,0,0:0:0:0:
329,192,197734,1,0,0:0:0:0:
182,192,197734,1,0,0:0:0:0:
402,192,197921,1,0,0:0:0:0:
475,192,198001,1,0,0:0:0:50:C5S.wav
36,192,198109,1,0,0:0:0:55:E5S.wav
182,192,198109,1,0,0:0:0:70:1LR_Drum Hit Beat Long.wav
256,192,198109,1,0,0:0:0:0:
402,192,198109,1,0,0:0:0:0:
329,192,198202,1,0,0:0:0:55:B5S.wav
475,192,198317,1,0,0:0:0:75:E6S.wav
109,192,198484,1,0,0:0:0:70:1LR_Drum Hit Beat Long.wav
256,192,198484,1,0,0:0:0:0:
36,192,198859,1,0,0:0:0:100:LR_Snare Wet.wav
182,192,198859,1,0,0:0:0:0:
329,192,198859,1,0,0:0:0:0:
109,192,199234,1,0,0:0:0:100:LR_Snare Wet.wav
256,192,199234,1,0,0:0:0:0:
36,192,199421,1,0,0:0:0:0:
109,192,199609,1,0,0:0:0:55:A6S.wav
256,192,199609,1,0,0:0:0:70:1LR_Drum Hit Beat Long.wav
329,192,199609,1,0,0:0:0:0:
475,192,199609,1,0,0:0:0:0:
36,192,199984,1,0,0:0:0:100:LR_Snare Wet.wav
109,192,199984,1,0,0:0:0:0:
256,192,199984,1,0,0:0:0:0:
109,192,200359,1,0,0:0:0:0:
256,192,200359,1,0,0:0:0:0:
182,192,200546,1,0,0:0:0:0:
36,192,200734,1,0,0:0:0:100:LR_Snare Wet.wav
109,192,200734,1,0,0:0:0:0:
256,192,200734,1,0,0:0:0:0:
36,192,201109,1,0,0:0:0:65:D7S.wav
182,192,201109,1,0,0:0:0:70:1LR_Drum Hit Beat Long.wav
256,192,201109,1,0,0:0:0:0:
402,192,201109,1,0,0:0:0:0:
109,192,201484,1,0,0:0:0:70:1LR_Drum Hit Beat Long.wav
256,192,201484,1,0,0:0:0:0:
36,192,201859,1,0,0:0:0:100:LR_Snare Wet.wav
182,192,201859,1,0,0:0:0:0:
329,192,201859,1,0,0:0:0:0:
109,192,202234,1,0,0:0:0:70:1LR_Drum Hit Beat Long.wav
256,192,202234,1,0,0:0:0:0:
36,192,202421,1,0,0:0:0:0:
109,192,202609,1,0,0:0:0:0:
256,192,202609,1,0,0:0:0:0:
475,192,202609,1,0,0:0:0:0:
402,192,202655,1,0,0:0:0:0:
329,192,202702,1,0,0:0:0:0:
36,192,202749,1,0,0:0:0:0:
109,192,202796,1,0,0:0:0:0:
182,192,202843,1,0,0:0:0:0:
402,192,202890,1,0,0:0:0:0:
329,192,202937,1,0,0:0:0:0:
36,192,202984,1,0,0:0:0:100:LR_Snare Wet.wav
109,192,202984,1,0,0:0:0:0:
256,192,202984,1,0,0:0:0:0:
109,192,203359,1,0,0:0:0:0:
256,192,203359,1,0,0:0:0:0:
475,192,203405,1,0,0:0:0:0:
402,192,203452,1,0,0:0:0:0:
329,192,203499,1,0,0:0:0:0:
182,192,203546,1,0,0:0:0:0:
256,192,203640,1,0,0:0:0:0:
36,192,203734,1,0,0:0:0:0:
109,192,203734,1,0,0:0:0:0:
182,192,203921,1,0,0:0:0:0:
329,192,204067,1,0,0:0:0:45:B4S.wav
36,192,204109,1,0,0:0:0:70:1LR_Drum Hit Beat Long.wav
109,192,204109,1,0,0:0:0:0:
256,192,204109,1,0,0:0:0:0:
402,192,204162,1,0,0:0:0:60:1F#5S_Gb5S.wav
475,192,204273,1,0,0:0:0:45:D6S.wav
109,192,204484,1,0,0:0:0:70:1LR_Drum Hit Beat Long.wav
256,192,204484,1,0,0:0:0:0:
36,192,204859,1,0,0:0:0:100:LR_Snare Wet.wav
182,192,204859,1,0,0:0:0:0:
329,192,204859,1,0,0:0:0:0:
109,192,205234,1,0,0:0:0:40:1LR_Drum Hit Beat Long.wav
256,192,205234,1,0,0:0:0:0:
36,192,205421,1,0,0:0:0:0:
109,192,205609,1,0,0:0:0:70:1LR_Drum Hit Beat Long.wav
256,192,205609,1,0,0:0:0:0:
402,192,205640,1,0,0:0:0:20:A6S.wav
475,192,205662,1,0,0:0:0:35:B6S.wav
36,192,205984,1,0,0:0:0:100:LR_Snare Wet.wav
109,192,205984,1,0,0:0:0:0:
256,192,205984,1,0,0:0:0:0:
109,192,206359,1,0,0:0:0:0:
256,192,206359,1,0,0:0:0:0:
182,192,206546,1,0,0:0:0:0:
36,192,206734,1,0,0:0:0:100:LR_Snare Wet.wav
109,192,206734,1,0,0:0:0:0:
256,192,206734,1,0,0:0:0:0:
36,192,207109,1,0,0:0:0:50:A6S.wav
182,192,207109,1,0,0:0:0:70:1LR_Drum Hit Beat Long.wav
256,192,207109,1,0,0:0:0:0:
475,192,207109,1,0,0:0:0:0:
109,192,207484,1,0,0:0:0:70:1LR_Drum Hit Beat Long.wav
256,192,207484,1,0,0:0:0:0:
36,192,207859,1,0,0:0:0:100:LR_Snare Wet.wav
182,192,207859,1,0,0:0:0:0:
329,192,207859,1,0,0:0:0:0:
109,192,208234,1,0,0:0:0:70:1LR_Drum Hit Beat Long.wav
256,192,208234,1,0,0:0:0:0:
36,192,208421,1,0,0:0:0:0:
109,192,208609,1,0,0:0:0:40:1LR_Drum Hit Beat Long.wav
256,192,208609,1,0,0:0:0:0:
329,192,208609,1,0,0:0:0:0:
182,192,208796,1,0,0:0:0:0:
36,192,208984,1,0,0:0:0:100:LR_Snare Wet.wav
109,192,208984,1,0,0:0:0:0:
256,192,208984,1,0,0:0:0:0:
109,192,209359,1,0,0:0:0:40:1LR_Drum Hit Beat Long.wav
256,192,209359,1,0,0:0:0:0:
182,192,209546,1,0,0:0:0:0:
36,192,209734,1,0,0:0:0:100:LR_Snare Wet.wav
109,192,209734,1,0,0:0:0:0:
182,192,209921,1,0,0:0:0:35:C4S.wav
256,192,209921,1,0,0:0:0:0:
329,192,210038,1,0,0:0:0:45:C5S.wav
36,192,210109,1,0,0:0:0:45:A5S.wav
109,192,210109,1,0,0:0:0:70:1LR_Drum Hit Beat Long.wav
402,192,210109,1,0,0:0:0:0:
475,192,210155,1,0,0:0:0:30:B5S.wav
256,192,210202,1,0,0:0:0:50:D6S.wav
109,192,210484,1,0,0:0:0:70:1LR_Drum Hit Beat Long.wav
256,192,210484,1,0,0:0:0:0:
36,192,210859,1,0,0:0:0:100:LR_Snare Wet.wav
182,192,210859,1,0,0:0:0:0:
329,192,210859,1,0,0:0:0:0:
109,192,211234,1,0,0:0:0:0:
256,192,211234,1,0,0:0:0:0:
36,192,211421,1,0,0:0:0:0:
109,192,211609,1,0,0:0:0:30:A6S.wav
256,192,211609,1,0,0:0:0:35:D6S.wav
329,192,211609,1,0,0:0:0:70:1LR_Drum Hit Beat Long.wav
475,192,211609,1,0,0:0:0:0:
36,192,211984,1,0,0:0:0:100:LR_Snare Wet.wav
109,192,211984,1,0,0:0:0:0:
256,192,211984,1,0,0:0:0:0:
109,192,212359,1,0,0:0:0:0:
256,192,212359,1,0,0:0:0:0:
182,192,212546,1,0,0:0:0:0:
36,192,212734,1,0,0:0:0:100:LR_Snare Wet.wav
109,192,212734,1,0,0:0:0:0:
36,192,213109,1,0,0:0:0:35:1G6S.wav
182,192,213109,1,0,0:0:0:20:E6H.wav
256,192,213109,1,0,0:0:0:70:1LR_Drum Hit Beat Long.wav
402,192,213109,1,0,0:0:0:0:
475,192,213109,1,0,0:0:0:0:
109,192,213484,1,0,0:0:0:70:1LR_Drum Hit Beat Long.wav
256,192,213484,1,0,0:0:0:0:
36,192,213859,1,0,0:0:0:100:LR_Snare Wet.wav
182,192,213859,1,0,0:0:0:0:
329,192,213859,1,0,0:0:0:0:
109,192,214234,1,0,0:0:0:70:1LR_Drum Hit Beat Long.wav
256,192,214234,1,0,0:0:0:0:
36,192,214421,1,0,0:0:0:0:
109,192,214609,1,0,0:0:0:35:1F#6S_Gb6S.wav
256,192,214609,1,0,0:0:0:0:
475,192,214609,1,0,0:0:0:0:
402,192,214655,1,0,0:0:0:0:
329,192,214702,1,0,0:0:0:0:
36,192,214749,1,0,0:0:0:0:
109,192,214796,1,0,0:0:0:0:
182,192,214843,1,0,0:0:0:0:
402,192,214890,1,0,0:0:0:0:
329,192,214937,1,0,0:0:0:0:
36,192,214984,1,0,0:0:0:100:LR_Snare Wet.wav
109,192,214984,1,0,0:0:0:0:
256,192,214984,1,0,0:0:0:0:
36,192,215359,1,0,0:0:0:0:
402,192,215359,1,0,0:0:0:0:
109,192,215405,1,0,0:0:0:0:
182,192,215452,1,0,0:0:0:0:
475,192,215499,1,0,0:0:0:0:
402,192,215546,1,0,0:0:0:0:
329,192,215640,1,0,0:0:0:0:
36,192,215734,1,0,0:0:0:0:
109,192,215734,1,0,0:0:0:0:
256,192,215921,1,0,0:0:0:0:
36,192,216109,1,0,0:0:0:70:1LR_Drum Hit Beat Long.wav
182,192,216109,1,0,0:0:0:0:
329,192,216226,1,0,0:0:0:35:C#6S_Db6S.wav
402,192,216296,1,0,0:0:0:35:E6S.wav
475,192,216343,1,0,0:0:0:60:A6S.wav
109,192,216484,1,0,0:0:0:70:1LR_Drum Hit Beat Long.wav
256,192,216484,1,0,0:0:0:0:
36,192,216859,1,0,0:0:0:100:LR_Snare Wet.wav
182,192,216859,1,0,0:0:0:0:
329,192,216859,1,0,0:0:0:0:
109,192,217234,1,0,0:0:0:40:1LR_Drum Hit Beat Long.wav
256,192,217234,1,0,0:0:0:0:
36,192,217421,1,0,0:0:0:0:
109,192,217609,1,0,0:0:0:70:1LR_Drum Hit Beat Long.wav
256,192,217609,1,0,0:0:0:0:
329,192,217609,1,0,0:0:0:0:
36,192,217984,1,0,0:0:0:100:LR_Snare Wet.wav
109,192,217984,1,0,0:0:0:0:
256,192,217984,1,0,0:0:0:0:
109,192,218359,1,0,0:0:0:0:
256,192,218359,1,0,0:0:0:0:
182,192,218546,1,0,0:0:0:0:
36,192,218734,1,0,0:0:0:25:1F#6S_Gb6S.wav
109,192,218734,1,0,0:0:0:100:LR_Snare Wet.wav
475,192,218734,1,0,0:0:0:0:
256,192,218734,1,0,0:0:0:0:
402,192,218874,1,0,0:0:0:35:1G6S.wav
329,192,218984,1,0,0:0:0:40:A6S.wav
36,192,219109,1,0,0:0:0:45:1F#6S_Gb6S.wav
182,192,219109,1,0,0:0:0:70:1LR_Drum Hit Beat Long.wav
256,192,219109,1,0,0:0:0:0:
475,192,219109,1,0,0:0:0:0:
109,192,219484,1,0,0:0:0:70:1LR_Drum Hit Beat Long.wav
256,192,219484,1,0,0:0:0:0:
36,192,219859,1,0,0:0:0:100:LR_Snare Wet.wav
182,192,219859,1,0,0:0:0:0:
329,192,219859,1,0,0:0:0:0:
109,192,220234,1,0,0:0:0:70:1LR_Drum Hit Beat Long.wav
256,192,220234,1,0,0:0:0:0:
36,192,220421,1,0,0:0:0:0:
109,192,220609,1,0,0:0:0:0:
256,192,220609,1,0,0:0:0:0:
329,192,220609,1,0,0:0:0:0:
182,192,220796,1,0,0:0:0:0:
36,192,220984,1,0,0:0:0:100:LR_Snare Wet.wav
109,192,220984,1,0,0:0:0:0:
256,192,220984,1,0,0:0:0:0:
109,192,221359,1,0,0:0:0:0:
256,192,221359,1,0,0:0:0:0:
182,192,221546,1,0,0:0:0:0:
36,192,221734,1,0,0:0:0:0:
109,192,221734,1,0,0:0:0:0:
182,192,221921,1,0,0:0:0:0:
256,192,222109,1,0,0:0:0:40:1LR_Drum Hit Beat Long.wav
402,192,222109,1,0,0:0:0:0:
475,192,222109,1,0,0:0:0:0:
36,192,222109,1,0,0:0:0:35:A3S.wav
109,192,222202,1,0,0:0:0:60:B4S.wav
182,192,222319,1,0,0:0:0:70:E5S.wav
109,192,222484,1,0,0:0:0:40:1LR_Drum Hit Beat Long.wav
402,192,222484,1,0,0:0:0:0:
475,192,222484,1,0,0:0:0:0:
182,192,222671,1,0,0:0:0:0:
109,192,222859,1,0,0:0:0:100:LR_Snare Wet.wav
329,192,222859,1,0,0:0:0:0:
402,192,222859,1,0,0:0:0:0:
182,192,223046,1,0,0:0:0:0:
36,192,223234,1,0,0:0:0:40:1LR_Drum Hit Beat Long.wav
329,192,223234,1,0,0:0:0:0:
109,192,223421,1,0,0:0:0:0:
475,192,223421,1,0,0:0:0:0:
36,192,223609,1,0,0:0:0:45:A5S.wav
256,192,223609,1,0,0:0:0:40:1LR_Drum Hit Beat Long.wav
329,192,223609,1,0,0:0:0:0:
109,192,223984,1,0,0:0:0:100:LR_Snare Wet.wav
329,192,223984,1,0,0:0:0:0:
402,192,223984,1,0,0:0:0:0:
182,192,224171,1,0,0:0:0:0:
109,192,224359,1,0,0:0:0:0:
329,192,224359,1,0,0:0:0:0:
182,192,224546,1,0,0:0:0:0:
475,192,224546,1,0,0:0:0:0:
36,192,224734,1,0,0:0:0:100:LR_Snare Wet.wav
329,192,224734,1,0,0:0:0:0:
402,192,224734,1,0,0:0:0:0:
402,192,225109,1,0,0:0:0:40:1LR_Drum Hit Beat Long.wav
475,192,225109,1,0,0:0:0:0:
109,192,225484,1,0,0:0:0:40:1LR_Drum Hit Beat Long.wav
402,192,225484,1,0,0:0:0:0:
475,192,225484,1,0,0:0:0:0:
182,192,225671,1,0,0:0:0:0:
109,192,225859,1,0,0:0:0:100:LR_Snare Wet.wav
329,192,225859,1,0,0:0:0:0:
402,192,225859,1,0,0:0:0:0:
182,192,226046,1,0,0:0:0:0:
36,192,226234,1,0,0:0:0:40:1LR_Drum Hit Beat Long.wav
256,192,226234,1,0,0:0:0:0:
329,192,226234,1,0,0:0:0:0:
182,192,226421,1,0,0:0:0:0:
475,192,226421,1,0,0:0:0:0:
329,192,226609,1,0,0:0:0:0:
475,192,226796,1,0,0:0:0:0:
36,192,226984,1,0,0:0:0:100:LR_Snare Wet.wav
329,192,226984,1,0,0:0:0:0:
402,192,226984,1,0,0:0:0:0:
182,192,227171,1,0,0:0:0:0:
109,192,227359,1,0,0:0:0:0:
329,192,227359,1,0,0:0:0:0:
36,192,227546,1,0,0:0:0:0:
475,192,227546,1,0,0:0:0:0:
109,192,227734,1,0,0:0:0:100:LR_Snare Wet.wav
329,192,227734,1,0,0:0:0:0:
402,192,227734,1,0,0:0:0:0:
182,192,227898,1,0,0:0:0:0:
36,192,228038,1,0,0:0:0:45:B3S.wav
182,192,228109,1,0,0:0:0:40:D4S.wav
402,192,228109,1,0,0:0:0:40:1LR_Drum Hit Beat Long.wav
475,192,228109,1,0,0:0:0:0:
256,192,228155,1,0,0:0:0:60:1F#4S_Gb4S.wav
109,192,228484,1,0,0:0:0:40:1LR_Drum Hit Beat Long.wav
402,192,228484,1,0,0:0:0:0:
475,192,228484,1,0,0:0:0:0:
182,192,228671,1,0,0:0:0:0:
109,192,228859,1,0,0:0:0:100:LR_Snare Wet.wav
329,192,228859,1,0,0:0:0:0:
402,192,228859,1,0,0:0:0:0:
182,192,229046,1,0,0:0:0:0:
36,192,229234,1,0,0:0:0:40:1LR_Drum Hit Beat Long.wav
329,192,229234,1,0,0:0:0:0:
182,192,229421,1,0,0:0:0:0:
475,192,229421,1,0,0:0:0:0:
256,192,229609,1,0,0:0:0:40:1LR_Drum Hit Beat Long.wav
329,192,229609,1,0,0:0:0:0:
109,192,229640,1,0,0:0:0:15:A5S.wav
36,192,229655,1,0,0:0:0:25:B5S.wav
109,192,229984,1,0,0:0:0:100:LR_Snare Wet.wav
329,192,229984,1,0,0:0:0:0:
402,192,229984,1,0,0:0:0:0:
182,192,230171,1,0,0:0:0:0:
109,192,230359,1,0,0:0:0:0:
329,192,230359,1,0,0:0:0:0:
182,192,230546,1,0,0:0:0:0:
475,192,230546,1,0,0:0:0:0:
36,192,230734,1,0,0:0:0:100:LR_Snare Wet.wav
329,192,230734,1,0,0:0:0:0:
402,192,230734,1,0,0:0:0:0:
256,192,230921,1,0,0:0:0:0:
182,192,231109,1,0,0:0:0:50:A5S.wav
402,192,231109,1,0,0:0:0:40:1LR_Drum Hit Beat Long.wav
475,192,231109,1,0,0:0:0:0:
109,192,231484,1,0,0:0:0:40:1LR_Drum Hit Beat Long.wav
402,192,231484,1,0,0:0:0:0:
475,192,231484,1,0,0:0:0:0:
182,192,231671,1,0,0:0:0:0:
109,192,231859,1,0,0:0:0:100:LR_Snare Wet.wav
329,192,231859,1,0,0:0:0:0:
402,192,231859,1,0,0:0:0:0:
182,192,232046,1,0,0:0:0:0:
36,192,232234,1,0,0:0:0:40:1LR_Drum Hit Beat Long.wav
256,192,232234,1,0,0:0:0:0:
329,192,232234,1,0,0:0:0:0:
182,192,232421,1,0,0:0:0:0:
475,192,232421,1,0,0:0:0:0:
109,192,232609,1,0,0:0:0:0:
329,192,232609,1,0,0:0:0:0:
475,192,232796,1,0,0:0:0:0:
36,192,232984,1,0,0:0:0:100:LR_Snare Wet.wav
329,192,232984,1,0,0:0:0:0:
402,192,232984,1,0,0:0:0:0:
182,192,233171,1,0,0:0:0:0:
109,192,233359,1,0,0:0:0:0:
329,192,233359,1,0,0:0:0:0:
475,192,233546,1,0,0:0:0:0:
182,192,233546,1,0,0:0:0:0:
109,192,233734,1,0,0:0:0:0:
329,192,233734,1,0,0:0:0:0:
36,192,233921,1,0,0:0:0:0:
256,192,234001,1,0,0:0:0:45:B3S.wav
182,192,234109,1,0,0:0:0:45:E4S.wav
402,192,234109,1,0,0:0:0:40:1LR_Drum Hit Beat Long.wav
475,192,234109,1,0,0:0:0:0:
109,192,234192,1,0,0:0:0:75:E5S.wav
109,192,234484,1,0,0:0:0:40:1LR_Drum Hit Beat Long.wav
402,192,234484,1,0,0:0:0:0:
475,192,234484,1,0,0:0:0:0:
182,192,234671,1,0,0:0:0:0:
109,192,234859,1,0,0:0:0:100:LR_Snare Wet.wav
329,192,234859,1,0,0:0:0:0:
402,192,234859,1,0,0:0:0:0:
182,192,235046,1,0,0:0:0:0:
36,192,235234,1,0,0:0:0:0:
329,192,235234,1,0,0:0:0:0:
182,192,235421,1,0,0:0:0:0:
475,192,235421,1,0,0:0:0:0:
109,192,235609,1,0,0:0:0:45:A5S.wav
256,192,235609,1,0,0:0:0:40:1LR_Drum Hit Beat Long.wav
329,192,235609,1,0,0:0:0:0:
402,192,235609,1,0,0:0:0:0:
109,192,235984,1,0,0:0:0:100:LR_Snare Wet.wav
329,192,235984,1,0,0:0:0:0:
402,192,235984,1,0,0:0:0:0:
182,192,236171,1,0,0:0:0:0:
109,192,236359,1,0,0:0:0:40:1LR_Drum Hit Beat Long.wav
329,192,236359,1,0,0:0:0:0:
182,192,236546,1,0,0:0:0:0:
475,192,236546,1,0,0:0:0:0:
36,192,236734,1,0,0:0:0:100:LR_Snare Wet.wav
329,192,236734,1,0,0:0:0:0:
402,192,236734,1,0,0:0:0:0:
256,192,236921,1,0,0:0:0:0:
36,192,237109,1,0,0:0:0:40:A5S.wav
182,192,237109,1,0,0:0:0:35:E5S.wav
402,192,237109,1,0,0:0:0:40:1LR_Drum Hit Beat Long.wav
475,192,237109,1,0,0:0:0:0:
109,192,237484,1,0,0:0:0:40:1LR_Drum Hit Beat Long.wav
402,192,237484,1,0,0:0:0:0:
475,192,237484,1,0,0:0:0:0:
182,192,237671,1,0,0:0:0:0:
109,192,237859,1,0,0:0:0:100:LR_Snare Wet.wav
329,192,237859,1,0,0:0:0:0:
402,192,237859,1,0,0:0:0:0:
182,192,238046,1,0,0:0:0:0:
36,192,238234,1,0,0:0:0:40:1LR_Drum Hit Beat Long.wav
256,192,238234,1,0,0:0:0:0:
329,192,238234,1,0,0:0:0:0:
182,192,238421,1,0,0:0:0:0:
475,192,238421,1,0,0:0:0:0:
36,192,238609,1,0,0:0:0:50:E6S.wav
109,192,238609,1,0,0:0:0:100:LR_Snare Wet.wav
329,192,238609,1,0,0:0:0:0:
475,192,238796,1,0,0:0:0:0:
36,192,238984,1,0,0:0:0:100:LR_Snare Wet.wav
329,192,238984,1,0,0:0:0:0:
402,192,238984,1,0,0:0:0:0:
182,192,239171,1,0,0:0:0:0:
329,192,239359,1,0,0:0:0:0:
109,192,239359,1,0,0:0:0:0:
475,192,239546,1,0,0:0:0:0:
182,192,239546,1,0,0:0:0:0:
329,192,239734,1,0,0:0:0:0:
109,192,239734,1,0,0:0:0:0:
182,192,239921,1,0,0:0:0:0:
256,192,240109,1,0,0:0:0:40:1LR_Drum Hit Beat Long.wav
402,192,240109,1,0,0:0:0:0:
475,192,240109,1,0,0:0:0:0:
182,192,240226,1,0,0:0:0:50:1G5S.wav
109,192,240296,1,0,0:0:0:55:A5S.wav
36,192,240343,1,0,0:0:0:60:D6S.wav
109,192,240484,1,0,0:0:0:40:1LR_Drum Hit Beat Long.wav
402,192,240484,1,0,0:0:0:0:
475,192,240484,1,0,0:0:0:0:
182,192,240671,1,0,0:0:0:0:
109,192,240859,1,0,0:0:0:100:LR_Snare Wet.wav
329,192,240859,1,0,0:0:0:0:
402,192,240859,1,0,0:0:0:0:
182,192,241046,1,0,0:0:0:0:
36,192,241234,1,0,0:0:0:40:1LR_Drum Hit Beat Long.wav
329,192,241234,1,0,0:0:0:0:
182,192,241421,1,0,0:0:0:0:
475,192,241421,1,0,0:0:0:0:
109,192,241609,1,0,0:0:0:40:1LR_Drum Hit Beat Long.wav
256,192,241609,1,0,0:0:0:0:
329,192,241609,1,0,0:0:0:0:
109,192,241984,1,0,0:0:0:100:LR_Snare Wet.wav
329,192,241984,1,0,0:0:0:0:
402,192,241984,1,0,0:0:0:0:
182,192,242171,1,0,0:0:0:0:
109,192,242359,1,0,0:0:0:40:1LR_Drum Hit Beat Long.wav
329,192,242359,1,0,0:0:0:0:
182,192,242546,1,0,0:0:0:0:
475,192,242546,1,0,0:0:0:0:
36,192,242734,1,0,0:0:0:20:E5S.wav
329,192,242734,1,0,0:0:0:100:LR_Snare Wet.wav
402,192,242734,1,0,0:0:0:0:
109,192,242817,1,0,0:0:0:45:1F#5S_Gb5S.wav
182,192,242921,1,0,0:0:0:40:1G5S.wav
109,192,243046,1,0,0:0:0:40:1F#5S_Gb5S.wav
402,192,243109,1,0,0:0:0:40:1LR_Drum Hit Beat Long.wav
475,192,243109,1,0,0:0:0:0:
36,192,243179,1,0,0:0:0:50:E5S.wav
109,192,243484,1,0,0:0:0:40:1LR_Drum Hit Beat Long.wav
402,192,243484,1,0,0:0:0:0:
475,192,243484,1,0,0:0:0:0:
182,192,243671,1,0,0:0:0:0:
109,192,243859,1,0,0:0:0:100:LR_Snare Wet.wav
329,192,243859,1,0,0:0:0:0:
402,192,243859,1,0,0:0:0:0:
182,192,244046,1,0,0:0:0:0:
36,192,244234,1,0,0:0:0:40:1LR_Drum Hit Beat Long.wav
256,192,244234,1,0,0:0:0:0:
329,192,244234,1,0,0:0:0:0:
182,192,244421,1,0,0:0:0:0:
475,192,244421,1,0,0:0:0:0:
109,192,244609,1,0,0:0:0:0:
329,192,244609,1,0,0:0:0:0:
475,192,244796,1,0,0:0:0:0:
36,192,244984,1,0,0:0:0:100:LR_Snare Wet.wav
329,192,244984,1,0,0:0:0:0:
402,192,244984,1,0,0:0:0:0:
182,192,245171,1,0,0:0:0:0:
109,192,245359,1,0,0:0:0:0:
475,192,245359,1,0,0:0:0:0:
36,192,245546,1,0,0:0:0:0:
329,192,245546,1,0,0:0:0:0:
109,192,245734,1,0,0:0:0:100:LR_Snare Wet.wav
475,192,245734,1,0,0:0:0:0:
182,192,245921,1,0,0:0:0:0:
402,192,245944,1,0,0:0:0:40:E4S.wav
475,192,246001,1,0,0:0:0:30:B3S.wav
329,192,246109,1,0,0:0:0:35:A4S.wav
256,192,246192,1,0,0:0:0:35:B4S.wav
182,192,246317,1,0,0:0:0:45:E5S.wav
256,192,247609,1,0,0:0:0:35:A5S.wav
402,192,249109,1,0,0:0:0:50:D6S.wav
36,192,252046,1,0,0:0:0:35:E3S.wav
182,192,252077,1,0,0:0:0:35:B3S.wav
256,192,252109,1,0,0:0:0:30:E4S.wav
402,192,252155,1,0,0:0:0:35:F#5H_Gb5H.wav
256,192,253655,1,0,0:0:0:15:A5S.wav
329,192,253662,1,0,0:0:0:25:B5S.wav
182,192,255109,1,0,0:0:0:40:A5S.wav
36,192,257921,1,0,0:0:0:30:E3S.wav
182,192,258038,1,0,0:0:0:35:E4S.wav
256,192,258109,1,0,0:0:0:35:A4S.wav
329,192,258179,1,0,0:0:0:35:D5S.wav
402,192,259609,1,0,0:0:0:40:A5S.wav
256,192,261132,1,0,0:0:0:35:1G5S.wav
329,192,261140,1,0,0:0:0:35:D5S.wav
256,192,262609,1,0,0:0:0:40:1F#5S_Gb5S.wav
109,192,264038,1,0,0:0:0:30:E3S.wav
256,192,264296,1,0,0:0:0:30:E5S.wav
402,192,264359,1,0,0:0:0:40:A5S.wav
329,192,266780,1,0,0:0:0:30:1F#5S_Gb5S.wav
402,192,266894,1,0,0:0:0:30:1G5S.wav
475,192,267001,1,0,0:0:0:35:A5S.wav
329,192,267109,1,0,0:0:0:30:1F#5S_Gb5S.wav
36,192,270109,128,0,287745:0:0:0:0:
109,192,270109,1,0,0:0:0:0:
256,192,270109,1,0,0:0:0:0:
475,192,270109,1,0,0:0:0:0:
402,192,270132,1,0,0:0:0:0:
329,192,270179,1,0,0:0:0:0:
182,192,270226,1,0,0:0:0:0:
475,192,270265,1,0,0:0:0:0:
256,192,270327,128,0,270390:0:0:0:0:
402,192,270413,128,0,270484:0:0:0:0:
182,192,270546,128,0,270640:0:0:0:0:
182,192,276109,1,0,0:0:0:0:
329,192,276109,128,0,287745:0:0:0:0:
402,192,276109,1,0,0:0:0:0:
475,192,276109,128,0,287745:0:0:0:0:
109,192,287745,1,0,0:0:0:0:
256,192,287745,1,0,0:0:0:0:
402,192,287745,1,0,0:0:0:0:
256,192,288108,1,0,0:0:0:0:
402,192,288108,1,0,0:0:0:0:
36,192,288472,1,0,0:0:0:0:
109,192,288472,1,0,0:0:0:0:
182,192,288654,1,0,0:0:0:0:
256,192,288836,1,0,0:0:0:0:
402,192,288836,1,0,0:0:0:0:
182,192,289018,1,0,0:0:0:0:
36,192,289199,1,0,0:0:0:0:
109,192,289199,1,0,0:0:0:0:
256,192,289563,1,0,0:0:0:0:
402,192,289563,1,0,0:0:0:0:
36,192,289927,1,0,0:0:0:0:
109,192,289927,1,0,0:0:0:0:
182,192,290108,1,0,0:0:0:0:
256,192,290290,1,0,0:0:0:0:
402,192,290290,1,0,0:0:0:0:
182,192,290472,1,0,0:0:0:0:
36,192,290654,1,0,0:0:0:0:
329,192,290654,1,0,0:0:0:0:
182,192,290836,1,0,0:0:0:0:
256,192,291018,1,0,0:0:0:0:
402,192,291018,1,0,0:0:0:0:
36,192,291381,1,0,0:0:0:0:
182,192,291563,1,0,0:0:0:0:
329,192,291745,1,0,0:0:0:0:
475,192,291745,1,0,0:0:0:0:
182,192,291927,1,0,0:0:0:0:
36,192,292108,1,0,0:0:0:0:
109,192,292108,1,0,0:0:0:0:
182,192,292290,1,0,0:0:0:0:
256,192,292472,1,0,0:0:0:0:
402,192,292472,1,0,0:0:0:0:
36,192,292836,1,0,0:0:0:0:
256,192,292836,1,0,0:0:0:0:
182,192,293018,1,0,0:0:0:0:
329,192,293199,1,0,0:0:0:0:
256,192,293381,1,0,0:0:0:0:
475,192,293381,1,0,0:0:0:0:
36,192,293563,1,0,0:0:0:0:
109,192,293563,1,0,0:0:0:0:
329,192,293927,1,0,0:0:0:0:
475,192,293927,1,0,0:0:0:0:
36,192,294290,1,0,0:0:0:0:
182,192,294290,1,0,0:0:0:0:
256,192,294472,1,0,0:0:0:0:
329,192,294654,1,0,0:0:0:0:
475,192,294654,1,0,0:0:0:0:
256,192,294836,1,0,0:0:0:0:
402,192,294836,128,0,296472:0:0:0:0:
36,192,295018,1,0,0:0:0:0:
109,192,295018,1,0,0:0:0:0:
256,192,295199,1,0,0:0:0:0:
329,192,295381,1,0,0:0:0:0:
475,192,295381,1,0,0:0:0:0:
256,192,295563,1,0,0:0:0:0:
36,192,295745,1,0,0:0:0:0:
182,192,295745,1,0,0:0:0:0:
256,192,295927,1,0,0:0:0:0:
36,192,296108,1,0,0:0:0:0:
109,192,296108,1,0,0:0:0:0:
329,192,296108,1,0,0:0:0:0:
475,192,296108,1,0,0:0:0:0:
36,192,296472,128,0,297290:0:0:0:0:
109,192,296472,128,0,296927:0:0:0:0:
329,192,296472,1,0,0:0:0:0:
475,192,296654,128,0,297108:0:0:0:0:
402,192,296745,128,0,297472:0:0:0:0:
329,192,296836,128,0,297108:0:0:0:0:
109,192,297018,128,0,297381:0:0:0:0:
182,192,297018,128,0,297654:0:0:0:0:
329,192,297199,128,0,297472:0:0:0:0:
475,192,297199,128,0,297836:0:0:0:0:
36,192,297381,128,0,297836:0:0:0:0:
109,192,297472,128,0,297654:0:0:0:0:
329,192,297563,128,0,298199:0:0:0:0:
402,192,297563,128,0,298018:0:0:0:0:
109,192,297745,128,0,298018:0:0:0:0:
182,192,297745,128,0,298199:0:0:0:0:
36,192,297927,128,0,298108:0:0:0:0:
475,192,297927,128,0,298108:0:0:0:0:
109,192,298108,128,0,298290:0:0:0:0:
402,192,298108,128,0,298290:0:0:0:0:
182,192,298290,1,0,0:0:0:0:
329,192,298290,1,0,0:0:0:0:
36,192,298472,1,0,0:0:0:0:
475,192,298472,1,0,0:0:0:0:
256,192,298654,1,0,0:0:0:0:
182,192,298677,1,0,0:0:0:0:
109,192,298699,1,0,0:0:0:0:
36,192,298722,1,0,0:0:0:0:
475,192,298745,1,0,0:0:0:0:
402,192,298768,1,0,0:0:0:0:
329,192,298790,1,0,0:0:0:0:
256,192,298813,1,0,0:0:0:0:
36,192,298836,1,0,0:0:0:55:Kick.wav
182,192,298836,1,0,0:0:0:0:
182,192,299018,1,0,0:0:0:100:SnareHat.wav
402,192,299018,1,0,0:0:0:50:1LR4_SnareKKF_Distort.wav
475,192,299018,1,0,0:0:0:0:
36,192,299108,1,0,0:0:0:100:SnareHat.wav
109,192,299108,1,0,0:0:0:50:1LR4_SnareKKF_Distort.wav
329,192,299108,1,0,0:0:0:0:
256,192,299199,1,0,0:0:0:0:
36,192,299381,1,0,0:0:0:70:Kick.wav
256,192,299381,128,0,299745:0:0:0:70:SnareWet.wav
402,192,299381,1,0,0:0:0:80:1Finish.wav
475,192,299381,1,0,0:0:0:0:
109,192,299472,1,0,0:0:0:0:
402,192,299563,1,0,0:0:0:0:
475,192,299563,1,0,0:0:0:0:
182,192,299654,1,0,0:0:0:0:
329,192,299654,1,0,0:0:0:0:
36,192,299745,1,0,0:0:0:70:Kick.wav
109,192,299745,1,0,0:0:0:0:
475,192,299745,1,0,0:0:0:0:
329,192,299836,1,0,0:0:0:0:
109,192,299927,1,0,0:0:0:0:
256,192,299927,1,0,0:0:0:0:
329,192,300018,1,0,0:0:0:0:
475,192,300018,1,0,0:0:0:0:
36,192,300108,1,0,0:0:0:70:Kick.wav
109,192,300108,1,0,0:0:0:0:
182,192,300108,1,0,0:0:0:0:
256,192,300108,128,0,300427:0:0:0:0:
402,192,300199,1,0,0:0:0:0:
329,192,300290,1,0,0:0:0:0:
475,192,300290,1,0,0:0:0:0:
36,192,300381,1,0,0:0:0:0:
109,192,300381,1,0,0:0:0:0:
182,192,300472,1,0,0:0:0:70:Kick.wav
402,192,300472,1,0,0:0:0:0:
475,192,300472,1,0,0:0:0:0:
36,192,300563,1,0,0:0:0:0:
182,192,300654,1,0,0:0:0:0:
329,192,300654,1,0,0:0:0:0:
402,192,300745,1,0,0:0:0:0:
475,192,300745,1,0,0:0:0:0:
36,192,300836,1,0,0:0:0:70:Kick.wav
109,192,300836,1,0,0:0:0:0:
256,192,300836,128,0,301108:0:0:0:0:
329,192,300836,1,0,0:0:0:0:
182,192,300927,1,0,0:0:0:0:
402,192,301018,1,0,0:0:0:0:
475,192,301018,1,0,0:0:0:0:
36,192,301108,1,0,0:0:0:0:
182,192,301108,1,0,0:0:0:0:
109,192,301199,1,0,0:0:0:70:Kick.wav
329,192,301199,1,0,0:0:0:0:
402,192,301199,1,0,0:0:0:0:
256,192,301290,1,0,0:0:0:0:
36,192,301381,1,0,0:0:0:0:
182,192,301381,1,0,0:0:0:0:
402,192,301472,1,0,0:0:0:0:
475,192,301472,1,0,0:0:0:0:
36,192,301563,1,0,0:0:0:70:Kick.wav
109,192,301563,1,0,0:0:0:0:
256,192,301563,128,0,301790:0:0:0:0:
329,192,301563,1,0,0:0:0:0:
182,192,301654,1,0,0:0:0:0:
329,192,301745,1,0,0:0:0:0:
402,192,301745,1,0,0:0:0:0:
109,192,301836,1,0,0:0:0:0:
182,192,301836,1,0,0:0:0:0:
256,192,301927,1,0,0:0:0:70:Kick.wav
402,192,301927,1,0,0:0:0:0:
475,192,301927,1,0,0:0:0:0:
329,192,302018,1,0,0:0:0:0:
36,192,302108,1,0,0:0:0:0:
182,192,302108,1,0,0:0:0:0:
329,192,302199,1,0,0:0:0:0:
402,192,302199,1,0,0:0:0:0:
36,192,302290,1,0,0:0:0:70:Kick.wav
182,192,302290,1,0,0:0:0:0:
256,192,302290,128,0,302472:0:0:0:0:
475,192,302290,1,0,0:0:0:0:
109,192,302381,1,0,0:0:0:0:
329,192,302472,1,0,0:0:0:0:
402,192,302472,1,0,0:0:0:0:
36,192,302563,1,0,0:0:0:0:
182,192,302563,1,0,0:0:0:0:
256,192,302654,1,0,0:0:0:70:Kick.wav
402,192,302654,1,0,0:0:0:0:
475,192,302654,1,0,0:0:0:0:
329,192,302745,1,0,0:0:0:0:
109,192,302836,1,0,0:0:0:0:
182,192,302836,1,0,0:0:0:0:
329,192,302927,1,0,0:0:0:0:
402,192,302927,1,0,0:0:0:0:
36,192,303018,1,0,0:0:0:70:Kick.wav
182,192,303018,1,0,0:0:0:0:
256,192,303018,128,0,303154:0:0:0:0:
475,192,303018,1,0,0:0:0:0:
329,192,303108,1,0,0:0:0:0:
402,192,303199,1,0,0:0:0:0:
475,192,303199,1,0,0:0:0:0:
109,192,303290,1,0,0:0:0:0:
256,192,303290,1,0,0:0:0:0:
36,192,303381,1,0,0:0:0:70:Kick.wav
329,192,303381,1,0,0:0:0:0:
402,192,303381,1,0,0:0:0:0:
182,192,303472,1,0,0:0:0:0:
402,192,303563,1,0,0:0:0:0:
475,192,303563,1,0,0:0:0:0:
36,192,303654,1,0,0:0:0:0:
182,192,303654,1,0,0:0:0:0:
256,192,303745,128,0,303836:0:0:0:70:Kick.wav
329,192,303745,1,0,0:0:0:0:
402,192,303745,1,0,0:0:0:0:
475,192,303745,1,0,0:0:0:0:
109,192,303836,1,0,0:0:0:0:
256,192,303927,1,0,0:0:0:0:
329,192,303927,1,0,0:0:0:0:
36,192,304018,1,0,0:0:0:0:
109,192,304018,1,0,0:0:0:0:
182,192,304108,1,0,0:0:0:70:Kick.wav
329,192,304108,1,0,0:0:0:0:
402,192,304108,1,0,0:0:0:0:
256,192,304199,1,0,0:0:0:0:
36,192,304290,1,0,0:0:0:0:
182,192,304290,1,0,0:0:0:0:
329,192,304381,1,0,0:0:0:0:
475,192,304381,1,0,0:0:0:0:
36,192,304472,1,0,0:0:0:70:Kick.wav
109,192,304472,1,0,0:0:0:0:
256,192,304472,128,0,304518:0:0:0:0:
402,192,304563,1,0,0:0:0:0:
182,192,304654,1,0,0:0:0:0:
329,192,304654,1,0,0:0:0:0:
36,192,304745,1,0,0:0:0:0:
109,192,304745,1,0,0:0:0:0:
182,192,304836,1,0,0:0:0:70:Kick.wav
256,192,304836,1,0,0:0:0:0:
475,192,304836,1,0,0:0:0:0:
329,192,304927,1,0,0:0:0:0:
402,192,305018,1,0,0:0:0:0:
475,192,305018,1,0,0:0:0:0:
109,192,305108,1,0,0:0:0:0:
182,192,305108,1,0,0:0:0:0:
36,192,305199,1,0,0:0:0:70:Kick.wav
256,192,305199,1,0,0:0:0:0:
329,192,305199,1,0,0:0:0:0:
182,192,305290,1,0,0:0:0:0:
402,192,305381,1,0,0:0:0:0:
475,192,305381,1,0,0:0:0:0:
36,192,305472,1,0,0:0:0:0:
109,192,305472,1,0,0:0:0:0:
182,192,305563,1,0,0:0:0:70:Kick.wav
329,192,305563,1,0,0:0:0:0:
402,192,305563,1,0,0:0:0:0:
256,192,305654,1,0,0:0:0:0:
329,192,305745,1,0,0:0:0:0:
475,192,305745,1,0,0:0:0:0:
36,192,305836,1,0,0:0:0:0:
182,192,305836,1,0,0:0:0:0:
256,192,305927,1,0,0:0:0:70:Kick.wav
402,192,305927,1,0,0:0:0:0:
475,192,305927,1,0,0:0:0:0:
329,192,306018,1,0,0:0:0:0:
109,192,306108,1,0,0:0:0:0:
182,192,306108,1,0,0:0:0:0:
256,192,306199,1,0,0:0:0:0:
402,192,306199,1,0,0:0:0:0:
109,192,306290,1,0,0:0:0:70:Kick.wav
182,192,306290,1,0,0:0:0:0:
475,192,306290,1,0,0:0:0:0:
329,192,306381,1,0,0:0:0:0:
36,192,306472,1,0,0:0:0:0:
182,192,306472,1,0,0:0:0:0:
402,192,306563,1,0,0:0:0:0:
475,192,306563,1,0,0:0:0:0:
36,192,306654,1,0,0:0:0:70:Kick.wav
256,192,306654,1,0,0:0:0:0:
329,192,306654,1,0,0:0:0:0:
182,192,306745,1,0,0:0:0:0:
329,192,306836,1,0,0:0:0:0:
402,192,306836,1,0,0:0:0:0:
109,192,306927,1,0,0:0:0:0:
182,192,306927,1,0,0:0:0:0:
256,192,307018,1,0,0:0:0:70:Kick.wav
329,192,307018,1,0,0:0:0:0:
475,192,307018,1,0,0:0:0:0:
182,192,307108,1,0,0:0:0:0:
36,192,307199,1,0,0:0:0:0:
109,192,307199,1,0,0:0:0:0:
256,192,307290,1,0,0:0:0:0:
402,192,307290,1,0,0:0:0:0:
109,192,307381,1,0,0:0:0:70:Kick.wav
182,192,307381,1,0,0:0:0:0:
475,192,307381,1,0,0:0:0:0:
329,192,307472,1,0,0:0:0:0:
402,192,307563,1,0,0:0:0:0:
475,192,307563,1,0,0:0:0:0:
36,192,307654,1,0,0:0:0:0:
182,192,307654,1,0,0:0:0:0:
109,192,307745,1,0,0:0:0:70:Kick.wav
256,192,307745,1,0,0:0:0:0:
329,192,307745,1,0,0:0:0:0:
475,192,307836,1,0,0:0:0:0:
182,192,307927,1,0,0:0:0:0:
256,192,307927,1,0,0:0:0:0:
329,192,308018,1,0,0:0:0:0:
402,192,308018,1,0,0:0:0:0:
36,192,308108,1,0,0:0:0:70:Kick.wav
109,192,308108,1,0,0:0:0:0:
475,192,308108,1,0,0:0:0:0:
256,192,308199,1,0,0:0:0:0:
329,192,308290,1,0,0:0:0:0:
475,192,308290,1,0,0:0:0:0:
36,192,308381,1,0,0:0:0:0:
182,192,308381,1,0,0:0:0:0:
109,192,308472,1,0,0:0:0:70:Kick.wav
329,192,308472,1,0,0:0:0:0:
402,192,308472,1,0,0:0:0:0:
256,192,308563,1,0,0:0:0:0:
402,192,308654,1,0,0:0:0:0:
475,192,308654,1,0,0:0:0:0:
36,192,308745,1,0,0:0:0:0:
182,192,308745,1,0,0:0:0:0:
109,192,308836,1,0,0:0:0:70:Kick.wav
256,192,308836,1,0,0:0:0:0:
329,192,308836,1,0,0:0:0:0:
402,192,308927,1,0,0:0:0:0:
36,192,309018,1,0,0:0:0:0:
182,192,309018,1,0,0:0:0:0:
329,192,309108,1,0,0:0:0:0:
475,192,309108,1,0,0:0:0:0:
36,192,309199,1,0,0:0:0:70:Kick.wav
109,192,309199,1,0,0:0:0:0:
256,192,309199,1,0,0:0:0:0:
402,192,309290,1,0,0:0:0:0:
329,192,309381,1,0,0:0:0:0:
475,192,309381,1,0,0:0:0:0:
109,192,309472,1,0,0:0:0:0:
182,192,309472,1,0,0:0:0:0:
256,192,309563,1,0,0:0:0:70:Kick.wav
402,192,309563,1,0,0:0:0:0:
475,192,309563,1,0,0:0:0:0:
329,192,309654,1,0,0:0:0:0:
109,192,309745,1,0,0:0:0:0:
182,192,309745,1,0,0:0:0:0:
329,192,309836,1,0,0:0:0:0:
475,192,309836,1,0,0:0:0:0:
36,192,309927,1,0,0:0:0:70:Kick.wav
109,192,309927,1,0,0:0:0:0:
256,192,309927,1,0,0:0:0:0:
182,192,310018,1,0,0:0:0:0:
329,192,310108,1,0,0:0:0:0:
402,192,310108,1,0,0:0:0:0:
109,192,310199,1,0,0:0:0:0:
182,192,310199,1,0,0:0:0:0:
256,192,310290,1,0,0:0:0:70:Kick.wav
329,192,310290,1,0,0:0:0:0:
475,192,310290,1,0,0:0:0:0:
109,192,310381,1,0,0:0:0:0:
402,192,310472,1,0,0:0:0:0:
475,192,310472,1,0,0:0:0:0:
182,192,310563,1,0,0:0:0:0:
256,192,310563,1,0,0:0:0:0:
36,192,310654,1,0,0:0:0:70:Kick.wav
329,192,310654,1,0,0:0:0:0:
402,192,310654,1,0,0:0:0:0:
182,192,310745,1,0,0:0:0:0:
329,192,310836,1,0,0:0:0:0:
475,192,310836,1,0,0:0:0:0:
109,192,310927,1,0,0:0:0:0:
256,192,310927,1,0,0:0:0:0:
36,192,311018,128,0,311381:0:0:0:70:Kick.wav
182,192,311018,1,0,0:0:0:0:
402,192,311018,1,0,0:0:0:0:
475,192,311018,1,0,0:0:0:0:
329,192,311108,1,0,0:0:0:0:
109,192,311199,1,0,0:0:0:70:1LR5_HiHat NSynth.wav
182,192,311199,1,0,0:0:0:0:
475,192,311199,1,0,0:0:0:0:
329,192,311290,1,0,0:0:0:0:
402,192,311290,1,0,0:0:0:0:
109,192,311381,1,0,0:0:0:70:Kick.wav
182,192,311381,1,0,0:0:0:70:1LR4_SnareKKF_Distort.wav
256,192,311381,1,0,0:0:0:0:
475,192,311381,1,0,0:0:0:0:
402,192,311472,1,0,0:0:0:0:
36,192,311563,1,0,0:0:0:70:1LR_Hat Normal.wav
182,192,311563,1,0,0:0:0:0:
256,192,311654,1,0,0:0:0:0:
329,192,311654,1,0,0:0:0:0:
36,192,311745,128,0,312063:0:0:0:70:Kick.wav
109,192,311745,1,0,0:0:0:0:
182,192,311745,1,0,0:0:0:0:
475,192,311745,1,0,0:0:0:0:
329,192,311836,1,0,0:0:0:0:
109,192,311927,1,0,0:0:0:70:1LR4_SnareKKF_Distort.wav
182,192,311927,1,0,0:0:0:70:1LR_Hat Normal.wav
256,192,311927,1,0,0:0:0:0:
329,192,312018,1,0,0:0:0:0:
402,192,312018,1,0,0:0:0:0:
182,192,312108,1,0,0:0:0:70:Kick.wav
256,192,312108,1,0,0:0:0:0:
475,192,312108,1,0,0:0:0:0:
109,192,312199,1,0,0:0:0:0:
329,192,312290,1,0,0:0:0:70:1LR_Hat Normal.wav
475,192,312290,1,0,0:0:0:0:
109,192,312381,1,0,0:0:0:0:
256,192,312381,1,0,0:0:0:0:
36,192,312472,128,0,312745:0:0:0:70:Kick.wav
329,192,312472,1,0,0:0:0:0:
402,192,312472,1,0,0:0:0:0:
475,192,312472,1,0,0:0:0:0:
182,192,312563,1,0,0:0:0:0:
256,192,312654,1,0,0:0:0:70:1LR_Hat Normal.wav
329,192,312654,1,0,0:0:0:0:
475,192,312654,1,0,0:0:0:0:
182,192,312745,1,0,0:0:0:0:
402,192,312745,1,0,0:0:0:0:
36,192,312836,1,0,0:0:0:70:Kick.wav
109,192,312836,1,0,0:0:0:70:1LR4_SnareKKF_Distort.wav
256,192,312836,1,0,0:0:0:0:
329,192,312836,1,0,0:0:0:0:
475,192,312927,1,0,0:0:0:0:
109,192,313018,1,0,0:0:0:70:1LR_Hat Normal.wav
182,192,313018,1,0,0:0:0:0:
256,192,313108,1,0,0:0:0:0:
475,192,313108,1,0,0:0:0:0:
36,192,313199,128,0,313427:0:0:0:70:Kick.wav
109,192,313199,1,0,0:0:0:0:
329,192,313199,1,0,0:0:0:0:
402,192,313199,1,0,0:0:0:0:
182,192,313290,1,0,0:0:0:0:
256,192,313381,1,0,0:0:0:70:1LR4_SnareKKF_Distort.wav
329,192,313381,1,0,0:0:0:70:1LR_Hat Normal.wav
475,192,313381,1,0,0:0:0:0:
109,192,313472,1,0,0:0:0:0:
182,192,313472,1,0,0:0:0:0:
475,192,313563,1,0,0:0:0:70:Kick.wav
402,192,313563,1,0,0:0:0:70:1LR_Hat Normal.wav
256,192,313608,1,0,0:0:0:70:1LR_Hat Normal.wav
182,192,313654,1,0,0:0:0:0:
36,192,313745,1,0,0:0:0:70:1LR_Hat Normal.wav
109,192,313745,1,0,0:0:0:0:
329,192,313790,1,0,0:0:0:70:1LR_Hat Normal.wav
402,192,313836,1,0,0:0:0:0:
36,192,313927,128,0,314108:0:0:0:70:Kick.wav
109,192,313927,1,0,0:0:0:0:
182,192,313927,1,0,0:0:0:0:
256,192,313927,1,0,0:0:0:0:
475,192,314018,1,0,0:0:0:0:
182,192,314108,1,0,0:0:0:70:1LR5_HiHat NSynth.wav
256,192,314108,1,0,0:0:0:0:
329,192,314108,1,0,0:0:0:0:
36,192,314199,1,0,0:0:0:0:
109,192,314199,1,0,0:0:0:0:
182,192,314290,1,0,0:0:0:70:Kick.wav
329,192,314290,1,0,0:0:0:70:1LR4_SnareKKF_Distort.wav
402,192,314290,1,0,0:0:0:0:
475,192,314290,1,0,0:0:0:0:
36,192,314381,1,0,0:0:0:0:
329,192,314472,1,0,0:0:0:70:1LR_Hat Normal.wav
475,192,314472,1,0,0:0:0:0:
109,192,314563,1,0,0:0:0:0:
182,192,314563,1,0,0:0:0:0:
36,192,314654,128,0,314790:0:0:0:70:Kick.wav
329,192,314654,1,0,0:0:0:0:
402,192,314654,1,0,0:0:0:0:
475,192,314654,1,0,0:0:0:0:
256,192,314745,1,0,0:0:0:0:
182,192,314836,1,0,0:0:0:70:1LR4_SnareKKF_Distort.wav
329,192,314836,1,0,0:0:0:70:1LR_Hat Normal.wav
402,192,314836,1,0,0:0:0:0:
36,192,314927,1,0,0:0:0:0:
109,192,314927,1,0,0:0:0:0:
256,192,315018,1,0,0:0:0:70:Kick.wav
402,192,315018,1,0,0:0:0:0:
475,192,315018,1,0,0:0:0:0:
36,192,315108,1,0,0:0:0:0:
109,192,315199,1,0,0:0:0:70:1LR_Hat Normal.wav
256,192,315199,1,0,0:0:0:0:
329,192,315199,1,0,0:0:0:0:
182,192,315290,1,0,0:0:0:0:
475,192,315290,1,0,0:0:0:0:
36,192,315381,128,0,315472:0:0:0:70:Kick.wav
109,192,315381,1,0,0:0:0:0:
329,192,315381,1,0,0:0:0:0:
402,192,315381,1,0,0:0:0:0:
256,192,315472,1,0,0:0:0:0:
329,192,315563,1,0,0:0:0:70:1LR_Hat Normal.wav
402,192,315563,1,0,0:0:0:0:
475,192,315563,1,0,0:0:0:0:
36,192,315654,1,0,0:0:0:0:
256,192,315654,1,0,0:0:0:0:
109,192,315745,1,0,0:0:0:70:Kick.wav
182,192,315745,1,0,0:0:0:70:1LR4_SnareKKF_Distort.wav
402,192,315745,1,0,0:0:0:0:
475,192,315745,1,0,0:0:0:0:
329,192,315836,1,0,0:0:0:0:
36,192,315927,1,0,0:0:0:70:1LR_Hat Normal.wav
182,192,315927,1,0,0:0:0:0:
402,192,316018,1,0,0:0:0:0:
475,192,316018,1,0,0:0:0:0:
36,192,316108,128,0,316154:0:0:0:70:Kick.wav
109,192,316108,1,0,0:0:0:0:
256,192,316108,1,0,0:0:0:0:
329,192,316108,1,0,0:0:0:0:
475,192,316199,1,0,0:0:0:0:
36,192,316290,1,0,0:0:0:70:1LR4_SnareKKF_Distort.wav
109,192,316290,1,0,0:0:0:70:1LR_Hat Normal.wav
256,192,316290,1,0,0:0:0:0:
182,192,316381,1,0,0:0:0:0:
329,192,316381,1,0,0:0:0:0:
36,192,316472,1,0,0:0:0:70:Kick.wav
109,192,316472,1,0,0:0:0:70:1LR_Hat Normal.wav
475,192,316472,1,0,0:0:0:0:
402,192,316518,1,0,0:0:0:70:1LR_Hat Normal.wav
329,192,316563,1,0,0:0:0:70:1LR_Hat Normal.wav
256,192,316608,1,0,0:0:0:70:1LR_Hat Normal.wav
109,192,316654,1,0,0:0:0:70:1LR_Hat Normal.wav
182,192,316654,1,0,0:0:0:0:
256,192,316745,1,0,0:0:0:70:1LR_Hat Normal.wav
402,192,316745,1,0,0:0:0:0:
36,192,316836,1,0,0:0:0:70:Kick.wav
182,192,316836,1,0,0:0:0:0:
329,192,316836,1,0,0:0:0:0:
475,192,316927,1,0,0:0:0:0:
182,192,317018,1,0,0:0:0:70:1LR5_HiHat NSynth.wav
256,192,317018,1,0,0:0:0:0:
329,192,317018,1,0,0:0:0:0:
36,192,317108,1,0,0:0:0:0:
109,192,317108,1,0,0:0:0:0:
256,192,317199,1,0,0:0:0:70:Kick.wav
329,192,317199,1,0,0:0:0:70:1LR4_SnareKKF_Distort.wav
402,192,317199,1,0,0:0:0:0:
475,192,317199,1,0,0:0:0:0:
109,192,317290,1,0,0:0:0:0:
329,192,317381,1,0,0:0:0:70:1LR_Hat Normal.wav
402,192,317381,1,0,0:0:0:0:
182,192,317472,1,0,0:0:0:0:
475,192,317472,1,0,0:0:0:0:
36,192,317563,1,0,0:0:0:70:Kick.wav
256,192,317563,1,0,0:0:0:0:
329,192,317563,1,0,0:0:0:0:
109,192,317654,1,0,0:0:0:0:
256,192,317745,1,0,0:0:0:70:1LR4_SnareKKF_Distort.wav
402,192,317745,1,0,0:0:0:70:1LR_Hat Normal.wav
475,192,317745,1,0,0:0:0:0:
182,192,317836,1,0,0:0:0:0:
329,192,317836,1,0,0:0:0:0:
36,192,317927,1,0,0:0:0:70:Kick.wav
109,192,317927,1,0,0:0:0:0:
402,192,317927,1,0,0:0:0:0:
256,192,318018,1,0,0:0:0:0:
329,192,318108,1,0,0:0:0:70:1LR_Hat Normal.wav
475,192,318108,1,0,0:0:0:0:
36,192,318199,1,0,0:0:0:0:
109,192,318199,1,0,0:0:0:0:
182,192,318290,1,0,0:0:0:70:Kick.wav
402,192,318290,1,0,0:0:0:0:
475,192,318290,1,0,0:0:0:0:
329,192,318381,1,0,0:0:0:0:
36,192,318472,1,0,0:0:0:70:1LR_Hat Normal.wav
109,192,318472,1,0,0:0:0:0:
475,192,318472,1,0,0:0:0:0:
182,192,318563,1,0,0:0:0:0:
402,192,318563,1,0,0:0:0:0:
36,192,318654,1,0,0:0:0:70:Kick.wav
109,192,318654,1,0,0:0:0:70:1LR4_SnareKKF_Distort.wav
256,192,318654,1,0,0:0:0:0:
329,192,318654,1,0,0:0:0:0:
475,192,318745,1,0,0:0:0:0:
256,192,318836,1,0,0:0:0:70:1LR_Hat Normal.wav
329,192,318836,1,0,0:0:0:0:
36,192,318927,1,0,0:0:0:0:
109,192,318927,1,0,0:0:0:0:
182,192,319018,1,0,0:0:0:70:Kick.wav
402,192,319018,1,0,0:0:0:0:
475,192,319018,1,0,0:0:0:0:
329,192,319108,1,0,0:0:0:0:
36,192,319199,1,0,0:0:0:70:1LR4_SnareKKF_Distort.wav
109,192,319199,1,0,0:0:0:70:1LR_Hat Normal.wav
402,192,319199,1,0,0:0:0:0:
182,192,319290,1,0,0:0:0:0:
256,192,319290,1,0,0:0:0:0:
109,192,319381,1,0,0:0:0:70:Kick.wav
402,192,319381,1,0,0:0:0:0:
475,192,319381,1,0,0:0:0:0:
329,192,319472,1,0,0:0:0:0:
36,192,319563,1,0,0:0:0:70:1LR_Hat Normal.wav
182,192,319563,1,0,0:0:0:0:
329,192,319654,1,0,0:0:0:0:
475,192,319654,1,0,0:0:0:0:
36,192,319745,1,0,0:0:0:70:Kick.wav
109,192,319745,1,0,0:0:0:0:
256,192,319745,1,0,0:0:0:0:
329,192,319836,1,0,0:0:0:0:
256,192,319927,1,0,0:0:0:70:1LR5_HiHat NSynth.wav
402,192,319927,1,0,0:0:0:0:
475,192,319927,1,0,0:0:0:0:
36,192,320018,1,0,0:0:0:0:
109,192,320018,1,0,0:0:0:0:
182,192,320108,1,0,0:0:0:70:Kick.wav
256,192,320108,1,0,0:0:0:70:1LR4_SnareKKF_Distort.wav
402,192,320108,1,0,0:0:0:0:
475,192,320108,1,0,0:0:0:0:
329,192,320199,1,0,0:0:0:0:
109,192,320290,1,0,0:0:0:70:1LR_Hat Normal.wav
182,192,320290,1,0,0:0:0:0:
36,192,320381,1,0,0:0:0:0:
329,192,320381,1,0,0:0:0:0:
182,192,320472,1,0,0:0:0:70:Kick.wav
402,192,320472,1,0,0:0:0:0:
475,192,320472,1,0,0:0:0:0:
256,192,320563,1,0,0:0:0:0:
36,192,320654,1,0,0:0:0:70:1LR4_SnareKKF_Distort.wav
182,192,320654,1,0,0:0:0:70:1LR_Hat Normal.wav
475,192,320654,1,0,0:0:0:0:
256,192,320745,1,0,0:0:0:0:
329,192,320745,1,0,0:0:0:0:
36,192,320836,1,0,0:0:0:70:Kick.wav
402,192,320836,1,0,0:0:0:0:
475,192,320836,1,0,0:0:0:0:
182,192,320927,1,0,0:0:0:0:
329,192,321018,1,0,0:0:0:0:
475,192,321018,1,0,0:0:0:0:
109,192,321108,1,0,0:0:0:0:
256,192,321108,1,0,0:0:0:0:
36,192,321199,1,0,0:0:0:85:SnareHat.wav
182,192,321199,1,0,0:0:0:0:
402,192,321199,1,0,0:0:0:0:
475,192,321199,1,0,0:0:0:0:
36,192,321381,1,0,0:0:0:85:SnareHat.wav
182,192,321381,1,0,0:0:0:0:
329,192,321472,1,0,0:0:0:85:SnareHat.wav
475,192,321472,1,0,0:0:0:0:
36,192,321563,1,0,0:0:0:85:SnareHat.wav
182,192,321563,1,0,0:0:0:0:
329,192,321654,1,0,0:0:0:85:SnareHat.wav
475,192,321654,1,0,0:0:0:0:
109,192,321745,1,0,0:0:0:80:1Tom.wav
256,192,321745,1,0,0:0:0:0:
329,192,321927,1,0,0:0:0:85:SnareHat.wav
475,192,321927,1,0,0:0:0:0:
36,192,322018,1,0,0:0:0:85:SnareHat.wav
182,192,322018,1,0,0:0:0:0:
329,192,322108,1,0,0:0:0:85:SnareHat.wav
475,192,322108,1,0,0:0:0:0:
36,192,322199,1,0,0:0:0:85:SnareHat.wav
182,192,322199,1,0,0:0:0:0:
256,192,322290,1,0,0:0:0:70:1Tom.wav
402,192,322290,1,0,0:0:0:0:
36,192,322472,1,0,0:0:0:85:SnareHat.wav
182,192,322472,1,0,0:0:0:75:SnareWet.wav
329,192,322472,1,0,0:0:0:0:
36,192,322654,128,0,323018:0:0:0:70:Kick.wav
329,192,322654,1,0,0:0:0:100:SnareWet.wav
402,192,322654,1,0,0:0:0:0:
475,192,322654,1,0,0:0:0:0:
182,192,322745,1,0,0:0:0:0:
256,192,322745,1,0,0:0:0:0:
329,192,322836,1,0,0:0:0:0:
402,192,322836,1,0,0:0:0:0:
182,192,322927,1,0,0:0:0:0:
256,192,322927,1,0,0:0:0:0:
329,192,323018,1,0,0:0:0:70:Kick.wav
402,192,323018,1,0,0:0:0:0:
475,192,323018,1,0,0:0:0:0:
109,192,323108,1,0,0:0:0:0:
182,192,323108,1,0,0:0:0:0:
256,192,323199,1,0,0:0:0:0:
329,192,323199,1,0,0:0:0:0:
109,192,323290,1,0,0:0:0:0:
182,192,323290,1,0,0:0:0:0:
36,192,323381,128,0,323699:0:0:0:70:Kick.wav
329,192,323381,1,0,0:0:0:70:SnareWet.wav
402,192,323381,1,0,0:0:0:0:
475,192,323381,1,0,0:0:0:0:
182,192,323472,1,0,0:0:0:0:
256,192,323472,1,0,0:0:0:0:
402,192,323563,1,0,0:0:0:0:
475,192,323563,1,0,0:0:0:0:
182,192,323654,1,0,0:0:0:0:
256,192,323654,1,0,0:0:0:0:
329,192,323745,1,0,0:0:0:70:Kick.wav
402,192,323745,1,0,0:0:0:0:
475,192,323745,1,0,0:0:0:0:
109,192,323836,1,0,0:0:0:0:
182,192,323836,1,0,0:0:0:0:
329,192,323927,1,0,0:0:0:0:
402,192,323927,1,0,0:0:0:0:
109,192,324018,1,0,0:0:0:0:
182,192,324018,1,0,0:0:0:0:
36,192,324108,128,0,324381:0:0:0:70:Kick.wav
329,192,324108,1,0,0:0:0:50:SnareWet.wav
402,192,324108,1,0,0:0:0:0:
475,192,324108,1,0,0:0:0:0:
109,192,324199,1,0,0:0:0:0:
256,192,324199,1,0,0:0:0:0:
329,192,324290,1,0,0:0:0:0:
475,192,324290,1,0,0:0:0:0:
109,192,324381,1,0,0:0:0:0:
256,192,324381,1,0,0:0:0:0:
329,192,324472,1,0,0:0:0:70:Kick.wav
402,192,324472,1,0,0:0:0:0:
475,192,324472,1,0,0:0:0:0:
109,192,324563,1,0,0:0:0:0:
182,192,324563,1,0,0:0:0:0:
402,192,324654,1,0,0:0:0:0:
475,192,324654,1,0,0:0:0:0:
109,192,324745,1,0,0:0:0:0:
182,192,324745,1,0,0:0:0:0:
36,192,324836,128,0,325063:0:0:0:70:Kick.wav
329,192,324836,1,0,0:0:0:45:SnareWet.wav
402,192,324836,1,0,0:0:0:0:
475,192,324836,1,0,0:0:0:0:
109,192,324927,1,0,0:0:0:0:
256,192,324927,1,0,0:0:0:0:
329,192,325018,1,0,0:0:0:0:
402,192,325018,1,0,0:0:0:0:
109,192,325108,1,0,0:0:0:0:
256,192,325108,1,0,0:0:0:0:
329,192,325199,1,0,0:0:0:70:Kick.wav
402,192,325199,1,0,0:0:0:0:
475,192,325199,1,0,0:0:0:0:
109,192,325290,1,0,0:0:0:0:
182,192,325290,1,0,0:0:0:0:
329,192,325381,1,0,0:0:0:0:
475,192,325381,1,0,0:0:0:0:
109,192,325472,1,0,0:0:0:0:
182,192,325472,1,0,0:0:0:0:
36,192,325563,128,0,325745:0:0:0:70:Kick.wav
329,192,325563,1,0,0:0:0:30:SnareWet.wav
402,192,325563,1,0,0:0:0:0:
475,192,325563,1,0,0:0:0:0:
182,192,325654,1,0,0:0:0:0:
256,192,325654,1,0,0:0:0:0:
329,192,325745,1,0,0:0:0:0:
402,192,325745,1,0,0:0:0:0:
182,192,325836,1,0,0:0:0:0:
256,192,325836,1,0,0:0:0:0:
329,192,325927,1,0,0:0:0:70:Kick.wav
402,192,325927,1,0,0:0:0:0:
475,192,325927,1,0,0:0:0:0:
109,192,326018,1,0,0:0:0:0:
182,192,326018,1,0,0:0:0:0:
256,192,326108,1,0,0:0:0:0:
329,192,326108,1,0,0:0:0:0:
109,192,326199,1,0,0:0:0:0:
182,192,326199,1,0,0:0:0:0:
36,192,326290,128,0,326427:0:0:0:70:Kick.wav
329,192,326290,1,0,0:0:0:30:SnareWet.wav
402,192,326290,1,0,0:0:0:0:
475,192,326290,1,0,0:0:0:0:
182,192,326381,1,0,0:0:0:0:
256,192,326381,1,0,0:0:0:0:
402,192,326472,1,0,0:0:0:0:
475,192,326472,1,0,0:0:0:0:
182,192,326563,1,0,0:0:0:0:
256,192,326563,1,0,0:0:0:0:
329,192,326654,1,0,0:0:0:70:Kick.wav
402,192,326654,1,0,0:0:0:0:
475,192,326654,1,0,0:0:0:0:
109,192,326745,1,0,0:0:0:0:
182,192,326745,1,0,0:0:0:0:
329,192,326836,1,0,0:0:0:0:
402,192,326836,1,0,0:0:0:0:
109,192,326927,1,0,0:0:0:0:
182,192,326927,1,0,0:0:0:0:
36,192,327018,128,0,327108:0:0:0:70:Kick.wav
329,192,327018,1,0,0:0:0:30:SnareWet.wav
402,192,327018,1,0,0:0:0:0:
475,192,327018,1,0,0:0:0:0:
109,192,327108,1,0,0:0:0:0:
256,192,327108,1,0,0:0:0:0:
329,192,327199,1,0,0:0:0:0:
475,192,327199,1,0,0:0:0:0:
109,192,327290,1,0,0:0:0:0:
256,192,327290,1,0,0:0:0:0:
329,192,327381,1,0,0:0:0:70:Kick.wav
402,192,327381,1,0,0:0:0:0:
475,192,327381,1,0,0:0:0:0:
109,192,327472,1,0,0:0:0:0:
182,192,327472,1,0,0:0:0:0:
402,192,327563,1,0,0:0:0:0:
475,192,327563,1,0,0:0:0:0:
109,192,327654,1,0,0:0:0:0:
182,192,327654,1,0,0:0:0:0:
36,192,327745,128,0,327790:0:0:0:70:Kick.wav
329,192,327745,1,0,0:0:0:30:SnareWet.wav
402,192,327745,1,0,0:0:0:0:
475,192,327745,1,0,0:0:0:0:
109,192,327836,1,0,0:0:0:0:
256,192,327836,1,0,0:0:0:0:
329,192,327927,1,0,0:0:0:0:
402,192,327927,1,0,0:0:0:0:
109,192,328018,1,0,0:0:0:0:
256,192,328018,1,0,0:0:0:0:
329,192,328108,1,0,0:0:0:70:Kick.wav
402,192,328108,1,0,0:0:0:0:
475,192,328108,1,0,0:0:0:0:
109,192,328199,1,0,0:0:0:0:
182,192,328199,1,0,0:0:0:0:
329,192,328290,1,0,0:0:0:0:
475,192,328290,1,0,0:0:0:0:
109,192,328381,1,0,0:0:0:0:
182,192,328381,1,0,0:0:0:0:
36,192,328472,1,0,0:0:0:70:Kick.wav
256,192,328472,1,0,0:0:0:30:SnareWet.wav
329,192,328472,1,0,0:0:0:0:
402,192,328472,1,0,0:0:0:0:
475,192,328472,128,0,329018:0:0:0:0:
109,192,328563,1,0,0:0:0:0:
182,192,328563,1,0,0:0:0:0:
256,192,328654,1,0,0:0:0:0:
402,192,328654,1,0,0:0:0:0:
36,192,328745,1,0,0:0:0:0:
109,192,328745,1,0,0:0:0:0:
182,192,328836,1,0,0:0:0:70:Kick.wav
256,192,328836,1,0,0:0:0:0:
329,192,328836,1,0,0:0:0:0:
36,192,328927,1,0,0:0:0:0:
109,192,328927,1,0,0:0:0:0:
182,192,329018,1,0,0:0:0:0:
256,192,329018,128,0,329199:0:0:0:0:
329,192,329018,1,0,0:0:0:0:
402,192,329108,1,0,0:0:0:0:
475,192,329108,1,0,0:0:0:0:
36,192,329199,128,0,331381:0:0:0:70:Kick.wav
109,192,329199,1,0,0:0:0:30:SnareWet.wav
182,192,329199,1,0,0:0:0:0:
329,192,329199,1,0,0:0:0:0:
402,192,329290,1,0,0:0:0:0:
475,192,329290,1,0,0:0:0:0:
256,192,329381,1,0,0:0:0:0:
329,192,329381,1,0,0:0:0:0:
109,192,329472,1,0,0:0:0:0:
182,192,329472,1,0,0:0:0:0:
329,192,329563,1,0,0:0:0:70:Kick.wav
402,192,329563,1,0,0:0:0:0:
475,192,329563,1,0,0:0:0:0:
182,192,329654,1,0,0:0:0:0:
256,192,329654,1,0,0:0:0:0:
329,192,329745,1,0,0:0:0:0:
402,192,329745,1,0,0:0:0:0:
109,192,329836,1,0,0:0:0:0:
182,192,329836,1,0,0:0:0:0:
256,192,329927,1,0,0:0:0:70:Kick.wav
329,192,329927,1,0,0:0:0:30:SnareWet.wav
475,192,329927,1,0,0:0:0:0:
109,192,330018,1,0,0:0:0:0:
182,192,330018,1,0,0:0:0:0:
329,192,330108,1,0,0:0:0:0:
402,192,330108,1,0,0:0:0:0:
109,192,330199,1,0,0:0:0:0:
256,192,330199,1,0,0:0:0:0:
329,192,330290,1,0,0:0:0:70:Kick.wav
402,192,330290,1,0,0:0:0:0:
475,192,330290,1,0,0:0:0:0:
109,192,330381,1,0,0:0:0:0:
182,192,330381,1,0,0:0:0:0:
256,192,330472,1,0,0:0:0:0:
329,192,330472,1,0,0:0:0:0:
402,192,330563,1,0,0:0:0:0:
475,192,330563,1,0,0:0:0:0:
109,192,330654,1,0,0:0:0:70:Kick.wav
182,192,330654,1,0,0:0:0:30:SnareWet.wav
256,192,330654,1,0,0:0:0:0:
329,192,330745,1,0,0:0:0:0:
475,192,330745,1,0,0:0:0:0:
109,192,330836,1,0,0:0:0:0:
182,192,330836,1,0,0:0:0:0:
402,192,330927,1,0,0:0:0:0:
475,192,330927,1,0,0:0:0:0:
182,192,331018,1,0,0:0:0:70:Kick.wav
256,192,331018,1,0,0:0:0:0:
329,192,331018,1,0,0:0:0:0:
402,192,331108,1,0,0:0:0:0:
475,192,331108,1,0,0:0:0:0:
109,192,331199,1,0,0:0:0:0:
182,192,331199,1,0,0:0:0:0:
256,192,331290,1,0,0:0:0:0:
329,192,331290,1,0,0:0:0:0:
109,192,331381,1,0,0:0:0:70:Kick.wav
402,192,331381,1,0,0:0:0:30:SnareWet.wav
475,192,331381,1,0,0:0:0:0:
182,192,331472,1,0,0:0:0:0:
329,192,331472,1,0,0:0:0:0:
36,192,331563,1,0,0:0:0:0:
109,192,331563,1,0,0:0:0:0:
402,192,331563,1,0,0:0:0:0:
475,192,331563,1,0,0:0:0:0:
256,192,331654,1,0,0:0:0:0:
36,192,331745,1,0,0:0:0:70:Kick.wav
182,192,331745,1,0,0:0:0:0:
329,192,331745,1,0,0:0:0:0:
475,192,331745,1,0,0:0:0:0:
109,192,331836,1,0,0:0:0:0:
402,192,331836,1,0,0:0:0:0:
36,192,331927,1,0,0:0:0:0:
182,192,331927,1,0,0:0:0:0:
329,192,331927,1,0,0:0:0:0:
475,192,331927,1,0,0:0:0:0:
256,192,332018,1,0,0:0:0:0:
109,192,332108,1,0,0:0:0:70:Kick.wav
182,192,332108,1,0,0:0:0:30:SnareWet.wav
329,192,332108,1,0,0:0:0:0:
402,192,332108,1,0,0:0:0:0:
36,192,332199,1,0,0:0:0:0:
475,192,332199,1,0,0:0:0:0:
109,192,332290,1,0,0:0:0:0:
182,192,332290,1,0,0:0:0:0:
329,192,332290,1,0,0:0:0:0:
402,192,332290,1,0,0:0:0:0:
36,192,332381,1,0,0:0:0:0:
109,192,332472,1,0,0:0:0:70:Kick.wav
256,192,332472,1,0,0:0:0:0:
402,192,332472,1,0,0:0:0:0:
475,192,332472,1,0,0:0:0:0:
182,192,332563,1,0,0:0:0:0:
329,192,332563,1,0,0:0:0:0:
109,192,332654,1,0,0:0:0:0:
256,192,332654,1,0,0:0:0:0:
402,192,332654,1,0,0:0:0:0:
475,192,332654,1,0,0:0:0:0:
36,192,332745,1,0,0:0:0:0:
109,192,332836,1,0,0:0:0:70:Kick.wav
182,192,332836,1,0,0:0:0:30:SnareWet.wav
329,192,332836,1,0,0:0:0:15:A4Harp.wav
475,192,332836,1,0,0:0:0:0:
256,192,332927,1,0,0:0:0:0:
402,192,332927,1,0,0:0:0:0:
109,192,333018,1,0,0:0:0:20:1F#4Harp.wav
182,192,333018,1,0,0:0:0:0:
329,192,333018,1,0,0:0:0:0:
475,192,333018,1,0,0:0:0:0:
256,192,333108,1,0,0:0:0:0:
36,192,333199,1,0,0:0:0:70:Kick.wav
109,192,333199,1,0,0:0:0:25:E4Harp.wav
402,192,333199,1,0,0:0:0:0:
475,192,333199,1,0,0:0:0:0:
182,192,333290,1,0,0:0:0:0:
329,192,333290,1,0,0:0:0:0:
36,192,333381,1,0,0:0:0:30:B3Harp.wav
109,192,333381,1,0,0:0:0:0:
402,192,333381,1,0,0:0:0:0:
475,192,333381,1,0,0:0:0:0:
182,192,333472,1,0,0:0:0:0:
256,192,333563,1,0,0:0:0:70:Kick.wav
329,192,333563,1,0,0:0:0:30:SnareWet.wav
402,192,333563,1,0,0:0:0:40:D4Harp.wav
475,192,333563,1,0,0:0:0:0:
36,192,333654,1,0,0:0:0:0:
182,192,333654,1,0,0:0:0:0:
256,192,333745,1,0,0:0:0:40:E4Harp.wav
329,192,333745,1,0,0:0:0:0:
402,192,333745,1,0,0:0:0:0:
475,192,333745,1,0,0:0:0:0:
182,192,333836,1,0,0:0:0:0:
36,192,333927,1,0,0:0:0:70:Kick.wav
109,192,333927,1,0,0:0:0:45:B3Harp.wav
256,192,333927,1,0,0:0:0:0:
475,192,333927,1,0,0:0:0:0:
329,192,334018,1,0,0:0:0:0:
402,192,334018,1,0,0:0:0:0:
36,192,334108,1,0,0:0:0:50:1F#3Harp.wav
109,192,334108,1,0,0:0:0:0:
256,192,334108,1,0,0:0:0:0:
475,192,334108,1,0,0:0:0:0:
329,192,334199,1,0,0:0:0:0:
36,192,334290,1,0,0:0:0:70:Kick.wav
109,192,334290,1,0,0:0:0:70:SnareWet.wav
182,192,334290,1,0,0:0:0:55:E3Harp.wav
475,192,334290,128,0,334654:0:0:0:0:
256,192,334381,1,0,0:0:0:0:
329,192,334381,1,0,0:0:0:0:
109,192,334472,1,0,0:0:0:55:A3Harp.wav
182,192,334472,1,0,0:0:0:0:
256,192,334563,1,0,0:0:0:0:
329,192,334563,1,0,0:0:0:0:
36,192,334654,1,0,0:0:0:70:Kick.wav
109,192,334654,1,0,0:0:0:55:B3Harp.wav
182,192,334654,1,0,0:0:0:0:
329,192,334745,1,0,0:0:0:0:
402,192,334745,1,0,0:0:0:0:
182,192,334836,1,0,0:0:0:55:E4Harp.wav
256,192,334836,1,0,0:0:0:0:
329,192,334927,1,0,0:0:0:0:
402,192,334927,1,0,0:0:0:0:
36,192,335018,1,0,0:0:0:70:Kick.wav
109,192,335018,1,0,0:0:0:30:SnareWet.wav
182,192,335018,1,0,0:0:0:55:E3Harp.wav
475,192,335018,128,0,335336:0:0:0:0:
256,192,335108,1,0,0:0:0:0:
329,192,335108,1,0,0:0:0:0:
109,192,335199,1,0,0:0:0:55:1F#4Harp.wav
182,192,335199,1,0,0:0:0:0:
256,192,335290,1,0,0:0:0:0:
329,192,335290,1,0,0:0:0:0:
36,192,335381,1,0,0:0:0:70:Kick.wav
109,192,335381,1,0,0:0:0:55:E4Harp.wav
182,192,335381,1,0,0:0:0:0:
329,192,335472,1,0,0:0:0:0:
402,192,335472,1,0,0:0:0:0:
182,192,335563,1,0,0:0:0:55:D4Harp.wav
256,192,335563,1,0,0:0:0:0:
329,192,335654,1,0,0:0:0:0:
402,192,335654,1,0,0:0:0:0:
36,192,335745,1,0,0:0:0:70:Kick.wav
109,192,335745,1,0,0:0:0:30:SnareWet.wav
182,192,335745,1,0,0:0:0:55:A3Harp.wav
475,192,335745,128,0,336018:0:0:0:0:
256,192,335836,1,0,0:0:0:0:
402,192,335836,1,0,0:0:0:0:
36,192,335927,1,0,0:0:0:55:1G3Harp.wav
182,192,335927,1,0,0:0:0:0:
256,192,336018,1,0,0:0:0:0:
402,192,336018,1,0,0:0:0:0:
36,192,336108,1,0,0:0:0:70:Kick.wav
109,192,336108,1,0,0:0:0:55:1F#3Harp.wav
182,192,336108,1,0,0:0:0:0:
329,192,336199,1,0,0:0:0:0:
402,192,336199,1,0,0:0:0:0:
36,192,336290,1,0,0:0:0:55:E3Harp.wav
109,192,336290,1,0,0:0:0:0:
329,192,336381,1,0,0:0:0:0:
402,192,336381,1,0,0:0:0:0:
36,192,336472,1,0,0:0:0:70:Kick.wav
109,192,336472,1,0,0:0:0:30:SnareWet.wav
182,192,336472,1,0,0:0:0:55:1G3Harp.wav
475,192,336472,128,0,336699:0:0:0:0:
256,192,336563,1,0,0:0:0:0:
402,192,336563,1,0,0:0:0:0:
36,192,336654,1,0,0:0:0:55:A3Harp.wav
182,192,336654,1,0,0:0:0:0:
256,192,336745,1,0,0:0:0:0:
402,192,336745,1,0,0:0:0:0:
36,192,336836,1,0,0:0:0:70:Kick.wav
109,192,336836,1,0,0:0:0:55:1G3Harp.wav
182,192,336836,1,0,0:0:0:0:
329,192,336927,1,0,0:0:0:0:
402,192,336927,1,0,0:0:0:0:
36,192,337018,1,0,0:0:0:55:D3Harp.wav
109,192,337018,1,0,0:0:0:0:
329,192,337108,1,0,0:0:0:0:
402,192,337108,1,0,0:0:0:0:
36,192,337199,1,0,0:0:0:70:Kick.wav
109,192,337199,1,0,0:0:0:30:SnareWet.wav
182,192,337199,1,0,0:0:0:55:E3Harp.wav
475,192,337199,128,0,337381:0:0:0:0:
256,192,337290,1,0,0:0:0:0:
329,192,337290,1,0,0:0:0:0:
109,192,337381,1,0,0:0:0:55:A3Harp.wav
182,192,337381,1,0,0:0:0:0:
256,192,337472,1,0,0:0:0:0:
329,192,337472,1,0,0:0:0:0:
36,192,337563,1,0,0:0:0:70:Kick.wav
109,192,337563,1,0,0:0:0:55:B3Harp.wav
182,192,337563,1,0,0:0:0:0:
329,192,337654,1,0,0:0:0:0:
402,192,337654,1,0,0:0:0:0:
182,192,337745,1,0,0:0:0:55:1G3Harp.wav
256,192,337745,1,0,0:0:0:0:
329,192,337836,1,0,0:0:0:0:
402,192,337836,1,0,0:0:0:0:
36,192,337927,1,0,0:0:0:70:Kick.wav
109,192,337927,1,0,0:0:0:30:SnareWet.wav
182,192,337927,1,0,0:0:0:55:1F#3Harp.wav
475,192,337927,128,0,338063:0:0:0:0:
256,192,338018,1,0,0:0:0:0:
329,192,338018,1,0,0:0:0:0:
109,192,338108,1,0,0:0:0:55:1F#4Harp.wav
182,192,338108,1,0,0:0:0:0:
256,192,338199,1,0,0:0:0:0:
329,192,338199,1,0,0:0:0:0:
36,192,338290,1,0,0:0:0:70:Kick.wav
109,192,338290,1,0,0:0:0:55:1G4Harp.wav
182,192,338290,1,0,0:0:0:0:
329,192,338381,1,0,0:0:0:0:
402,192,338381,1,0,0:0:0:0:
182,192,338472,1,0,0:0:0:55:D4Harp.wav
256,192,338472,1,0,0:0:0:0:
329,192,338563,1,0,0:0:0:0:
402,192,338563,1,0,0:0:0:0:
36,192,338654,1,0,0:0:0:70:Kick.wav
109,192,338654,1,0,0:0:0:30:SnareWet.wav
182,192,338654,1,0,0:0:0:55:A3Harp.wav
475,192,338654,128,0,338745:0:0:0:0:
256,192,338745,1,0,0:0:0:0:
402,192,338745,1,0,0:0:0:0:
36,192,338836,1,0,0:0:0:55:1G3Harp.wav
182,192,338836,1,0,0:0:0:0:
256,192,338927,1,0,0:0:0:0:
402,192,338927,1,0,0:0:0:0:
36,192,339018,1,0,0:0:0:70:Kick.wav
109,192,339018,1,0,0:0:0:55:1F#3Harp.wav
182,192,339018,1,0,0:0:0:0:
329,192,339108,1,0,0:0:0:0:
402,192,339108,1,0,0:0:0:0:
36,192,339199,1,0,0:0:0:55:E3Harp.wav
109,192,339199,1,0,0:0:0:0:
329,192,339290,1,0,0:0:0:0:
402,192,339290,1,0,0:0:0:0:
36,192,339381,1,0,0:0:0:70:Kick.wav
109,192,339381,1,0,0:0:0:30:SnareWet.wav
182,192,339381,1,0,0:0:0:55:A3Harp.wav
475,192,339381,128,0,339427:0:0:0:0:
256,192,339472,1,0,0:0:0:0:
402,192,339472,1,0,0:0:0:0:
36,192,339563,1,0,0:0:0:55:D4Harp.wav
182,192,339563,1,0,0:0:0:0:
256,192,339654,1,0,0:0:0:0:
402,192,339654,1,0,0:0:0:0:
36,192,339745,1,0,0:0:0:70:Kick.wav
109,192,339745,1,0,0:0:0:55:B3Harp.wav
182,192,339745,1,0,0:0:0:0:
329,192,339836,1,0,0:0:0:0:
402,192,339836,1,0,0:0:0:0:
36,192,339927,1,0,0:0:0:55:1F#3Harp.wav
109,192,339927,1,0,0:0:0:0:
329,192,340018,1,0,0:0:0:0:
402,192,340018,1,0,0:0:0:0:
36,192,340108,128,0,340654:0:0:0:70:Kick.wav
109,192,340108,1,0,0:0:0:30:SnareWet.wav
182,192,340108,1,0,0:0:0:50:E3Harp.wav
256,192,340108,1,0,0:0:0:0:
475,192,340108,1,0,0:0:0:0:
329,192,340199,1,0,0:0:0:0:
402,192,340199,1,0,0:0:0:0:
109,192,340290,1,0,0:0:0:50:A3Harp.wav
256,192,340290,1,0,0:0:0:0:
402,192,340381,1,0,0:0:0:0:
475,192,340381,1,0,0:0:0:0:
182,192,340472,1,0,0:0:0:70:Kick.wav
256,192,340472,1,0,0:0:0:50:B3Harp.wav
329,192,340472,1,0,0:0:0:0:
402,192,340563,1,0,0:0:0:0:
475,192,340563,1,0,0:0:0:0:
182,192,340654,1,0,0:0:0:50:E4Harp.wav
256,192,340654,128,0,340836:0:0:0:0:
329,192,340654,1,0,0:0:0:0:
36,192,340745,1,0,0:0:0:0:
109,192,340745,1,0,0:0:0:0:
182,192,340836,1,0,0:0:0:70:Kick.wav
329,192,340836,1,0,0:0:0:50:E3Harp.wav
402,192,340836,1,0,0:0:0:0:
475,192,340836,128,0,342927:0:0:0:0:
36,192,340927,1,0,0:0:0:0:
109,192,340927,1,0,0:0:0:0:
182,192,341018,1,0,0:0:0:50:1F#4Harp.wav
256,192,341018,1,0,0:0:0:0:
329,192,341108,1,0,0:0:0:0:
402,192,341108,1,0,0:0:0:0:
36,192,341199,1,0,0:0:0:70:Kick.wav
109,192,341199,1,0,0:0:0:50:E4Harp.wav
182,192,341199,1,0,0:0:0:0:
256,192,341290,1,0,0:0:0:0:
329,192,341290,1,0,0:0:0:0:
109,192,341381,1,0,0:0:0:50:D4Harp.wav
182,192,341381,1,0,0:0:0:0:
329,192,341472,1,0,0:0:0:0:
402,192,341472,1,0,0:0:0:0:
36,192,341563,1,0,0:0:0:70:Kick.wav
182,192,341563,1,0,0:0:0:50:A3Harp.wav
256,192,341563,1,0,0:0:0:0:
329,192,341654,1,0,0:0:0:0:
402,192,341654,1,0,0:0:0:0:
109,192,341745,1,0,0:0:0:50:1G3Harp.wav
182,192,341745,1,0,0:0:0:0:
256,192,341836,1,0,0:0:0:0:
402,192,341836,1,0,0:0:0:0:
36,192,341927,1,0,0:0:0:70:Kick.wav
109,192,341927,1,0,0:0:0:50:1F#3Harp.wav
182,192,341927,1,0,0:0:0:0:
329,192,342018,1,0,0:0:0:0:
402,192,342018,1,0,0:0:0:0:
182,192,342108,1,0,0:0:0:50:E3Harp.wav
256,192,342108,1,0,0:0:0:0:
36,192,342199,1,0,0:0:0:0:
109,192,342199,1,0,0:0:0:0:
256,192,342290,1,0,0:0:0:70:Kick.wav
329,192,342290,1,0,0:0:0:50:1G3Harp.wav
402,192,342290,1,0,0:0:0:0:
36,192,342381,1,0,0:0:0:0:
182,192,342381,1,0,0:0:0:0:
329,192,342472,1,0,0:0:0:50:A3Harp.wav
402,192,342472,1,0,0:0:0:0:
36,192,342563,1,0,0:0:0:0:
109,192,342563,1,0,0:0:0:0:
182,192,342654,1,0,0:0:0:70:Kick.wav
256,192,342654,1,0,0:0:0:50:1G3Harp.wav
329,192,342654,1,0,0:0:0:0:
36,192,342745,1,0,0:0:0:0:
109,192,342745,1,0,0:0:0:0:
329,192,342836,1,0,0:0:0:50:D3Harp.wav
402,192,342836,1,0,0:0:0:0:
182,192,342927,1,0,0:0:0:0:
256,192,342927,1,0,0:0:0:0:
36,192,343018,1,0,0:0:0:70:Kick.wav
109,192,343018,1,0,0:0:0:50:E3Harp.wav
329,192,343018,128,0,343199:0:0:0:0:
402,192,343018,128,0,343472:0:0:0:0:
475,192,343018,128,0,343472:0:0:0:0:
36,192,343199,128,0,343290:0:0:0:50:A3Harp.wav
109,192,343199,128,0,343381:0:0:0:0:
182,192,343290,128,0,343654:0:0:0:0:
329,192,343290,128,0,343836:0:0:0:0:
36,192,343381,128,0,344018:0:0:0:50:B3Harp.wav
109,192,343472,128,0,343654:0:0:0:0:
402,192,343563,128,0,343836:0:0:0:50:1G3Harp.wav
475,192,343563,128,0,344199:0:0:0:0:
109,192,343745,128,0,344381:0:0:0:50:1F#3Harp.wav
182,192,343745,128,0,344018:0:0:0:0:
329,192,343927,128,0,344199:0:0:0:50:1F#4Harp.wav
402,192,343927,128,0,344745:0:0:0:0:
36,192,344108,128,0,344381:0:0:0:50:1G4Harp.wav
182,192,344108,128,0,344472:0:0:0:0:
329,192,344290,128,0,344563:0:0:0:50:D4Harp.wav
475,192,344290,128,0,345018:0:0:0:0:
36,192,344472,128,0,344654:0:0:0:50:A4Harp.wav
256,192,344472,128,0,344654:0:0:0:0:
182,192,344563,1,0,0:0:0:0:
109,192,344654,128,0,344836:0:0:0:50:1F#4Harp.wav
329,192,344654,128,0,344836:0:0:0:0:
256,192,344745,1,0,0:0:0:0:
182,192,344836,128,0,345018:0:0:0:50:E4Harp.wav
402,192,344836,128,0,345018:0:0:0:0:
329,192,344927,1,0,0:0:0:0:
256,192,345018,1,0,0:0:0:50:B3Harp.wav
182,192,345108,1,0,0:0:0:0:
329,192,345199,1,0,0:0:0:50:D4Harp.wav
402,192,345222,1,0,0:0:0:0:
475,192,345245,1,0,0:0:0:0:
36,192,345268,1,0,0:0:0:0:
109,192,345290,1,0,0:0:0:0:
182,192,345313,1,0,0:0:0:0:
256,192,345336,1,0,0:0:0:0:
329,192,345358,1,0,0:0:0:0:
402,192,345381,1,0,0:0:0:70:Kick.wav
475,192,345381,1,0,0:0:0:50:E4Harp.wav
329,192,345472,1,0,0:0:0:0:
182,192,345472,1,0,0:0:0:70:Kick.wav
36,192,345563,1,0,0:0:0:100:SnareHat.wav
109,192,345563,1,0,0:0:0:70:1LR4_SnareKKF_Distort.wav
402,192,345563,1,0,0:0:0:50:B3Harp.wav
182,192,345654,1,0,0:0:0:100:SnareHat.wav
256,192,345654,1,0,0:0:0:70:1LR4_SnareKKF_Distort.wav
475,192,345654,1,0,0:0:0:0:
109,192,345745,1,0,0:0:0:70:Kick.wav
402,192,345745,1,0,0:0:0:50:1F#3Harp.wav
182,192,345836,1,0,0:0:0:70:Kick.wav
329,192,345836,1,0,0:0:0:0:
36,192,345927,1,0,0:0:0:95:SnareWet.wav
109,192,345927,1,0,0:0:0:45:1Finish.wav
256,192,345927,1,0,0:0:0:50:E3Harp.wav
402,192,345927,1,0,0:0:0:0:
475,192,345927,1,0,0:0:0:0:
329,192,346290,1,0,0:0:0:40:B3Harp.wav
475,192,346290,1,0,0:0:0:0:
182,192,346654,1,0,0:0:0:40:E3Harp.wav
36,192,346836,1,0,0:0:0:40:B3Harp.wav
329,192,347018,1,0,0:0:0:40:E4Harp.wav
475,192,347018,1,0,0:0:0:0:
182,192,347381,1,0,0:0:0:40:A3Harp.wav
36,192,347563,1,0,0:0:0:40:1G3Harp.wav
329,192,347745,1,0,0:0:0:40:1F#3Harp.wav
475,192,347745,1,0,0:0:0:0:
182,192,347927,1,0,0:0:0:40:E3Harp.wav
109,192,348018,1,0,0:0:0:0:
36,192,348108,1,0,0:0:0:40:1G3Harp.wav
109,192,348199,1,0,0:0:0:0:
182,192,348290,1,0,0:0:0:40:A3Harp.wav
329,192,348472,1,0,0:0:0:40:1F#3Harp.wav
475,192,348472,1,0,0:0:0:0:
256,192,348654,1,0,0:0:0:40:D3Harp.wav
36,192,348836,1,0,0:0:0:40:E3Harp.wav
182,192,348836,1,0,0:0:0:0:
329,192,349199,1,0,0:0:0:40:B3Harp.wav
475,192,349199,1,0,0:0:0:0:
182,192,349381,1,0,0:0:0:0:
36,192,349563,1,0,0:0:0:40:E3Harp.wav
182,192,349745,1,0,0:0:0:40:B3Harp.wav
329,192,349927,1,0,0:0:0:40:1G4Harp.wav
475,192,349927,1,0,0:0:0:0:
182,192,350108,1,0,0:0:0:40:D4Harp.wav
36,192,350290,1,0,0:0:0:40:A3Harp.wav
182,192,350472,1,0,0:0:0:40:1G3Harp.wav
329,192,350654,1,0,0:0:0:40:1F#3Harp.wav
475,192,350654,1,0,0:0:0:0:
109,192,350836,1,0,0:0:0:40:E3Harp.wav
182,192,350927,1,0,0:0:0:0:
256,192,351018,1,0,0:0:0:40:A3Harp.wav
182,192,351108,1,0,0:0:0:0:
109,192,351199,1,0,0:0:0:40:D4Harp.wav
329,192,351381,1,0,0:0:0:40:B3Harp.wav
475,192,351381,1,0,0:0:0:0:
256,192,351563,1,0,0:0:0:40:1F#3Harp.wav
36,192,351745,1,0,0:0:0:40:E3Harp.wav
182,192,351745,1,0,0:0:0:0:
329,192,352108,1,0,0:0:0:40:B3Harp.wav
475,192,352108,1,0,0:0:0:0:
256,192,352290,1,0,0:0:0:0:
182,192,352381,1,0,0:0:0:0:
109,192,352472,1,0,0:0:0:40:E3Harp.wav
182,192,352563,1,0,0:0:0:0:
256,192,352654,1,0,0:0:0:40:B3Harp.wav
329,192,352836,1,0,0:0:0:40:E4Harp.wav
475,192,352836,1,0,0:0:0:0:
256,192,353018,1,0,0:0:0:40:D4Harp.wav
36,192,353199,1,0,0:0:0:40:A3Harp.wav
109,192,353199,1,0,0:0:0:0:
256,192,353381,1,0,0:0:0:40:1G3Harp.wav
329,192,353563,1,0,0:0:0:40:1F#3Harp.wav
475,192,353563,1,0,0:0:0:0:
256,192,353745,1,0,0:0:0:40:E3Harp.wav
182,192,353836,1,0,0:0:0:0:
36,192,353927,1,0,0:0:0:40:1G3Harp.wav
109,192,354018,1,0,0:0:0:0:
182,192,354108,1,0,0:0:0:40:A3Harp.wav
329,192,354290,1,0,0:0:0:40:1F#3Harp.wav
475,192,354290,1,0,0:0:0:0:
256,192,354472,1,0,0:0:0:40:D3Harp.wav
36,192,354654,1,0,0:0:0:40:E3Harp.wav
182,192,354654,1,0,0:0:0:0:
329,192,355018,1,0,0:0:0:40:B3Harp.wav
475,192,355018,1,0,0:0:0:0:
36,192,355199,1,0,0:0:0:0:
109,192,355290,1,0,0:0:0:0:
182,192,355381,1,0,0:0:0:40:E3Harp.wav
109,192,355472,1,0,0:0:0:0:
36,192,355563,1,0,0:0:0:40:A4Harp.wav
329,192,355745,1,0,0:0:0:40:1G4Harp.wav
475,192,355745,1,0,0:0:0:0:
256,192,355927,1,0,0:0:0:40:D4Harp.wav
36,192,356108,1,0,0:0:0:40:A4Harp.wav
182,192,356108,1,0,0:0:0:0:
402,192,356290,1,0,0:0:0:40:1F#4Harp.wav
329,192,356472,1,0,0:0:0:40:E4Harp.wav
475,192,356472,1,0,0:0:0:0:
36,192,356654,1,0,0:0:0:40:B3Harp.wav
109,192,356745,1,0,0:0:0:0:
256,192,356836,1,0,0:0:0:40:D4Harp.wav
182,192,356927,1,0,0:0:0:0:
109,192,357018,1,0,0:0:0:40:E4Harp.wav
329,192,357199,1,0,0:0:0:40:B3Harp.wav
475,192,357199,1,0,0:0:0:0:
109,192,357381,1,0,0:0:0:40:1F#3Harp.wav
36,192,357563,1,0,0:0:0:40:E3Harp.wav
182,192,357563,1,0,0:0:0:0:
475,192,357563,128,0,358199:0:0:0:0:
182,192,357927,1,0,0:0:0:40:B3Harp.wav
329,192,357927,1,0,0:0:0:0:
256,192,358108,1,0,0:0:0:0:
182,192,358199,1,0,0:0:0:0:
36,192,358290,1,0,0:0:0:40:E3Harp.wav
109,192,358290,1,0,0:0:0:0:
475,192,358290,128,0,359018:0:0:0:0:
182,192,358381,1,0,0:0:0:0:
256,192,358472,1,0,0:0:0:40:B3Harp.wav
109,192,358654,1,0,0:0:0:40:E4Harp.wav
402,192,358654,1,0,0:0:0:0:
182,192,358836,1,0,0:0:0:0:
36,192,359018,1,0,0:0:0:40:A3Harp.wav
256,192,359018,1,0,0:0:0:0:
402,192,359018,128,0,360472:0:0:0:0:
182,192,359199,1,0,0:0:0:40:1G3Harp.wav
109,192,359381,1,0,0:0:0:40:1F#3Harp.wav
329,192,359381,1,0,0:0:0:0:
256,192,359563,1,0,0:0:0:40:E3Harp.wav
182,192,359654,1,0,0:0:0:0:
36,192,359745,1,0,0:0:0:40:1G3Harp.wav
329,192,359745,1,0,0:0:0:0:
109,192,359836,1,0,0:0:0:0:
182,192,359927,1,0,0:0:0:40:A3Harp.wav
329,192,360108,1,0,0:0:0:40:1F#3Harp.wav
475,192,360108,1,0,0:0:0:0:
256,192,360290,1,0,0:0:0:40:D3Harp.wav
36,192,360472,1,0,0:0:0:40:E3Harp.wav
182,192,360472,1,0,0:0:0:0:
256,192,360836,128,0,363381:0:0:0:40:B3Harp.wav
329,192,360836,1,0,0:0:0:0:
475,192,360836,1,0,0:0:0:0:
402,192,361018,1,0,0:0:0:0:
475,192,361108,1,0,0:0:0:0:
36,192,361199,1,0,0:0:0:40:1F#3Harp.wav
329,192,361199,1,0,0:0:0:0:
109,192,361290,1,0,0:0:0:0:
182,192,361381,1,0,0:0:0:40:1F#4Harp.wav
402,192,361563,1,0,0:0:0:40:1G4Harp.wav
475,192,361563,1,0,0:0:0:0:
329,192,361745,1,0,0:0:0:40:D4Harp.wav
36,192,361927,1,0,0:0:0:30:A3Harp.wav
182,192,361927,128,0,363381:0:0:0:0:
402,192,361927,1,0,0:0:0:0:
109,192,362108,1,0,0:0:0:30:1G3Harp.wav
329,192,362290,1,0,0:0:0:30:1F#3Harp.wav
475,192,362290,1,0,0:0:0:0:
402,192,362472,1,0,0:0:0:40:E3Harp.wav
329,192,362563,1,0,0:0:0:0:
36,192,362654,1,0,0:0:0:40:A3Harp.wav
475,192,362654,1,0,0:0:0:0:
402,192,362745,1,0,0:0:0:0:
329,192,362836,1,0,0:0:0:40:D4Harp.wav
109,192,363018,1,0,0:0:0:30:B3Harp.wav
402,192,363018,1,0,0:0:0:0:
329,192,363199,1,0,0:0:0:30:1F#3Harp.wav
36,192,363381,128,0,363927:0:0:0:40:E3Harp.wav
109,192,363381,1,0,0:0:0:0:
475,192,363381,1,0,0:0:0:0:
256,192,363745,1,0,0:0:0:40:B3Harp.wav
402,192,363745,1,0,0:0:0:0:
182,192,363927,128,0,364108:0:0:0:0:
475,192,363927,1,0,0:0:0:0:
402,192,364018,1,0,0:0:0:0:
36,192,364108,1,0,0:0:0:40:E3Harp.wav
256,192,364108,1,0,0:0:0:0:
329,192,364108,128,0,366290:0:0:0:0:
109,192,364199,1,0,0:0:0:0:
182,192,364290,1,0,0:0:0:40:1F#4Harp.wav
256,192,364472,1,0,0:0:0:40:E4Harp.wav
475,192,364472,1,0,0:0:0:0:
402,192,364654,1,0,0:0:0:40:D4Harp.wav
36,192,364836,1,0,0:0:0:30:A3Harp.wav
256,192,364836,1,0,0:0:0:0:
109,192,365018,1,0,0:0:0:40:1G3Harp.wav
182,192,365199,1,0,0:0:0:40:1F#3Harp.wav
475,192,365199,1,0,0:0:0:0:
256,192,365381,1,0,0:0:0:40:E3Harp.wav
182,192,365472,1,0,0:0:0:0:
36,192,365563,1,0,0:0:0:40:1G3Harp.wav
402,192,365563,1,0,0:0:0:0:
109,192,365654,1,0,0:0:0:0:
182,192,365745,1,0,0:0:0:40:A3Harp.wav
256,192,365927,1,0,0:0:0:30:1F#3Harp.wav
475,192,365927,1,0,0:0:0:0:
182,192,366108,1,0,0:0:0:40:D3Harp.wav
36,192,366290,1,0,0:0:0:40:E3Harp.wav
256,192,366290,1,0,0:0:0:0:
329,192,366654,1,0,0:0:0:40:B3Harp.wav
475,192,366654,1,0,0:0:0:0:
182,192,366836,1,0,0:0:0:0:
256,192,366927,1,0,0:0:0:0:
36,192,367018,1,0,0:0:0:40:1F#4Harp.wav
329,192,367018,1,0,0:0:0:0:
109,192,367108,1,0,0:0:0:0:
182,192,367199,1,0,0:0:0:0:
329,192,367381,1,0,0:0:0:40:1G4Harp.wav
475,192,367381,1,0,0:0:0:0:
256,192,367563,1,0,0:0:0:40:D4Harp.wav
36,192,367745,1,0,0:0:0:40:A4Harp.wav
182,192,367745,1,0,0:0:0:0:
256,192,367927,1,0,0:0:0:40:1F#4Harp.wav
329,192,368108,1,0,0:0:0:40:E4Harp.wav
475,192,368108,1,0,0:0:0:0:
256,192,368290,1,0,0:0:0:40:B3Harp.wav
182,192,368381,1,0,0:0:0:0:
36,192,368472,1,0,0:0:0:40:D4Harp.wav
109,192,368472,1,0,0:0:0:0:
182,192,368563,1,0,0:0:0:0:
256,192,368654,1,0,0:0:0:40:E4Harp.wav
329,192,368836,1,0,0:0:0:40:B3Harp.wav
475,192,368836,1,0,0:0:0:0:
182,192,369018,1,0,0:0:0:40:1F#3Harp.wav
36,192,369199,1,0,0:0:0:40:E3Harp.wav
256,192,369199,1,0,0:0:0:65:E7S.wav
402,192,369199,128,0,369836:0:0:0:0:
109,192,369563,1,0,0:0:0:45:B3Harp.wav
36,192,369927,1,0,0:0:0:45:E3Harp.wav
402,192,369927,128,0,370654:0:0:0:0:
182,192,370290,1,0,0:0:0:45:E4Harp.wav
256,192,370654,128,0,371290:0:0:0:45:A3Harp.wav
475,192,370654,1,0,0:0:0:0:
402,192,370836,1,0,0:0:0:45:1G3Harp.wav
329,192,371018,1,0,0:0:0:45:1F#3Harp.wav
402,192,371199,1,0,0:0:0:45:E3Harp.wav
36,192,371381,1,0,0:0:0:45:1G3Harp.wav
256,192,371381,128,0,372018:0:0:0:0:
182,192,371563,1,0,0:0:0:45:A3Harp.wav
109,192,371745,1,0,0:0:0:45:1F#3Harp.wav
36,192,371927,1,0,0:0:0:45:D3Harp.wav
256,192,372108,128,0,372745:0:0:0:45:E3Harp.wav
475,192,372108,1,0,0:0:0:0:
329,192,372472,1,0,0:0:0:45:B3Harp.wav
256,192,372836,128,0,373563:0:0:0:40:1F#3Harp.wav
475,192,372836,1,0,0:0:0:0:
36,192,373199,1,0,0:0:0:40:1G4Harp.wav
182,192,373199,1,0,0:0:0:50:1Tom.wav
36,192,373381,1,0,0:0:0:40:D4Harp.wav
182,192,373381,1,0,0:0:0:50:1Tom.wav
109,192,373563,1,0,0:0:0:40:A3Harp.wav
329,192,373563,128,0,374290:0:0:0:0:
256,192,373745,1,0,0:0:0:40:1G3Harp.wav
402,192,373927,1,0,0:0:0:40:1F#3Harp.wav
475,192,374108,1,0,0:0:0:40:E3Harp.wav
36,192,374290,1,0,0:0:0:40:A3Harp.wav
402,192,374290,128,0,375018:0:0:0:0:
109,192,374654,1,0,0:0:0:30:B3Harp.wav
182,192,375018,1,0,0:0:0:40:E3Harp.wav
329,192,375018,1,0,0:0:0:0:
475,192,375018,128,0,377927:0:0:0:0:
109,192,375199,1,0,0:0:0:40:A3Harp.wav
36,192,375381,1,0,0:0:0:40:B3Harp.wav
182,192,375745,1,0,0:0:0:40:E3Harp.wav
329,192,375745,128,0,377927:0:0:0:0:
36,192,375927,1,0,0:0:0:40:1F#4Harp.wav
109,192,376108,1,0,0:0:0:35:E4Harp.wav
182,192,376290,1,0,0:0:0:40:D4Harp.wav
256,192,376472,1,0,0:0:0:40:A3Harp.wav
182,192,376654,1,0,0:0:0:40:1G3Harp.wav
109,192,376836,1,0,0:0:0:40:1F#3Harp.wav
36,192,377018,1,0,0:0:0:40:E3Harp.wav
109,192,377199,1,0,0:0:0:40:1G3Harp.wav
256,192,377381,1,0,0:0:0:40:A3Harp.wav
182,192,377563,1,0,0:0:0:30:1F#3Harp.wav
109,192,377745,1,0,0:0:0:30:D3Harp.wav
36,192,377927,1,0,0:0:0:30:E3Harp.wav
256,192,377927,1,0,0:0:0:60:A6S.wav
402,192,378290,1,0,0:0:0:40:B3Harp.wav
182,192,378654,1,0,0:0:0:40:1F#3Harp.wav
329,192,378654,1,0,0:0:0:55:1Tom.wav
475,192,378654,1,0,0:0:0:0:
109,192,378836,1,0,0:0:0:40:1F#4Harp.wav
36,192,379018,1,0,0:0:0:35:1G4Harp.wav
402,192,379018,1,0,0:0:0:55:1Tom.wav
182,192,379199,1,0,0:0:0:40:D4Harp.wav
402,192,379199,1,0,0:0:0:55:1Tom.wav
256,192,379381,1,0,0:0:0:40:A4Harp.wav
182,192,379563,1,0,0:0:0:40:1F#4Harp.wav
109,192,379745,1,0,0:0:0:40:E4Harp.wav
402,192,379745,1,0,0:0:0:50:1Tom.wav
329,192,379927,1,0,0:0:0:40:B3Harp.wav
36,192,380108,1,0,0:0:0:55:1Tom.wav
256,192,380108,1,0,0:0:0:40:D4Harp.wav
36,192,380290,1,0,0:0:0:55:1Tom.wav
329,192,380290,1,0,0:0:0:40:E4Harp.wav
36,192,380472,1,0,0:0:0:55:1Tom.wav
402,192,380472,1,0,0:0:0:40:B3Harp.wav
36,192,380654,1,0,0:0:0:55:1Tom.wav
475,192,380654,1,0,0:0:0:40:1F#3Harp.wav
109,192,380836,1,0,0:0:0:40:E3Harp.wav
256,192,380836,1,0,0:0:0:65:E7S.wav
329,192,380836,128,0,381472:0:0:0:0:
36,192,381199,1,0,0:0:0:40:B3Harp.wav
182,192,381563,1,0,0:0:0:40:E3Harp.wav
329,192,381563,128,0,382290:0:0:0:0:
475,192,381745,1,0,0:0:0:40:1F#4Harp.wav
402,192,381927,1,0,0:0:0:40:E4Harp.wav
256,192,382108,1,0,0:0:0:40:D4Harp.wav
36,192,382290,1,0,0:0:0:40:A3Harp.wav
182,192,382290,128,0,383381:0:0:0:0:
256,192,382472,1,0,0:0:0:40:1G3Harp.wav
329,192,382654,1,0,0:0:0:40:1F#3Harp.wav
475,192,382836,1,0,0:0:0:40:E3Harp.wav
36,192,383018,128,0,383381:0:0:0:40:1G3Harp.wav
329,192,383018,1,0,0:0:0:0:
256,192,383199,1,0,0:0:0:40:A3Harp.wav
402,192,383381,1,0,0:0:0:40:1F#3Harp.wav
475,192,383563,1,0,0:0:0:40:D3Harp.wav
36,192,383745,1,0,0:0:0:40:E3Harp.wav
256,192,383745,1,0,0:0:0:65:B6S.wav
109,192,384108,128,0,386108:0:0:0:40:B3Harp.wav
402,192,384108,1,0,0:0:0:0:
256,192,384472,1,0,0:0:0:40:1F#3Harp.wav
329,192,384654,1,0,0:0:0:40:1F#4Harp.wav
36,192,384836,1,0,0:0:0:45:1Tom.wav
402,192,384836,1,0,0:0:0:40:1G4Harp.wav
36,192,385018,1,0,0:0:0:45:1Tom.wav
475,192,385018,1,0,0:0:0:40:D4Harp.wav
402,192,385199,1,0,0:0:0:40:A3Harp.wav
329,192,385381,1,0,0:0:0:40:1G3Harp.wav
256,192,385563,1,0,0:0:0:40:1F#3Harp.wav
182,192,385745,1,0,0:0:0:40:E3Harp.wav
329,192,385927,1,0,0:0:0:40:A3Harp.wav
475,192,386108,1,0,0:0:0:40:D4Harp.wav
329,192,386290,1,0,0:0:0:40:B3Harp.wav
182,192,386472,1,0,0:0:0:30:1F#3Harp.wav
36,192,386654,1,0,0:0:0:40:E3Harp.wav
256,192,386654,1,0,0:0:0:60:1F#6S_Gb6S.wav
475,192,386654,128,0,388108:0:0:0:0:
182,192,387018,1,0,0:0:0:40:B3Harp.wav
36,192,387381,1,0,0:0:0:40:E3Harp.wav
329,192,387381,128,0,389563:0:0:0:0:
402,192,387563,1,0,0:0:0:40:1F#4Harp.wav
256,192,387745,1,0,0:0:0:40:E4Harp.wav
182,192,387927,1,0,0:0:0:40:D4Harp.wav
36,192,388108,1,0,0:0:0:40:A3Harp.wav
402,192,388108,128,0,388836:0:0:0:0:
109,192,388290,1,0,0:0:0:35:1G3Harp.wav
256,192,388472,1,0,0:0:0:35:1F#3Harp.wav
182,192,388654,1,0,0:0:0:35:E3Harp.wav
36,192,388836,1,0,0:0:0:25:1G3Harp.wav
475,192,388836,128,0,389563:0:0:0:0:
109,192,389018,1,0,0:0:0:35:A3Harp.wav
182,192,389199,1,0,0:0:0:30:1F#3Harp.wav
256,192,389381,1,0,0:0:0:30:D3Harp.wav
36,192,389563,128,0,390108:0:0:0:40:E3Harp.wav
109,192,389563,1,0,0:0:0:60:1F#6S_Gb6S.wav
402,192,389563,1,0,0:0:0:0:
402,192,389927,1,0,0:0:0:35:B3Harp.wav
182,192,390108,128,0,390290:0:0:0:0:
36,192,390290,1,0,0:0:0:60:1Tom.wav
329,192,390290,128,0,392472:0:0:0:35:1F#3Harp.wav
475,192,390290,1,0,0:0:0:0:
182,192,390472,1,0,0:0:0:35:1F#4Harp.wav
36,192,390654,1,0,0:0:0:35:1G4Harp.wav
402,192,390654,1,0,0:0:0:55:1Tom.wav
109,192,390836,1,0,0:0:0:35:D4Harp.wav
402,192,390836,1,0,0:0:0:55:1Tom.wav
256,192,391018,1,0,0:0:0:35:A4Harp.wav
182,192,391199,1,0,0:0:0:35:1F#4Harp.wav
475,192,391199,1,0,0:0:0:55:1Tom.wav
109,192,391381,1,0,0:0:0:35:E4Harp.wav
475,192,391381,1,0,0:0:0:55:1Tom.wav
36,192,391563,1,0,0:0:0:35:B3Harp.wav
182,192,391745,1,0,0:0:0:35:D4Harp.wav
475,192,391745,1,0,0:0:0:45:1Tom.wav
36,192,391927,1,0,0:0:0:35:E4Harp.wav
475,192,391927,1,0,0:0:0:45:1Tom.wav
109,192,392108,1,0,0:0:0:35:B3Harp.wav
475,192,392108,1,0,0:0:0:45:1Tom.wav
182,192,392290,1,0,0:0:0:35:1F#3Harp.wav
475,192,392290,1,0,0:0:0:45:1Tom.wav
36,192,392472,1,0,0:0:0:20:E3Harp.wav
109,192,392472,1,0,0:0:0:35:E7S.wav
256,192,392472,1,0,0:0:0:45:1Tom.wav
402,192,392472,1,0,0:0:0:0:
182,192,392654,1,0,0:0:0:20:A3Harp.wav
329,192,392836,1,0,0:0:0:20:B3Harp.wav
402,192,393018,1,0,0:0:0:20:E4Harp.wav
36,192,393199,1,0,0:0:0:20:E3Harp.wav
475,192,393381,1,0,0:0:0:20:1F#4Harp.wav
329,192,393563,1,0,0:0:0:20:E4Harp.wav
182,192,393745,1,0,0:0:0:20:D4Harp.wav
402,192,393927,1,0,0:0:0:20:A3Harp.wav
256,192,394108,1,0,0:0:0:20:1G3Harp.wav
109,192,394290,1,0,0:0:0:20:1F#3Harp.wav
36,192,394472,1,0,0:0:0:20:E3Harp.wav
182,192,394654,1,0,0:0:0:20:1G3Harp.wav
256,192,394836,1,0,0:0:0:20:A3Harp.wav
182,192,395018,1,0,0:0:0:20:1F#3Harp.wav
109,192,395199,1,0,0:0:0:20:D3Harp.wav
36,192,395381,1,0,0:0:0:20:E3Harp.wav
475,192,395381,1,0,0:0:0:65:B6S.wav
182,192,395563,1,0,0:0:0:20:A3Harp.wav
256,192,395745,1,0,0:0:0:20:B3Harp.wav
329,192,395927,1,0,0:0:0:20:1G3Harp.wav
256,192,396108,1,0,0:0:0:20:1F#3Harp.wav
402,192,396290,1,0,0:0:0:20:1F#4Harp.wav
475,192,396472,1,0,0:0:0:20:1G4Harp.wav
402,192,396654,1,0,0:0:0:20:D4Harp.wav
256,192,396836,1,0,0:0:0:20:A3Harp.wav
182,192,397018,1,0,0:0:0:20:1G3Harp.wav
109,192,397199,1,0,0:0:0:20:1F#3Harp.wav
36,192,397381,1,0,0:0:0:20:E3Harp.wav
182,192,397563,1,0,0:0:0:20:A3Harp.wav
329,192,397745,1,0,0:0:0:20:D4Harp.wav
256,192,397927,1,0,0:0:0:20:B3Harp.wav
109,192,398108,1,0,0:0:0:20:1F#3Harp.wav
36,192,398290,1,0,0:0:0:20:E3Harp.wav
402,192,398290,1,0,0:0:0:60:C#7S_Db7S.wav
182,192,398472,1,0,0:0:0:20:A3Harp.wav
329,192,398654,1,0,0:0:0:20:B3Harp.wav
402,192,398836,1,0,0:0:0:20:E4Harp.wav
36,192,399018,1,0,0:0:0:20:E3Harp.wav
475,192,399199,1,0,0:0:0:20:1F#4Harp.wav
402,192,399381,1,0,0:0:0:20:E4Harp.wav
329,192,399563,1,0,0:0:0:20:D4Harp.wav
256,192,399745,1,0,0:0:0:20:A3Harp.wav
182,192,399927,1,0,0:0:0:20:1G3Harp.wav
109,192,400108,1,0,0:0:0:20:1F#3Harp.wav
36,192,400290,1,0,0:0:0:20:E3Harp.wav
182,192,400472,1,0,0:0:0:20:1G3Harp.wav
256,192,400654,1,0,0:0:0:20:A3Harp.wav
329,192,400836,1,0,0:0:0:20:1F#3Harp.wav
182,192,401018,1,0,0:0:0:20:D3Harp.wav
36,192,401199,1,0,0:0:0:20:E3Harp.wav
329,192,401199,1,0,0:0:0:65:A6S.wav
182,192,401381,1,0,0:0:0:20:A3Harp.wav
256,192,401563,1,0,0:0:0:20:B3Harp.wav
182,192,401745,1,0,0:0:0:20:1G3Harp.wav
109,192,401927,1,0,0:0:0:20:1F#3Harp.wav
329,192,402108,1,0,0:0:0:20:1F#4Harp.wav
402,192,402290,1,0,0:0:0:20:1G4Harp.wav
329,192,402472,1,0,0:0:0:20:D4Harp.wav
475,192,402654,1,0,0:0:0:20:A4Harp.wav
402,192,402836,1,0,0:0:0:20:1F#4Harp.wav
329,192,403018,1,0,0:0:0:20:E4Harp.wav
182,192,403199,1,0,0:0:0:20:B3Harp.wav
36,192,403381,1,0,0:0:0:20:D4Harp.wav
256,192,403563,1,0,0:0:0:20:E4Harp.wav
182,192,403745,1,0,0:0:0:20:B3Harp.wav
109,192,403927,1,0,0:0:0:20:1F#3Harp.wav
36,192,404108,1,0,0:0:0:20:E3Harp.wav
475,192,404108,1,0,0:0:0:70:E7S.wav
109,192,404290,1,0,0:0:0:20:A3Harp.wav
182,192,404472,1,0,0:0:0:20:B3Harp.wav
329,192,404654,1,0,0:0:0:20:E4Harp.wav
36,192,404836,1,0,0:0:0:20:E3Harp.wav
402,192,405018,1,0,0:0:0:20:1F#4Harp.wav
256,192,405199,1,0,0:0:0:20:E4Harp.wav
109,192,405381,1,0,0:0:0:20:D4Harp.wav
256,192,405563,1,0,0:0:0:20:A3Harp.wav
182,192,405763,1,0,0:0:0:20:1G3Harp.wav
109,192,405963,1,0,0:0:0:20:1F#3Harp.wav
36,192,406163,1,0,0:0:0:20:E3Harp.wav
182,192,406363,1,0,0:0:0:20:1G3Harp.wav
256,192,406563,1,0,0:0:0:20:A3Harp.wav
182,192,406763,1,0,0:0:0:20:1F#3Harp.wav
36,192,406963,1,0,0:0:0:20:D3Harp.wav
182,192,407163,1,0,0:0:0:20:E3Harp.wav
402,192,407163,1,0,0:0:0:60:B6S.wav
256,192,407357,1,0,0:0:0:15:A3Harp.wav
329,192,407552,1,0,0:0:0:15:B3Harp.wav
402,192,407747,1,0,0:0:0:15:1G3Harp.wav
329,192,407942,1,0,0:0:0:15:1F#3Harp.wav
182,192,408143,1,0,0:0:0:15:1F#4Harp.wav
402,192,408344,1,0,0:0:0:15:1G4Harp.wav
475,192,408546,1,0,0:0:0:15:D4Harp.wav
329,192,408747,1,0,0:0:0:15:A3Harp.wav
256,192,408943,1,0,0:0:0:15:1G3Harp.wav
182,192,409139,1,0,0:0:0:15:1F#3Harp.wav
36,192,409335,1,0,0:0:0:20:E3Harp.wav
109,192,409531,1,0,0:0:0:15:A3Harp.wav
256,192,409732,1,0,0:0:0:15:D4Harp.wav
182,192,409933,1,0,0:0:0:15:B3Harp.wav
36,192,410135,1,0,0:0:0:15:1F#3Harp.wav
182,192,410336,1,0,0:0:0:20:E3Harp.wav
475,192,410336,1,0,0:0:0:50:1F#6S_Gb6S.wav
256,192,410550,1,0,0:0:0:15:A3Harp.wav
329,192,410764,1,0,0:0:0:15:B3Harp.wav
402,192,410978,1,0,0:0:0:20:E4Harp.wav
182,192,411193,1,0,0:0:0:20:E3Harp.wav
402,192,411407,1,0,0:0:0:15:1F#4Harp.wav
256,192,411621,1,0,0:0:0:20:E4Harp.wav
329,192,411836,1,0,0:0:0:15:D4Harp.wav
182,192,412050,1,0,0:0:0:15:A3Harp.wav
109,192,412304,1,0,0:0:0:15:1G3Harp.wav
36,192,412558,1,0,0:0:0:15:1F#3Harp.wav
182,192,412812,128,0,423139:0:0:0:30:E3Harp.wav
36,192,413829,1,0,0:0:0:15:D3Harp.wav
329,192,414083,1,0,0:0:0:20:E3Harp.wav
475,192,414083,128,0,423139:0:0:0:35:1G6S.wav
182,192,423537,1,0,0:0:0:45:C5S.wav
402,192,423608,1,0,0:0:0:55:E5S.wav
36,192,423608,1,0,0:0:0:0:
256,192,423608,1,0,0:0:0:40:1LR_Drum Hit Beat Long.wav
329,192,423683,1,0,0:0:0:50:B5S.wav
182,192,423816,1,0,0:0:0:70:E6S.wav
36,192,423983,1,0,0:0:0:0:
109,192,423983,1,0,0:0:0:40:1LR_Drum Hit Beat Long.wav
109,192,424358,1,0,0:0:0:0:
182,192,424358,1,0,0:0:0:100:LR_Snare Wet.wav
109,192,424733,1,0,0:0:0:0:
182,192,424733,1,0,0:0:0:100:LR_Snare Wet.wav
36,192,424920,1,0,0:0:0:0:
182,192,425108,1,0,0:0:0:0:
256,192,425108,1,0,0:0:0:40:1LR_Drum Hit Beat Long.wav
402,192,425108,1,0,0:0:0:70:A6S.wav
109,192,425483,1,0,0:0:0:0:
182,192,425483,1,0,0:0:0:100:LR_Snare Wet.wav
256,192,425858,1,0,0:0:0:0:
36,192,426045,1,0,0:0:0:0:
182,192,426233,1,0,0:0:0:100:LR_Snare Wet.wav
109,192,426233,1,0,0:0:0:0:
475,192,426608,1,0,0:0:0:70:D7S.wav
109,192,426608,1,0,0:0:0:40:1LR_Drum Hit Beat Long.wav
36,192,426608,1,0,0:0:0:0:
109,192,426983,1,0,0:0:0:40:1LR_Drum Hit Beat Long.wav
36,192,426983,1,0,0:0:0:0:
109,192,427358,1,0,0:0:0:0:
182,192,427358,1,0,0:0:0:100:LR_Snare Wet.wav
182,192,427733,1,0,0:0:0:0:
256,192,427733,1,0,0:0:0:40:1LR_Drum Hit Beat Long.wav
36,192,427920,1,0,0:0:0:0:
182,192,428108,1,0,0:0:0:0:
36,192,428295,1,0,0:0:0:0:
109,192,428483,1,0,0:0:0:0:
182,192,428483,1,0,0:0:0:100:LR_Snare Wet.wav
36,192,428858,1,0,0:0:0:0:
256,192,429045,1,0,0:0:0:0:
36,192,429233,1,0,0:0:0:0:
256,192,429420,1,0,0:0:0:0:
475,192,429561,1,0,0:0:0:45:B4S.wav
36,192,429608,1,0,0:0:0:0:
109,192,429608,1,0,0:0:0:40:1LR_Drum Hit Beat Long.wav
402,192,429654,1,0,0:0:0:65:1F#5S_Gb5S.wav
329,192,429772,1,0,0:0:0:80:D6S.wav
109,192,429983,1,0,0:0:0:40:1LR_Drum Hit Beat Long.wav
36,192,429983,1,0,0:0:0:0:
109,192,430358,1,0,0:0:0:0:
182,192,430358,1,0,0:0:0:100:LR_Snare Wet.wav
109,192,430733,1,0,0:0:0:0:
182,192,430733,1,0,0:0:0:100:LR_Snare Wet.wav
36,192,430920,1,0,0:0:0:0:
182,192,431108,1,0,0:0:0:0:
256,192,431108,1,0,0:0:0:40:1LR_Drum Hit Beat Long.wav
402,192,431139,1,0,0:0:0:40:A6S.wav
475,192,431161,1,0,0:0:0:65:B6S.wav
109,192,431483,1,0,0:0:0:0:
182,192,431483,1,0,0:0:0:100:LR_Snare Wet.wav
256,192,431858,1,0,0:0:0:0:
36,192,432045,1,0,0:0:0:0:
182,192,432233,1,0,0:0:0:100:LR_Snare Wet.wav
109,192,432233,1,0,0:0:0:0:
36,192,432608,1,0,0:0:0:0:
329,192,432608,1,0,0:0:0:50:A6S.wav
109,192,432608,1,0,0:0:0:40:1LR_Drum Hit Beat Long.wav
109,192,432983,1,0,0:0:0:40:1LR_Drum Hit Beat Long.wav
36,192,432983,1,0,0:0:0:0:
182,192,433358,1,0,0:0:0:100:LR_Snare Wet.wav
109,192,433358,1,0,0:0:0:0:
182,192,433733,1,0,0:0:0:0:
256,192,433733,1,0,0:0:0:40:1LR_Drum Hit Beat Long.wav
36,192,433920,1,0,0:0:0:0:
182,192,434108,1,0,0:0:0:0:
36,192,434295,1,0,0:0:0:0:
182,192,434483,1,0,0:0:0:100:LR_Snare Wet.wav
109,192,434483,1,0,0:0:0:0:
36,192,434858,1,0,0:0:0:0:
256,192,435045,1,0,0:0:0:0:
36,192,435233,1,0,0:0:0:0:
256,192,435420,1,0,0:0:0:0:
475,192,435500,1,0,0:0:0:45:C5S.wav
402,192,435608,1,0,0:0:0:55:B5S.wav
109,192,435608,1,0,0:0:0:40:1LR_Drum Hit Beat Long.wav
36,192,435608,1,0,0:0:0:0:
329,192,435691,1,0,0:0:0:75:E6S.wav
36,192,435983,1,0,0:0:0:0:
109,192,435983,1,0,0:0:0:40:1LR_Drum Hit Beat Long.wav
329,192,436358,1,0,0:0:0:100:LR_Snare Wet.wav
182,192,436358,1,0,0:0:0:0:
109,192,436358,1,0,0:0:0:0:
182,192,436733,1,0,0:0:0:100:LR_Snare Wet.wav
329,192,436733,1,0,0:0:0:0:
36,192,436920,1,0,0:0:0:0:
256,192,437108,1,0,0:0:0:0:
402,192,437108,1,0,0:0:0:30:A6S.wav
329,192,437108,1,0,0:0:0:25:D6S.wav
109,192,437108,1,0,0:0:0:40:1LR_Drum Hit Beat Long.wav
182,192,437295,1,0,0:0:0:0:
256,192,437483,1,0,0:0:0:100:LR_Snare Wet.wav
36,192,437483,1,0,0:0:0:0:
109,192,437483,1,0,0:0:0:0:
36,192,437858,1,0,0:0:0:0:
182,192,437858,1,0,0:0:0:40:1LR_Drum Hit Beat Long.wav
109,192,438045,1,0,0:0:0:0:
256,192,438233,1,0,0:0:0:100:LR_Snare Wet.wav
36,192,438233,1,0,0:0:0:0:
182,192,438233,1,0,0:0:0:0:
109,192,438608,1,0,0:0:0:40:1LR_Drum Hit Beat Long.wav
475,192,438608,1,0,0:0:0:30:A6S.wav
36,192,438608,1,0,0:0:0:0:
402,192,438608,1,0,0:0:0:30:D7S.wav
36,192,438983,1,0,0:0:0:0:
109,192,438983,1,0,0:0:0:40:1LR_Drum Hit Beat Long.wav
329,192,439358,1,0,0:0:0:0:
182,192,439358,1,0,0:0:0:100:LR_Snare Wet.wav
109,192,439358,1,0,0:0:0:0:
182,192,439733,1,0,0:0:0:40:1LR_Drum Hit Beat Long.wav
329,192,439733,1,0,0:0:0:0:
36,192,439920,1,0,0:0:0:0:
256,192,440108,1,0,0:0:0:0:
329,192,440108,1,0,0:0:0:55:E7S.wav
109,192,440295,1,0,0:0:0:0:
256,192,440483,1,0,0:0:0:100:LR_Snare Wet.wav
182,192,440483,1,0,0:0:0:0:
36,192,440483,1,0,0:0:0:0:
329,192,440858,1,0,0:0:0:0:
109,192,440858,1,0,0:0:0:0:
182,192,441045,1,0,0:0:0:0:
109,192,441233,1,0,0:0:0:0:
329,192,441233,1,0,0:0:0:0:
182,192,441420,1,0,0:0:0:0:
256,192,441545,1,0,0:0:0:35:E4S.wav
36,192,441608,1,0,0:0:0:0:
109,192,441608,1,0,0:0:0:40:1LR_Drum Hit Beat Long.wav
475,192,441725,1,0,0:0:0:55:1G6S.wav
402,192,441774,1,0,0:0:0:55:A6S.wav
329,192,441842,1,0,0:0:0:80:D7S.wav
36,192,441983,1,0,0:0:0:0:
109,192,441983,1,0,0:0:0:40:1LR_Drum Hit Beat Long.wav
329,192,442358,1,0,0:0:0:0:
182,192,442358,1,0,0:0:0:100:LR_Snare Wet.wav
109,192,442358,1,0,0:0:0:0:
329,192,442733,1,0,0:0:0:0:
182,192,442733,1,0,0:0:0:0:
36,192,442920,1,0,0:0:0:0:
109,192,443108,1,0,0:0:0:40:1LR_Drum Hit Beat Long.wav
256,192,443108,1,0,0:0:0:0:
182,192,443295,1,0,0:0:0:0:
36,192,443483,1,0,0:0:0:0:
109,192,443483,1,0,0:0:0:0:
256,192,443483,1,0,0:0:0:100:LR_Snare Wet.wav
36,192,443858,1,0,0:0:0:0:
182,192,443858,1,0,0:0:0:0:
109,192,444045,1,0,0:0:0:0:
36,192,444233,1,0,0:0:0:0:
256,192,444233,1,0,0:0:0:100:LR_Snare Wet.wav
182,192,444233,1,0,0:0:0:0:
402,192,444326,1,0,0:0:0:20:1F#6S_Gb6S.wav
329,192,444443,1,0,0:0:0:35:1G6S.wav
402,192,444545,1,0,0:0:0:20:1F#6S_Gb6S.wav
109,192,444608,1,0,0:0:0:40:1LR_Drum Hit Beat Long.wav
36,192,444608,1,0,0:0:0:0:
475,192,444670,1,0,0:0:0:40:E6S.wav
36,192,444983,1,0,0:0:0:0:
109,192,444983,1,0,0:0:0:40:1LR_Drum Hit Beat Long.wav
329,192,445358,1,0,0:0:0:0:
182,192,445358,1,0,0:0:0:100:LR_Snare Wet.wav
109,192,445358,1,0,0:0:0:0:
329,192,445733,1,0,0:0:0:0:
182,192,445733,1,0,0:0:0:40:1LR_Drum Hit Beat Long.wav
36,192,445920,1,0,0:0:0:0:
256,192,446108,1,0,0:0:0:0:
36,192,446295,1,0,0:0:0:0:
329,192,446483,1,0,0:0:0:0:
256,192,446483,1,0,0:0:0:100:LR_Snare Wet.wav
109,192,446483,1,0,0:0:0:0:
182,192,446858,1,0,0:0:0:0:
329,192,446858,1,0,0:0:0:0:
109,192,447045,1,0,0:0:0:0:
329,192,447233,1,0,0:0:0:0:
182,192,447233,1,0,0:0:0:0:
109,192,447420,1,0,0:0:0:0:
36,192,447500,1,0,0:0:0:50:C5S.wav
109,192,447608,1,0,0:0:0:40:1LR_Drum Hit Beat Long.wav
256,192,447608,1,0,0:0:0:55:E5S.wav
329,192,447608,1,0,0:0:0:0:
475,192,447608,1,0,0:0:0:0:
182,192,447701,1,0,0:0:0:55:A5S.wav
36,192,447816,1,0,0:0:0:75:E6S.wav
256,192,447983,1,0,0:0:0:40:1LR_Drum Hit Beat Long.wav
402,192,447983,1,0,0:0:0:0:
182,192,448358,1,0,0:0:0:100:LR_Snare Wet.wav
329,192,448358,1,0,0:0:0:0:
475,192,448358,1,0,0:0:0:0:
256,192,448733,1,0,0:0:0:100:LR_Snare Wet.wav
402,192,448733,1,0,0:0:0:0:
475,192,448920,1,0,0:0:0:0:
36,192,449108,1,0,0:0:0:40:1LR_Drum Hit Beat Long.wav
182,192,449108,1,0,0:0:0:65:A6S.wav
256,192,449108,1,0,0:0:0:0:
402,192,449108,1,0,0:0:0:0:
256,192,449483,1,0,0:0:0:100:LR_Snare Wet.wav
402,192,449483,1,0,0:0:0:0:
475,192,449483,1,0,0:0:0:0:
256,192,449858,1,0,0:0:0:40:1LR_Drum Hit Beat Long.wav
402,192,449858,1,0,0:0:0:0:
329,192,450045,1,0,0:0:0:0:
402,192,450233,1,0,0:0:0:100:LR_Snare Wet.wav
475,192,450233,1,0,0:0:0:0:
256,192,450233,1,0,0:0:0:0:
109,192,450608,1,0,0:0:0:40:1LR_Drum Hit Beat Long.wav
256,192,450608,1,0,0:0:0:65:D7S.wav
329,192,450608,1,0,0:0:0:0:
475,192,450608,1,0,0:0:0:0:
256,192,450983,1,0,0:0:0:40:1LR_Drum Hit Beat Long.wav
402,192,450983,1,0,0:0:0:0:
182,192,451358,1,0,0:0:0:100:LR_Snare Wet.wav
329,192,451358,1,0,0:0:0:0:
475,192,451358,1,0,0:0:0:0:
256,192,451733,1,0,0:0:0:40:1LR_Drum Hit Beat Long.wav
402,192,451733,1,0,0:0:0:0:
475,192,451920,1,0,0:0:0:0:
36,192,452108,1,0,0:0:0:40:1LR_Drum Hit Beat Long.wav
256,192,452108,1,0,0:0:0:0:
402,192,452108,1,0,0:0:0:0:
109,192,452154,1,0,0:0:0:0:
182,192,452201,1,0,0:0:0:0:
475,192,452248,1,0,0:0:0:0:
402,192,452295,1,0,0:0:0:0:
329,192,452342,1,0,0:0:0:0:
109,192,452389,1,0,0:0:0:0:
182,192,452436,1,0,0:0:0:0:
256,192,452483,1,0,0:0:0:100:LR_Snare Wet.wav
402,192,452483,1,0,0:0:0:0:
475,192,452483,1,0,0:0:0:0:
256,192,452858,1,0,0:0:0:0:
402,192,452858,1,0,0:0:0:0:
36,192,452904,1,0,0:0:0:0:
109,192,452951,1,0,0:0:0:0:
182,192,452998,1,0,0:0:0:0:
329,192,453045,1,0,0:0:0:0:
256,192,453139,1,0,0:0:0:0:
402,192,453233,1,0,0:0:0:0:
475,192,453233,1,0,0:0:0:0:
329,192,453420,1,0,0:0:0:0:
182,192,453566,1,0,0:0:0:20:B4S.wav
256,192,453608,1,0,0:0:0:40:1LR_Drum Hit Beat Long.wav
402,192,453608,1,0,0:0:0:0:
475,192,453608,1,0,0:0:0:0:
109,192,453661,1,0,0:0:0:15:1F#5S_Gb5S.wav
36,192,453772,1,0,0:0:0:30:D6S.wav
256,192,453983,1,0,0:0:0:40:1LR_Drum Hit Beat Long.wav
402,192,453983,1,0,0:0:0:0:
182,192,454358,1,0,0:0:0:100:LR_Snare Wet.wav
329,192,454358,1,0,0:0:0:0:
475,192,454358,1,0,0:0:0:0:
256,192,454733,1,0,0:0:0:100:LR_Snare Wet.wav
402,192,454733,1,0,0:0:0:0:
475,192,454920,1,0,0:0:0:0:
256,192,455108,1,0,0:0:0:40:1LR_Drum Hit Beat Long.wav
402,192,455108,1,0,0:0:0:0:
36,192,455139,1,0,0:0:0:0:
109,192,455161,1,0,0:0:0:0:
256,192,455483,1,0,0:0:0:100:LR_Snare Wet.wav
402,192,455483,1,0,0:0:0:0:
475,192,455483,1,0,0:0:0:0:
256,192,455858,1,0,0:0:0:100:LR_Snare Wet.wav
402,192,455858,1,0,0:0:0:0:
329,192,456045,1,0,0:0:0:0:
402,192,456233,1,0,0:0:0:100:LR_Snare Wet.wav
475,192,456233,1,0,0:0:0:0:
256,192,456233,1,0,0:0:0:0:
36,192,456608,1,0,0:0:0:40:1LR_Drum Hit Beat Long.wav
256,192,456608,1,0,0:0:0:0:
329,192,456608,1,0,0:0:0:0:
475,192,456608,1,0,0:0:0:0:
256,192,456983,1,0,0:0:0:40:1LR_Drum Hit Beat Long.wav
402,192,456983,1,0,0:0:0:0:
182,192,457358,1,0,0:0:0:100:LR_Snare Wet.wav
329,192,457358,1,0,0:0:0:0:
475,192,457358,1,0,0:0:0:0:
256,192,457733,1,0,0:0:0:40:1LR_Drum Hit Beat Long.wav
402,192,457733,1,0,0:0:0:0:
475,192,457920,1,0,0:0:0:0:
182,192,458108,1,0,0:0:0:0:
256,192,458108,1,0,0:0:0:0:
402,192,458108,1,0,0:0:0:0:
329,192,458295,1,0,0:0:0:0:
256,192,458483,1,0,0:0:0:100:LR_Snare Wet.wav
402,192,458483,1,0,0:0:0:0:
475,192,458483,1,0,0:0:0:0:
256,192,458858,1,0,0:0:0:0:
402,192,458858,1,0,0:0:0:0:
329,192,459045,1,0,0:0:0:0:
402,192,459233,1,0,0:0:0:0:
475,192,459233,1,0,0:0:0:0:
329,192,459420,1,0,0:0:0:0:
36,192,459537,1,0,0:0:0:0:
109,192,459608,1,0,0:0:0:40:1LR_Drum Hit Beat Long.wav
402,192,459608,1,0,0:0:0:0:
475,192,459608,1,0,0:0:0:0:
182,192,459654,1,0,0:0:0:0:
256,192,459701,1,0,0:0:0:0:
256,192,459983,1,0,0:0:0:40:1LR_Drum Hit Beat Long.wav
402,192,459983,1,0,0:0:0:0:
182,192,460358,1,0,0:0:0:100:LR_Snare Wet.wav
329,192,460358,1,0,0:0:0:0:
475,192,460358,1,0,0:0:0:0:
256,192,460733,1,0,0:0:0:0:
402,192,460733,1,0,0:0:0:0:
475,192,460920,1,0,0:0:0:0:
36,192,461108,1,0,0:0:0:40:1LR_Drum Hit Beat Long.wav
182,192,461108,1,0,0:0:0:0:
256,192,461108,1,0,0:0:0:0:
402,192,461108,1,0,0:0:0:0:
256,192,461483,1,0,0:0:0:100:LR_Snare Wet.wav
402,192,461483,1,0,0:0:0:0:
475,192,461483,1,0,0:0:0:0:
256,192,461858,1,0,0:0:0:0:
402,192,461858,1,0,0:0:0:0:
329,192,462045,1,0,0:0:0:0:
402,192,462233,1,0,0:0:0:100:LR_Snare Wet.wav
475,192,462233,1,0,0:0:0:0:
256,192,462233,1,0,0:0:0:0:
182,192,462608,1,0,0:0:0:40:1LR_Drum Hit Beat Long.wav
256,192,462608,1,0,0:0:0:0:
329,192,462608,1,0,0:0:0:0:
475,192,462608,1,0,0:0:0:0:
256,192,462983,1,0,0:0:0:40:1LR_Drum Hit Beat Long.wav
402,192,462983,1,0,0:0:0:0:
182,192,463358,1,0,0:0:0:100:LR_Snare Wet.wav
329,192,463358,1,0,0:0:0:0:
475,192,463358,1,0,0:0:0:0:
256,192,463733,1,0,0:0:0:0:
402,192,463733,1,0,0:0:0:0:
475,192,463920,1,0,0:0:0:0:
36,192,464108,1,0,0:0:0:40:1LR_Drum Hit Beat Long.wav
182,192,464108,1,0,0:0:0:0:
256,192,464108,1,0,0:0:0:0:
402,192,464108,1,0,0:0:0:0:
329,192,464295,1,0,0:0:0:0:
256,192,464483,1,0,0:0:0:100:LR_Snare Wet.wav
402,192,464483,1,0,0:0:0:0:
475,192,464483,1,0,0:0:0:0:
256,192,464858,1,0,0:0:0:0:
402,192,464858,1,0,0:0:0:0:
329,192,465045,1,0,0:0:0:0:
402,192,465233,1,0,0:0:0:100:LR_Snare Wet.wav
475,192,465233,1,0,0:0:0:0:
256,192,465420,1,0,0:0:0:0:
36,192,465608,128,0,471608:0:0:0:40:1LR_Drum Hit Beat Long.wav
182,192,465608,1,0,0:0:0:0:
475,192,465608,1,0,0:0:0:0:
402,192,465725,1,0,0:0:0:0:
256,192,465795,1,0,0:0:0:0:
329,192,465842,1,0,0:0:0:0:
182,192,465983,1,0,0:0:0:30:1LR_Drum Hit Beat Long.wav
329,192,466358,1,0,0:0:0:20:1LR_Drum Hit Beat Long.wav
182,192,466733,1,0,0:0:0:0:
182,192,467108,1,0,0:0:0:10:1LR_Drum Hit Beat Long.wav
329,192,467858,1,0,0:0:0:0:
402,192,468483,128,0,471608:0:0:0:0:
475,192,468608,128,0,471608:0:0:0:0:
329,192,468733,128,0,471608:0:0:0:0:
256,192,471608,128,0,474708:0:0:0:0:
256,192,474971,128,0,483766:0:0:0:0:
256,192,489766,132,0,496278:0:0:0:0:
36,192,496278,5,0,0:0:0:70:E5H.wav
109,192,496278,128,0,497085:0:0:0:0:
182,192,496278,1,0,0:0:0:0:
329,192,496278,1,0,0:0:0:0:
402,192,496278,1,0,0:0:0:0:
475,192,496278,1,0,0:0:0:0:
182,192,497085,128,0,497893:0:0:0:70:B5H.wav
256,192,497085,1,0,0:0:0:0:
329,192,497085,128,0,497893:0:0:0:0:
402,192,497085,1,0,0:0:0:0:
475,192,497085,1,0,0:0:0:0:
36,192,497085,1,0,0:0:0:0:
36,192,497893,128,0,502393:0:0:0:80:1Finish.wav
109,192,497893,128,0,501643:0:0:0:70:C2H.wav
256,192,497893,128,0,501643:0:0:0:70:A5H.wav
402,192,497893,1,0,0:0:0:0:
475,192,497893,1,0,0:0:0:0:
182,192,500893,1,0,0:0:0:70:D2H.wav
329,192,500893,1,0,0:0:0:0:
402,192,500893,1,0,0:0:0:0:
475,192,500893,1,0,0:0:0:0:
182,192,501643,128,0,502018:0:0:0:70:E5H.wav
329,192,501643,1,0,0:0:0:0:
402,192,501643,128,0,502018:0:0:0:0:
475,192,501643,1,0,0:0:0:0:
109,192,502018,1,0,0:0:0:70:B5H.wav
256,192,502018,128,0,502393:0:0:0:0:
329,192,502018,1,0,0:0:0:0:
475,192,502018,128,0,502393:0:0:0:0:
109,192,502393,128,0,504807:0:0:0:70:F#5H_Gb5H.wav
182,192,502393,128,0,504807:0:0:0:0:
329,192,502393,1,0,0:0:0:0:
402,192,502393,128,0,506893:0:0:0:0:
36,192,503893,1,0,0:0:0:70:E2H.wav
256,192,503893,1,0,0:0:0:0:
329,192,503893,1,0,0:0:0:0:
475,192,503893,1,0,0:0:0:0:
329,192,504807,1,0,0:0:0:0:
475,192,504807,1,0,0:0:0:0:
256,192,504807,128,0,505064:0:0:0:70:1G5H.wav
36,192,504807,128,0,505064:0:0:0:0:
475,192,505064,1,0,0:0:0:0:
329,192,505064,128,0,505369:0:0:0:0:
109,192,505064,1,0,0:0:0:70:F#5H_Gb5H.wav
182,192,505064,128,0,505369:0:0:0:0:
36,192,505369,1,0,0:0:0:70:E5H.wav
109,192,505369,128,0,506893:0:0:0:0:
256,192,505369,128,0,506893:0:0:0:0:
475,192,505369,1,0,0:0:0:0:
36,192,506893,128,0,508018:0:0:0:70:C#2H_Db2H.wav
182,192,506893,128,0,508018:0:0:0:70:F#5H_Gb5H.wav
329,192,506893,1,0,0:0:0:0:
475,192,506893,128,0,509893:0:0:0:0:
109,192,508018,128,0,508205:0:0:0:70:1G5H.wav
256,192,508018,128,0,508205:0:0:0:0:
329,192,508018,1,0,0:0:0:0:
402,192,508018,1,0,0:0:0:0:
36,192,508205,1,0,0:0:0:70:F#5H_Gb5H.wav
182,192,508205,128,0,508393:0:0:0:0:
329,192,508205,128,0,508393:0:0:0:0:
402,192,508205,1,0,0:0:0:0:
36,192,508393,1,0,0:0:0:70:E5H.wav
109,192,508393,1,0,0:0:0:0:
256,192,508393,128,0,509143:0:0:0:0:
402,192,508393,128,0,509143:0:0:0:0:
36,192,509143,128,0,509518:0:0:0:70:E5H.wav
109,192,509143,128,0,509518:0:0:0:0:
182,192,509143,1,0,0:0:0:0:
329,192,509143,1,0,0:0:0:0:
182,192,509518,1,0,0:0:0:70:B5H.wav
256,192,509518,128,0,509893:0:0:0:0:
329,192,509518,128,0,509893:0:0:0:0:
402,192,509518,1,0,0:0:0:0:
36,192,509893,1,0,0:0:0:70:C2H.wav
109,192,509893,128,0,513643:0:0:0:70:A5H.wav
182,192,509893,128,0,513643:0:0:0:0:
402,192,509893,128,0,514393:0:0:0:0:
36,192,512893,1,0,0:0:0:70:D2H.wav
256,192,512893,1,0,0:0:0:0:
329,192,512893,1,0,0:0:0:0:
475,192,512893,1,0,0:0:0:0:
36,192,513643,1,0,0:0:0:70:E5H.wav
256,192,513643,128,0,514018:0:0:0:0:
329,192,513643,128,0,514018:0:0:0:0:
475,192,513643,1,0,0:0:0:0:
36,192,514018,128,0,514393:0:0:0:70:B5H.wav
109,192,514018,1,0,0:0:0:0:
182,192,514018,128,0,514393:0:0:0:0:
475,192,514018,1,0,0:0:0:0:
109,192,514393,128,0,517393:0:0:0:70:F#5H_Gb5H.wav
256,192,514393,128,0,517018:0:0:0:0:
329,192,514393,128,0,517018:0:0:0:0:
475,192,514393,1,0,0:0:0:0:
36,192,515893,1,0,0:0:0:100:E2H.wav
182,192,515893,1,0,0:0:0:0:
402,192,515893,1,0,0:0:0:0:
475,192,515893,1,0,0:0:0:0:
36,192,517018,1,0,0:0:0:70:1G5H.wav
182,192,517018,1,0,0:0:0:0:
402,192,517018,128,0,517205:0:0:0:0:
475,192,517018,128,0,517205:0:0:0:0:
36,192,517205,1,0,0:0:0:70:F#5H_Gb5H.wav
182,192,517205,1,0,0:0:0:0:
256,192,517205,128,0,517393:0:0:0:0:
329,192,517205,128,0,517393:0:0:0:0:
36,192,517393,128,0,518143:0:0:0:70:E5H.wav
182,192,517393,128,0,518143:0:0:0:0:
402,192,517393,1,0,0:0:0:0:
475,192,517393,128,0,520393:0:0:0:0:
109,192,518143,128,0,518893:0:0:0:70:D5H.wav
256,192,518143,128,0,518893:0:0:0:0:
329,192,518143,1,0,0:0:0:0:
402,192,518143,1,0,0:0:0:0:
36,192,518893,128,0,520393:0:0:0:70:E2H.wav
182,192,518893,128,0,520393:0:0:0:70:E5H.wav
329,192,518893,1,0,0:0:0:0:
402,192,518893,1,0,0:0:0:0:
109,192,520393,128,0,521893:0:0:0:70:E5H.wav
256,192,520393,128,0,521143:0:0:0:0:
329,192,520393,1,0,0:0:0:0:
402,192,520393,128,0,521143:0:0:0:0:
36,192,521143,1,0,0:0:0:70:B5H.wav
182,192,521143,1,0,0:0:0:0:
329,192,521143,128,0,521893:0:0:0:0:
475,192,521143,128,0,521893:0:0:0:0:
36,192,521893,1,0,0:0:0:100:bongos - high-heel-3.wav
182,192,521893,128,0,525643:0:0:0:70:1Finish.wav
256,192,521893,1,0,0:0:0:70:C2H.wav
402,192,521893,128,0,525643:0:0:0:70:A5H.wav
109,192,522080,1,0,0:0:0:100:bongos - high-heel-3.wav
256,192,522268,1,0,0:0:0:100:bongos - high-heel-3.wav
329,192,522268,1,0,0:0:0:0:
109,192,522455,1,0,0:0:0:100:bongos - high-heel-3.wav
36,192,522643,1,0,0:0:0:100:bongos - high-heel-3.wav
256,192,522643,1,0,0:0:0:70:bongos - high-slap-3.wav
475,192,522643,1,0,0:0:0:0:
329,192,522830,1,0,0:0:0:100:bongos - high-heel-3.wav
256,192,523018,1,0,0:0:0:100:bongos - high-heel-3.wav
329,192,523205,1,0,0:0:0:100:bongos - high-heel-3.wav
109,192,523393,1,0,0:0:0:100:bongos - high-heel-3.wav
256,192,523393,1,0,0:0:0:0:
475,192,523580,1,0,0:0:0:100:bongos - high-heel-3.wav
36,192,523768,1,0,0:0:0:100:bongos - high-heel-3.wav
329,192,523768,1,0,0:0:0:0:
256,192,523955,1,0,0:0:0:100:bongos - high-heel-3.wav
109,192,524143,1,0,0:0:0:100:bongos - high-heel-3.wav
329,192,524143,1,0,0:0:0:70:bongos - high-slap-3.wav
475,192,524143,1,0,0:0:0:0:
256,192,524330,1,0,0:0:0:100:bongos - high-heel-3.wav
329,192,524424,1,0,0:0:0:100:bongos - high-heel-3.wav
36,192,524518,1,0,0:0:0:100:bongos - high-heel-3.wav
475,192,524518,1,0,0:0:0:0:
109,192,524705,1,0,0:0:0:100:bongos - high-heel-3.wav
36,192,524893,1,0,0:0:0:100:bongos - high-heel-3.wav
109,192,524893,1,0,0:0:0:70:D2H.wav
256,192,524893,1,0,0:0:0:0:
329,192,524893,1,0,0:0:0:0:
475,192,524893,1,0,0:0:0:0:
329,192,525080,1,0,0:0:0:100:bongos - high-heel-3.wav
36,192,525268,1,0,0:0:0:100:bongos - high-heel-3.wav
256,192,525268,1,0,0:0:0:0:
109,192,525455,1,0,0:0:0:100:bongos - high-heel-3.wav
36,192,525643,1,0,0:0:0:100:bongos - high-heel-3.wav
109,192,525643,1,0,0:0:0:70:E5H.wav
256,192,525643,128,0,526018:0:0:0:70:bongos - high-slap-3.wav
329,192,525643,1,0,0:0:0:0:
475,192,525643,128,0,526018:0:0:0:0:
182,192,525830,1,0,0:0:0:100:bongos - high-heel-3.wav
36,192,526018,128,0,526393:0:0:0:100:bongos - high-heel-3.wav
109,192,526018,1,0,0:0:0:70:B5H.wav
182,192,526018,1,0,0:0:0:0:
329,192,526018,128,0,526393:0:0:0:0:
402,192,526018,1,0,0:0:0:0:
475,192,526205,1,0,0:0:0:100:bongos - high-heel-3.wav
109,192,526393,128,0,528807:0:0:0:100:bongos - high-heel-3.wav
182,192,526393,1,0,0:0:0:70:F#5H_Gb5H.wav
256,192,526393,128,0,528807:0:0:0:0:
402,192,526393,1,0,0:0:0:0:
475,192,526393,1,0,0:0:0:0:
329,192,526580,1,0,0:0:0:100:bongos - high-heel-3.wav
475,192,526768,1,0,0:0:0:100:bongos - high-heel-3.wav
329,192,526955,1,0,0:0:0:100:bongos - high-heel-3.wav
36,192,527143,1,0,0:0:0:100:bongos - high-heel-3.wav
182,192,527143,1,0,0:0:0:70:bongos - high-slap-3.wav
402,192,527143,1,0,0:0:0:0:
475,192,527330,1,0,0:0:0:100:bongos - high-heel-3.wav
402,192,527424,1,0,0:0:0:100:bongos - high-heel-3.wav
182,192,527518,1,0,0:0:0:100:bongos - high-heel-3.wav
329,192,527518,1,0,0:0:0:0:
402,192,527611,1,0,0:0:0:100:bongos - high-heel-3.wav
475,192,527705,1,0,0:0:0:100:bongos - high-heel-3.wav
36,192,527893,1,0,0:0:0:100:bongos - high-heel-3.wav
182,192,527893,1,0,0:0:0:70:E2H.wav
329,192,527893,1,0,0:0:0:0:
402,192,527893,1,0,0:0:0:0:
475,192,527893,1,0,0:0:0:0:
182,192,528080,1,0,0:0:0:100:bongos - high-heel-3.wav
329,192,528268,1,0,0:0:0:100:bongos - high-heel-3.wav
475,192,528268,1,0,0:0:0:0:
36,192,528455,1,0,0:0:0:100:bongos - high-heel-3.wav
182,192,528643,1,0,0:0:0:100:bongos - high-heel-3.wav
329,192,528643,1,0,0:0:0:70:bongos - high-slap-3.wav
475,192,528643,1,0,0:0:0:0:
36,192,528807,1,0,0:0:0:70:1G5H.wav
182,192,528807,1,0,0:0:0:0:
329,192,528807,128,0,529064:0:0:0:0:
402,192,528807,1,0,0:0:0:0:
475,192,528807,128,0,529064:0:0:0:0:
36,192,529064,1,0,0:0:0:70:F#5H_Gb5H.wav
109,192,529064,1,0,0:0:0:0:
182,192,529064,1,0,0:0:0:0:
256,192,529064,128,0,529369:0:0:0:0:
402,192,529064,128,0,529369:0:0:0:0:
329,192,529369,128,0,530893:0:0:0:0:
182,192,529369,128,0,530893:0:0:0:0:
475,192,529369,1,0,0:0:0:0:
109,192,529369,1,0,0:0:0:70:E5H.wav
36,192,529369,1,0,0:0:0:0:
256,192,529580,1,0,0:0:0:100:bongos - high-heel-3.wav
402,192,529768,1,0,0:0:0:100:bongos - high-heel-3.wav
475,192,529768,1,0,0:0:0:0:
109,192,529955,1,0,0:0:0:100:bongos - high-heel-3.wav
36,192,530143,1,0,0:0:0:100:bongos - high-heel-3.wav
256,192,530143,1,0,0:0:0:70:bongos - high-slap-3.wav
475,192,530143,1,0,0:0:0:0:
402,192,530330,1,0,0:0:0:100:bongos - high-heel-3.wav
256,192,530424,1,0,0:0:0:100:bongos - high-heel-3.wav
36,192,530518,1,0,0:0:0:100:bongos - high-heel-3.wav
109,192,530518,1,0,0:0:0:0:
256,192,530611,1,0,0:0:0:100:bongos - high-heel-3.wav
402,192,530705,1,0,0:0:0:100:bongos - high-heel-3.wav
36,192,530893,128,0,532018:0:0:0:100:bongos - high-heel-3.wav
109,192,530893,128,0,532018:0:0:0:70:C#2H_Db2H.wav
256,192,530893,1,0,0:0:0:70:F#5H_Gb5H.wav
402,192,530893,1,0,0:0:0:0:
475,192,530893,1,0,0:0:0:0:
329,192,531080,1,0,0:0:0:100:bongos - high-heel-3.wav
256,192,531268,1,0,0:0:0:100:bongos - high-heel-3.wav
475,192,531268,1,0,0:0:0:0:
402,192,531455,1,0,0:0:0:100:bongos - high-heel-3.wav
182,192,531643,1,0,0:0:0:100:bongos - high-heel-3.wav
329,192,531643,1,0,0:0:0:70:bongos - high-slap-3.wav
475,192,531643,1,0,0:0:0:0:
256,192,531830,1,0,0:0:0:100:bongos - high-heel-3.wav
182,192,532018,128,0,532205:0:0:0:100:bongos - high-heel-3.wav
256,192,532018,1,0,0:0:0:70:1G5H.wav
329,192,532018,1,0,0:0:0:0:
402,192,532018,1,0,0:0:0:0:
475,192,532018,128,0,532205:0:0:0:0:
36,192,532205,1,0,0:0:0:100:bongos - high-heel-3.wav
109,192,532205,1,0,0:0:0:70:F#5H_Gb5H.wav
256,192,532205,128,0,532393:0:0:0:0:
329,192,532205,1,0,0:0:0:0:
402,192,532205,128,0,532393:0:0:0:0:
36,192,532393,128,0,533143:0:0:0:100:bongos - high-heel-3.wav
109,192,532393,1,0,0:0:0:70:E5H.wav
182,192,532393,128,0,533143:0:0:0:0:
329,192,532393,1,0,0:0:0:0:
475,192,532393,1,0,0:0:0:0:
256,192,532580,1,0,0:0:0:100:bongos - high-heel-3.wav
329,192,532768,1,0,0:0:0:100:bongos - high-heel-3.wav
475,192,532768,1,0,0:0:0:0:
256,192,532955,1,0,0:0:0:100:bongos - high-heel-3.wav
109,192,533143,1,0,0:0:0:100:bongos - high-heel-3.wav
256,192,533143,1,0,0:0:0:70:E5H.wav
329,192,533143,1,0,0:0:0:70:bongos - high-slap-3.wav
402,192,533143,128,0,533518:0:0:0:0:
475,192,533143,128,0,533518:0:0:0:0:
182,192,533330,1,0,0:0:0:100:bongos - high-heel-3.wav
36,192,533518,128,0,533893:0:0:0:100:bongos - high-heel-3.wav
109,192,533518,128,0,533893:0:0:0:70:B5H.wav
182,192,533518,1,0,0:0:0:0:
256,192,533518,1,0,0:0:0:0:
329,192,533518,1,0,0:0:0:0:
402,192,533611,1,0,0:0:0:100:bongos - high-heel-3.wav
329,192,533705,1,0,0:0:0:100:bongos - high-heel-3.wav
475,192,533705,1,0,0:0:0:0:
182,192,533893,128,0,537643:0:0:0:100:bongos - high-heel-3.wav
256,192,533893,1,0,0:0:0:70:C2H.wav
329,192,533893,128,0,537643:0:0:0:70:A5H.wav
402,192,533893,1,0,0:0:0:0:
475,192,533893,1,0,0:0:0:0:
36,192,534080,1,0,0:0:0:100:bongos - high-heel-3.wav
256,192,534268,1,0,0:0:0:100:bongos - high-heel-3.wav
475,192,534268,1,0,0:0:0:0:
402,192,534455,1,0,0:0:0:100:bongos - high-heel-3.wav
36,192,534643,1,0,0:0:0:100:bongos - high-heel-3.wav
109,192,534643,1,0,0:0:0:70:bongos - high-slap-3.wav
256,192,534643,1,0,0:0:0:0:
402,192,534830,1,0,0:0:0:100:bongos - high-heel-3.wav
256,192,535018,1,0,0:0:0:100:bongos - high-heel-3.wav
475,192,535018,1,0,0:0:0:0:
109,192,535205,1,0,0:0:0:100:bongos - high-heel-3.wav
402,192,535393,1,0,0:0:0:100:bongos - high-heel-3.wav
475,192,535393,1,0,0:0:0:0:
256,192,535580,1,0,0:0:0:100:bongos - high-heel-3.wav
36,192,535768,1,0,0:0:0:100:bongos - high-heel-3.wav
109,192,535768,1,0,0:0:0:0:
256,192,535955,1,0,0:0:0:100:bongos - high-heel-3.wav
36,192,536143,1,0,0:0:0:100:bongos - high-heel-3.wav
402,192,536143,1,0,0:0:0:70:bongos - high-slap-3.wav
475,192,536143,1,0,0:0:0:0:
256,192,536330,1,0,0:0:0:100:bongos - high-heel-3.wav
109,192,536424,1,0,0:0:0:100:bongos - high-heel-3.wav
36,192,536518,1,0,0:0:0:100:bongos - high-heel-3.wav
475,192,536518,1,0,0:0:0:0:
402,192,536705,1,0,0:0:0:100:bongos - high-heel-3.wav
36,192,536893,1,0,0:0:0:100:bongos - high-heel-3.wav
109,192,536893,1,0,0:0:0:70:D2H.wav
256,192,536893,1,0,0:0:0:0:
402,192,536893,1,0,0:0:0:0:
475,192,536893,1,0,0:0:0:0:
475,192,537080,1,0,0:0:0:100:bongos - high-heel-3.wav
109,192,537268,1,0,0:0:0:100:bongos - high-heel-3.wav
402,192,537268,1,0,0:0:0:0:
256,192,537455,1,0,0:0:0:100:bongos - high-heel-3.wav
36,192,537643,1,0,0:0:0:100:bongos - high-heel-3.wav
109,192,537643,1,0,0:0:0:70:E5H.wav
256,192,537643,128,0,538018:0:0:0:70:bongos - high-slap-3.wav
402,192,537643,128,0,538018:0:0:0:0:
475,192,537643,1,0,0:0:0:0:
182,192,537830,1,0,0:0:0:100:bongos - high-heel-3.wav
36,192,538018,128,0,538393:0:0:0:100:bongos - high-heel-3.wav
109,192,538018,1,0,0:0:0:70:B5H.wav
182,192,538018,1,0,0:0:0:0:
329,192,538018,128,0,538393:0:0:0:0:
475,192,538018,1,0,0:0:0:0:
402,192,538205,1,0,0:0:0:100:bongos - high-heel-3.wav
109,192,538393,128,0,541018:0:0:0:100:bongos - high-heel-3.wav
182,192,538393,1,0,0:0:0:70:F#5H_Gb5H.wav
256,192,538393,128,0,541018:0:0:0:0:
402,192,538393,1,0,0:0:0:0:
475,192,538393,1,0,0:0:0:0:
329,192,538580,1,0,0:0:0:100:bongos - high-heel-3.wav
182,192,538768,1,0,0:0:0:100:bongos - high-heel-3.wav
475,192,538768,1,0,0:0:0:0:
329,192,538955,1,0,0:0:0:100:bongos - high-heel-3.wav
36,192,539143,1,0,0:0:0:100:bongos - high-heel-3.wav
402,192,539143,1,0,0:0:0:70:bongos - high-slap-3.wav
475,192,539143,1,0,0:0:0:0:
329,192,539330,1,0,0:0:0:100:bongos - high-heel-3.wav
182,192,539424,1,0,0:0:0:100:bongos - high-heel-3.wav
36,192,539518,1,0,0:0:0:100:bongos - high-heel-3.wav
475,192,539518,1,0,0:0:0:0:
182,192,539611,1,0,0:0:0:100:bongos - high-heel-3.wav
329,192,539705,1,0,0:0:0:100:bongos - high-heel-3.wav
36,192,539893,1,0,0:0:0:100:bongos - high-heel-3.wav
182,192,539893,1,0,0:0:0:70:E2H.wav
329,192,539893,1,0,0:0:0:0:
402,192,539893,1,0,0:0:0:0:
475,192,539893,1,0,0:0:0:0:
182,192,540080,1,0,0:0:0:100:bongos - high-heel-3.wav
329,192,540268,1,0,0:0:0:100:bongos - high-heel-3.wav
475,192,540268,1,0,0:0:0:0:
182,192,540455,1,0,0:0:0:100:bongos - high-heel-3.wav
36,192,540643,1,0,0:0:0:100:bongos - high-heel-3.wav
402,192,540643,1,0,0:0:0:70:bongos - high-slap-3.wav
475,192,540643,1,0,0:0:0:0:
329,192,540830,1,0,0:0:0:100:bongos - high-heel-3.wav
36,192,541018,1,0,0:0:0:100:bongos - high-heel-3.wav
182,192,541018,128,0,541205:0:0:0:70:1G5H.wav
329,192,541018,1,0,0:0:0:0:
402,192,541018,1,0,0:0:0:0:
475,192,541018,128,0,541205:0:0:0:0:
36,192,541205,1,0,0:0:0:100:bongos - high-heel-3.wav
109,192,541205,128,0,541393:0:0:0:70:F#5H_Gb5H.wav
256,192,541205,1,0,0:0:0:0:
329,192,541205,1,0,0:0:0:0:
402,192,541205,128,0,541393:0:0:0:0:
36,192,541393,128,0,542143:0:0:0:100:bongos - high-heel-3.wav
182,192,541393,1,0,0:0:0:70:E5H.wav
256,192,541393,1,0,0:0:0:0:
329,192,541393,128,0,542143:0:0:0:0:
475,192,541393,1,0,0:0:0:0:
109,192,541580,1,0,0:0:0:100:bongos - high-heel-3.wav
182,192,541768,1,0,0:0:0:100:bongos - high-heel-3.wav
402,192,541768,1,0,0:0:0:0:
256,192,541955,1,0,0:0:0:100:bongos - high-heel-3.wav
109,192,542143,128,0,542893:0:0:0:100:bongos - high-heel-3.wav
182,192,542143,1,0,0:0:0:70:D5H.wav
256,192,542143,128,0,542893:0:0:0:70:bongos - high-slap-3.wav
402,192,542143,1,0,0:0:0:0:
475,192,542143,1,0,0:0:0:0:
329,192,542330,1,0,0:0:0:100:bongos - high-heel-3.wav
402,192,542424,1,0,0:0:0:100:bongos - high-heel-3.wav
182,192,542518,1,0,0:0:0:100:bongos - high-heel-3.wav
475,192,542518,1,0,0:0:0:0:
402,192,542611,1,0,0:0:0:100:bongos - high-heel-3.wav
329,192,542705,1,0,0:0:0:100:bongos - high-heel-3.wav
36,192,542893,1,0,0:0:0:100:bongos - high-heel-3.wav
182,192,542893,1,0,0:0:0:70:E2H.wav
329,192,542893,128,0,545893:0:0:0:70:E5H.wav
402,192,542893,1,0,0:0:0:0:
475,192,542893,128,0,545893:0:0:0:0:
256,192,543080,1,0,0:0:0:100:bongos - high-heel-3.wav
36,192,543268,1,0,0:0:0:100:bongos - high-heel-3.wav
182,192,543268,1,0,0:0:0:0:
109,192,543455,1,0,0:0:0:100:bongos - high-heel-3.wav
182,192,543643,1,0,0:0:0:100:bongos - high-heel-3.wav
256,192,543643,1,0,0:0:0:70:bongos - high-slap-3.wav
402,192,543643,1,0,0:0:0:0:
109,192,543830,1,0,0:0:0:100:bongos - high-heel-3.wav
36,192,544018,1,0,0:0:0:100:bongos - high-heel-3.wav
256,192,544018,1,0,0:0:0:0:
182,192,544205,1,0,0:0:0:100:bongos - high-heel-3.wav
256,192,544393,1,0,0:0:0:100:bongos - high-heel-3.wav
402,192,544393,1,0,0:0:0:0:
182,192,544580,1,0,0:0:0:100:bongos - high-heel-3.wav
36,192,544768,1,0,0:0:0:100:bongos - high-heel-3.wav
109,192,544768,1,0,0:0:0:0:
182,192,544955,1,0,0:0:0:100:bongos - high-heel-3.wav
36,192,545143,1,0,0:0:0:100:bongos - high-heel-3.wav
256,192,545143,1,0,0:0:0:70:bongos - high-slap-3.wav
402,192,545143,1,0,0:0:0:0:
109,192,545330,1,0,0:0:0:100:bongos - high-heel-3.wav
182,192,545424,1,0,0:0:0:100:bongos - high-heel-3.wav
256,192,545518,1,0,0:0:0:100:bongos - high-heel-3.wav
402,192,545518,1,0,0:0:0:0:
182,192,545611,1,0,0:0:0:100:bongos - high-heel-3.wav
109,192,545705,1,0,0:0:0:100:bongos - high-heel-3.wav
36,192,545893,1,0,0:0:0:50:E3Harp.wav
182,192,546080,1,0,0:0:0:50:A3Harp.wav
329,192,546268,1,0,0:0:0:50:B3Harp.wav
402,192,546455,1,0,0:0:0:50:E4Harp.wav
36,192,546643,1,0,0:0:0:50:E3Harp.wav
475,192,546830,1,0,0:0:0:55:1F#4Harp.wav
329,192,547018,1,0,0:0:0:55:E4Harp.wav
182,192,547205,1,0,0:0:0:55:D4Harp.wav
402,192,547393,1,0,0:0:0:50:A3Harp.wav
256,192,547580,1,0,0:0:0:50:1G3Harp.wav
109,192,547768,1,0,0:0:0:50:1F#3Harp.wav
36,192,547955,1,0,0:0:0:50:E3Harp.wav
182,192,548143,1,0,0:0:0:55:1G3Harp.wav
256,192,548330,1,0,0:0:0:50:A3Harp.wav
182,192,548518,1,0,0:0:0:55:1F#3Harp.wav
109,192,548705,1,0,0:0:0:50:D3Harp.wav
36,192,548893,1,0,0:0:0:50:E3Harp.wav
475,192,548893,1,0,0:0:0:70:B6S.wav
182,192,549080,1,0,0:0:0:55:A3Harp.wav
256,192,549268,1,0,0:0:0:55:B3Harp.wav
329,192,549455,1,0,0:0:0:55:1G3Harp.wav
256,192,549643,1,0,0:0:0:50:1F#3Harp.wav
402,192,549830,1,0,0:0:0:60:1F#4Harp.wav
475,192,550018,1,0,0:0:0:55:1G4Harp.wav
402,192,550205,1,0,0:0:0:55:D4Harp.wav
256,192,550393,1,0,0:0:0:55:A3Harp.wav
182,192,550580,1,0,0:0:0:55:1G3Harp.wav
109,192,550768,1,0,0:0:0:50:1F#3Harp.wav
36,192,550955,1,0,0:0:0:50:E3Harp.wav
182,192,551143,1,0,0:0:0:55:A3Harp.wav
329,192,551330,1,0,0:0:0:55:D4Harp.wav
256,192,551518,1,0,0:0:0:55:B3Harp.wav
109,192,551705,1,0,0:0:0:50:1F#3Harp.wav
36,192,551893,1,0,0:0:0:50:E3Harp.wav
402,192,551893,1,0,0:0:0:70:C#7S_Db7S.wav
182,192,552080,1,0,0:0:0:50:A3Harp.wav
329,192,552268,1,0,0:0:0:50:B3Harp.wav
402,192,552455,1,0,0:0:0:50:E4Harp.wav
36,192,552643,1,0,0:0:0:50:E3Harp.wav
475,192,552830,1,0,0:0:0:55:1F#4Harp.wav
402,192,553018,1,0,0:0:0:55:E4Harp.wav
329,192,553205,1,0,0:0:0:55:D4Harp.wav
256,192,553393,1,0,0:0:0:50:A3Harp.wav
182,192,553580,1,0,0:0:0:50:1G3Harp.wav
109,192,553768,1,0,0:0:0:50:1F#3Harp.wav
36,192,553955,1,0,0:0:0:50:E3Harp.wav
182,192,554143,1,0,0:0:0:55:1G3Harp.wav
256,192,554330,1,0,0:0:0:50:A3Harp.wav
329,192,554518,1,0,0:0:0:55:1F#3Harp.wav
182,192,554705,1,0,0:0:0:50:D3Harp.wav
36,192,554893,1,0,0:0:0:50:E3Harp.wav
329,192,554893,1,0,0:0:0:45:A6S.wav
182,192,555080,1,0,0:0:0:55:A3Harp.wav
256,192,555268,1,0,0:0:0:55:B3Harp.wav
182,192,555455,1,0,0:0:0:55:1G3Harp.wav
109,192,555643,1,0,0:0:0:50:1F#3Harp.wav
329,192,555830,1,0,0:0:0:60:1F#4Harp.wav
402,192,556018,1,0,0:0:0:55:1G4Harp.wav
329,192,556205,1,0,0:0:0:55:D4Harp.wav
475,192,556393,1,0,0:0:0:55:A4Harp.wav
402,192,556580,1,0,0:0:0:55:1F#4Harp.wav
329,192,556768,1,0,0:0:0:55:E4Harp.wav
182,192,556955,1,0,0:0:0:55:B3Harp.wav
36,192,557143,1,0,0:0:0:45:D4Harp.wav
256,192,557330,1,0,0:0:0:40:E4Harp.wav
182,192,557518,1,0,0:0:0:40:B3Harp.wav
109,192,557705,1,0,0:0:0:35:1F#3Harp.wav
36,192,557893,1,0,0:0:0:30:E3Harp.wav
475,192,557893,1,0,0:0:0:65:E7S.wav
402,192,558080,1,0,0:0:0:30:A3Harp.wav
329,192,558268,1,0,0:0:0:30:B3Harp.wav
182,192,558455,1,0,0:0:0:30:E4Harp.wav
475,192,558643,1,0,0:0:0:30:E3Harp.wav
109,192,558830,1,0,0:0:0:30:1F#4Harp.wav
256,192,559018,1,0,0:0:0:30:E4Harp.wav
402,192,559205,1,0,0:0:0:30:D4Harp.wav
256,192,559393,1,0,0:0:0:30:A3Harp.wav
329,192,559580,1,0,0:0:0:30:1G3Harp.wav
402,192,559768,1,0,0:0:0:30:1F#3Harp.wav
475,192,559955,1,0,0:0:0:30:E3Harp.wav
329,192,560143,1,0,0:0:0:30:1G3Harp.wav
256,192,560330,1,0,0:0:0:30:A3Harp.wav
329,192,560518,1,0,0:0:0:30:1F#3Harp.wav
475,192,560705,1,0,0:0:0:25:D3Harp.wav
109,192,560893,1,0,0:0:0:30:E3Harp.wav
329,192,560893,1,0,0:0:0:55:B6S.wav
256,192,561080,1,0,0:0:0:30:A3Harp.wav
182,192,561268,1,0,0:0:0:30:B3Harp.wav
109,192,561455,1,0,0:0:0:30:1G3Harp.wav
182,192,561643,1,0,0:0:0:30:1F#3Harp.wav
329,192,561830,1,0,0:0:0:30:1F#4Harp.wav
109,192,562018,1,0,0:0:0:30:1G4Harp.wav
36,192,562205,1,0,0:0:0:30:D4Harp.wav
182,192,562393,1,0,0:0:0:30:A3Harp.wav
256,192,562580,1,0,0:0:0:40:1G3Harp.wav
329,192,562768,1,0,0:0:0:30:1F#3Harp.wav
475,192,562955,1,0,0:0:0:30:E3Harp.wav
402,192,563143,1,0,0:0:0:30:A3Harp.wav
256,192,563330,1,0,0:0:0:30:D4Harp.wav
329,192,563518,1,0,0:0:0:30:B3Harp.wav
475,192,563705,1,0,0:0:0:30:1F#3Harp.wav
36,192,563893,1,0,0:0:0:30:E3Harp.wav
329,192,563893,1,0,0:0:0:45:1F#6S_Gb6S.wav
256,192,564080,1,0,0:0:0:30:A3Harp.wav
182,192,564268,1,0,0:0:0:30:B3Harp.wav
109,192,564455,1,0,0:0:0:30:E4Harp.wav
329,192,564643,1,0,0:0:0:30:E3Harp.wav
36,192,564830,1,0,0:0:0:30:1F#4Harp.wav
109,192,565018,1,0,0:0:0:30:E4Harp.wav
182,192,565205,1,0,0:0:0:30:D4Harp.wav
256,192,565393,1,0,0:0:0:30:A3Harp.wav
329,192,565580,1,0,0:0:0:30:1G3Harp.wav
402,192,565768,1,0,0:0:0:30:1F#3Harp.wav
475,192,565955,1,0,0:0:0:30:E3Harp.wav
329,192,566143,1,0,0:0:0:30:1G3Harp.wav
182,192,566330,1,0,0:0:0:30:A3Harp.wav
329,192,566518,1,0,0:0:0:30:1F#3Harp.wav
475,192,566705,1,0,0:0:0:30:D3Harp.wav
109,192,566893,1,0,0:0:0:30:E3Harp.wav
329,192,566893,1,0,0:0:0:45:1G6S.wav
256,192,567080,1,0,0:0:0:30:A3Harp.wav
182,192,567268,1,0,0:0:0:30:B3Harp.wav
329,192,567455,1,0,0:0:0:30:1G3Harp.wav
475,192,567643,1,0,0:0:0:30:1F#3Harp.wav
256,192,567830,1,0,0:0:0:30:1F#4Harp.wav
109,192,568018,1,0,0:0:0:30:1G4Harp.wav
182,192,568205,1,0,0:0:0:30:D4Harp.wav
36,192,568393,1,0,0:0:0:30:A4Harp.wav
109,192,568580,1,0,0:0:0:30:1F#4Harp.wav
182,192,568768,1,0,0:0:0:30:E4Harp.wav
402,192,568955,1,0,0:0:0:30:B3Harp.wav
256,192,569143,1,0,0:0:0:30:D4Harp.wav
109,192,569330,1,0,0:0:0:30:E4Harp.wav
256,192,569518,1,0,0:0:0:30:B3Harp.wav
329,192,569705,1,0,0:0:0:30:1F#3Harp.wav
36,192,569893,1,0,0:0:0:20:Kick.wav
109,192,569893,1,0,0:0:0:65:E7S.wav
402,192,569893,128,0,570268:0:0:0:0:
475,192,569893,1,0,0:0:0:0:
256,192,570080,128,0,570268:0:0:0:0:
36,192,570268,1,0,0:0:0:20:Kick.wav
109,192,570268,1,0,0:0:0:0:
329,192,570268,128,0,570643:0:0:0:0:
402,192,570455,128,0,570643:0:0:0:0:
36,192,570643,1,0,0:0:0:20:Kick.wav
109,192,570643,1,0,0:0:0:0:
256,192,570643,128,0,571018:0:0:0:0:
475,192,570830,128,0,571018:0:0:0:0:
36,192,571018,1,0,0:0:0:20:Kick.wav
109,192,571018,1,0,0:0:0:0:
402,192,571018,128,0,571393:0:0:0:0:
329,192,571205,128,0,571393:0:0:0:0:
36,192,571393,1,0,0:0:0:20:Kick.wav
109,192,571393,1,0,0:0:0:0:
475,192,571393,128,0,571768:0:0:0:0:
402,192,571580,128,0,571768:0:0:0:0:
36,192,571768,1,0,0:0:0:20:Kick.wav
109,192,571768,1,0,0:0:0:0:
329,192,571768,128,0,572143:0:0:0:0:
256,192,571955,128,0,572143:0:0:0:0:
36,192,572143,1,0,0:0:0:20:Kick.wav
109,192,572143,1,0,0:0:0:0:
475,192,572143,128,0,572518:0:0:0:0:
329,192,572330,128,0,572518:0:0:0:0:
36,192,572518,1,0,0:0:0:20:Kick.wav
109,192,572518,1,0,0:0:0:0:
402,192,572518,128,0,572893:0:0:0:0:
475,192,572705,128,0,572893:0:0:0:0:
36,192,572893,1,0,0:0:0:20:Kick.wav
109,192,572893,1,0,0:0:0:70:B6S.wav
256,192,572893,128,0,573268:0:0:0:0:
329,192,572893,1,0,0:0:0:0:
182,192,573080,128,0,573268:0:0:0:0:
109,192,573268,128,0,573643:0:0:0:20:Kick.wav
402,192,573268,1,0,0:0:0:0:
475,192,573268,1,0,0:0:0:0:
182,192,573455,128,0,573643:0:0:0:0:
256,192,573643,128,0,574018:0:0:0:20:Kick.wav
402,192,573643,1,0,0:0:0:0:
475,192,573643,1,0,0:0:0:0:
109,192,573830,128,0,574018:0:0:0:0:
36,192,574018,128,0,574393:0:0:0:21:Kick.wav
402,192,574018,1,0,0:0:0:0:
475,192,574018,1,0,0:0:0:0:
182,192,574205,128,0,574393:0:0:0:0:
256,192,574393,128,0,574768:0:0:0:22:Kick.wav
402,192,574393,1,0,0:0:0:0:
475,192,574393,1,0,0:0:0:0:
109,192,574580,128,0,574768:0:0:0:0:
182,192,574768,128,0,575143:0:0:0:23:Kick.wav
402,192,574768,1,0,0:0:0:0:
475,192,574768,1,0,0:0:0:0:
256,192,574955,128,0,575143:0:0:0:0:
36,192,575143,128,0,575518:0:0:0:24:Kick.wav
402,192,575143,1,0,0:0:0:0:
475,192,575143,1,0,0:0:0:0:
109,192,575330,128,0,575518:0:0:0:0:
182,192,575518,128,0,575893:0:0:0:25:Kick.wav
402,192,575518,1,0,0:0:0:0:
475,192,575518,1,0,0:0:0:0:
256,192,575705,128,0,575893:0:0:0:0:
36,192,575893,1,0,0:0:0:26:Kick.wav
109,192,575893,1,0,0:0:0:70:C#7S_Db7S.wav
402,192,575893,128,0,576268:0:0:0:0:
475,192,575893,1,0,0:0:0:0:
475,192,576080,128,0,576268:0:0:0:0:
36,192,576268,1,0,0:0:0:27:Kick.wav
109,192,576268,1,0,0:0:0:0:
329,192,576268,128,0,576643:0:0:0:0:
256,192,576455,128,0,576643:0:0:0:0:
36,192,576643,1,0,0:0:0:28:Kick.wav
109,192,576643,1,0,0:0:0:0:
475,192,576643,128,0,577018:0:0:0:0:
329,192,576830,128,0,577018:0:0:0:0:
36,192,577018,1,0,0:0:0:29:Kick.wav
109,192,577018,1,0,0:0:0:0:
402,192,577018,128,0,577393:0:0:0:0:
475,192,577205,128,0,577393:0:0:0:0:
36,192,577393,1,0,0:0:0:30:Kick.wav
109,192,577393,1,0,0:0:0:0:
256,192,577393,128,0,577768:0:0:0:0:
402,192,577580,128,0,577768:0:0:0:0:
36,192,577768,1,0,0:0:0:31:Kick.wav
109,192,577768,1,0,0:0:0:0:
475,192,577768,128,0,578143:0:0:0:0:
329,192,577955,128,0,578143:0:0:0:0:
36,192,578143,1,0,0:0:0:32:Kick.wav
109,192,578143,1,0,0:0:0:0:
256,192,578143,128,0,578518:0:0:0:0:
329,192,578330,128,0,578518:0:0:0:0:
36,192,578518,1,0,0:0:0:33:Kick.wav
109,192,578518,1,0,0:0:0:0:
475,192,578518,128,0,578893:0:0:0:0:
402,192,578705,128,0,578893:0:0:0:0:
36,192,578893,1,0,0:0:0:35:Kick.wav
109,192,578893,1,0,0:0:0:55:A6S.wav
256,192,578893,128,0,579268:0:0:0:0:
329,192,578893,1,0,0:0:0:0:
182,192,579080,128,0,579268:0:0:0:0:
109,192,579268,128,0,579643:0:0:0:36:Kick.wav
402,192,579268,1,0,0:0:0:0:
475,192,579268,1,0,0:0:0:0:
182,192,579455,128,0,579643:0:0:0:0:
256,192,579643,128,0,580018:0:0:0:37:Kick.wav
402,192,579643,1,0,0:0:0:0:
475,192,579643,1,0,0:0:0:0:
182,192,579830,128,0,580018:0:0:0:0:
36,192,580018,128,0,580393:0:0:0:38:Kick.wav
402,192,580018,1,0,0:0:0:0:
475,192,580018,1,0,0:0:0:0:
109,192,580205,128,0,580393:0:0:0:0:
256,192,580393,128,0,580768:0:0:0:38:Kick.wav
402,192,580393,1,0,0:0:0:0:
475,192,580393,1,0,0:0:0:0:
182,192,580580,128,0,580768:0:0:0:0:
109,192,580768,128,0,581143:0:0:0:39:Kick.wav
402,192,580768,1,0,0:0:0:0:
475,192,580768,1,0,0:0:0:0:
36,192,580955,128,0,581143:0:0:0:0:
182,192,581143,128,0,581518:0:0:0:40:Kick.wav
402,192,581143,1,0,0:0:0:0:
475,192,581143,1,0,0:0:0:0:
256,192,581330,128,0,581518:0:0:0:0:
36,192,581518,128,0,581893:0:0:0:41:Kick.wav
402,192,581518,1,0,0:0:0:0:
475,192,581518,1,0,0:0:0:0:
109,192,581705,128,0,581893:0:0:0:0:
182,192,581893,1,0,0:0:0:42:Kick.wav
329,192,581893,128,0,582268:0:0:0:65:E7S.wav
402,192,581893,1,0,0:0:0:0:
475,192,581893,1,0,0:0:0:0:
475,192,582080,128,0,582268:0:0:0:0:
36,192,582268,1,0,0:0:0:43:Kick.wav
109,192,582268,1,0,0:0:0:0:
402,192,582268,128,0,582643:0:0:0:0:
475,192,582455,128,0,582643:0:0:0:0:
36,192,582643,1,0,0:0:0:44:Kick.wav
109,192,582643,1,0,0:0:0:0:
256,192,582643,128,0,583018:0:0:0:0:
329,192,582830,128,0,583018:0:0:0:0:
36,192,583018,1,0,0:0:0:45:Kick.wav
109,192,583018,1,0,0:0:0:0:
402,192,583018,128,0,583393:0:0:0:0:
475,192,583205,128,0,583393:0:0:0:0:
36,192,583393,1,0,0:0:0:46:Kick.wav
109,192,583393,1,0,0:0:0:0:
256,192,583393,128,0,583768:0:0:0:0:
329,192,583580,128,0,583768:0:0:0:0:
36,192,583768,1,0,0:0:0:47:Kick.wav
109,192,583768,1,0,0:0:0:0:
402,192,583768,128,0,584143:0:0:0:0:
475,192,583955,128,0,584143:0:0:0:0:
36,192,584143,1,0,0:0:0:48:Kick.wav
109,192,584143,1,0,0:0:0:0:
256,192,584143,128,0,584518:0:0:0:0:
329,192,584330,128,0,584518:0:0:0:0:
36,192,584518,1,0,0:0:0:48:Kick.wav
109,192,584518,1,0,0:0:0:0:
402,192,584518,128,0,584893:0:0:0:0:
329,192,584705,128,0,584893:0:0:0:0:
36,192,584893,1,0,0:0:0:49:Kick.wav
109,192,584893,1,0,0:0:0:35:B6S.wav
256,192,584893,128,0,585268:0:0:0:0:
475,192,584893,1,0,0:0:0:0:
109,192,585080,128,0,585268:0:0:0:0:
36,192,585268,128,0,585643:0:0:0:50:Kick.wav
402,192,585268,1,0,0:0:0:0:
475,192,585268,1,0,0:0:0:0:
182,192,585455,128,0,585643:0:0:0:0:
256,192,585643,128,0,586018:0:0:0:51:Kick.wav
402,192,585643,1,0,0:0:0:0:
475,192,585643,1,0,0:0:0:0:
109,192,585830,128,0,586018:0:0:0:0:
36,192,586018,128,0,586393:0:0:0:51:Kick.wav
402,192,586018,1,0,0:0:0:0:
475,192,586018,1,0,0:0:0:0:
182,192,586205,128,0,586393:0:0:0:0:
256,192,586393,128,0,586768:0:0:0:52:Kick.wav
402,192,586393,1,0,0:0:0:0:
475,192,586393,1,0,0:0:0:0:
182,192,586580,128,0,586768:0:0:0:0:
36,192,586768,128,0,587143:0:0:0:52:Kick.wav
402,192,586768,1,0,0:0:0:0:
475,192,586768,1,0,0:0:0:0:
109,192,586955,128,0,587143:0:0:0:0:
256,192,587143,128,0,587518:0:0:0:53:Kick.wav
402,192,587143,1,0,0:0:0:0:
475,192,587143,1,0,0:0:0:0:
36,192,587330,128,0,587518:0:0:0:0:
109,192,587518,128,0,587893:0:0:0:53:Kick.wav
402,192,587518,1,0,0:0:0:0:
475,192,587518,1,0,0:0:0:0:
182,192,587705,128,0,587893:0:0:0:0:
36,192,587893,1,0,0:0:0:54:Kick.wav
256,192,587893,1,0,0:0:0:50:1F#6S_Gb6S.wav
329,192,587893,1,0,0:0:0:0:
475,192,587893,128,0,588268:0:0:0:0:
402,192,588080,128,0,588268:0:0:0:0:
36,192,588268,1,0,0:0:0:54:Kick.wav
109,192,588268,1,0,0:0:0:0:
329,192,588268,128,0,588643:0:0:0:0:
402,192,588455,128,0,588643:0:0:0:0:
36,192,588643,1,0,0:0:0:55:Kick.wav
109,192,588643,1,0,0:0:0:0:
256,192,588643,128,0,589018:0:0:0:0:
329,192,588830,128,0,589018:0:0:0:0:
36,192,589018,1,0,0:0:0:55:Kick.wav
109,192,589018,1,0,0:0:0:0:
475,192,589018,128,0,589393:0:0:0:0:
402,192,589205,128,0,589393:0:0:0:0:
36,192,589393,1,0,0:0:0:20:Kick.wav
109,192,589393,1,0,0:0:0:40:A3Harp.wav
256,192,589393,1,0,0:0:0:0:
329,192,589393,1,0,0:0:0:0:
182,192,589580,1,0,0:0:0:40:1G3Harp.wav
109,192,589768,1,0,0:0:0:40:1F#3Harp.wav
36,192,589955,1,0,0:0:0:40:E3Harp.wav
182,192,590143,1,0,0:0:0:40:1G3Harp.wav
329,192,590330,1,0,0:0:0:40:A3Harp.wav
182,192,590518,1,0,0:0:0:40:1F#3Harp.wav
36,192,590705,1,0,0:0:0:40:D3Harp.wav
109,192,590893,1,0,0:0:0:40:E3Harp.wav
182,192,591080,1,0,0:0:0:40:A3Harp.wav
256,192,591268,1,0,0:0:0:40:B3Harp.wav
182,192,591455,1,0,0:0:0:40:1G3Harp.wav
256,192,591643,1,0,0:0:0:40:1F#3Harp.wav
329,192,591830,1,0,0:0:0:40:1F#4Harp.wav
402,192,592018,1,0,0:0:0:40:1G4Harp.wav
329,192,592205,1,0,0:0:0:40:D4Harp.wav
475,192,592393,1,0,0:0:0:40:A4Harp.wav
329,192,592580,1,0,0:0:0:40:1F#4Harp.wav
182,192,592768,1,0,0:0:0:40:E4Harp.wav
36,192,592955,1,0,0:0:0:40:B3Harp.wav
329,192,593143,128,0,593307:0:0:0:0:
402,192,593143,128,0,593307:0:0:0:0:
256,192,593307,1,0,0:0:0:0:
402,192,593424,128,0,593518:0:0:0:0:
475,192,593424,128,0,593518:0:0:0:0:
36,192,593518,128,0,593564:0:0:0:0:
109,192,593518,128,0,593564:0:0:0:0:
182,192,593611,128,0,593658:0:0:0:0:
256,192,593611,128,0,593658:0:0:0:0:
475,192,593705,128,0,593893:0:0:0:0:
402,192,593752,128,0,593893:0:0:0:0:
329,192,593799,128,0,593893:0:0:0:0:
36,192,593893,128,0,594143:0:0:0:100:Kick.wav
109,192,593893,128,0,594143:0:0:0:0:
182,192,593893,128,0,594143:0:0:0:0:
329,192,594018,1,0,0:0:0:0:
402,192,594018,1,0,0:0:0:0:
329,192,594143,1,0,0:0:0:0:
402,192,594143,1,0,0:0:0:0:
36,192,594268,1,0,0:0:0:100:Kick.wav
109,192,594268,1,0,0:0:0:0:
182,192,594268,1,0,0:0:0:0:
402,192,594393,1,0,0:0:0:0:
475,192,594393,1,0,0:0:0:0:
402,192,594518,1,0,0:0:0:0:
475,192,594518,1,0,0:0:0:0:
36,192,594643,1,0,0:0:0:100:Kick.wav
109,192,594643,1,0,0:0:0:0:
182,192,594643,1,0,0:0:0:0:
329,192,594768,1,0,0:0:0:0:
402,192,594768,1,0,0:0:0:0:
256,192,594830,1,0,0:0:0:0:
329,192,594893,1,0,0:0:0:0:
402,192,594955,1,0,0:0:0:0:
36,192,595018,1,0,0:0:0:50:Clap.wav
109,192,595018,1,8,0:0:0:100:Kick.wav
182,192,595018,1,0,0:0:0:0:
475,192,595018,1,0,0:0:0:0:
256,192,595143,1,0,0:0:0:0:
329,192,595143,1,0,0:0:0:0:
402,192,595268,1,0,0:0:0:0:
475,192,595268,1,0,0:0:0:0:
329,192,595393,128,0,595643:0:0:0:100:Kick.wav
402,192,595393,128,0,595643:0:0:0:0:
475,192,595393,128,0,595643:0:0:0:0:
109,192,595518,1,0,0:0:0:0:
182,192,595518,1,0,0:0:0:0:
109,192,595643,1,0,0:0:0:0:
182,192,595643,1,0,0:0:0:0:
329,192,595768,1,0,0:0:0:100:Kick.wav
402,192,595768,1,0,0:0:0:0:
475,192,595768,1,0,0:0:0:0:
36,192,595893,1,0,0:0:0:0:
109,192,595893,1,0,0:0:0:0:
36,192,596018,1,0,0:0:0:0:
109,192,596018,1,0,0:0:0:0:
329,192,596143,1,0,0:0:0:100:Kick.wav
402,192,596143,1,0,0:0:0:0:
475,192,596143,1,0,0:0:0:0:
109,192,596268,1,0,0:0:0:0:
182,192,596268,1,0,0:0:0:0:
109,192,596393,1,0,0:0:0:0:
182,192,596393,1,0,0:0:0:0:
475,192,596518,1,0,0:0:0:100:Kick.wav
402,192,596549,1,0,0:0:0:0:
329,192,596580,1,0,0:0:0:0:
256,192,596611,1,0,0:0:0:0:
36,192,596643,1,0,0:0:0:0:
109,192,596674,1,0,0:0:0:0:
182,192,596705,1,0,0:0:0:0:
256,192,596736,1,0,0:0:0:0:
475,192,596768,1,0,0:0:0:0:
402,192,596799,1,0,0:0:0:0:
36,192,596893,128,0,597143:0:0:0:100:Kick.wav
109,192,596893,128,0,597143:0:0:0:0:
182,192,596893,128,0,597143:0:0:0:0:
329,192,597018,1,0,0:0:0:0:
402,192,597018,1,0,0:0:0:0:
329,192,597143,1,0,0:0:0:0:
402,192,597143,1,0,0:0:0:0:
36,192,597268,1,0,0:0:0:100:Kick.wav
109,192,597268,1,0,0:0:0:0:
182,192,597268,1,0,0:0:0:0:
402,192,597393,1,0,0:0:0:0:
475,192,597393,1,0,0:0:0:0:
402,192,597518,1,0,0:0:0:0:
475,192,597518,1,0,0:0:0:0:
36,192,597643,1,0,0:0:0:100:Kick.wav
109,192,597643,1,0,0:0:0:0:
182,192,597643,1,0,0:0:0:0:
329,192,597768,1,0,0:0:0:0:
402,192,597768,1,0,0:0:0:0:
329,192,597893,1,0,0:0:0:0:
402,192,597893,1,0,0:0:0:0:
36,192,597924,1,0,0:0:0:0:
109,192,597955,1,0,0:0:0:0:
182,192,597986,1,0,0:0:0:0:
256,192,598018,1,0,0:0:0:100:Kick.wav
256,192,598080,1,0,0:0:0:0:
402,192,598143,1,0,0:0:0:0:
475,192,598143,1,0,0:0:0:0:
402,192,598268,1,0,0:0:0:0:
475,192,598268,1,0,0:0:0:0:
36,192,598393,128,0,599018:0:0:0:100:Kick.wav
109,192,598393,128,0,598643:0:0:0:0:
182,192,598393,128,0,598643:0:0:0:0:
256,192,598518,1,0,0:0:0:0:
329,192,598518,1,0,0:0:0:0:
402,192,598643,128,0,598893:0:0:0:0:
475,192,598643,128,0,598893:0:0:0:0:
109,192,598768,128,0,599018:0:0:0:100:Kick.wav
182,192,598768,128,0,599393:0:0:0:0:
256,192,598893,1,0,0:0:0:0:
329,192,598893,1,0,0:0:0:0:
402,192,599018,1,0,0:0:0:0:
475,192,599018,1,0,0:0:0:0:
36,192,599143,128,0,599393:0:0:0:100:Kick.wav
109,192,599143,128,0,599393:0:0:0:0:
402,192,599268,1,0,0:0:0:0:
475,192,599268,1,0,0:0:0:0:
256,192,599393,1,0,0:0:0:0:
329,192,599393,1,0,0:0:0:0:
36,192,599518,1,0,0:0:0:100:Kick.wav
109,192,599518,1,0,0:0:0:0:
402,192,599518,1,0,0:0:0:0:
475,192,599518,1,0,0:0:0:0:
182,192,599580,1,0,0:0:0:0:
256,192,599580,1,0,0:0:0:0:
329,192,599580,1,0,0:0:0:0:
36,192,599643,128,0,599799:0:0:0:0:
109,192,599643,128,0,599799:0:0:0:0:
402,192,599643,128,0,599799:0:0:0:0:
475,192,599643,128,0,599799:0:0:0:0:
182,192,599768,128,0,599893:0:0:0:0:
329,192,599768,128,0,599893:0:0:0:0:
36,192,599893,128,0,600143:0:0:0:100:Kick.wav
109,192,599893,128,0,600143:0:0:0:0:
402,192,599893,128,0,600143:0:0:0:0:
475,192,599893,128,0,600143:0:0:0:0:
182,192,600018,1,0,0:0:0:0:
329,192,600018,1,0,0:0:0:0:
182,192,600143,1,0,0:0:0:0:
329,192,600143,1,0,0:0:0:0:
256,192,600268,1,0,0:0:0:100:Kick.wav
402,192,600268,1,0,0:0:0:0:
475,192,600268,1,0,0:0:0:0:
36,192,600393,1,0,0:0:0:0:
182,192,600393,1,0,0:0:0:0:
36,192,600518,1,0,0:0:0:0:
182,192,600518,1,0,0:0:0:0:
256,192,600643,1,0,0:0:0:100:Kick.wav
402,192,600643,1,0,0:0:0:0:
475,192,600643,1,0,0:0:0:0:
182,192,600768,1,0,0:0:0:0:
329,192,600768,1,0,0:0:0:0:
475,192,600830,1,0,0:0:0:0:
182,192,600893,1,0,0:0:0:0:
402,192,600893,1,0,0:0:0:0:
329,192,600955,1,0,0:0:0:0:
36,192,601018,1,0,0:0:0:50:Clap.wav
109,192,601018,1,0,0:0:0:100:Kick.wav
256,192,601018,1,0,0:0:0:0:
329,192,601143,1,0,0:0:0:0:
475,192,601143,1,0,0:0:0:0:
329,192,601268,1,0,0:0:0:0:
475,192,601268,1,0,0:0:0:0:
36,192,601393,128,0,601643:0:0:0:100:Kick.wav
109,192,601393,128,0,601643:0:0:0:0:
256,192,601393,128,0,601643:0:0:0:0:
182,192,601518,1,0,0:0:0:0:
329,192,601518,1,0,0:0:0:0:
182,192,601643,1,0,0:0:0:0:
329,192,601643,1,0,0:0:0:0:
256,192,601768,1,0,0:0:0:100:Kick.wav
402,192,601768,1,0,0:0:0:0:
475,192,601768,1,0,0:0:0:0:
36,192,601893,1,0,0:0:0:0:
182,192,601893,1,0,0:0:0:0:
36,192,602018,1,0,0:0:0:0:
182,192,602018,1,0,0:0:0:0:
256,192,602143,1,0,0:0:0:100:Kick.wav
402,192,602143,1,0,0:0:0:0:
475,192,602143,1,0,0:0:0:0:
182,192,602268,1,0,0:0:0:0:
329,192,602268,1,0,0:0:0:0:
182,192,602393,1,0,0:0:0:0:
329,192,602393,1,0,0:0:0:0:
36,192,602518,1,0,0:0:0:100:Kick.wav
109,192,602518,1,0,0:0:0:0:
475,192,602518,1,0,0:0:0:0:
402,192,602549,1,0,0:0:0:0:
329,192,602580,1,0,0:0:0:0:
256,192,602611,1,0,0:0:0:0:
182,192,602643,1,0,0:0:0:0:
109,192,602674,1,0,0:0:0:0:
36,192,602705,1,0,0:0:0:0:
475,192,602736,1,0,0:0:0:0:
402,192,602768,1,0,0:0:0:0:
329,192,602799,1,0,0:0:0:0:
36,192,602893,128,0,603143:0:0:0:100:Kick.wav
109,192,602893,128,0,603143:0:0:0:0:
182,192,602893,128,0,603143:0:0:0:0:
402,192,603018,1,0,0:0:0:0:
475,192,603018,1,0,0:0:0:0:
402,192,603143,1,0,0:0:0:0:
475,192,603143,1,0,0:0:0:0:
36,192,603268,1,0,0:0:0:100:Kick.wav
109,192,603268,1,0,0:0:0:0:
256,192,603268,1,0,0:0:0:0:
182,192,603393,1,0,0:0:0:0:
329,192,603393,1,0,0:0:0:0:
182,192,603518,1,0,0:0:0:0:
329,192,603518,1,0,0:0:0:0:
36,192,603643,1,0,0:0:0:100:Kick.wav
109,192,603643,1,0,0:0:0:0:
256,192,603643,1,0,0:0:0:0:
329,192,603768,1,0,0:0:0:0:
475,192,603768,1,0,0:0:0:0:
329,192,603893,1,0,0:0:0:0:
475,192,603893,1,0,0:0:0:0:
36,192,603924,1,0,0:0:0:0:
109,192,603955,1,0,0:0:0:0:
182,192,603986,1,0,0:0:0:0:
256,192,604018,1,0,0:0:0:100:Kick.wav
256,192,604080,1,0,0:0:0:0:
182,192,604143,1,0,0:0:0:0:
329,192,604143,1,0,0:0:0:0:
182,192,604268,1,0,0:0:0:0:
329,192,604268,1,0,0:0:0:0:
329,192,604393,128,0,604768:0:0:0:100:Kick.wav
402,192,604393,128,0,604768:0:0:0:0:
475,192,604393,128,0,605143:0:0:0:0:
182,192,604518,1,0,0:0:0:0:
256,192,604518,1,0,0:0:0:0:
36,192,604643,128,0,604893:0:0:0:0:
109,192,604643,128,0,604893:0:0:0:0:
182,192,604768,128,0,605143:0:0:0:100:Kick.wav
256,192,604768,128,0,605143:0:0:0:0:
329,192,604893,1,0,0:0:0:0:
402,192,604893,1,0,0:0:0:0:
36,192,605018,1,0,0:0:0:0:
109,192,605018,1,0,0:0:0:0:
329,192,605143,128,0,605486:0:0:0:100:Kick.wav
402,192,605143,1,0,0:0:0:0:
36,192,605518,128,0,605893:0:0:0:0:
182,192,605518,1,0,0:0:0:0:
256,192,605549,1,0,0:0:0:0:
329,192,605580,1,0,0:0:0:0:
402,192,605611,1,0,0:0:0:0:
109,192,605643,128,0,605893:0:0:0:0:
475,192,605643,1,0,0:0:0:0:
182,192,605768,128,0,605893:0:0:0:0:
256,192,605768,1,0,0:0:0:0:
329,192,605768,1,0,0:0:0:0:
256,192,605893,128,0,606143:0:0:0:100:Kick.wav
329,192,605893,128,0,606143:0:0:0:0:
402,192,605893,128,0,606143:0:0:0:0:
475,192,605893,128,0,608893:0:0:0:0:
36,192,606018,1,0,0:0:0:0:
109,192,606018,1,0,0:0:0:0:
36,192,606143,1,0,0:0:0:0:
109,192,606143,1,0,0:0:0:0:
256,192,606268,1,0,0:0:0:100:Kick.wav
329,192,606268,1,0,0:0:0:0:
402,192,606268,1,0,0:0:0:0:
109,192,606393,1,0,0:0:0:0:
182,192,606393,1,0,0:0:0:0:
109,192,606518,1,0,0:0:0:0:
182,192,606518,1,0,0:0:0:0:
256,192,606643,1,0,0:0:0:100:Kick.wav
329,192,606643,1,0,0:0:0:0:
402,192,606643,1,0,0:0:0:0:
36,192,606768,1,0,0:0:0:0:
109,192,606768,1,0,0:0:0:0:
36,192,606893,1,0,0:0:0:0:
109,192,606893,1,0,0:0:0:0:
256,192,607018,1,0,0:0:0:100:Kick.wav
329,192,607018,1,0,0:0:0:0:
402,192,607018,1,0,0:0:0:0:
109,192,607143,1,0,0:0:0:0:
182,192,607143,1,0,0:0:0:0:
109,192,607268,1,0,0:0:0:0:
182,192,607268,1,0,0:0:0:0:
36,192,607393,128,0,607643:0:0:0:100:Kick.wav
109,192,607393,128,0,607643:0:0:0:0:
182,192,607393,128,0,607643:0:0:0:0:
329,192,607518,1,0,0:0:0:0:
402,192,607518,1,0,0:0:0:0:
329,192,607643,1,0,0:0:0:0:
402,192,607643,1,0,0:0:0:0:
36,192,607768,1,0,0:0:0:100:Kick.wav
109,192,607768,1,0,0:0:0:0:
182,192,607768,1,0,0:0:0:0:
256,192,607893,1,0,0:0:0:0:
329,192,607893,1,0,0:0:0:0:
256,192,608018,1,0,0:0:0:0:
329,192,608018,1,0,0:0:0:0:
36,192,608143,1,0,0:0:0:100:Kick.wav
109,192,608143,1,0,0:0:0:0:
182,192,608143,1,0,0:0:0:0:
329,192,608268,1,0,0:0:0:0:
402,192,608268,1,0,0:0:0:0:
329,192,608393,1,0,0:0:0:0:
402,192,608393,1,0,0:0:0:0:
36,192,608518,1,0,0:0:0:100:Kick.wav
109,192,608518,1,0,0:0:0:0:
182,192,608518,1,0,0:0:0:0:
256,192,608643,1,0,0:0:0:0:
329,192,608643,1,0,0:0:0:0:
256,192,608768,1,0,0:0:0:0:
329,192,608768,1,0,0:0:0:0:
36,192,608893,128,0,609143:0:0:0:100:Kick.wav
109,192,608893,128,0,609143:0:0:0:0:
182,192,608893,128,0,609143:0:0:0:0:
329,192,608893,128,0,611893:0:0:0:0:
402,192,609018,1,0,0:0:0:0:
475,192,609018,1,0,0:0:0:0:
402,192,609143,1,0,0:0:0:0:
475,192,609143,1,0,0:0:0:0:
36,192,609268,1,0,0:0:0:100:Kick.wav
109,192,609268,1,0,0:0:0:0:
182,192,609268,1,0,0:0:0:0:
256,192,609393,1,0,0:0:0:0:
402,192,609393,1,0,0:0:0:0:
256,192,609518,1,0,0:0:0:0:
402,192,609518,1,0,0:0:0:0:
36,192,609643,1,0,0:0:0:100:Kick.wav
109,192,609643,1,0,0:0:0:0:
182,192,609643,1,0,0:0:0:0:
402,192,609768,1,0,0:0:0:0:
475,192,609768,1,0,0:0:0:0:
402,192,609893,1,0,0:0:0:0:
475,192,609893,1,0,0:0:0:0:
36,192,610018,1,0,0:0:0:100:Kick.wav
109,192,610018,1,0,0:0:0:0:
182,192,610018,1,0,0:0:0:0:
256,192,610143,1,0,0:0:0:0:
402,192,610143,1,0,0:0:0:0:
256,192,610268,1,0,0:0:0:0:
402,192,610268,1,0,0:0:0:0:
36,192,610393,128,0,610643:0:0:0:100:Kick.wav
109,192,610393,128,0,610643:0:0:0:0:
182,192,610393,128,0,611018:0:0:0:0:
256,192,610518,1,0,0:0:0:0:
402,192,610643,128,0,610893:0:0:0:0:
475,192,610643,128,0,610893:0:0:0:0:
36,192,610768,128,0,611268:0:0:0:100:Kick.wav
109,192,610768,128,0,611268:0:0:0:0:
256,192,610893,1,0,0:0:0:0:
402,192,611018,1,0,0:0:0:0:
475,192,611018,1,0,0:0:0:0:
182,192,611143,128,0,611518:0:0:0:100:Kick.wav
256,192,611143,128,0,611518:0:0:0:0:
402,192,611268,1,0,0:0:0:0:
475,192,611268,1,0,0:0:0:0:
36,192,611393,1,0,0:0:0:0:
109,192,611393,1,0,0:0:0:0:
402,192,611518,1,0,0:0:0:100:Kick.wav
475,192,611518,1,0,0:0:0:0:
182,192,611643,1,0,0:0:0:0:
256,192,611643,1,0,0:0:0:0:
36,192,611768,1,0,0:0:0:0:
109,192,611768,1,0,0:0:0:0:
182,192,611893,128,0,614893:0:0:0:100:Kick.wav
256,192,611893,128,0,612143:0:0:0:0:
402,192,611893,128,0,612143:0:0:0:0:
475,192,611893,128,0,612143:0:0:0:0:
36,192,612018,1,0,0:0:0:0:
109,192,612018,1,0,0:0:0:0:
36,192,612143,1,0,0:0:0:0:
109,192,612143,1,0,0:0:0:0:
256,192,612268,1,0,0:0:0:100:Kick.wav
402,192,612268,1,0,0:0:0:0:
475,192,612268,1,0,0:0:0:0:
109,192,612393,1,0,0:0:0:0:
329,192,612393,1,0,0:0:0:0:
109,192,612518,1,0,0:0:0:0:
329,192,612518,1,0,0:0:0:0:
256,192,612643,1,0,0:0:0:100:Kick.wav
402,192,612643,1,0,0:0:0:0:
475,192,612643,1,0,0:0:0:0:
36,192,612768,1,0,0:0:0:0:
109,192,612768,1,0,0:0:0:0:
36,192,612893,1,0,0:0:0:0:
109,192,612893,1,0,0:0:0:0:
256,192,613018,1,0,0:0:0:100:Kick.wav
402,192,613018,1,0,0:0:0:0:
475,192,613018,1,0,0:0:0:0:
109,192,613143,1,0,0:0:0:0:
329,192,613143,1,0,0:0:0:0:
402,192,613268,1,0,0:0:0:0:
475,192,613268,1,0,0:0:0:0:
36,192,613393,128,0,613643:0:0:0:100:Kick.wav
109,192,613393,128,0,613643:0:0:0:0:
256,192,613393,128,0,613643:0:0:0:0:
402,192,613518,1,0,0:0:0:0:
475,192,613518,1,0,0:0:0:0:
402,192,613643,1,0,0:0:0:0:
475,192,613643,1,0,0:0:0:0:
36,192,613768,1,0,0:0:0:100:Kick.wav
109,192,613768,1,0,0:0:0:0:
256,192,613768,1,0,0:0:0:0:
329,192,613893,1,0,0:0:0:0:
402,192,613893,1,0,0:0:0:0:
329,192,614018,1,0,0:0:0:0:
402,192,614018,1,0,0:0:0:0:
36,192,614143,1,0,0:0:0:100:Kick.wav
109,192,614143,1,0,0:0:0:0:
256,192,614143,1,0,0:0:0:0:
402,192,614268,1,0,0:0:0:0:
475,192,614268,1,0,0:0:0:0:
402,192,614393,1,0,0:0:0:0:
475,192,614393,1,0,0:0:0:0:
36,192,614518,1,0,0:0:0:100:Kick.wav
109,192,614518,1,0,0:0:0:0:
256,192,614518,1,0,0:0:0:0:
329,192,614643,1,0,0:0:0:0:
402,192,614643,1,0,0:0:0:0:
329,192,614768,1,0,0:0:0:0:
402,192,614768,1,0,0:0:0:0:
36,192,614893,128,0,616393:0:0:0:100:Kick.wav
109,192,614893,128,0,615143:0:0:0:0:
256,192,614893,128,0,615143:0:0:0:0:
475,192,614893,128,0,615143:0:0:0:0:
329,192,615018,1,0,0:0:0:0:
402,192,615018,1,0,0:0:0:0:
329,192,615143,1,0,0:0:0:0:
402,192,615143,1,0,0:0:0:0:
109,192,615268,1,0,0:0:0:100:Kick.wav
256,192,615268,1,0,0:0:0:0:
475,192,615268,1,0,0:0:0:0:
182,192,615393,1,0,0:0:0:0:
329,192,615393,1,0,0:0:0:0:
182,192,615518,1,0,0:0:0:0:
329,192,615518,1,0,0:0:0:0:
109,192,615643,1,0,0:0:0:100:Kick.wav
256,192,615643,1,0,0:0:0:0:
475,192,615643,1,0,0:0:0:0:
329,192,615768,1,0,0:0:0:0:
402,192,615768,1,0,0:0:0:0:
329,192,615893,1,0,0:0:0:0:
402,192,615893,1,0,0:0:0:0:
109,192,616018,1,0,0:0:0:100:Kick.wav
256,192,616018,1,0,0:0:0:0:
475,192,616018,1,0,0:0:0:0:
182,192,616143,1,0,0:0:0:0:
329,192,616143,1,0,0:0:0:0:
182,192,616268,1,0,0:0:0:0:
329,192,616268,1,0,0:0:0:0:
109,192,616393,1,0,0:0:0:100:Kick.wav
256,192,616393,1,0,0:0:0:25:E5H.wav
329,192,616455,1,0,0:0:0:0:
402,192,616518,1,0,0:0:0:0:
329,192,616580,1,0,0:0:0:0:
475,192,616580,1,0,0:0:0:0:
256,192,616643,1,0,0:0:0:0:
182,192,616705,1,0,0:0:0:0:
36,192,616768,1,0,0:0:0:0:
109,192,616768,1,0,0:0:0:0:
402,192,616768,1,0,0:0:0:0:
36,192,616893,1,0,0:0:0:0:
109,192,616893,1,0,0:0:0:0:
329,192,616893,1,0,0:0:0:0:
36,192,617018,1,0,0:0:0:0:
109,192,617018,1,0,0:0:0:0:
256,192,617018,1,0,0:0:0:0:
329,192,617143,1,0,0:0:0:30:B5H.wav
402,192,617143,128,0,617893:0:0:0:0:
475,192,617143,128,0,617893:0:0:0:0:
256,192,617174,1,0,0:0:0:0:
182,192,617205,1,0,0:0:0:0:
109,192,617236,1,0,0:0:0:0:
36,192,617268,1,0,0:0:0:0:
329,192,617330,1,0,0:0:0:0:
182,192,617393,1,0,0:0:0:0:
256,192,617518,1,0,0:0:0:0:
329,192,617643,1,0,0:0:0:0:
329,192,617768,1,0,0:0:0:0:
36,192,617893,128,0,620893:0:0:0:35:A5H.wav
109,192,617893,1,0,0:0:0:35:C2H.wav
182,192,617893,1,0,0:0:0:70:Kick.wav
256,192,617893,128,0,618268:0:0:0:0:
329,192,618018,1,0,0:0:0:0:
402,192,618018,1,0,0:0:0:0:
109,192,618143,1,0,0:0:0:0:
182,192,618143,1,0,0:0:0:0:
329,192,618268,128,0,618643:0:0:0:70:SnareWet.wav
402,192,618268,1,0,0:0:0:70:Kick.wav
475,192,618268,1,0,0:0:0:0:
182,192,618393,1,0,0:0:0:0:
256,192,618393,1,0,0:0:0:0:
402,192,618518,1,0,0:0:0:0:
475,192,618518,1,0,0:0:0:0:
109,192,618643,1,0,0:0:0:70:Kick.wav
182,192,618643,1,0,0:0:0:0:
256,192,618643,128,0,619018:0:0:0:0:
329,192,618768,1,0,0:0:0:0:
402,192,618768,1,0,0:0:0:0:
109,192,618893,1,0,0:0:0:0:
182,192,618893,1,0,0:0:0:0:
329,192,619018,128,0,619393:0:0:0:70:Kick.wav
402,192,619018,1,0,0:0:0:0:
475,192,619018,1,0,0:0:0:0:
182,192,619143,1,0,0:0:0:0:
256,192,619143,1,0,0:0:0:0:
402,192,619268,1,0,0:0:0:0:
475,192,619268,1,0,0:0:0:0:
109,192,619393,128,0,619768:0:0:0:70:Kick.wav
182,192,619393,1,0,0:0:0:0:
256,192,619393,1,0,0:0:0:0:
329,192,619518,1,0,0:0:0:0:
402,192,619518,1,0,0:0:0:0:
182,192,619643,1,0,0:0:0:0:
256,192,619643,1,0,0:0:0:0:
329,192,619768,128,0,620143:0:0:0:40:SnareWet.wav
402,192,619768,1,0,0:0:0:70:Kick.wav
475,192,619768,1,0,0:0:0:0:
109,192,619893,1,0,0:0:0:0:
182,192,619893,1,0,0:0:0:0:
402,192,620018,1,0,0:0:0:0:
475,192,620018,1,0,0:0:0:0:
109,192,620143,128,0,620518:0:0:0:100:Kick.wav
182,192,620143,1,0,0:0:0:0:
256,192,620143,1,0,0:0:0:0:
329,192,620268,1,0,0:0:0:0:
402,192,620268,1,0,0:0:0:0:
182,192,620393,1,0,0:0:0:0:
256,192,620393,1,0,0:0:0:0:
329,192,620518,128,0,620893:0:0:0:70:Kick.wav
402,192,620518,1,0,0:0:0:0:
475,192,620518,1,0,0:0:0:0:
109,192,620643,1,0,0:0:0:0:
182,192,620643,1,0,0:0:0:0:
402,192,620768,1,0,0:0:0:0:
475,192,620768,1,0,0:0:0:0:
109,192,620893,1,0,0:0:0:70:Kick.wav
182,192,620893,1,0,0:0:0:0:
256,192,620893,1,0,0:0:0:0:
402,192,620893,1,0,0:0:0:0:
475,192,620893,1,0,0:0:0:0:
182,192,621018,1,0,0:0:0:0:
256,192,621018,1,0,0:0:0:0:
182,192,621143,1,0,0:0:0:0:
256,192,621143,1,0,0:0:0:0:
36,192,621268,1,0,0:0:0:30:SnareWet.wav
109,192,621268,1,0,0:0:0:70:Kick.wav
402,192,621268,1,0,0:0:0:0:
475,192,621268,1,0,0:0:0:0:
402,192,621393,1,0,0:0:0:0:
475,192,621393,1,0,0:0:0:0:
402,192,621518,1,0,0:0:0:0:
475,192,621518,1,0,0:0:0:0:
36,192,621643,1,0,0:0:0:70:Kick.wav
109,192,621643,1,0,0:0:0:0:
256,192,621643,1,0,0:0:0:0:
329,192,621643,1,0,0:0:0:0:
36,192,621768,1,0,0:0:0:0:
109,192,621768,1,0,0:0:0:0:
36,192,621893,1,0,0:0:0:0:
109,192,621893,1,0,0:0:0:0:
182,192,622018,1,0,0:0:0:70:Kick.wav
256,192,622018,1,0,0:0:0:0:
329,192,622018,1,0,0:0:0:0:
475,192,622018,1,0,0:0:0:0:
256,192,622143,1,0,0:0:0:0:
329,192,622143,1,0,0:0:0:0:
256,192,622268,1,0,0:0:0:0:
329,192,622268,1,0,0:0:0:0:
36,192,622393,1,0,0:0:0:70:Kick.wav
109,192,622393,1,0,0:0:0:0:
182,192,622393,1,0,0:0:0:0:
402,192,622393,1,0,0:0:0:0:
475,192,622393,1,0,0:0:0:0:
109,192,622518,1,0,0:0:0:0:
182,192,622518,1,0,0:0:0:0:
109,192,622643,1,0,0:0:0:0:
182,192,622643,1,0,0:0:0:0:
36,192,622768,1,0,0:0:0:15:SnareWet.wav
256,192,622768,1,0,0:0:0:100:Kick.wav
329,192,622768,1,0,0:0:0:0:
402,192,622768,1,0,0:0:0:0:
329,192,622893,1,0,0:0:0:0:
402,192,622893,1,0,0:0:0:0:
329,192,623018,1,0,0:0:0:0:
402,192,623018,1,0,0:0:0:0:
36,192,623143,1,0,0:0:0:70:Kick.wav
182,192,623143,1,0,0:0:0:0:
256,192,623143,1,0,0:0:0:0:
475,192,623143,1,0,0:0:0:0:
182,192,623268,1,0,0:0:0:0:
256,192,623268,1,0,0:0:0:0:
182,192,623393,1,0,0:0:0:0:
256,192,623393,1,0,0:0:0:0:
36,192,623518,1,0,0:0:0:30:B5H.wav
109,192,623518,1,0,0:0:0:70:Kick.wav
329,192,623518,1,0,0:0:0:0:
402,192,623518,1,0,0:0:0:0:
475,192,623518,128,0,623893:0:0:0:0:
329,192,623643,1,0,0:0:0:0:
402,192,623643,1,0,0:0:0:0:
329,192,623768,1,0,0:0:0:0:
402,192,623768,1,0,0:0:0:0:
36,192,623893,128,0,626893:0:0:0:70:1F#5S_Gb5S.wav
109,192,623893,128,0,624268:0:0:0:35:E2H.wav
182,192,623893,1,0,0:0:0:70:Kick.wav
256,192,623893,1,0,0:0:0:0:
402,192,624018,1,0,0:0:0:0:
475,192,624018,1,0,0:0:0:0:
182,192,624143,1,0,0:0:0:0:
256,192,624143,1,0,0:0:0:0:
329,192,624268,1,0,0:0:0:70:SnareWet.wav
402,192,624268,1,0,0:0:0:70:Kick.wav
475,192,624268,128,0,624643:0:0:0:0:
109,192,624393,1,0,0:0:0:0:
182,192,624393,1,0,0:0:0:0:
329,192,624518,1,0,0:0:0:0:
402,192,624518,1,0,0:0:0:0:
109,192,624643,128,0,625018:0:0:0:70:Kick.wav
182,192,624643,1,0,0:0:0:0:
256,192,624643,1,0,0:0:0:0:
402,192,624768,1,0,0:0:0:0:
475,192,624768,1,0,0:0:0:0:
182,192,624893,1,0,0:0:0:0:
256,192,624893,1,0,0:0:0:0:
329,192,625018,1,0,0:0:0:70:Kick.wav
402,192,625018,1,0,0:0:0:0:
475,192,625018,128,0,625393:0:0:0:0:
109,192,625143,1,0,0:0:0:0:
182,192,625143,1,0,0:0:0:0:
329,192,625268,1,0,0:0:0:0:
402,192,625268,1,0,0:0:0:0:
109,192,625393,128,0,625768:0:0:0:70:Kick.wav
182,192,625393,1,0,0:0:0:0:
256,192,625393,1,0,0:0:0:0:
402,192,625518,1,0,0:0:0:0:
475,192,625518,1,0,0:0:0:0:
182,192,625643,1,0,0:0:0:0:
256,192,625643,1,0,0:0:0:0:
329,192,625768,1,0,0:0:0:40:SnareWet.wav
402,192,625768,1,0,0:0:0:70:Kick.wav
475,192,625768,128,0,626143:0:0:0:0:
109,192,625893,1,0,0:0:0:0:
182,192,625893,1,0,0:0:0:0:
329,192,626018,1,0,0:0:0:0:
402,192,626018,1,0,0:0:0:0:
109,192,626143,128,0,626518:0:0:0:70:Kick.wav
182,192,626143,1,0,0:0:0:0:
256,192,626143,1,0,0:0:0:0:
402,192,626268,1,0,0:0:0:0:
475,192,626268,1,0,0:0:0:0:
182,192,626393,1,0,0:0:0:0:
256,192,626393,1,0,0:0:0:0:
329,192,626518,1,0,0:0:0:70:Kick.wav
402,192,626518,1,0,0:0:0:0:
475,192,626518,128,0,626768:0:0:0:0:
109,192,626643,1,0,0:0:0:0:
182,192,626643,1,0,0:0:0:0:
329,192,626768,1,0,0:0:0:0:
402,192,626768,1,0,0:0:0:0:
182,192,626893,128,0,628393:0:0:0:30:E5H.wav
329,192,626893,128,0,627268:0:0:0:70:Kick.wav
402,192,626893,1,0,0:0:0:0:
475,192,626893,1,0,0:0:0:0:
36,192,627018,1,0,0:0:0:0:
109,192,627018,1,0,0:0:0:0:
402,192,627143,1,0,0:0:0:0:
475,192,627143,1,0,0:0:0:0:
36,192,627268,1,0,0:0:0:30:SnareWet.wav
109,192,627268,1,0,0:0:0:70:Kick.wav
256,192,627268,128,0,627643:0:0:0:0:
329,192,627393,1,0,0:0:0:0:
402,192,627393,1,0,0:0:0:0:
36,192,627518,1,0,0:0:0:0:
109,192,627518,1,0,0:0:0:0:
329,192,627643,128,0,628018:0:0:0:70:Kick.wav
402,192,627643,1,0,0:0:0:20:E5H.wav
475,192,627643,1,0,0:0:0:0:
36,192,627768,1,0,0:0:0:0:
109,192,627768,1,0,0:0:0:0:
402,192,627893,1,0,0:0:0:0:
475,192,627893,1,0,0:0:0:0:
36,192,628018,1,0,0:0:0:70:Kick.wav
109,192,628018,1,0,0:0:0:0:
256,192,628018,128,0,628393:0:0:0:0:
329,192,628143,1,0,0:0:0:0:
402,192,628143,1,0,0:0:0:0:
36,192,628268,1,0,0:0:0:0:
109,192,628268,1,0,0:0:0:0:
36,192,628393,1,0,0:0:0:25:E5H.wav
109,192,628393,1,0,0:0:0:55:Kick.wav
475,192,628393,1,0,0:0:0:40:B5H.wav
402,192,628455,1,0,0:0:0:0:
329,192,628518,1,0,0:0:0:0:
36,192,628580,1,0,0:0:0:0:
256,192,628580,1,0,0:0:0:0:
109,192,628643,1,0,0:0:0:0:
182,192,628705,1,0,0:0:0:0:
256,192,628768,1,0,0:0:0:40:SnareWet.wav
402,192,628768,1,0,0:0:0:55:Kick.wav
475,192,628768,1,0,0:0:0:0:
329,192,628768,1,0,0:0:0:0:
402,192,628893,1,0,0:0:0:0:
475,192,628893,1,0,0:0:0:0:
402,192,629018,1,0,0:0:0:0:
475,192,629018,1,0,0:0:0:0:
36,192,629143,128,0,629768:0:0:0:30:B5H.wav
109,192,629143,128,0,629768:0:0:0:55:Kick.wav
256,192,629143,1,0,0:0:0:40:D6H.wav
329,192,629143,1,0,0:0:0:0:
402,192,629268,1,0,0:0:0:0:
475,192,629268,1,0,0:0:0:0:
182,192,629393,1,0,0:0:0:0:
256,192,629393,1,0,0:0:0:0:
329,192,629518,1,0,0:0:0:55:Kick.wav
402,192,629518,1,0,0:0:0:0:
329,192,629643,1,0,0:0:0:0:
402,192,629643,1,0,0:0:0:0:
329,192,629768,1,0,0:0:0:0:
402,192,629768,1,0,0:0:0:0:
36,192,629893,1,0,0:0:0:40:E6H.wav
109,192,629893,1,0,0:0:0:35:C2H.wav
256,192,629893,128,0,632893:0:0:0:70:Kick.wav
475,192,629893,128,0,630268:0:0:0:40:A5H.wav
329,192,630018,1,0,0:0:0:0:
402,192,630018,1,0,0:0:0:0:
109,192,630143,1,0,0:0:0:0:
182,192,630143,1,0,0:0:0:0:
36,192,630268,128,0,630643:0:0:0:70:SnareWet.wav
329,192,630268,1,0,0:0:0:70:Kick.wav
402,192,630268,1,0,0:0:0:0:
109,192,630393,1,0,0:0:0:0:
182,192,630393,1,0,0:0:0:0:
402,192,630518,1,0,0:0:0:0:
475,192,630518,1,0,0:0:0:0:
109,192,630643,1,0,0:0:0:70:Kick.wav
182,192,630643,1,0,0:0:0:0:
329,192,630643,128,0,631018:0:0:0:0:
402,192,630768,1,0,0:0:0:0:
475,192,630768,1,0,0:0:0:0:
36,192,630893,1,0,0:0:0:0:
109,192,630893,1,0,0:0:0:0:
182,192,631018,128,0,631393:0:0:0:70:Kick.wav
402,192,631018,1,0,0:0:0:0:
475,192,631018,1,0,0:0:0:0:
36,192,631143,1,0,0:0:0:0:
109,192,631143,1,0,0:0:0:0:
329,192,631268,1,0,0:0:0:0:
402,192,631268,1,0,0:0:0:0:
36,192,631393,1,0,0:0:0:70:Kick.wav
109,192,631393,1,0,0:0:0:0:
475,192,631393,128,0,631768:0:0:0:0:
329,192,631518,1,0,0:0:0:0:
402,192,631518,1,0,0:0:0:0:
109,192,631643,1,0,0:0:0:0:
182,192,631643,1,0,0:0:0:0:
36,192,631768,128,0,632143:0:0:0:40:SnareWet.wav
329,192,631768,1,0,0:0:0:70:Kick.wav
402,192,631768,1,0,0:0:0:0:
109,192,631893,1,0,0:0:0:0:
182,192,631893,1,0,0:0:0:0:
402,192,632018,1,0,0:0:0:0:
475,192,632018,1,0,0:0:0:0:
109,192,632143,1,0,0:0:0:70:Kick.wav
182,192,632143,1,0,0:0:0:0:
329,192,632143,128,0,632518:0:0:0:0:
402,192,632268,1,0,0:0:0:0:
475,192,632268,1,0,0:0:0:0:
36,192,632393,1,0,0:0:0:0:
109,192,632393,1,0,0:0:0:0:
182,192,632518,128,0,632893:0:0:0:70:Kick.wav
402,192,632518,1,0,0:0:0:0:
475,192,632518,1,0,0:0:0:0:
36,192,632643,1,0,0:0:0:0:
109,192,632643,1,0,0:0:0:0:
329,192,632768,1,0,0:0:0:0:
402,192,632768,1,0,0:0:0:0:
36,192,632893,1,0,0:0:0:70:Kick.wav
109,192,632893,1,0,0:0:0:0:
329,192,632893,1,0,0:0:0:0:
402,192,632893,1,0,0:0:0:0:
475,192,632893,1,0,0:0:0:0:
109,192,633018,1,0,0:0:0:0:
256,192,633018,1,0,0:0:0:0:
109,192,633143,1,0,0:0:0:0:
256,192,633143,1,0,0:0:0:0:
36,192,633268,1,0,0:0:0:30:SnareWet.wav
182,192,633268,1,0,0:0:0:70:Kick.wav
329,192,633268,1,0,0:0:0:0:
475,192,633268,1,0,0:0:0:0:
329,192,633393,1,0,0:0:0:0:
475,192,633393,1,0,0:0:0:0:
329,192,633518,1,0,0:0:0:0:
475,192,633518,1,0,0:0:0:0:
36,192,633643,1,0,0:0:0:70:Kick.wav
182,192,633643,1,0,0:0:0:0:
256,192,633643,1,0,0:0:0:0:
402,192,633643,1,0,0:0:0:0:
36,192,633768,1,0,0:0:0:0:
182,192,633768,1,0,0:0:0:0:
36,192,633893,1,0,0:0:0:0:
182,192,633893,1,0,0:0:0:0:
109,192,634018,1,0,0:0:0:70:Kick.wav
256,192,634018,1,0,0:0:0:0:
402,192,634018,1,0,0:0:0:0:
475,192,634018,1,0,0:0:0:0:
256,192,634143,1,0,0:0:0:0:
402,192,634143,1,0,0:0:0:0:
256,192,634268,1,0,0:0:0:0:
402,192,634268,1,0,0:0:0:0:
36,192,634393,1,0,0:0:0:70:Kick.wav
109,192,634393,1,0,0:0:0:0:
182,192,634393,1,0,0:0:0:0:
329,192,634393,1,0,0:0:0:0:
475,192,634393,1,0,0:0:0:0:
182,192,634518,1,0,0:0:0:0:
329,192,634518,1,0,0:0:0:0:
182,192,634643,1,0,0:0:0:0:
329,192,634643,1,0,0:0:0:0:
36,192,634768,1,0,0:0:0:15:SnareWet.wav
109,192,634768,1,0,0:0:0:70:Kick.wav
256,192,634768,1,0,0:0:0:0:
475,192,634768,1,0,0:0:0:0:
109,192,634893,1,0,0:0:0:0:
256,192,634893,1,0,0:0:0:0:
109,192,635018,1,0,0:0:0:0:
256,192,635018,1,0,0:0:0:0:
36,192,635143,1,0,0:0:0:70:Kick.wav
182,192,635143,1,0,0:0:0:0:
329,192,635143,1,0,0:0:0:0:
475,192,635143,1,0,0:0:0:0:
329,192,635268,1,0,0:0:0:0:
475,192,635268,1,0,0:0:0:0:
329,192,635393,1,0,0:0:0:0:
475,192,635393,1,0,0:0:0:0:
36,192,635518,1,0,0:0:0:35:B5H.wav
182,192,635518,1,0,0:0:0:70:Kick.wav
256,192,635518,1,0,0:0:0:0:
402,192,635518,128,0,635893:0:0:0:0:
36,192,635643,1,0,0:0:0:0:
182,192,635643,1,0,0:0:0:0:
36,192,635768,1,0,0:0:0:0:
182,192,635768,1,0,0:0:0:0:
109,192,635893,1,0,0:0:0:30:E2H.wav
182,192,635893,1,0,0:0:0:35:D6H_s.wav
256,192,635893,128,0,636268:0:0:0:70:Kick.wav
329,192,635893,128,0,638893:0:0:0:0:
402,192,636018,1,0,0:0:0:0:
475,192,636018,1,0,0:0:0:0:
109,192,636143,1,0,0:0:0:0:
182,192,636143,1,0,0:0:0:0:
36,192,636268,128,0,636643:0:0:0:70:SnareWet.wav
402,192,636268,1,0,0:0:0:70:Kick.wav
475,192,636268,1,0,0:0:0:0:
182,192,636393,1,0,0:0:0:0:
256,192,636393,1,0,0:0:0:0:
402,192,636518,1,0,0:0:0:0:
475,192,636518,1,0,0:0:0:0:
109,192,636643,1,0,0:0:0:70:Kick.wav
256,192,636643,128,0,637018:0:0:0:0:
182,192,636643,1,0,0:0:0:35:D6H_s.wav
402,192,636768,1,0,0:0:0:0:
475,192,636768,1,0,0:0:0:0:
109,192,636893,1,0,0:0:0:0:
182,192,636893,1,0,0:0:0:0:
36,192,637018,128,0,637393:0:0:0:70:Kick.wav
402,192,637018,1,0,0:0:0:0:
475,192,637018,1,0,0:0:0:0:
182,192,637143,1,0,0:0:0:0:
256,192,637143,1,0,0:0:0:0:
402,192,637268,1,0,0:0:0:0:
475,192,637268,1,0,0:0:0:0:
109,192,637393,1,0,0:0:0:70:Kick.wav
256,192,637393,128,0,637768:0:0:0:0:
182,192,637393,1,0,0:0:0:35:D6H_s.wav
402,192,637518,1,0,0:0:0:0:
475,192,637518,1,0,0:0:0:0:
109,192,637643,1,0,0:0:0:0:
182,192,637643,1,0,0:0:0:0:
36,192,637768,128,0,638143:0:0:0:40:SnareWet.wav
402,192,637768,1,0,0:0:0:70:Kick.wav
475,192,637768,1,0,0:0:0:0:
182,192,637893,1,0,0:0:0:0:
256,192,637893,1,0,0:0:0:0:
402,192,638018,1,0,0:0:0:0:
475,192,638018,1,0,0:0:0:0:
109,192,638143,1,0,0:0:0:35:D6H_s.wav
182,192,638143,1,0,0:0:0:100:Kick.wav
256,192,638143,128,0,638518:0:0:0:0:
36,192,638268,1,0,0:0:0:35:E6H_s.wav
402,192,638268,1,0,0:0:0:0:
475,192,638268,1,0,0:0:0:0:
109,192,638393,1,0,0:0:0:0:
182,192,638393,1,0,0:0:0:0:
36,192,638518,128,0,638893:0:0:0:35:D6H.wav
402,192,638518,1,0,0:0:0:100:Kick.wav
475,192,638518,1,0,0:0:0:0:
256,192,638643,1,0,0:0:0:0:
109,192,638768,1,0,0:0:0:0:
182,192,638893,1,0,0:0:0:40:C#6H_Db6H.wav
256,192,638893,128,0,639549:0:0:0:0:
475,192,638893,1,0,0:0:0:0:
402,192,638893,1,0,0:0:0:100:Kick.wav
36,192,639643,1,0,0:0:0:0:
256,192,639643,128,0,640393:0:0:0:0:
475,192,639643,1,0,0:0:0:0:
36,192,640393,1,0,0:0:0:25:E5H.wav
109,192,640455,1,0,0:0:0:0:
182,192,640518,1,0,0:0:0:0:
256,192,640580,1,0,0:0:0:0:
475,192,640580,1,0,0:0:0:0:
402,192,640643,1,0,0:0:0:0:
329,192,640705,1,0,0:0:0:0:
182,192,640768,1,0,0:0:0:0:
256,192,640768,1,0,0:0:0:0:
182,192,640893,1,0,0:0:0:0:
256,192,640893,1,0,0:0:0:0:
182,192,641018,1,0,0:0:0:0:
256,192,641018,1,0,0:0:0:0:
36,192,641143,1,0,0:0:0:25:B5H.wav
109,192,641143,1,0,0:0:0:40:D6H_s.wav
329,192,641143,128,0,641893:0:0:0:0:
475,192,641143,128,0,641893:0:0:0:0:
36,192,641893,1,0,0:0:0:70:E6H_s.wav
182,192,641893,1,0,0:0:0:0:
109,192,642643,128,0,645643:0:0:0:70:Kick.wav
182,192,642643,1,0,0:0:0:70:C2H.wav
256,192,642643,1,0,0:0:0:0:
329,192,642643,1,0,0:0:0:0:
402,192,642643,128,0,645643:0:0:0:0:
182,192,643018,1,0,0:0:0:70:Kick.wav
256,192,643018,1,0,0:0:0:0:
329,192,643018,1,0,0:0:0:0:
182,192,643393,1,0,0:0:0:70:Kick.wav
256,192,643393,1,0,0:0:0:0:
329,192,643393,1,0,0:0:0:0:
182,192,643768,1,0,0:0:0:70:Kick.wav
256,192,643768,1,0,0:0:0:0:
329,192,643768,1,0,0:0:0:0:
182,192,644143,1,0,0:0:0:70:Kick.wav
256,192,644143,1,0,0:0:0:0:
329,192,644143,1,0,0:0:0:0:
182,192,644518,1,0,0:0:0:70:Kick.wav
256,192,644518,1,0,0:0:0:0:
329,192,644518,1,0,0:0:0:0:
36,192,644893,1,0,0:0:0:70:Kick.wav
182,192,644893,1,0,0:0:0:70:D2H.wav
256,192,644893,1,0,0:0:0:0:
329,192,644893,1,0,0:0:0:0:
475,192,644893,1,0,0:0:0:0:
182,192,645268,1,0,0:0:0:70:Kick.wav
256,192,645268,1,0,0:0:0:0:
329,192,645268,1,0,0:0:0:0:
36,192,645643,1,0,0:0:0:70:Kick.wav
182,192,645643,128,0,646018:0:0:0:0:
256,192,645643,1,0,0:0:0:0:
329,192,645643,1,0,0:0:0:0:
475,192,645643,128,0,646018:0:0:0:0:
36,192,646018,1,0,0:0:0:70:Kick.wav
109,192,646018,1,0,0:0:0:0:
256,192,646018,128,0,646393:0:0:0:0:
329,192,646018,1,0,0:0:0:0:
402,192,646018,128,0,646393:0:0:0:0:
36,192,646393,128,0,648830:0:0:0:70:Kick.wav
109,192,646393,1,0,0:0:0:0:
182,192,646393,128,0,648830:0:0:0:0:
329,192,646393,1,0,0:0:0:0:
475,192,646393,1,0,0:0:0:0:
109,192,646768,1,0,0:0:0:70:Kick.wav
256,192,646768,1,0,0:0:0:0:
402,192,646768,1,0,0:0:0:0:
109,192,647143,1,0,0:0:0:70:Kick.wav
256,192,647143,1,0,0:0:0:0:
402,192,647143,1,0,0:0:0:0:
109,192,647518,1,0,0:0:0:70:Kick.wav
256,192,647518,1,0,0:0:0:0:
402,192,647518,1,0,0:0:0:0:
109,192,647893,1,0,0:0:0:70:E2H.wav
256,192,647893,1,0,0:0:0:70:Kick.wav
329,192,647893,1,0,0:0:0:0:
402,192,647893,1,0,0:0:0:0:
475,192,647893,1,0,0:0:0:0:
109,192,648268,1,0,0:0:0:70:Kick.wav
256,192,648268,1,0,0:0:0:0:
402,192,648268,1,0,0:0:0:0:
109,192,648643,1,0,0:0:0:70:Kick.wav
256,192,648643,1,0,0:0:0:0:
402,192,648643,1,0,0:0:0:0:
109,192,648830,128,0,649111:0:0:0:0:
256,192,648830,128,0,649111:0:0:0:0:
329,192,648830,1,0,0:0:0:0:
475,192,648830,1,0,0:0:0:0:
36,192,649018,1,0,0:0:0:70:Kick.wav
402,192,649018,1,0,0:0:0:0:
475,192,649018,1,0,0:0:0:0:
182,192,649111,128,0,649393:0:0:0:0:
329,192,649111,128,0,649393:0:0:0:0:
36,192,649393,1,0,0:0:0:70:Kick.wav
109,192,649393,1,0,0:0:0:0:
256,192,649393,1,0,0:0:0:0:
402,192,649393,128,0,650893:0:0:0:0:
475,192,649393,128,0,650893:0:0:0:0:
36,192,649768,1,0,0:0:0:70:Kick.wav
109,192,649768,1,0,0:0:0:0:
256,192,649768,1,0,0:0:0:0:
36,192,650143,1,0,0:0:0:70:Kick.wav
109,192,650143,1,0,0:0:0:0:
256,192,650143,1,0,0:0:0:0:
36,192,650518,1,0,0:0:0:70:Kick.wav
109,192,650518,1,0,0:0:0:0:
256,192,650518,1,0,0:0:0:0:
36,192,650893,1,0,0:0:0:70:Kick.wav
109,192,650893,1,0,0:0:0:70:C#2H_Db2H.wav
182,192,650893,128,0,652018:0:0:0:0:
256,192,650893,1,0,0:0:0:0:
329,192,650893,128,0,652018:0:0:0:0:
109,192,651268,1,0,0:0:0:70:Kick.wav
256,192,651268,1,0,0:0:0:0:
402,192,651268,1,0,0:0:0:0:
109,192,651643,1,0,0:0:0:70:Kick.wav
256,192,651643,1,0,0:0:0:0:
402,192,651643,1,0,0:0:0:0:
36,192,652018,128,0,652205:0:0:0:70:Kick.wav
109,192,652018,1,0,0:0:0:0:
256,192,652018,128,0,652205:0:0:0:0:
402,192,652018,1,0,0:0:0:0:
475,192,652018,1,0,0:0:0:0:
109,192,652205,128,0,652393:0:0:0:0:
182,192,652205,1,0,0:0:0:0:
329,192,652205,128,0,652393:0:0:0:0:
402,192,652205,1,0,0:0:0:0:
475,192,652205,1,0,0:0:0:0:
36,192,652393,1,0,0:0:0:70:Kick.wav
182,192,652393,1,0,0:0:0:0:
256,192,652393,1,0,0:0:0:0:
475,192,652393,1,0,0:0:0:0:
329,192,652580,1,0,0:0:0:50:SnareHat.wav
475,192,652580,1,0,0:0:0:0:
36,192,652674,1,0,0:0:0:50:SnareHat.wav
182,192,652674,1,0,0:0:0:0:
329,192,652768,1,0,0:0:0:50:SnareHat.wav
475,192,652768,1,0,0:0:0:100:Kick.wav
36,192,652861,1,0,0:0:0:50:SnareHat.wav
182,192,652861,1,0,0:0:0:0:
256,192,652955,1,0,0:0:0:50:1Tom.wav
402,192,652955,1,0,0:0:0:0:
329,192,653143,1,0,0:0:0:50:SnareHat.wav
475,192,653143,1,0,0:0:0:100:Kick.wav
36,192,653236,1,0,0:0:0:50:SnareHat.wav
182,192,653236,1,0,0:0:0:0:
329,192,653330,1,0,0:0:0:50:SnareHat.wav
475,192,653330,1,0,0:0:0:0:
36,192,653424,1,0,0:0:0:50:SnareHat.wav
182,192,653424,1,0,0:0:0:0:
256,192,653518,1,0,0:0:0:50:1Tom.wav
402,192,653518,1,0,0:0:0:0:
36,192,653705,1,0,0:0:0:75:SnareWet.wav
182,192,653705,1,0,0:0:0:50:SnareHat.wav
329,192,653705,1,0,0:0:0:0:
36,192,653893,1,0,0:0:0:70:Kick.wav
109,192,653893,1,0,0:0:0:70:1Finish.wav
182,192,653893,1,0,0:0:0:70:C2H.wav
329,192,653893,1,0,0:0:0:0:
402,192,653893,1,0,0:0:0:0:
256,192,654080,1,0,0:0:0:0:
475,192,654080,1,0,0:0:0:0:
182,192,654174,1,0,0:0:0:0:
402,192,654174,1,0,0:0:0:0:
36,192,654268,1,0,0:0:0:70:Kick.wav
109,192,654268,1,0,0:0:0:0:
256,192,654268,1,0,0:0:0:0:
329,192,654268,1,0,0:0:0:0:
182,192,654361,1,0,0:0:0:0:
402,192,654361,1,0,0:0:0:0:
256,192,654455,1,0,0:0:0:0:
475,192,654455,1,0,0:0:0:0:
36,192,654643,1,0,0:0:0:70:Kick.wav
109,192,654643,1,0,0:0:0:0:
182,192,654643,1,0,0:0:0:0:
475,192,654643,1,0,0:0:0:0:
256,192,654736,1,0,0:0:0:0:
402,192,654736,1,0,0:0:0:0:
182,192,654830,1,0,0:0:0:0:
329,192,654830,1,0,0:0:0:0:
109,192,654924,1,0,0:0:0:0:
256,192,654924,1,0,0:0:0:0:
36,192,655018,1,0,0:0:0:70:Kick.wav
329,192,655018,1,0,0:0:0:0:
402,192,655018,1,0,0:0:0:0:
475,192,655018,1,0,0:0:0:0:
109,192,655111,1,0,0:0:0:0:
256,192,655111,1,0,0:0:0:0:
182,192,655205,1,0,0:0:0:0:
329,192,655205,1,0,0:0:0:0:
256,192,655299,1,0,0:0:0:0:
402,192,655299,1,0,0:0:0:0:
36,192,655393,1,0,0:0:0:70:Kick.wav
109,192,655393,1,0,0:0:0:0:
329,192,655393,1,0,0:0:0:0:
475,192,655393,1,0,0:0:0:0:
182,192,655580,1,0,0:0:0:0:
402,192,655580,1,0,0:0:0:0:
109,192,655674,1,0,0:0:0:0:
329,192,655674,1,0,0:0:0:0:
36,192,655768,1,0,0:0:0:70:Kick.wav
256,192,655768,1,0,0:0:0:0:
402,192,655768,1,0,0:0:0:0:
475,192,655768,1,0,0:0:0:0:
109,192,655861,1,0,0:0:0:0:
329,192,655861,1,0,0:0:0:0:
182,192,655955,1,0,0:0:0:0:
402,192,655955,1,0,0:0:0:0:
36,192,656143,1,0,0:0:0:70:Kick.wav
256,192,656143,1,0,0:0:0:0:
329,192,656143,1,0,0:0:0:0:
475,192,656143,1,0,0:0:0:0:
182,192,656236,1,0,0:0:0:0:
402,192,656236,1,0,0:0:0:0:
109,192,656330,1,0,0:0:0:0:
329,192,656330,1,0,0:0:0:0:
36,192,656424,1,0,0:0:0:0:
256,192,656424,1,0,0:0:0:0:
182,192,656518,1,0,0:0:0:70:Kick.wav
329,192,656518,1,0,0:0:0:0:
402,192,656518,1,0,0:0:0:0:
475,192,656518,1,0,0:0:0:0:
36,192,656611,1,0,0:0:0:0:
256,192,656611,1,0,0:0:0:0:
109,192,656705,1,0,0:0:0:0:
329,192,656705,1,0,0:0:0:0:
182,192,656799,1,0,0:0:0:0:
402,192,656799,1,0,0:0:0:0:
36,192,656893,1,0,0:0:0:70:Kick.wav
109,192,656893,1,0,0:0:0:70:D2H.wav
256,192,656893,1,0,0:0:0:0:
329,192,656893,1,0,0:0:0:0:
475,192,656893,1,0,0:0:0:0:
182,192,657080,1,0,0:0:0:0:
329,192,657080,1,0,0:0:0:0:
256,192,657174,1,0,0:0:0:0:
402,192,657174,1,0,0:0:0:0:
36,192,657268,1,0,0:0:0:70:Kick.wav
109,192,657268,1,0,0:0:0:0:
329,192,657268,1,0,0:0:0:0:
475,192,657268,1,0,0:0:0:0:
182,192,657361,1,0,0:0:0:0:
402,192,657361,1,0,0:0:0:0:
109,192,657455,1,0,0:0:0:0:
329,192,657455,1,0,0:0:0:0:
109,192,657643,1,0,0:0:0:70:Kick.wav
182,192,657643,1,0,0:0:0:0:
256,192,657643,1,0,0:0:0:0:
402,192,657643,1,0,0:0:0:0:
475,192,657643,1,0,0:0:0:0:
36,192,657736,1,0,0:0:0:0:
329,192,657736,1,0,0:0:0:0:
256,192,657830,1,0,0:0:0:0:
475,192,657830,1,0,0:0:0:0:
182,192,657924,1,0,0:0:0:0:
402,192,657924,1,0,0:0:0:0:
36,192,658018,1,0,0:0:0:70:Kick.wav
109,192,658018,1,0,0:0:0:0:
256,192,658018,1,0,0:0:0:0:
329,192,658018,1,0,0:0:0:0:
182,192,658111,1,0,0:0:0:0:
402,192,658111,1,0,0:0:0:0:
256,192,658205,1,0,0:0:0:0:
475,192,658205,1,0,0:0:0:0:
329,192,658299,1,0,0:0:0:0:
36,192,658393,1,0,0:0:0:70:Kick.wav
182,192,658393,1,0,0:0:0:0:
402,192,658393,1,0,0:0:0:0:
475,192,658393,1,0,0:0:0:0:
36,192,658580,1,0,0:0:0:0:
256,192,658580,1,0,0:0:0:0:
109,192,658674,1,0,0:0:0:0:
329,192,658674,1,0,0:0:0:0:
182,192,658768,1,0,0:0:0:70:Kick.wav
256,192,658768,1,0,0:0:0:0:
402,192,658768,1,0,0:0:0:0:
475,192,658768,1,0,0:0:0:0:
109,192,658861,1,0,0:0:0:0:
329,192,658861,1,0,0:0:0:0:
36,192,658955,1,0,0:0:0:0:
256,192,658955,1,0,0:0:0:0:
36,192,659143,1,0,0:0:0:70:Kick.wav
329,192,659143,1,0,0:0:0:0:
402,192,659143,1,0,0:0:0:0:
475,192,659143,1,0,0:0:0:0:
109,192,659236,1,0,0:0:0:0:
256,192,659236,1,0,0:0:0:0:
182,192,659330,1,0,0:0:0:0:
329,192,659330,1,0,0:0:0:0:
256,192,659424,1,0,0:0:0:0:
402,192,659424,1,0,0:0:0:0:
36,192,659518,1,0,0:0:0:70:Kick.wav
109,192,659518,1,0,0:0:0:0:
182,192,659518,1,0,0:0:0:0:
475,192,659518,1,0,0:0:0:0:
256,192,659611,1,0,0:0:0:0:
402,192,659611,1,0,0:0:0:0:
182,192,659705,1,0,0:0:0:0:
329,192,659705,1,0,0:0:0:0:
109,192,659799,1,0,0:0:0:0:
256,192,659799,1,0,0:0:0:0:
36,192,659893,1,0,0:0:0:70:Kick.wav
182,192,659893,1,0,0:0:0:70:E2H.wav
329,192,659893,1,0,0:0:0:0:
402,192,659893,1,0,0:0:0:0:
475,192,659893,1,0,0:0:0:0:
109,192,660080,1,0,0:0:0:0:
329,192,660080,1,0,0:0:0:0:
182,192,660174,1,0,0:0:0:0:
402,192,660174,1,0,0:0:0:0:
36,192,660268,1,0,0:0:0:70:Kick.wav
109,192,660268,1,0,0:0:0:0:
256,192,660268,1,0,0:0:0:0:
475,192,660268,1,0,0:0:0:0:
182,192,660361,1,0,0:0:0:0:
402,192,660361,1,0,0:0:0:0:
109,192,660455,1,0,0:0:0:0:
329,192,660455,1,0,0:0:0:0:
36,192,660643,1,0,0:0:0:70:Kick.wav
182,192,660643,1,0,0:0:0:0:
256,192,660643,1,0,0:0:0:0:
475,192,660643,1,0,0:0:0:0:
109,192,660736,1,0,0:0:0:0:
329,192,660736,1,0,0:0:0:0:
182,192,660830,1,0,0:0:0:0:
402,192,660830,1,0,0:0:0:0:
256,192,660924,1,0,0:0:0:0:
475,192,660924,1,0,0:0:0:0:
36,192,661018,1,0,0:0:0:70:Kick.wav
109,192,661018,1,0,0:0:0:0:
182,192,661018,1,0,0:0:0:0:
329,192,661018,1,0,0:0:0:0:
256,192,661111,1,0,0:0:0:0:
475,192,661111,1,0,0:0:0:0:
182,192,661205,1,0,0:0:0:0:
402,192,661205,1,0,0:0:0:0:
109,192,661299,1,0,0:0:0:0:
329,192,661299,1,0,0:0:0:0:
36,192,661393,1,0,0:0:0:70:Kick.wav
256,192,661393,1,0,0:0:0:0:
402,192,661393,1,0,0:0:0:0:
475,192,661393,1,0,0:0:0:0:
182,192,661580,1,0,0:0:0:0:
329,192,661580,1,0,0:0:0:0:
109,192,661674,1,0,0:0:0:0:
256,192,661674,1,0,0:0:0:0:
36,192,661768,1,0,0:0:0:70:Kick.wav
182,192,661768,1,0,0:0:0:0:
402,192,661768,1,0,0:0:0:0:
475,192,661768,1,0,0:0:0:0:
109,192,661861,1,0,0:0:0:0:
329,192,661861,1,0,0:0:0:0:
182,192,661955,1,0,0:0:0:0:
402,192,661955,1,0,0:0:0:0:
36,192,662143,1,0,0:0:0:35:Kick.wav
109,192,662143,1,0,0:0:0:0:
256,192,662143,1,0,0:0:0:0:
329,192,662143,1,0,0:0:0:0:
402,192,662143,1,0,0:0:0:0:
182,192,662236,1,0,0:0:0:0:
475,192,662236,1,0,0:0:0:0:
36,192,662330,1,0,0:0:0:0:
256,192,662330,1,0,0:0:0:0:
109,192,662424,1,0,0:0:0:0:
329,192,662424,1,0,0:0:0:0:
182,192,662518,1,0,0:0:0:70:Kick.wav
256,192,662518,1,0,0:0:0:0:
402,192,662518,1,0,0:0:0:0:
475,192,662518,1,0,0:0:0:0:
109,192,662611,1,0,0:0:0:0:
329,192,662611,1,0,0:0:0:0:
36,192,662705,1,0,0:0:0:0:
256,192,662705,1,0,0:0:0:0:
182,192,662799,1,0,0:0:0:0:
36,192,662893,1,0,0:0:0:70:Kick.wav
109,192,662893,1,0,0:0:0:70:E2H.wav
256,192,662893,1,0,0:0:0:0:
329,192,662893,128,0,663080:0:0:0:0:
402,192,662893,128,0,663174:0:0:0:0:
475,192,662893,128,0,663174:0:0:0:0:
36,192,663080,128,0,663361:0:0:0:0:
109,192,663080,128,0,663361:0:0:0:0:
182,192,663174,128,0,663268:0:0:0:0:
329,192,663174,128,0,663268:0:0:0:0:
256,192,663268,128,0,663924:0:0:0:70:Kick.wav
402,192,663268,128,0,663549:0:0:0:0:
475,192,663268,128,0,663549:0:0:0:0:
182,192,663361,128,0,663549:0:0:0:0:
329,192,663361,128,0,663736:0:0:0:0:
36,192,663455,128,0,663830:0:0:0:0:
109,192,663455,128,0,663830:0:0:0:0:
182,192,663643,128,0,663924:0:0:0:70:Kick.wav
402,192,663643,128,0,663736:0:0:0:0:
475,192,663643,128,0,664018:0:0:0:0:
329,192,663830,128,0,663924:0:0:0:0:
402,192,663830,128,0,664111:0:0:0:0:
36,192,663924,128,0,664018:0:0:0:0:
109,192,663924,128,0,664111:0:0:0:0:
182,192,664018,128,0,664205:0:0:0:70:Kick.wav
256,192,664018,128,0,664299:0:0:0:0:
329,192,664018,128,0,664205:0:0:0:0:
36,192,664111,1,0,0:0:0:0:
475,192,664111,1,0,0:0:0:0:
109,192,664205,1,0,0:0:0:0:
402,192,664205,1,0,0:0:0:0:
182,192,664299,1,0,0:0:0:0:
329,192,664299,1,0,0:0:0:0:
36,192,664393,128,0,665143:0:0:0:70:Kick.wav
109,192,664393,128,0,665143:0:0:0:25:E5H.wav
256,192,664393,1,0,0:0:0:0:
475,192,664393,1,0,0:0:0:0:
329,192,664486,1,0,0:0:0:0:
182,192,664580,1,0,0:0:0:0:
402,192,664580,1,0,0:0:0:0:
329,192,664674,1,0,0:0:0:0:
256,192,664768,1,0,0:0:0:0:
475,192,664768,1,0,0:0:0:0:
402,192,664861,1,0,0:0:0:0:
182,192,664955,1,0,0:0:0:0:
329,192,664955,1,0,0:0:0:0:
402,192,665049,1,0,0:0:0:0:
256,192,665143,1,0,0:0:0:25:B5H.wav
329,192,665166,1,0,0:0:0:0:
402,192,665189,1,0,0:0:0:0:
475,192,665213,1,0,0:0:0:0:
36,192,665236,1,0,0:0:0:0:
109,192,665260,1,0,0:0:0:0:
182,192,665283,1,0,0:0:0:0:
256,192,665307,1,0,0:0:0:0:
329,192,665330,1,0,0:0:0:70:Kick.wav
402,192,665330,1,0,0:0:0:0:
109,192,665424,1,0,0:0:0:70:Kick.wav
182,192,665424,1,0,0:0:0:0:
256,192,665518,1,0,0:0:0:70:1LR4_SnareKKF_Distort.wav
402,192,665518,1,0,0:0:0:0:
475,192,665518,1,0,0:0:0:0:
256,192,665611,1,0,0:0:0:70:1LR4_SnareKKF_Distort.wav
402,192,665611,1,0,0:0:0:0:
475,192,665611,1,0,0:0:0:0:
36,192,665705,1,0,0:0:0:70:Kick.wav
109,192,665705,1,0,0:0:0:0:
329,192,665705,1,0,0:0:0:0:
182,192,665799,1,0,0:0:0:70:Kick.wav
256,192,665799,1,0,0:0:0:0:
329,192,665893,1,0,0:0:0:70:Kick.wav
402,192,665893,1,0,0:0:0:0:
109,192,665939,1,0,0:0:0:70:Kick.wav
182,192,665939,1,0,0:0:0:0:
329,192,665986,1,0,0:0:0:70:Kick.wav
402,192,665986,1,0,0:0:0:0:
109,192,666033,1,0,0:0:0:70:Kick.wav
182,192,666033,1,0,0:0:0:0:
329,192,666080,1,0,0:0:0:70:Kick.wav
402,192,666080,1,0,0:0:0:0:
182,192,666174,1,0,0:0:0:70:Kick.wav
256,192,666174,1,0,0:0:0:0:
36,192,666268,1,0,0:0:0:70:1LR4_SnareKKF_Distort.wav
109,192,666268,1,0,0:0:0:100:SnareHat.wav
329,192,666268,1,0,0:0:0:0:
36,192,666361,1,0,0:0:0:70:1LR4_SnareKKF_Distort.wav
109,192,666361,1,0,0:0:0:100:SnareHat.wav
329,192,666361,1,0,0:0:0:0:
256,192,666455,1,0,0:0:0:70:1Tom.wav
402,192,666455,1,0,0:0:0:0:
475,192,666455,1,0,0:0:0:0:
36,192,666549,1,0,0:0:0:70:1Tom.wav
109,192,666549,1,0,0:0:0:0:
182,192,666549,1,0,0:0:0:0:
256,192,666643,1,0,0:0:0:70:Kick.wav
329,192,666643,1,0,0:0:0:70:A5H.wav
402,192,666643,1,0,0:0:0:70:C2H.wav
475,192,666643,128,0,669643:0:0:0:35:E6H.wav
36,192,666736,1,0,0:0:0:0:
182,192,666736,1,0,0:0:0:0:
109,192,666830,1,0,0:0:0:70:1LR4_SnareKKF_Distort.wav
329,192,666830,1,0,0:0:0:70:1LR_Hat Normal.wav
402,192,666830,1,0,0:0:0:0:
182,192,666924,1,0,0:0:0:0:
256,192,666924,1,0,0:0:0:0:
36,192,667018,1,0,0:0:0:70:Kick.wav
109,192,667018,1,0,0:0:0:0:
329,192,667018,1,0,0:0:0:0:
402,192,667018,1,0,0:0:0:0:
182,192,667111,1,0,0:0:0:0:
256,192,667111,1,0,0:0:0:0:
329,192,667205,1,0,0:0:0:70:1LR_Hat Normal.wav
402,192,667205,1,0,0:0:0:0:
36,192,667299,1,0,0:0:0:0:
109,192,667299,1,0,0:0:0:0:
182,192,667393,1,0,0:0:0:70:Kick.wav
256,192,667393,1,0,0:0:0:0:
329,192,667393,1,0,0:0:0:0:
402,192,667393,1,0,0:0:0:0:
36,192,667486,1,0,0:0:0:0:
109,192,667486,1,0,0:0:0:0:
182,192,667580,1,0,0:0:0:70:1LR_Hat Normal.wav
402,192,667580,1,0,0:0:0:0:
36,192,667674,1,0,0:0:0:0:
256,192,667674,1,0,0:0:0:0:
109,192,667768,1,0,0:0:0:70:Kick.wav
182,192,667768,1,0,0:0:0:70:1LR4_SnareKKF_Distort.wav
329,192,667768,1,0,0:0:0:0:
402,192,667768,1,0,0:0:0:0:
36,192,667861,1,0,0:0:0:0:
256,192,667861,1,0,0:0:0:0:
182,192,667955,1,0,0:0:0:70:1LR_Hat Normal.wav
329,192,667955,1,0,0:0:0:0:
36,192,668049,1,0,0:0:0:0:
109,192,668049,1,0,0:0:0:0:
182,192,668143,1,0,0:0:0:70:Kick.wav
256,192,668143,1,0,0:0:0:0:
329,192,668143,1,0,0:0:0:0:
402,192,668143,1,0,0:0:0:0:
36,192,668236,1,0,0:0:0:0:
109,192,668236,1,0,0:0:0:0:
182,192,668330,1,0,0:0:0:70:1LR4_SnareKKF_Distort.wav
256,192,668330,1,0,0:0:0:70:1LR_Hat Normal.wav
329,192,668330,1,0,0:0:0:0:
109,192,668424,1,0,0:0:0:0:
402,192,668424,1,0,0:0:0:0:
36,192,668518,1,0,0:0:0:70:Kick.wav
182,192,668518,1,0,0:0:0:0:
256,192,668518,1,0,0:0:0:0:
329,192,668518,1,0,0:0:0:0:
109,192,668611,1,0,0:0:0:0:
402,192,668611,1,0,0:0:0:0:
182,192,668705,1,0,0:0:0:70:1LR_Hat Normal.wav
329,192,668705,1,0,0:0:0:0:
36,192,668799,1,0,0:0:0:0:
109,192,668799,1,0,0:0:0:0:
182,192,668893,1,0,0:0:0:70:Kick.wav
256,192,668893,1,0,0:0:0:70:D2H.wav
329,192,668893,1,0,0:0:0:0:
402,192,668893,1,0,0:0:0:0:
36,192,668986,1,0,0:0:0:0:
109,192,668986,1,0,0:0:0:0:
256,192,669080,1,0,0:0:0:70:1LR_Hat Normal.wav
402,192,669080,1,0,0:0:0:0:
109,192,669174,1,0,0:0:0:0:
182,192,669174,1,0,0:0:0:0:
36,192,669268,1,0,0:0:0:70:Kick.wav
256,192,669268,1,0,0:0:0:70:1LR4_SnareKKF_Distort.wav
329,192,669268,1,0,0:0:0:0:
402,192,669268,1,0,0:0:0:0:
109,192,669361,1,0,0:0:0:0:
182,192,669361,1,0,0:0:0:0:
256,192,669455,1,0,0:0:0:70:1LR_Hat Normal.wav
402,192,669455,1,0,0:0:0:0:
36,192,669549,1,0,0:0:0:0:
109,192,669549,1,0,0:0:0:0:
182,192,669643,1,0,0:0:0:70:Kick.wav
256,192,669643,1,0,0:0:0:45:B5H.wav
329,192,669643,128,0,670018:0:0:0:40:E5H.wav
402,192,669643,1,0,0:0:0:0:
36,192,669736,1,0,0:0:0:0:
475,192,669736,1,0,0:0:0:0:
109,192,669830,1,0,0:0:0:70:1LR4_SnareKKF_Distort.wav
182,192,669830,1,0,0:0:0:70:1LR_Hat Normal.wav
256,192,669830,1,0,0:0:0:0:
402,192,669924,1,0,0:0:0:0:
475,192,669924,1,0,0:0:0:0:
36,192,670018,1,0,0:0:0:70:Kick.wav
109,192,670018,1,0,0:0:0:40:B5H.wav
182,192,670018,128,0,670393:0:0:0:0:
256,192,670018,1,0,0:0:0:45:D6H.wav
329,192,670111,1,0,0:0:0:0:
475,192,670111,1,0,0:0:0:0:
36,192,670205,1,0,0:0:0:70:1LR_Hat Normal.wav
109,192,670205,1,0,0:0:0:0:
256,192,670299,1,0,0:0:0:0:
402,192,670299,1,0,0:0:0:0:
36,192,670393,128,0,672643:0:0:0:70:Kick.wav
109,192,670393,1,0,0:0:0:70:F#5H_Gb5H.wav
329,192,670393,1,0,0:0:0:45:D6H.wav
475,192,670393,1,0,0:0:0:0:
182,192,670486,1,0,0:0:0:0:
256,192,670486,1,0,0:0:0:0:
402,192,670580,1,0,0:0:0:70:1LR_Hat Normal.wav
475,192,670580,1,0,0:0:0:0:
109,192,670674,1,0,0:0:0:0:
182,192,670674,1,0,0:0:0:0:
256,192,670768,1,0,0:0:0:70:Kick.wav
329,192,670768,1,0,0:0:0:70:1LR4_SnareKKF_Distort.wav
402,192,670768,1,0,0:0:0:0:
475,192,670768,1,0,0:0:0:0:
109,192,670861,1,0,0:0:0:0:
182,192,670861,1,0,0:0:0:0:
329,192,670955,1,0,0:0:0:70:1LR_Hat Normal.wav
402,192,670955,1,0,0:0:0:0:
182,192,671049,1,0,0:0:0:0:
256,192,671049,1,0,0:0:0:0:
109,192,671143,1,0,0:0:0:70:Kick.wav
329,192,671143,1,0,0:0:0:0:
402,192,671143,1,0,0:0:0:0:
475,192,671143,1,0,0:0:0:0:
182,192,671236,1,0,0:0:0:0:
256,192,671236,1,0,0:0:0:0:
109,192,671330,1,0,0:0:0:70:1LR4_SnareKKF_Distort.wav
402,192,671330,1,0,0:0:0:70:1LR_Hat Normal.wav
475,192,671330,1,0,0:0:0:0:
256,192,671424,1,0,0:0:0:0:
329,192,671424,1,0,0:0:0:0:
109,192,671518,1,0,0:0:0:70:Kick.wav
182,192,671518,1,0,0:0:0:70:1LR_Hat Normal.wav
475,192,671518,1,0,0:0:0:0:
256,192,671564,1,0,0:0:0:70:1LR_Hat Normal.wav
329,192,671611,1,0,0:0:0:70:1LR_Hat Normal.wav
402,192,671611,1,0,0:0:0:0:
475,192,671658,1,0,0:0:0:70:1LR_Hat Normal.wav
109,192,671705,1,0,0:0:0:70:1LR_Hat Normal.wav
182,192,671705,1,0,0:0:0:0:
329,192,671799,1,0,0:0:0:0:
402,192,671799,1,0,0:0:0:0:
109,192,671893,1,0,0:0:0:70:Kick.wav
182,192,671893,1,0,0:0:0:70:E2H.wav
256,192,671893,1,0,0:0:0:0:
475,192,671893,1,0,0:0:0:0:
329,192,671986,1,0,0:0:0:0:
402,192,671986,1,0,0:0:0:0:
182,192,672080,1,0,0:0:0:70:1LR_Hat Normal.wav
256,192,672080,1,0,0:0:0:0:
402,192,672174,1,0,0:0:0:0:
475,192,672174,1,0,0:0:0:0:
109,192,672268,1,0,0:0:0:70:Kick.wav
182,192,672268,1,0,0:0:0:70:1LR4_SnareKKF_Distort.wav
256,192,672268,1,0,0:0:0:0:
329,192,672268,1,0,0:0:0:0:
402,192,672361,1,0,0:0:0:0:
475,192,672361,1,0,0:0:0:0:
182,192,672455,1,0,0:0:0:70:1LR_Hat Normal.wav
256,192,672455,1,0,0:0:0:0:
109,192,672549,1,0,0:0:0:0:
475,192,672549,1,0,0:0:0:0:
182,192,672643,1,0,0:0:0:70:Kick.wav
256,192,672643,1,0,0:0:0:0:
329,192,672643,1,0,0:0:0:0:
402,192,672643,1,0,0:0:0:0:
109,192,672736,1,0,0:0:0:0:
475,192,672760,128,0,673018:0:0:0:55:E6H.wav
182,192,672830,1,0,0:0:0:70:1LR4_SnareKKF_Distort.wav
329,192,672830,1,0,0:0:0:70:1LR_Hat Normal.wav
36,192,672924,1,0,0:0:0:0:
109,192,672924,1,0,0:0:0:0:
182,192,673018,1,0,0:0:0:70:Kick.wav
256,192,673018,1,0,0:0:0:55:D6H.wav
329,192,673018,128,0,673393:0:0:0:0:
402,192,673018,1,0,0:0:0:0:
36,192,673111,1,0,0:0:0:0:
109,192,673111,1,0,0:0:0:0:
402,192,673205,1,0,0:0:0:70:1LR_Hat Normal.wav
475,192,673205,1,0,0:0:0:0:
109,192,673299,1,0,0:0:0:0:
256,192,673299,1,0,0:0:0:0:
182,192,673393,128,0,674893:0:0:0:70:Kick.wav
402,192,673393,1,0,0:0:0:40:B5H.wav
475,192,673393,1,0,0:0:0:0:
36,192,673486,1,0,0:0:0:0:
109,192,673486,1,0,0:0:0:0:
402,192,673580,1,0,0:0:0:70:1LR_Hat Normal.wav
475,192,673580,1,0,0:0:0:0:
36,192,673674,1,0,0:0:0:0:
109,192,673674,1,0,0:0:0:0:
256,192,673768,1,0,0:0:0:70:Kick.wav
329,192,673768,1,0,0:0:0:70:1LR4_SnareKKF_Distort.wav
402,192,673768,1,0,0:0:0:0:
475,192,673768,1,0,0:0:0:0:
36,192,673861,1,0,0:0:0:0:
109,192,673861,1,0,0:0:0:0:
329,192,673955,1,0,0:0:0:70:1LR_Hat Normal.wav
402,192,673955,1,0,0:0:0:0:
36,192,674049,1,0,0:0:0:0:
109,192,674049,1,0,0:0:0:0:
256,192,674143,1,0,0:0:0:70:Kick.wav
329,192,674143,1,0,0:0:0:0:
402,192,674143,1,0,0:0:0:0:
475,192,674143,1,0,0:0:0:0:
36,192,674236,1,0,0:0:0:0:
109,192,674236,1,0,0:0:0:0:
256,192,674330,1,0,0:0:0:70:1LR4_SnareKKF_Distort.wav
329,192,674330,1,0,0:0:0:70:1LR_Hat Normal.wav
402,192,674330,1,0,0:0:0:0:
36,192,674424,1,0,0:0:0:0:
109,192,674424,1,0,0:0:0:0:
256,192,674518,1,0,0:0:0:70:Kick.wav
329,192,674518,1,0,0:0:0:0:
402,192,674518,1,0,0:0:0:0:
475,192,674518,1,0,0:0:0:0:
36,192,674611,1,0,0:0:0:0:
109,192,674611,1,0,0:0:0:0:
402,192,674705,1,0,0:0:0:70:1LR_Hat Normal.wav
475,192,674705,1,0,0:0:0:0:
36,192,674799,1,0,0:0:0:0:
109,192,674799,1,0,0:0:0:0:
256,192,674893,128,0,676018:0:0:0:70:Kick.wav
329,192,674893,1,0,0:0:0:40:C#2H_Db2H.wav
402,192,674893,1,0,0:0:0:55:D6H.wav
475,192,674893,1,0,0:0:0:0:
36,192,674986,1,0,0:0:0:0:
182,192,674986,1,0,0:0:0:0:
329,192,675080,1,0,0:0:0:70:1LR_Hat Normal.wav
475,192,675080,1,0,0:0:0:0:
36,192,675174,1,0,0:0:0:0:
109,192,675174,1,0,0:0:0:0:
182,192,675268,1,0,0:0:0:70:Kick.wav
329,192,675268,1,0,0:0:0:70:1LR4_SnareKKF_Distort.wav
402,192,675268,1,0,0:0:0:0:
475,192,675268,1,0,0:0:0:0:
36,192,675361,1,0,0:0:0:0:
109,192,675361,1,0,0:0:0:0:
329,192,675455,1,0,0:0:0:70:1LR_Hat Normal.wav
402,192,675455,1,0,0:0:0:0:
36,192,675549,1,0,0:0:0:0:
109,192,675549,1,0,0:0:0:0:
182,192,675643,1,0,0:0:0:70:Kick.wav
329,192,675643,1,0,0:0:0:0:
402,192,675643,1,0,0:0:0:0:
475,192,675643,1,0,0:0:0:0:
36,192,675736,1,0,0:0:0:0:
109,192,675736,1,0,0:0:0:0:
182,192,675830,1,0,0:0:0:70:1LR4_SnareKKF_Distort.wav
402,192,675830,1,0,0:0:0:70:1LR_Hat Normal.wav
475,192,675830,1,0,0:0:0:0:
36,192,675924,1,0,0:0:0:0:
109,192,675924,1,0,0:0:0:0:
182,192,676018,128,0,676205:0:0:0:70:Kick.wav
329,192,676018,1,0,0:0:0:45:E6H.wav
402,192,676018,1,0,0:0:0:0:
475,192,676018,1,0,0:0:0:0:
36,192,676111,1,0,0:0:0:0:
256,192,676111,1,0,0:0:0:0:
109,192,676205,128,0,676393:0:0:0:45:D6H.wav
402,192,676205,1,0,0:0:0:70:1LR_Hat Normal.wav
475,192,676205,1,0,0:0:0:0:
256,192,676299,1,0,0:0:0:0:
329,192,676299,1,0,0:0:0:0:
36,192,676393,128,0,677143:0:0:0:70:Kick.wav
182,192,676393,1,0,0:0:0:50:C#6H_Db6H.wav
402,192,676393,1,0,0:0:0:0:
475,192,676393,1,0,0:0:0:0:
109,192,676486,1,0,0:0:0:0:
256,192,676486,1,0,0:0:0:0:
329,192,676580,1,0,0:0:0:70:1LR_Hat Normal.wav
402,192,676580,1,0,0:0:0:0:
182,192,676674,1,0,0:0:0:0:
256,192,676674,1,0,0:0:0:0:
329,192,676768,1,0,0:0:0:70:1LR4_SnareKKF_Distort.wav
402,192,676768,1,0,0:0:0:0:
475,192,676768,1,0,0:0:0:0:
329,192,676861,1,0,0:0:0:70:1LR4_SnareKKF_Distort.wav
402,192,676861,1,0,0:0:0:0:
475,192,676861,1,0,0:0:0:0:
109,192,676955,1,0,0:0:0:70:1LR_Hat Normal.wav
182,192,676955,1,0,0:0:0:0:
256,192,677049,1,0,0:0:0:0:
329,192,677049,1,0,0:0:0:0:
109,192,677143,1,0,0:0:0:70:Kick.wav
402,192,677143,1,0,0:0:0:35:E5H.wav
475,192,677143,1,0,0:0:0:35:B5H.wav
329,192,677189,1,0,0:0:0:40:Kick.wav
256,192,677236,1,0,0:0:0:40:Kick.wav
182,192,677283,1,0,0:0:0:40:Kick.wav
36,192,677330,1,0,0:0:0:40:Kick.wav
109,192,677330,1,0,0:0:0:70:1LR_Hat Normal.wav
402,192,677330,1,0,0:0:0:0:
475,192,677330,1,0,0:0:0:0:
182,192,677424,1,0,0:0:0:40:Kick.wav
329,192,677424,1,0,0:0:0:0:
36,192,677518,1,0,0:0:0:40:Kick.wav
109,192,677518,1,0,0:0:0:70:1LR4_SnareKKF_Distort.wav
402,192,677518,1,0,0:0:0:35:B5H.wav
475,192,677518,1,0,0:0:0:40:D6H.wav
182,192,677611,1,0,0:0:0:0:
329,192,677611,1,0,0:0:0:0:
109,192,677705,1,0,0:0:0:70:1LR_Hat Normal.wav
402,192,677705,1,0,0:0:0:0:
182,192,677799,1,0,0:0:0:0:
329,192,677799,1,0,0:0:0:0:
36,192,677893,1,0,0:0:0:70:Kick.wav
109,192,677893,1,0,0:0:0:45:A5H.wav
402,192,677893,1,0,0:0:0:55:C2H.wav
475,192,677893,1,0,0:0:0:40:E6H.wav
182,192,677939,1,0,0:0:0:40:Kick.wav
256,192,677986,1,0,0:0:0:40:Kick.wav
329,192,678033,1,0,0:0:0:40:Kick.wav
36,192,678080,1,0,0:0:0:40:Kick.wav
109,192,678080,1,0,0:0:0:70:1LR_Hat Normal.wav
402,192,678080,1,0,0:0:0:0:
475,192,678080,1,0,0:0:0:0:
182,192,678174,1,0,0:0:0:40:Kick.wav
329,192,678174,1,0,0:0:0:0:
36,192,678268,1,0,0:0:0:70:Kick.wav
109,192,678268,1,0,0:0:0:70:1LR4_SnareKKF_Distort.wav
402,192,678268,1,0,0:0:0:0:
475,192,678268,128,0,680893:0:0:0:0:
256,192,678361,1,0,0:0:0:0:
329,192,678361,1,0,0:0:0:0:
36,192,678455,1,0,0:0:0:70:1LR_Hat Normal.wav
109,192,678455,1,0,0:0:0:0:
182,192,678549,1,0,0:0:0:0:
256,192,678549,1,0,0:0:0:0:
36,192,678643,1,0,0:0:0:70:Kick.wav
109,192,678643,1,0,0:0:0:0:
329,192,678643,1,0,0:0:0:0:
402,192,678643,1,0,0:0:0:0:
182,192,678736,1,0,0:0:0:0:
256,192,678736,1,0,0:0:0:0:
109,192,678830,1,0,0:0:0:70:1LR4_SnareKKF_Distort.wav
329,192,678830,1,0,0:0:0:70:1LR_Hat Normal.wav
402,192,678830,1,0,0:0:0:0:
182,192,678924,1,0,0:0:0:0:
256,192,678924,1,0,0:0:0:0:
36,192,679018,1,0,0:0:0:70:Kick.wav
109,192,679018,1,0,0:0:0:0:
329,192,679018,1,0,0:0:0:0:
402,192,679018,1,0,0:0:0:0:
182,192,679111,1,0,0:0:0:0:
256,192,679111,1,0,0:0:0:0:
36,192,679205,1,0,0:0:0:70:1LR_Hat Normal.wav
109,192,679205,1,0,0:0:0:0:
256,192,679299,1,0,0:0:0:0:
402,192,679299,1,0,0:0:0:0:
36,192,679393,1,0,0:0:0:70:Kick.wav
109,192,679393,1,0,0:0:0:0:
182,192,679393,1,0,0:0:0:0:
329,192,679393,1,0,0:0:0:0:
256,192,679486,1,0,0:0:0:0:
402,192,679486,1,0,0:0:0:0:
109,192,679580,1,0,0:0:0:70:1LR_Hat Normal.wav
182,192,679580,1,0,0:0:0:0:
329,192,679674,1,0,0:0:0:0:
402,192,679674,1,0,0:0:0:0:
36,192,679768,1,0,0:0:0:70:Kick.wav
109,192,679768,1,0,0:0:0:70:1LR4_SnareKKF_Distort.wav
182,192,679768,1,0,0:0:0:0:
256,192,679768,1,0,0:0:0:0:
329,192,679861,1,0,0:0:0:0:
402,192,679861,1,0,0:0:0:0:
36,192,679955,1,0,0:0:0:70:1LR_Hat Normal.wav
109,192,679955,1,0,0:0:0:0:
256,192,680049,1,0,0:0:0:0:
329,192,680049,1,0,0:0:0:0:
36,192,680143,1,0,0:0:0:70:Kick.wav
109,192,680143,1,0,0:0:0:0:
182,192,680143,1,0,0:0:0:0:
402,192,680143,1,0,0:0:0:0:
256,192,680236,1,0,0:0:0:0:
329,192,680236,1,0,0:0:0:0:
36,192,680330,1,0,0:0:0:70:1LR4_SnareKKF_Distort.wav
109,192,680330,1,0,0:0:0:70:1LR_Hat Normal.wav
182,192,680330,1,0,0:0:0:0:
329,192,680424,1,0,0:0:0:0:
402,192,680424,1,0,0:0:0:0:
36,192,680518,1,0,0:0:0:70:Kick.wav
109,192,680518,1,0,0:0:0:70:1LR_Hat Normal.wav
182,192,680518,1,0,0:0:0:0:
256,192,680564,1,0,0:0:0:70:1LR_Hat Normal.wav
329,192,680611,1,0,0:0:0:0:
402,192,680611,1,0,0:0:0:0:
256,192,680705,1,0,0:0:0:70:1LR_Hat Normal.wav
182,192,680752,1,0,0:0:0:70:1LR_Hat Normal.wav
36,192,680799,1,0,0:0:0:0:
109,192,680799,1,0,0:0:0:0:
182,192,680893,1,0,0:0:0:70:Kick.wav
256,192,680893,1,0,0:0:0:70:D2H.wav
329,192,680893,1,0,0:0:0:0:
402,192,680893,1,0,0:0:0:0:
36,192,680986,1,0,0:0:0:0:
109,192,680986,1,0,0:0:0:0:
402,192,681080,1,0,0:0:0:70:1LR_Hat Normal.wav
475,192,681080,1,0,0:0:0:0:
36,192,681174,1,0,0:0:0:0:
182,192,681174,1,0,0:0:0:0:
109,192,681268,1,0,0:0:0:70:Kick.wav
256,192,681268,1,0,0:0:0:70:1LR4_SnareKKF_Distort.wav
329,192,681268,1,0,0:0:0:0:
402,192,681268,1,0,0:0:0:0:
36,192,681361,1,0,0:0:0:0:
182,192,681361,1,0,0:0:0:0:
329,192,681455,1,0,0:0:0:70:1LR_Hat Normal.wav
475,192,681455,1,0,0:0:0:0:
36,192,681549,1,0,0:0:0:0:
109,192,681549,1,0,0:0:0:0:
182,192,681643,128,0,682018:0:0:0:70:Kick.wav
256,192,681643,1,0,0:0:0:45:E5H.wav
329,192,681643,1,0,0:0:0:40:B5H.wav
475,192,681643,1,0,0:0:0:0:
36,192,681736,1,0,0:0:0:0:
109,192,681736,1,0,0:0:0:0:
329,192,681830,1,0,0:0:0:70:1LR4_SnareKKF_Distort.wav
402,192,681830,1,0,0:0:0:70:1LR_Hat Normal.wav
475,192,681830,1,0,0:0:0:0:
109,192,681924,1,0,0:0:0:0:
256,192,681924,1,0,0:0:0:0:
36,192,682018,128,0,682393:0:0:0:70:Kick.wav
329,192,682018,1,0,0:0:0:45:B5H.wav
402,192,682018,1,0,0:0:0:40:D6H.wav
475,192,682018,1,0,0:0:0:0:
109,192,682111,1,0,0:0:0:0:
182,192,682111,1,0,0:0:0:0:
256,192,682205,1,0,0:0:0:70:1LR_Hat Normal.wav
402,192,682205,1,0,0:0:0:0:
109,192,682299,1,0,0:0:0:0:
182,192,682299,1,0,0:0:0:0:
256,192,682393,1,0,0:0:0:70:Kick.wav
329,192,682393,128,0,685018:0:0:0:70:F#5H_Gb5H.wav
402,192,682393,1,0,0:0:0:0:
475,192,682393,1,0,0:0:0:40:D6H.wav
36,192,682486,1,0,0:0:0:0:
109,192,682486,1,0,0:0:0:0:
402,192,682580,1,0,0:0:0:70:1LR_Hat Normal.wav
475,192,682580,1,0,0:0:0:0:
182,192,682674,1,0,0:0:0:0:
256,192,682674,1,0,0:0:0:0:
36,192,682768,1,0,0:0:0:70:Kick.wav
109,192,682768,1,0,0:0:0:70:1LR4_SnareKKF_Distort.wav
402,192,682768,1,0,0:0:0:0:
475,192,682768,1,0,0:0:0:0:
182,192,682861,1,0,0:0:0:0:
256,192,682861,1,0,0:0:0:0:
402,192,682955,1,0,0:0:0:70:1LR_Hat Normal.wav
475,192,682955,1,0,0:0:0:0:
36,192,683049,1,0,0:0:0:0:
109,192,683049,1,0,0:0:0:0:
182,192,683143,1,0,0:0:0:70:Kick.wav
256,192,683143,1,0,0:0:0:0:
402,192,683143,1,0,0:0:0:0:
475,192,683143,1,0,0:0:0:0:
36,192,683236,1,0,0:0:0:0:
109,192,683236,1,0,0:0:0:0:
256,192,683330,1,0,0:0:0:70:1LR4_SnareKKF_Distort.wav
402,192,683330,1,0,0:0:0:70:1LR_Hat Normal.wav
475,192,683330,1,0,0:0:0:0:
36,192,683424,1,0,0:0:0:0:
109,192,683424,1,0,0:0:0:0:
182,192,683518,1,0,0:0:0:70:Kick.wav
256,192,683518,1,0,0:0:0:70:1LR_Hat Normal.wav
402,192,683518,1,0,0:0:0:0:
475,192,683518,1,0,0:0:0:0:
36,192,683564,1,0,0:0:0:70:1LR_Hat Normal.wav
109,192,683611,1,0,0:0:0:70:1LR_Hat Normal.wav
182,192,683611,1,0,0:0:0:0:
256,192,683658,1,0,0:0:0:70:1LR_Hat Normal.wav
402,192,683705,1,0,0:0:0:70:1LR_Hat Normal.wav
475,192,683705,1,0,0:0:0:0:
36,192,683799,1,0,0:0:0:0:
109,192,683799,1,0,0:0:0:0:
182,192,683893,1,0,0:0:0:70:Kick.wav
256,192,683893,1,0,0:0:0:70:E2H.wav
402,192,683893,1,0,0:0:0:0:
475,192,683893,1,0,0:0:0:0:
36,192,683986,1,0,0:0:0:0:
109,192,683986,1,0,0:0:0:0:
402,192,684080,1,0,0:0:0:70:1LR_Hat Normal.wav
475,192,684080,1,0,0:0:0:0:
36,192,684174,1,0,0:0:0:0:
109,192,684174,1,0,0:0:0:0:
182,192,684268,1,0,0:0:0:70:Kick.wav
256,192,684268,1,0,0:0:0:70:1LR4_SnareKKF_Distort.wav
402,192,684268,1,0,0:0:0:0:
475,192,684268,1,0,0:0:0:0:
36,192,684361,1,0,0:0:0:0:
109,192,684361,1,0,0:0:0:0:
402,192,684455,1,0,0:0:0:70:1LR_Hat Normal.wav
475,192,684455,1,0,0:0:0:0:
182,192,684549,1,0,0:0:0:0:
256,192,684549,1,0,0:0:0:0:
36,192,684643,1,0,0:0:0:70:Kick.wav
109,192,684643,1,0,0:0:0:0:
402,192,684643,1,0,0:0:0:0:
475,192,684643,1,0,0:0:0:0:
182,192,684736,1,0,0:0:0:0:
256,192,684736,1,0,0:0:0:0:
36,192,684830,1,0,0:0:0:70:1LR4_SnareKKF_Distort.wav
402,192,684830,1,0,0:0:0:70:1LR_Hat Normal.wav
475,192,684830,1,0,0:0:0:0:
182,192,684924,1,0,0:0:0:0:
256,192,684924,1,0,0:0:0:0:
36,192,685018,128,0,685205:0:0:0:70:B6H.wav
109,192,685018,128,0,685205:0:0:0:35:E6H.wav
402,192,685018,1,0,0:0:0:0:
475,192,685018,1,0,0:0:0:0:
256,192,685111,1,0,0:0:0:0:
182,192,685205,1,0,0:0:0:70:A6H.wav
329,192,685205,1,0,0:0:0:70:1LR_Hat Normal.wav
402,192,685205,128,0,685393:0:0:0:35:D6H.wav
475,192,685205,128,0,685393:0:0:0:0:
256,192,685299,1,0,0:0:0:0:
36,192,685393,128,0,686143:0:0:0:70:Kick.wav
109,192,685393,1,0,0:0:0:70:B6H.wav
329,192,685393,1,0,0:0:0:35:E6H.wav
182,192,685486,1,0,0:0:0:0:
475,192,685486,1,0,0:0:0:0:
109,192,685580,1,0,0:0:0:70:1LR_Hat Normal.wav
256,192,685580,1,0,0:0:0:0:
402,192,685580,1,0,0:0:0:0:
182,192,685674,1,0,0:0:0:0:
329,192,685674,1,0,0:0:0:0:
256,192,685768,1,0,0:0:0:70:1LR4_SnareKKF_Distort.wav
402,192,685768,1,0,0:0:0:0:
475,192,685768,1,0,0:0:0:0:
109,192,685861,1,0,0:0:0:0:
329,192,685861,1,0,0:0:0:0:
182,192,685955,1,0,0:0:0:70:1LR_Hat Normal.wav
256,192,685955,1,0,0:0:0:0:
402,192,685955,1,0,0:0:0:0:
109,192,686049,1,0,0:0:0:0:
329,192,686049,1,0,0:0:0:0:
182,192,686143,1,0,0:0:0:70:Kick.wav
256,192,686143,1,0,0:0:0:70:D6H_s.wav
402,192,686143,1,0,0:0:0:0:
475,192,686143,128,0,686893:0:0:0:0:
109,192,686236,1,0,0:0:0:0:
329,192,686236,1,0,0:0:0:0:
36,192,686330,1,0,0:0:0:70:1LR4_SnareKKF_Distort.wav
256,192,686330,1,0,0:0:0:70:1LR_Hat Normal.wav
402,192,686330,1,0,0:0:0:0:
182,192,686424,1,0,0:0:0:0:
329,192,686424,1,0,0:0:0:0:
36,192,686518,1,0,0:0:0:0:
109,192,686518,1,0,0:0:0:0:
256,192,686611,1,0,0:0:0:0:
329,192,686611,1,0,0:0:0:0:
36,192,686705,1,0,0:0:0:70:1LR_Hat Normal.wav
109,192,686705,1,0,0:0:0:0:
182,192,686705,1,0,0:0:0:0:
402,192,686705,1,0,0:0:0:0:
256,192,686799,1,0,0:0:0:0:
329,192,686799,1,0,0:0:0:0:
36,192,686893,128,0,687174:0:0:0:70:Kick.wav
109,192,686893,128,0,687174:0:0:0:70:E2H.wav
182,192,686893,128,0,687080:0:0:0:70:E6H_s.wav
402,192,686893,1,0,0:0:0:0:
402,192,687080,128,0,687361:0:0:0:70:1LR_Hat Normal.wav
475,192,687080,128,0,687361:0:0:0:0:
182,192,687174,128,0,687268:0:0:0:0:
329,192,687174,128,0,687268:0:0:0:0:
36,192,687268,128,0,687830:0:0:0:70:1LR4_SnareKKF_Distort.wav
109,192,687268,128,0,687549:0:0:0:0:
182,192,687361,128,0,687549:0:0:0:0:
329,192,687361,128,0,687736:0:0:0:0:
402,192,687455,128,0,687736:0:0:0:0:
475,192,687455,128,0,687924:0:0:0:0:
109,192,687643,128,0,687830:0:0:0:0:
182,192,687643,128,0,688018:0:0:0:0:
329,192,687830,128,0,688111:0:0:0:70:1LR4_SnareKKF_Distort.wav
402,192,687830,128,0,687924:0:0:0:0:
36,192,687924,128,0,688205:0:0:0:0:
109,192,687924,128,0,688018:0:0:0:0:
402,192,688018,128,0,688299:0:0:0:0:
475,192,688018,128,0,688111:0:0:0:0:
109,192,688111,128,0,688299:0:0:0:0:
182,192,688111,128,0,688205:0:0:0:0:
329,192,688205,128,0,688580:0:0:0:0:
475,192,688205,128,0,688393:0:0:0:0:
36,192,688299,128,0,688393:0:0:0:0:
182,192,688299,128,0,688580:0:0:0:0:
109,192,688393,128,0,688486:0:0:0:70:Kick.wav
256,192,688393,128,0,688674:0:0:0:0:
402,192,688393,128,0,688486:0:0:0:0:
36,192,688486,1,0,0:0:0:0:
475,192,688486,1,0,0:0:0:0:
109,192,688580,1,0,0:0:0:70:Kick.wav
402,192,688580,1,0,0:0:0:0:
182,192,688674,1,0,0:0:0:0:
329,192,688674,1,0,0:0:0:0:
256,192,688768,1,0,0:0:0:70:1LR4_SnareKKF_Distort.wav
402,192,688768,1,0,0:0:0:0:
475,192,688768,1,0,0:0:0:0:
109,192,688861,1,0,0:0:0:70:1LR4_SnareKKF_Distort.wav
182,192,688861,1,0,0:0:0:0:
329,192,688861,1,0,0:0:0:0:
256,192,688955,1,0,0:0:0:70:Kick.wav
475,192,688955,1,0,0:0:0:0:
36,192,689049,1,0,0:0:0:70:Kick.wav
182,192,689049,1,0,0:0:0:0:
256,192,689143,1,0,0:0:0:70:1Finish.wav
329,192,689166,1,0,0:0:0:0:
402,192,689189,1,0,0:0:0:0:
475,192,689213,1,0,0:0:0:0:
36,192,689236,1,0,0:0:0:0:
109,192,689260,1,0,0:0:0:0:
182,192,689283,1,0,0:0:0:0:
256,192,689307,1,0,0:0:0:0:
329,192,689330,1,0,0:0:0:70:Kick.wav
475,192,689330,1,0,0:0:0:0:
36,192,689424,1,0,0:0:0:70:Kick.wav
182,192,689424,1,0,0:0:0:0:
329,192,689518,1,0,0:0:0:70:1LR4_SnareKKF_Distort.wav
402,192,689518,1,0,0:0:0:100:SnareHat.wav
475,192,689518,1,0,0:0:0:0:
36,192,689611,1,0,0:0:0:70:1LR4_SnareKKF_Distort.wav
109,192,689611,1,0,0:0:0:100:SnareHat.wav
182,192,689611,1,0,0:0:0:0:
329,192,689705,1,0,0:0:0:70:Kick.wav
475,192,689705,1,0,0:0:0:0:
182,192,689799,1,0,0:0:0:0:
36,192,689893,1,0,0:0:0:50:E3Harp.wav
182,192,690080,1,0,0:0:0:50:A3Harp.wav
329,192,690268,1,0,0:0:0:50:B3Harp.wav
402,192,690455,1,0,0:0:0:50:E4Harp.wav
36,192,690643,1,0,0:0:0:50:E3Harp.wav
475,192,690830,1,0,0:0:0:55:1F#4Harp.wav
329,192,691018,1,0,0:0:0:55:E4Harp.wav
182,192,691205,1,0,0:0:0:55:D4Harp.wav
402,192,691393,1,0,0:0:0:50:A3Harp.wav
256,192,691580,1,0,0:0:0:50:1G3Harp.wav
109,192,691768,1,0,0:0:0:50:1F#3Harp.wav
36,192,691955,1,0,0:0:0:50:E3Harp.wav
182,192,692143,1,0,0:0:0:55:1G3Harp.wav
256,192,692330,1,0,0:0:0:50:A3Harp.wav
182,192,692518,1,0,0:0:0:55:1F#3Harp.wav
109,192,692705,1,0,0:0:0:50:D3Harp.wav
36,192,692893,1,0,0:0:0:50:E3Harp.wav
182,192,693080,1,0,0:0:0:55:A3Harp.wav
256,192,693268,1,0,0:0:0:55:B3Harp.wav
329,192,693455,1,0,0:0:0:55:1G3Harp.wav
256,192,693643,1,0,0:0:0:50:1F#3Harp.wav
402,192,693830,1,0,0:0:0:60:1F#4Harp.wav
475,192,694018,1,0,0:0:0:55:1G4Harp.wav
402,192,694205,1,0,0:0:0:55:D4Harp.wav
256,192,694393,1,0,0:0:0:55:A3Harp.wav
182,192,694580,1,0,0:0:0:55:1G3Harp.wav
109,192,694768,1,0,0:0:0:50:1F#3Harp.wav
36,192,694955,1,0,0:0:0:50:E3Harp.wav
182,192,695143,1,0,0:0:0:55:A3Harp.wav
329,192,695330,1,0,0:0:0:55:D4Harp.wav
256,192,695518,1,0,0:0:0:55:B3Harp.wav
109,192,695705,1,0,0:0:0:50:1F#3Harp.wav
36,192,695893,1,0,0:0:0:50:E3Harp.wav
182,192,696080,1,0,0:0:0:50:A3Harp.wav
329,192,696268,1,0,0:0:0:50:B3Harp.wav
402,192,696455,1,0,0:0:0:50:E4Harp.wav
36,192,696643,1,0,0:0:0:50:E3Harp.wav
475,192,696830,1,0,0:0:0:55:1F#4Harp.wav
402,192,697018,1,0,0:0:0:55:E4Harp.wav
329,192,697205,1,0,0:0:0:55:D4Harp.wav
256,192,697393,1,0,0:0:0:50:A3Harp.wav
182,192,697580,1,0,0:0:0:50:1G3Harp.wav
109,192,697768,1,0,0:0:0:50:1F#3Harp.wav
36,192,697955,1,0,0:0:0:50:E3Harp.wav
182,192,698143,1,0,0:0:0:55:1G3Harp.wav
256,192,698330,1,0,0:0:0:50:A3Harp.wav
329,192,698518,1,0,0:0:0:55:1F#3Harp.wav
182,192,698705,1,0,0:0:0:50:D3Harp.wav
36,192,698893,1,0,0:0:0:50:E3Harp.wav
182,192,699080,1,0,0:0:0:55:A3Harp.wav
256,192,699268,1,0,0:0:0:55:B3Harp.wav
182,192,699455,1,0,0:0:0:55:1G3Harp.wav
109,192,699643,1,0,0:0:0:50:1F#3Harp.wav
329,192,699830,1,0,0:0:0:60:1F#4Harp.wav
402,192,700018,1,0,0:0:0:55:1G4Harp.wav
329,192,700205,1,0,0:0:0:55:D4Harp.wav
475,192,700393,1,0,0:0:0:60:A4Harp.wav
402,192,700580,1,0,0:0:0:60:1F#4Harp.wav
329,192,700768,1,0,0:0:0:50:E4Harp.wav
182,192,700955,1,0,0:0:0:50:B3Harp.wav
36,192,701143,1,0,0:0:0:55:D4Harp.wav
256,192,701330,1,0,0:0:0:55:E4Harp.wav
182,192,701518,1,0,0:0:0:55:B3Harp.wav
109,192,701705,1,0,0:0:0:50:1F#3Harp.wav
475,192,701893,1,0,0:0:0:50:E3Harp.wav
402,192,702080,1,0,0:0:0:50:A3Harp.wav
329,192,702268,1,0,0:0:0:50:B3Harp.wav
182,192,702455,1,0,0:0:0:50:E4Harp.wav
475,192,702643,1,0,0:0:0:50:E3Harp.wav
109,192,702830,1,0,0:0:0:55:1F#4Harp.wav
256,192,703018,1,0,0:0:0:55:E4Harp.wav
402,192,703205,1,0,0:0:0:55:D4Harp.wav
256,192,703393,1,0,0:0:0:50:A3Harp.wav
329,192,703580,1,0,0:0:0:50:1G3Harp.wav
402,192,703768,1,0,0:0:0:50:1F#3Harp.wav
475,192,703955,1,0,0:0:0:50:E3Harp.wav
329,192,704143,1,0,0:0:0:55:1G3Harp.wav
256,192,704330,1,0,0:0:0:50:A3Harp.wav
329,192,704518,1,0,0:0:0:55:1F#3Harp.wav
475,192,704705,1,0,0:0:0:50:D3Harp.wav
329,192,704893,1,0,0:0:0:40:E3Harp.wav
256,192,705080,1,0,0:0:0:55:A3Harp.wav
182,192,705268,1,0,0:0:0:55:B3Harp.wav
109,192,705455,1,0,0:0:0:55:1G3Harp.wav
182,192,705643,1,0,0:0:0:50:1F#3Harp.wav
329,192,705830,1,0,0:0:0:60:1F#4Harp.wav
109,192,706018,1,0,0:0:0:55:1G4Harp.wav
36,192,706205,1,0,0:0:0:55:D4Harp.wav
182,192,706393,1,0,0:0:0:55:A3Harp.wav
256,192,706580,1,0,0:0:0:55:1G3Harp.wav
329,192,706768,1,0,0:0:0:50:1F#3Harp.wav
475,192,706955,1,0,0:0:0:50:E3Harp.wav
402,192,707143,1,0,0:0:0:55:A3Harp.wav
256,192,707330,1,0,0:0:0:55:D4Harp.wav
329,192,707518,1,0,0:0:0:55:B3Harp.wav
475,192,707705,1,0,0:0:0:50:1F#3Harp.wav
329,192,707893,1,0,0:0:0:40:E3Harp.wav
256,192,708080,1,0,0:0:0:50:A3Harp.wav
182,192,708268,1,0,0:0:0:50:B3Harp.wav
109,192,708455,1,0,0:0:0:50:E4Harp.wav
329,192,708643,1,0,0:0:0:40:E3Harp.wav
36,192,708830,1,0,0:0:0:55:1F#4Harp.wav
109,192,709018,1,0,0:0:0:55:E4Harp.wav
182,192,709205,1,0,0:0:0:55:D4Harp.wav
256,192,709393,1,0,0:0:0:50:A3Harp.wav
329,192,709580,1,0,0:0:0:50:1G3Harp.wav
402,192,709768,1,0,0:0:0:50:1F#3Harp.wav
475,192,709955,1,0,0:0:0:50:E3Harp.wav
329,192,710143,1,0,0:0:0:55:1G3Harp.wav
182,192,710330,1,0,0:0:0:50:A3Harp.wav
329,192,710518,1,0,0:0:0:55:1F#3Harp.wav
475,192,710705,1,0,0:0:0:50:D3Harp.wav
329,192,710893,1,0,0:0:0:40:E3Harp.wav
256,192,711080,1,0,0:0:0:55:A3Harp.wav
182,192,711268,1,0,0:0:0:55:B3Harp.wav
329,192,711455,1,0,0:0:0:55:1G3Harp.wav
475,192,711643,1,0,0:0:0:50:1F#3Harp.wav
256,192,711830,1,0,0:0:0:60:1F#4Harp.wav
109,192,712018,1,0,0:0:0:55:1G4Harp.wav
182,192,712205,1,0,0:0:0:55:D4Harp.wav
36,192,712393,1,0,0:0:0:60:A4Harp.wav
109,192,712580,1,0,0:0:0:60:1F#4Harp.wav
182,192,712768,1,0,0:0:0:50:E4Harp.wav
402,192,712955,1,0,0:0:0:50:B3Harp.wav
256,192,713143,1,0,0:0:0:55:D4Harp.wav
109,192,713330,1,0,0:0:0:55:E4Harp.wav
182,192,713518,1,0,0:0:0:55:B3Harp.wav
256,192,713705,1,0,0:0:0:50:1F#3Harp.wav
36,192,713893,1,0,0:0:0:20:E3Harp.wav
182,192,713893,1,0,0:0:0:0:
256,192,714080,1,0,0:0:0:20:A3Harp.wav
182,192,714268,1,0,0:0:0:20:B3Harp.wav
475,192,714268,1,0,0:0:0:0:
36,192,714455,1,0,0:0:0:20:E4Harp.wav
329,192,714455,1,0,0:0:0:0:
182,192,714643,1,0,0:0:0:20:E3Harp.wav
475,192,714643,1,0,0:0:0:0:
36,192,714830,1,0,0:0:0:20:1F#4Harp.wav
256,192,714830,1,0,0:0:0:0:
109,192,715018,1,0,0:0:0:20:E4Harp.wav
329,192,715018,1,0,0:0:0:0:
182,192,715205,1,0,0:0:0:20:D4Harp.wav
402,192,715205,1,0,0:0:0:0:
256,192,715393,1,0,0:0:0:20:A3Harp.wav
475,192,715393,1,0,0:0:0:0:
109,192,715580,1,0,0:0:0:20:1G3Harp.wav
182,192,715768,1,0,0:0:0:20:1F#3Harp.wav
475,192,715768,1,0,0:0:0:0:
36,192,715955,1,0,0:0:0:20:E3Harp.wav
329,192,715955,1,0,0:0:0:0:
182,192,716143,1,0,0:0:0:20:1G3Harp.wav
475,192,716143,1,0,0:0:0:0:
256,192,716330,1,0,0:0:0:20:A3Harp.wav
402,192,716330,1,0,0:0:0:0:
182,192,716518,1,0,0:0:0:20:1G3Harp.wav
329,192,716518,1,0,0:0:0:0:
109,192,716705,1,0,0:0:0:20:D3Harp.wav
256,192,716705,1,0,0:0:0:0:
36,192,716893,1,0,0:0:0:20:E3Harp.wav
182,192,716893,1,0,0:0:0:0:
256,192,717080,1,0,0:0:0:20:A3Harp.wav
182,192,717268,1,0,0:0:0:20:B3Harp.wav
475,192,717268,1,0,0:0:0:0:
36,192,717455,1,0,0:0:0:20:1G3Harp.wav
329,192,717455,1,0,0:0:0:0:
182,192,717643,1,0,0:0:0:20:1F#3Harp.wav
475,192,717643,1,0,0:0:0:0:
36,192,717830,1,0,0:0:0:20:1F#4Harp.wav
256,192,717830,1,0,0:0:0:0:
109,192,718018,1,0,0:0:0:20:1G4Harp.wav
329,192,718018,1,0,0:0:0:0:
182,192,718205,1,0,0:0:0:20:D4Harp.wav
402,192,718205,1,0,0:0:0:0:
256,192,718393,1,0,0:0:0:20:A3Harp.wav
475,192,718393,1,0,0:0:0:0:
109,192,718580,1,0,0:0:0:20:1G3Harp.wav
182,192,718768,1,0,0:0:0:20:1F#3Harp.wav
475,192,718768,1,0,0:0:0:0:
36,192,718955,1,0,0:0:0:20:E3Harp.wav
329,192,718955,1,0,0:0:0:0:
182,192,719143,1,0,0:0:0:20:A3Harp.wav
475,192,719143,1,0,0:0:0:0:
256,192,719330,1,0,0:0:0:20:D4Harp.wav
402,192,719330,1,0,0:0:0:0:
182,192,719518,1,0,0:0:0:20:B3Harp.wav
329,192,719518,1,0,0:0:0:0:
109,192,719705,1,0,0:0:0:20:1F#3Harp.wav
256,192,719705,1,0,0:0:0:0:
36,192,719893,1,0,0:0:0:20:E3Harp.wav
182,192,719893,1,0,0:0:0:0:
256,192,720080,1,0,0:0:0:20:A3Harp.wav
182,192,720268,1,0,0:0:0:20:B3Harp.wav
475,192,720268,1,0,0:0:0:0:
36,192,720455,1,0,0:0:0:20:E4Harp.wav
329,192,720455,1,0,0:0:0:0:
182,192,720643,1,0,0:0:0:20:E3Harp.wav
475,192,720643,1,0,0:0:0:0:
36,192,720830,1,0,0:0:0:20:1F#4Harp.wav
256,192,720830,1,0,0:0:0:0:
109,192,721018,1,0,0:0:0:20:E4Harp.wav
329,192,721018,1,0,0:0:0:0:
182,192,721205,1,0,0:0:0:20:D4Harp.wav
402,192,721205,1,0,0:0:0:0:
256,192,721393,1,0,0:0:0:20:A3Harp.wav
475,192,721393,1,0,0:0:0:0:
109,192,721580,1,0,0:0:0:20:1G3Harp.wav
182,192,721768,1,0,0:0:0:20:1F#3Harp.wav
475,192,721768,1,0,0:0:0:0:
36,192,721955,1,0,0:0:0:20:E3Harp.wav
329,192,721955,1,0,0:0:0:0:
182,192,722143,1,0,0:0:0:20:1G3Harp.wav
475,192,722143,1,0,0:0:0:0:
256,192,722330,1,0,0:0:0:20:A3Harp.wav
402,192,722330,1,0,0:0:0:0:
182,192,722518,1,0,0:0:0:20:1F#3Harp.wav
329,192,722518,1,0,0:0:0:0:
109,192,722705,1,0,0:0:0:20:D3Harp.wav
256,192,722705,1,0,0:0:0:0:
36,192,722893,1,0,0:0:0:20:E3Harp.wav
182,192,722893,1,0,0:0:0:0:
256,192,723080,1,0,0:0:0:20:A3Harp.wav
182,192,723268,1,0,0:0:0:20:B3Harp.wav
475,192,723268,1,0,0:0:0:0:
36,192,723455,1,0,0:0:0:20:1G3Harp.wav
329,192,723455,1,0,0:0:0:0:
182,192,723643,1,0,0:0:0:20:1F#3Harp.wav
475,192,723643,1,0,0:0:0:0:
36,192,723830,1,0,0:0:0:20:1F#4Harp.wav
256,192,723830,1,0,0:0:0:0:
109,192,724018,1,0,0:0:0:20:1G4Harp.wav
329,192,724018,1,0,0:0:0:0:
182,192,724205,1,0,0:0:0:20:D4Harp.wav
402,192,724205,1,0,0:0:0:0:
256,192,724393,1,0,0:0:0:20:A4Harp.wav
475,192,724393,1,0,0:0:0:0:
109,192,724580,1,0,0:0:0:20:1F#4Harp.wav
182,192,724768,1,0,0:0:0:20:E4Harp.wav
475,192,724768,1,0,0:0:0:0:
36,192,724955,1,0,0:0:0:20:B3Harp.wav
329,192,724955,1,0,0:0:0:0:
182,192,725143,1,0,0:0:0:20:D4Harp.wav
475,192,725143,1,0,0:0:0:0:
256,192,725330,1,0,0:0:0:20:E4Harp.wav
402,192,725330,1,0,0:0:0:0:
182,192,725518,1,0,0:0:0:20:B3Harp.wav
329,192,725518,1,0,0:0:0:0:
109,192,725705,1,0,0:0:0:20:1F#3Harp.wav
256,192,725705,1,0,0:0:0:0:
36,192,725893,1,0,0:0:0:20:E3Harp.wav
182,192,725893,1,0,0:0:0:0:
256,192,726080,1,0,0:0:0:20:A3Harp.wav
36,192,726268,1,0,0:0:0:20:B3Harp.wav
329,192,726268,1,0,0:0:0:0:
182,192,726455,1,0,0:0:0:20:E4Harp.wav
475,192,726455,1,0,0:0:0:0:
36,192,726643,1,0,0:0:0:20:E3Harp.wav
329,192,726643,1,0,0:0:0:0:
256,192,726830,1,0,0:0:0:20:1F#4Harp.wav
475,192,726830,1,0,0:0:0:0:
182,192,727018,1,0,0:0:0:20:E4Harp.wav
402,192,727018,1,0,0:0:0:0:
109,192,727205,1,0,0:0:0:20:D4Harp.wav
329,192,727205,1,0,0:0:0:0:
36,192,727393,1,0,0:0:0:20:A3Harp.wav
256,192,727393,1,0,0:0:0:0:
402,192,727580,1,0,0:0:0:20:1G3Harp.wav
36,192,727768,1,0,0:0:0:20:1F#3Harp.wav
329,192,727768,1,0,0:0:0:0:
182,192,727955,1,0,0:0:0:20:E3Harp.wav
475,192,727955,1,0,0:0:0:0:
36,192,728143,1,0,0:0:0:20:1G3Harp.wav
329,192,728143,1,0,0:0:0:0:
109,192,728330,1,0,0:0:0:20:A3Harp.wav
256,192,728330,1,0,0:0:0:0:
182,192,728518,1,0,0:0:0:20:1G3Harp.wav
329,192,728518,1,0,0:0:0:0:
256,192,728705,1,0,0:0:0:20:D3Harp.wav
402,192,728705,1,0,0:0:0:0:
329,192,728893,1,0,0:0:0:20:E3Harp.wav
475,192,728893,1,0,0:0:0:0:
256,192,729080,1,0,0:0:0:20:A3Harp.wav
36,192,729268,1,0,0:0:0:20:B3Harp.wav
329,192,729268,1,0,0:0:0:0:
182,192,729455,1,0,0:0:0:20:1G3Harp.wav
475,192,729455,1,0,0:0:0:0:
36,192,729643,1,0,0:0:0:20:1F#3Harp.wav
329,192,729643,1,0,0:0:0:0:
256,192,729830,1,0,0:0:0:20:1F#4Harp.wav
475,192,729830,1,0,0:0:0:0:
182,192,730018,1,0,0:0:0:20:1G4Harp.wav
402,192,730018,1,0,0:0:0:0:
109,192,730205,1,0,0:0:0:20:D4Harp.wav
329,192,730205,1,0,0:0:0:0:
36,192,730393,1,0,0:0:0:20:A3Harp.wav
256,192,730393,1,0,0:0:0:0:
402,192,730580,1,0,0:0:0:20:1G3Harp.wav
36,192,730768,1,0,0:0:0:20:1F#3Harp.wav
329,192,730768,1,0,0:0:0:0:
182,192,730955,1,0,0:0:0:20:E3Harp.wav
475,192,730955,1,0,0:0:0:0:
36,192,731143,1,0,0:0:0:20:A3Harp.wav
329,192,731143,1,0,0:0:0:0:
109,192,731330,1,0,0:0:0:20:D4Harp.wav
256,192,731330,1,0,0:0:0:0:
182,192,731518,1,0,0:0:0:20:B3Harp.wav
329,192,731518,1,0,0:0:0:0:
256,192,731705,1,0,0:0:0:20:1F#3Harp.wav
402,192,731705,1,0,0:0:0:0:
329,192,731893,1,0,0:0:0:20:E3Harp.wav
475,192,731893,1,0,0:0:0:0:
256,192,732080,1,0,0:0:0:20:A3Harp.wav
36,192,732268,1,0,0:0:0:20:B3Harp.wav
329,192,732268,1,0,0:0:0:0:
182,192,732455,1,0,0:0:0:20:E4Harp.wav
475,192,732455,1,0,0:0:0:0:
36,192,732643,1,0,0:0:0:20:E3Harp.wav
329,192,732643,1,0,0:0:0:0:
256,192,732830,1,0,0:0:0:20:1F#4Harp.wav
475,192,732830,1,0,0:0:0:0:
182,192,733018,1,0,0:0:0:20:E4Harp.wav
402,192,733018,1,0,0:0:0:0:
109,192,733205,1,0,0:0:0:20:D4Harp.wav
329,192,733205,1,0,0:0:0:0:
36,192,733393,1,0,0:0:0:20:A3Harp.wav
256,192,733393,1,0,0:0:0:0:
402,192,733580,1,0,0:0:0:20:1G3Harp.wav
36,192,733768,1,0,0:0:0:20:1F#3Harp.wav
329,192,733768,1,0,0:0:0:0:
182,192,733955,1,0,0:0:0:20:E3Harp.wav
475,192,733955,1,0,0:0:0:0:
36,192,734143,1,0,0:0:0:20:1G3Harp.wav
329,192,734143,1,0,0:0:0:0:
109,192,734330,1,0,0:0:0:20:A3Harp.wav
256,192,734330,1,0,0:0:0:0:
182,192,734518,1,0,0:0:0:20:1F#3Harp.wav
329,192,734518,1,0,0:0:0:0:
256,192,734705,1,0,0:0:0:20:D3Harp.wav
402,192,734705,1,0,0:0:0:0:
329,192,734893,1,0,0:0:0:25:E3Harp.wav
475,192,734893,128,0,744455:0:0:0:0:
475,192,744549,128,0,744643:0:0:0:20:1Exhale.mp3
