osu file format v14

[General]
AudioFilename: audio.mp3
AudioLeadIn: 0
PreviewTime: 82268
Countdown: 0
SampleSet: Soft
StackLeniency: 0
Mode: 0
LetterboxInBreaks: 0
EpilepsyWarning: 1
WidescreenStoryboard: 1

[Editor]
Bookmarks: 21839,24089,42410,62982,83553,104125,124696,150410,170982,191553,212125,232696,253268,273839,294410,314982
DistanceSpacing: 2.5
BeatDivisor: 6
GridSize: 32
TimelineZoom: 7.399997

[Metadata]
Title:The Tower Which Is Telling the Time 2
TitleUnicode:The Tower Which Is Telling the Time 2
Artist:Taishi
ArtistUnicode:Taishi
Creator:procq
Version:Otherworldly
Source:
Tags:instrumental electronic clock tower clocktower otherwordly ortherwordy somewhere not in this world storyboard compllege
BeatmapID:4216454
BeatmapSetID:2024252

[Difficulty]
HPDrainRate:6
CircleSize:3.7
OverallDifficulty:8.8
ApproachRate:9.2
SliderMultiplier:1.7
SliderTickRate:1

[Events]
//Background and Video events
0,0,"bg.jpg",0,0
//Break Periods
//Storyboard Layer 0 (Background)
//Storyboard Layer 1 (Fail)
//Storyboard Layer 2 (Pass)
//Storyboard Layer 3 (Foreground)
//Storyboard Layer 4 (Overlay)
//Storyboard Sound Samples

[TimingPoints]
1268,428.571428571429,3,2,1,30,1,0
1268,-333.333333333333,3,2,1,30,0,0
3410,-333.333333333333,3,2,1,15,0,0
3732,-333.333333333333,3,2,1,30,0,0
5125,-333.333333333333,3,2,1,15,0,0
5553,-200,3,2,1,30,0,0
5875,-200,3,2,1,10,0,0
5982,-250,3,2,1,30,0,0
6303,-250,3,2,1,10,0,0
6410,-333.333333333333,3,2,1,30,0,0
8553,-333.333333333333,3,2,1,15,0,0
8982,-333.333333333333,3,2,1,30,0,0
10268,-333.333333333333,3,2,1,15,0,0
10696,-333.333333333333,3,2,1,30,0,0
11017,-333.333333333333,3,2,1,15,0,0
11125,-200,3,2,1,30,0,0
11446,-200,3,2,1,15,0,0
11553,-200,3,2,1,40,0,0
15839,-125,3,2,1,40,0,0
16160,-125,3,2,1,15,0,0
16268,-166.666666666667,3,2,1,40,0,0
16589,-166.666666666667,3,2,1,15,0,0
16696,-285.714285714286,3,2,1,40,0,0
17017,-285.714285714286,3,2,1,15,0,0
17125,-285.714285714286,3,2,1,40,0,0
20982,-111.111111111111,3,2,1,40,0,0
21303,-111.111111111111,3,2,1,20,0,0
21410,-71.4285714285714,3,2,1,50,0,0
21731,-71.4285714285714,3,2,1,30,0,0
21839,-50,3,2,1,67,0,1
22160,-50,3,2,1,40,0,1
22268,-200,3,2,1,40,0,0
22696,-50,3,2,1,50,0,0
23125,-50,3,2,1,67,0,1
23339,-50,3,2,1,50,0,0
23982,-200,3,2,1,50,0,0
24410,-50,3,2,1,67,0,1
24732,-50,3,2,1,40,0,0
24839,-200,3,2,1,50,0,0
25696,-50,3,2,1,60,0,1
25803,-50,3,2,1,40,0,0
25910,-50,3,2,1,50,0,0
26982,-50,3,2,1,67,0,1
27196,-50,3,2,1,40,0,0
27410,-200,3,2,1,50,0,0
27839,-50,3,2,1,50,0,0
28268,-50,3,2,1,67,0,1
28589,-50,3,2,1,40,0,0
28696,-50,3,2,1,50,0,0
29125,-200,3,2,1,50,0,0
29553,-50,3,2,1,50,0,1
29875,-50,3,2,1,40,0,0
29982,-50,3,2,1,50,0,0
30839,-50,3,2,1,67,0,1
30946,-50,3,2,1,40,0,0
31053,-50,3,2,1,40,0,0
31160,-50,3,2,1,50,0,0
31268,-50,3,2,1,40,0,0
31375,-50,3,2,1,50,0,0
31482,-50,3,2,1,40,0,0
31589,-50,3,2,1,50,0,0
31696,-50,3,2,1,40,0,0
31803,-50,3,2,1,50,0,0
31910,-50,3,2,1,40,0,0
32125,-50,3,2,1,67,0,1
32446,-50,3,2,1,40,0,0
32553,-200,3,2,1,50,0,0
32982,-55.5555555555556,3,2,1,50,0,0
33196,-50,3,2,1,50,0,0
33410,-50,3,2,1,67,0,1
33625,-50,3,2,1,40,0,0
34053,-50,3,2,1,50,0,0
34268,-200,3,2,1,50,0,0
34696,-50,3,2,1,67,0,1
35017,-50,3,2,1,40,0,1
35125,-200,3,2,1,50,0,0
35982,-50,3,2,1,67,0,1
36089,-50,3,2,1,40,0,0
36196,-50,3,2,1,50,0,0
37268,-50,3,2,1,67,0,1
37589,-50,3,2,1,40,0,0
37696,-200,3,2,1,50,0,0
38125,-50,3,2,1,50,0,0
38553,-50,3,2,1,67,0,1
38768,-50,3,2,1,40,0,0
38982,-50,3,2,1,50,0,0
39410,-200,3,2,1,50,0,0
39839,-50,3,2,1,67,0,1
40160,-50,3,2,1,40,0,0
40268,-50,3,2,1,50,0,0
40696,-200,3,2,1,50,0,0
41125,-50,3,2,1,67,0,1
41232,-50,3,2,1,40,0,0
41339,-50,3,2,1,50,0,0
42410,-200,3,2,1,30,0,0
46696,-200,3,2,1,25,0,0
47125,-200,3,2,1,30,0,0
51839,-200,3,2,1,25,0,0
52268,-200,3,2,1,30,0,0
57089,-200,3,2,1,25,0,0
63839,-250,3,2,1,30,0,0
71553,-250,3,2,1,10,0,0
71982,-250,3,2,1,30,0,0
72839,-250,3,2,1,10,0,0
73268,-250,3,2,1,30,0,0
83124,-250,3,2,1,30,0,0
83553,-41.6666666666667,3,2,1,67,0,1
83768,-41.6666666666667,3,2,1,40,0,0
83875,-41.6666666666667,3,2,1,50,0,0
83982,-50,3,2,1,50,0,0
84410,-55.5555555555556,3,2,1,50,0,0
84839,-50,3,2,1,67,0,1
84946,-50,3,2,1,40,0,0
85053,-50,3,2,1,50,0,0
86125,-41.6666666666667,3,2,1,67,0,1
86339,-41.6666666666667,3,2,1,40,0,0
86446,-41.6666666666667,3,2,1,50,0,0
86553,-50,3,2,1,50,0,0
86982,-47.6190476190476,3,2,1,50,0,0
87410,-45.4545454545455,3,2,1,67,0,1
87518,-50,3,2,1,40,0,0
87625,-50,3,2,1,50,0,0
88696,-41.6666666666667,3,2,1,67,0,1
88910,-41.6666666666667,3,2,1,40,0,1
89018,-41.6666666666667,3,2,1,50,0,0
89125,-50,3,2,1,50,0,0
89982,-50,3,2,1,67,0,1
90089,-50,3,2,1,40,0,0
90196,-50,3,2,1,50,0,0
91268,-41.6666666666667,3,2,1,67,0,1
91482,-41.6666666666667,3,2,1,40,0,0
91589,-41.6666666666667,3,2,1,50,0,0
91696,-55.5555555555556,3,2,1,50,0,0
92553,-50,3,2,1,60,0,1
92768,-50,3,2,1,30,0,0
92982,-45.4545454545455,3,2,1,65,0,1
93196,-45.4545454545455,3,2,1,35,0,0
93410,-41.6666666666667,3,2,1,67,0,1
93625,-41.6666666666667,3,2,1,40,0,0
93839,-41.6666666666667,3,2,2,67,0,1
94053,-41.6666666666667,3,2,1,40,0,0
94160,-41.6666666666667,3,2,1,67,0,1
94268,-50,3,2,1,50,0,0
95125,-50,3,2,1,67,0,1
95232,-50,3,2,1,40,0,0
95339,-50,3,2,1,50,0,0
95768,-55.5555555555556,3,2,1,50,0,0
95982,-38.4615384615385,3,2,1,50,0,0
96303,-50,3,2,1,50,0,0
96410,-41.6666666666667,3,2,1,67,0,1
96625,-41.6666666666667,3,2,1,40,0,0
96732,-41.6666666666667,3,2,1,50,0,0
96839,-50,3,2,1,50,0,0
97696,-50,3,2,1,67,0,1
97803,-50,3,2,1,40,0,0
97910,-50,3,2,1,50,0,0
98982,-41.6666666666667,3,2,1,67,0,1
99196,-41.6666666666667,3,2,1,40,0,0
99303,-41.6666666666667,3,2,1,50,0,0
99410,-50,3,2,1,50,0,0
100268,-50,3,2,1,67,0,1
100375,-50,3,2,1,40,0,0
100482,-50,3,2,1,50,0,0
101553,-41.6666666666667,3,2,1,67,0,1
101768,-41.6666666666667,3,2,1,40,0,0
101875,-41.6666666666667,3,2,1,50,0,0
101982,-50,3,2,1,50,0,0
102839,-50,3,2,1,67,0,1
103053,-50,3,2,1,40,0,0
103160,-50,3,2,1,50,0,0
104125,-41.6666666666667,3,2,2,50,0,1
104446,-41.6666666666667,3,2,1,50,0,0
104553,-50,3,2,1,50,0,0
105410,-41.6666666666667,3,2,1,67,0,1
105625,-41.6666666666667,3,2,1,40,0,0
105732,-41.6666666666667,3,2,1,50,0,0
105839,-50,3,2,1,50,0,0
106696,-41.6666666666667,3,2,1,67,0,1
106910,-41.6666666666667,3,2,1,40,0,0
107018,-41.6666666666667,3,2,1,50,0,0
107125,-50,3,2,1,50,0,0
107553,-50,3,2,1,67,0,1
107660,-50,3,2,1,40,0,0
107768,-50,3,2,1,50,0,0
107982,-41.6666666666667,3,2,1,67,0,1
108196,-41.6666666666667,3,2,1,40,0,0
108303,-41.6666666666667,3,2,1,50,0,0
108625,-50,3,2,1,50,0,0
108839,-50,3,2,1,67,0,1
108946,-50,3,2,1,40,0,0
109053,-50,3,2,1,50,0,0
109268,-41.6666666666667,3,2,2,67,0,1
109482,-41.6666666666667,3,2,1,40,0,0
109589,-41.6666666666667,3,2,1,50,0,0
109696,-50,3,2,1,50,0,0
111839,-41.6666666666667,3,2,2,67,0,1
112053,-41.6666666666667,3,2,1,40,0,0
112160,-41.6666666666667,3,2,1,50,0,0
112268,-50,3,2,1,50,0,0
114410,-41.6666666666667,3,2,2,67,0,1
114625,-41.6666666666667,3,2,1,40,0,0
114732,-41.6666666666667,3,2,1,50,0,0
114839,-50,3,2,1,50,0,0
115268,-50,3,2,1,67,0,1
115375,-50,3,2,1,40,0,0
115482,-50,3,2,1,50,0,0
115696,-50,3,2,1,67,0,1
115803,-50,3,2,1,40,0,0
115910,-50,3,2,1,50,0,0
116553,-50,3,2,1,67,0,1
116660,-50,3,2,1,40,0,0
116768,-50,3,2,1,50,0,0
116982,-41.6666666666667,3,2,1,67,0,1
117196,-41.6666666666667,3,2,1,40,0,0
117303,-41.6666666666667,3,2,1,50,0,0
117410,-50,3,2,1,50,0,0
117839,-50,3,2,1,67,0,1
117946,-50,3,2,1,40,0,0
118053,-50,3,2,1,50,0,0
118268,-41.6666666666667,3,2,1,67,0,1
118482,-41.6666666666667,3,2,1,40,0,0
118589,-41.6666666666667,3,2,1,50,0,0
118910,-50,3,2,1,50,0,0
119125,-41.6666666666667,3,2,1,67,0,1
119339,-41.6666666666667,3,2,1,40,0,0
119446,-41.6666666666667,3,2,1,50,0,0
119553,-41.6666666666667,3,2,2,67,0,1
119875,-41.6666666666667,3,2,1,40,0,0
119982,-50,3,2,1,50,0,0
120839,-50,3,2,1,67,0,1
121053,-50,3,2,1,40,0,0
121160,-50,3,2,1,50,0,0
122125,-50,3,2,1,67,0,1
122339,-50,3,2,1,40,0,0
122446,-50,3,2,1,50,0,0
124696,-50,3,2,1,30,0,0
125982,-263.157894736842,3,2,1,30,0,0
143339,-263.157894736842,3,2,1,30,0,0
150303,-263.157894736842,3,2,1,30,0,0
150410,-50,3,2,1,50,0,0
152553,-250,3,2,1,50,0,0
152982,-50,3,2,1,50,0,0
157053,-46.9483568075117,3,2,1,50,0,0
157268,-50,3,2,1,50,0,0
157696,-250,3,2,1,50,0,0
158125,-50,3,2,1,50,0,0
162839,-250,3,2,1,50,0,0
163268,-50,3,2,1,50,0,0
167982,-250,3,2,1,50,0,0
168410,-50,3,2,1,50,0,0
169482,-50,3,2,1,50,0,0
169589,-50,3,2,1,50,0,0
180410,-76.9230769230769,3,2,1,50,0,0
180518,-50,3,2,1,50,0,0
180946,-45.4545454545455,3,2,1,50,0,0
181214,-50,3,2,1,5,0,0
181268,-45.4545454545455,3,2,1,50,0,0
181910,-50,3,2,1,50,0,0
185982,-45.3138100601535,3,2,1,50,0,0
186410,-40,3,2,1,50,0,0
186625,-50,3,2,1,50,0,0
189196,-46.2378930944338,3,2,1,50,0,0
189839,-44.8584296036548,3,2,1,50,0,0
190268,-50,3,2,1,50,0,0
191553,-83.3333333333333,3,2,1,50,0,0
192195,-83.3333333333333,3,2,1,40,0,0
192838,-83.3333333333333,3,2,1,30,0,0
193481,-83.3333333333333,3,2,1,20,0,0
194982,-100,3,2,1,30,0,0
196696,-200,3,2,1,30,0,0
200124,-200,3,2,1,10,0,0
200553,-200,3,2,1,30,0,0
201410,-200,3,2,1,10,0,0
201839,-200,3,2,1,30,0,0
211696,-200,3,2,1,20,0,0
212125,-41.6666666666667,3,2,2,67,0,1
212339,-41.6666666666667,3,2,1,40,0,0
212553,-50,3,2,1,50,0,0
213410,-41.6666666666667,3,2,1,67,0,1
213625,-41.6666666666667,3,2,1,40,0,0
213732,-41.6666666666667,3,2,1,50,0,0
213839,-50,3,2,1,50,0,0
214696,-41.6666666666667,3,2,1,67,0,1
214910,-41.6666666666667,3,2,1,40,0,0
215018,-41.6666666666667,3,2,1,50,0,0
215125,-50,3,2,1,50,0,0
215982,-41.6666666666667,3,2,1,50,0,1
216303,-41.6666666666667,3,2,1,50,0,0
216625,-50,3,2,1,50,0,0
217268,-41.6666666666667,3,2,1,67,0,1
217482,-41.6666666666667,3,2,1,40,0,0
217589,-41.6666666666667,3,2,1,50,0,0
217696,-50,3,2,1,50,0,0
218553,-41.6666666666667,3,2,1,67,0,1
218768,-41.6666666666667,3,2,1,40,0,0
218875,-41.6666666666667,3,2,1,50,0,0
218982,-50,3,2,1,50,0,0
219839,-41.6666666666667,3,2,1,67,0,1
220053,-41.6666666666667,3,2,1,40,0,0
220160,-41.6666666666667,3,2,1,50,0,0
220268,-50,3,2,1,50,0,0
221125,-50,3,2,1,50,0,1
221339,-50,3,2,1,30,0,0
221446,-50,3,2,1,40,0,0
221553,-45.4545454545455,3,2,1,60,0,1
221768,-45.4545454545455,3,2,1,35,0,0
221875,-45.4545454545455,3,2,1,45,0,0
221982,-41.6666666666667,3,2,1,67,0,1
222196,-41.6666666666667,3,2,1,40,0,0
222303,-41.6666666666667,3,2,1,50,0,0
222410,-37.037037037037,3,2,2,67,0,1
222625,-37.037037037037,3,2,1,40,0,0
222732,-37.037037037037,3,2,1,50,0,0
222839,-50,3,2,1,50,0,0
223696,-40,3,2,1,67,0,1
223910,-40,3,2,1,40,0,0
224018,-40,3,2,1,50,0,0
224125,-50,3,2,1,50,0,0
224982,-40,3,2,1,67,0,1
225196,-40,3,2,1,40,0,0
225303,-40,3,2,1,50,0,0
225410,-50,3,2,1,50,0,0
226268,-40,3,2,1,67,0,1
226482,-40,3,2,1,40,0,0
226589,-40,3,2,1,50,0,0
226696,-50,3,2,1,50,0,0
227553,-40,3,2,1,67,0,1
227768,-40,3,2,1,40,0,0
227875,-40,3,2,1,50,0,0
227982,-50,3,2,1,50,0,0
228839,-40,3,2,1,67,0,1
229053,-40,3,2,1,40,0,0
229160,-40,3,2,1,50,0,0
229268,-50,3,2,1,50,0,0
230125,-40,3,2,1,67,0,1
230339,-40,3,2,1,40,0,0
230446,-40,3,2,1,50,0,0
230553,-50,3,2,1,50,0,0
231410,-40,3,2,1,67,0,1
231625,-40,3,2,1,40,0,0
231732,-40,3,2,1,50,0,0
232053,-50,3,2,1,50,0,0
232482,-41.6666666666667,3,2,1,50,0,0
232696,-40,3,2,2,67,0,1
232910,-40,3,2,1,40,0,0
233018,-40,3,2,1,50,0,0
233125,-50,3,2,1,50,0,0
233982,-40,3,2,1,67,0,1
234196,-40,3,2,1,40,0,0
234303,-40,3,2,1,50,0,0
234410,-50,3,2,1,50,0,0
234839,-58.8235294117647,3,2,1,50,0,0
235268,-40,3,2,1,67,0,1
235482,-40,3,2,1,40,0,0
235589,-40,3,2,1,50,0,0
236125,-50,3,2,1,50,0,0
236553,-40,3,2,1,67,0,1
236768,-40,3,2,1,40,0,0
236875,-40,3,2,1,50,0,0
237839,-40,3,2,1,67,0,1
238053,-40,3,2,1,40,0,0
238160,-40,3,2,1,50,0,0
238268,-50,3,2,1,50,0,0
239125,-40,3,2,1,67,0,1
239339,-40,3,2,1,40,0,0
239446,-40,3,2,1,50,0,0
239553,-50,3,2,1,50,0,0
240410,-50,3,2,1,67,0,1
240625,-50,3,2,1,40,0,0
240732,-50,3,2,1,50,0,0
241696,-50,3,2,1,50,0,1
241910,-50,3,2,1,30,0,0
242125,-43.4782608695652,3,2,1,60,0,1
242339,-43.4782608695652,3,2,1,35,0,0
242553,-38.4615384615385,3,2,1,70,0,1
242768,-38.4615384615385,3,2,1,40,0,0
242982,-40,3,2,2,70,0,1
243196,-40,3,2,1,40,0,0
243303,-40,3,2,1,50,0,0
243410,-50,3,2,1,50,0,0
244268,-50,3,2,1,50,0,1
244482,-50,3,2,1,50,0,0
244696,-50,3,2,1,50,0,1
244910,-50,3,2,1,50,0,0
245125,-50,3,2,1,50,0,1
245339,-50,3,2,1,50,0,0
245553,-50,3,2,2,50,0,1
245768,-50,3,2,1,50,0,0
245875,-50,3,2,1,50,0,0
246839,-50,3,2,1,50,0,1
247053,-50,3,2,1,50,0,0
247696,-50,3,2,1,50,0,1
247910,-50,3,2,1,50,0,0
248125,-50,3,2,2,50,0,1
248339,-50,3,2,1,50,0,0
248446,-50,3,2,1,50,0,0
249410,-40,3,2,1,67,0,1
249839,-40,3,2,1,40,0,0
250268,-50,3,2,1,40,0,0
250696,-40,3,2,2,67,0,1
251018,-40,3,2,1,40,0,0
251125,-50,3,2,1,50,0,0
251982,-50,3,2,1,50,0,1
252196,-50,3,2,1,50,0,0
252357,-50,3,2,1,20,0,0
252410,-50,3,2,1,50,0,0
253268,-40,3,2,2,67,0,1
253589,-40,3,2,1,40,0,0
253696,-50,3,2,1,50,0,0
255839,-40,3,2,2,67,0,1
256160,-40,3,2,1,40,0,0
256268,-50,3,2,1,50,0,0
257125,-41.6666666666667,3,2,1,67,0,1
257339,-41.6666666666667,3,2,1,40,0,0
257446,-41.6666666666667,3,2,1,50,0,0
257553,-50,3,2,1,50,0,0
258410,-41.6666666666667,3,2,1,67,0,1
258625,-41.6666666666667,3,2,1,67,0,0
258732,-40,3,2,1,40,0,0
258839,-50,3,2,1,50,0,0
259696,-40,3,2,1,67,0,1
260018,-40,3,2,1,40,0,0
260125,-40,3,2,1,50,0,0
260553,-50,3,2,1,67,0,1
260768,-50,3,2,1,40,0,0
260875,-50,3,2,1,50,0,0
260982,-50,3,2,1,67,0,1
261196,-50,3,2,1,40,0,0
261303,-50,3,2,1,50,0,0
262268,-47.6190476190476,3,2,1,50,0,1
262482,-47.6190476190476,3,2,1,30,0,0
262589,-47.6190476190476,3,2,1,50,0,0
262696,-43.4782608695652,3,2,1,60,0,1
262910,-43.4782608695652,3,2,1,35,0,0
263018,-43.4782608695652,3,2,1,50,0,0
263125,-40,3,2,1,67,0,1
263339,-40,3,2,1,40,0,0
263500,-40,3,2,1,60,0,1
263553,-43.4782608695652,3,2,2,67,0,1
263875,-43.4782608695652,3,2,1,50,0,0
263982,-43.4782608695652,3,2,1,40,0,0
264303,-43.4782608695652,3,2,1,50,0,0
264410,-50,3,2,1,50,0,0
266125,-40,3,2,1,67,0,1
266339,-40,3,2,1,40,0,0
266446,-40,3,2,1,50,0,0
266553,-50,3,2,1,50,0,0
268696,-50,3,2,2,67,0,1
269018,-50,3,2,1,40,0,0
269125,-50,3,2,1,50,0,0
269982,-40,3,2,1,67,0,1
270303,-40,3,2,1,40,0,0
270410,-50,3,2,1,50,0,0
271196,-50,3,2,1,60,0,1
271268,-40,3,2,2,67,0,1
271482,-40,3,2,1,40,0,0
271589,-40,3,2,1,50,0,0
271696,-50,3,2,1,50,0,0
272553,-40,3,2,1,67,0,1
272768,-40,3,2,1,40,0,0
272875,-40,3,2,1,50,0,0
272982,-50,3,2,1,40,0,0
273196,-50,3,2,1,30,0,0
273839,-50,3,2,1,50,0,0
282410,-43.4782608695652,3,2,1,50,0,0
282625,-38.4615384615385,3,2,1,50,0,0
282839,-50,3,2,1,50,0,0
291839,-41.6666666666667,3,2,1,50,0,0
293446,-50,3,2,1,50,0,0
293982,-66.6666666666667,3,2,1,50,0,0
294410,-142.857142857143,3,2,1,23,0,0
325268,-142.857142857143,3,2,1,5,0,0

[Colours]
Combo1 : 157,216,249
Combo2 : 72,99,83
Combo3 : 90,106,99
Combo4 : 120,154,156
Combo5 : 151,203,161
Combo6 : 189,255,207

[HitObjects]
4,51,1268,6,0,B|72:61|92:130|92:130|108:201|180:209,1,255,2|0,0:0|0:0,0:0:0:0:
292,71,3732,5,0,0:0:0:0:
289,68,3785,1,0,0:0:0:0:
287,65,3839,2,0,B|197:34|154:88|165:141|213:131,1,153,2|0,0:0|0:0,0:0:0:0:
386,99,5553,6,0,P|416:112|443:128,1,63.75,2|0,0:0|0:0,0:0:0:0:
309,152,5982,2,0,P|282:155|256:178,1,51,2|0,0:0|0:0,0:0:0:0:
208,306,6410,54,0,P|320:247|444:215,1,255,2|0,0:0|0:0,0:0:0:0:
434,313,8982,2,0,P|360:331|292:366,1,153,2|0,0:0|0:0,0:0:0:0:
114,384,10696,6,0,P|133:360|140:343,1,38.25,2|0,0:0|0:0,0:0:0:0:
66,295,11125,2,0,P|41:264|32:242,1,63.75,2|0,0:0|0:0,0:0:0:0:
107,183,11553,6,0,P|139:141|151:112,1,85,2|0,0:0|0:0,0:0:0:0:
17,30,12410,1,0,0:0:0:0:
39,117,12839,1,0,0:0:0:0:
191,3,13268,54,0,P|210:51|229:76,1,85,2|0,0:0|0:0,0:0:0:0:
387,143,14018,5,0,0:0:0:0:
384,140,14071,1,0,0:0:0:0:
381,137,14125,2,0,P|329:129|298:133,1,85,2|2,0:0|0:0,0:0:0:0:
169,234,14982,2,0,P|201:192|213:164,1,85
3,255,15839,6,0,P|53:268|96:294,1,102,2|0,0:0|0:0,0:0:0:0:
107,381,16268,2,0,P|141:365|200:359,1,76.4999999999999,2|0,0:0|0:0,0:0:0:0:
221,284,16696,54,0,P|244:305|268:315,1,44.625,2|0,0:0|0:0,0:0:0:0:
312,371,17125,1,0,0:0:0:0:
397,353,17553,1,0,0:0:0:0:
470,384,17982,1,0,0:0:0:0:
307,251,18410,6,0,P|336:259|362:274,1,59.4999999999999,2|0,0:0|0:0,0:0:0:0:
266,175,19268,2,0,P|257:142|258:108,1,59.4999999999999,2|0,0:0|0:0,0:0:0:0:
180,80,20125,1,0,0:0:0:0:
86,101,20553,1,0,0:0:0:0:
18,163,20982,6,0,P|67:191|98:238,1,114.75,2|0,0:0|0:0,0:0:0:0:
101,253,21410,54,0,B|114:300|209:352|242:283|230:260,1,178.5,2|0,0:0|0:0,0:0:0:0:
2,173,21839,70,0,B|36:237|122:219|121:186|217:204|235:267,1,255,6|0,0:3|0:0,0:0:0:0:
4,346,22268,6,0,P|21:314|22:282,1,63.75,8|0,0:3|0:0,0:0:0:0:
73,127,22696,38,0,P|106:101|148:99,1,85,8|0,0:3|0:0,0:0:0:0:
219,55,22910,2,0,P|241:90|280:106,1,85,8|0,0:3|0:0,0:0:0:0:
395,0,23125,22,0,P|369:79|356:171,1,170,6|8,0:3|0:0,0:0:0:0:
359,178,23768,53,8,0:0:0:0:
460,79,23982,38,0,P|491:90|512:111,1,63.75,2|0,0:3|0:0,0:0:0:0:
390,375,24410,70,0,B|341:347|346:293|378:222|398:292|486:230|423:112,1,255,6|0,0:3|0:0,0:0:0:0:
222,312,24839,6,0,P|244:333|274:344,1,63.75,2|0,0:3|0:0,0:0:0:0:
374,104,25268,37,8,0:0:0:0:
289,259,25482,1,8,0:1:0:0:
289,13,25696,22,0,P|260:42|251:92,1,85,10|0,0:3|0:0,0:0:0:0:
210,219,25910,54,0,P|188:183|187:141,1,85,10|0,0:3|0:0,0:0:0:0:
77,232,26125,5,2,0:3:0:0:
58,279,26232,1,2,0:3:0:0:
45,270,26339,2,0,P|122:236|204:212,1,170,8|0,0:1|0:0,0:0:0:0:
357,238,26768,70,0,P|319:258|269:254,1,85,4|0,0:3|0:0,0:0:0:0:
105,0,26982,22,0,B|99:91|75:166,1,170,6|0,0:3|0:0,0:0:0:0:
163,342,27410,6,0,P|189:324|205:297,1,63.75,2|0,0:3|0:0,0:0:0:0:
285,32,27839,38,0,P|327:27|366:44,1,85,8|0,0:3|0:0,0:0:0:0:
480,157,28053,2,0,P|455:122|451:80,1,85,4|0,0:3|0:0,0:0:0:0:
505,9,28268,22,0,P|474:86|446:263,1,255,6|0,0:3|0:0,0:0:0:0:
456,266,28696,53,8,0:0:0:0:
314,115,28910,1,8,0:1:0:0:
374,319,29125,38,0,P|399:338|419:361,1,63.75,2|0,0:0|0:0,0:0:0:0:
251,370,29553,70,0,B|186:400|178:285|311:231|394:323,1,255,6|0,0:3|0:0,0:0:0:0:
228,275,29982,54,0,P|216:235|235:198,1,85,8|0,0:3|0:0,0:0:0:0:
217,80,30196,2,0,P|257:89|279:124,1,85,4|0,0:3|0:0,0:0:0:0:
388,172,30410,5,2,0:0:0:0:
362,200,30518,1,2,0:0:0:0:
320,202,30625,1,8,0:0:0:0:
111,384,30839,6,0,P|89:348|87:306,1,85,8|0,0:3|0:0,0:0:0:0:
57,161,31053,54,0,P|27:190|18:231,1,85,4|0,0:3|0:0,0:0:0:0:
132,216,31268,5,4,0:3:0:0:
171,183,31375,1,2,0:3:0:0:
158,167,31482,2,0,P|175:224|216:270,1,85,8|0,0:1|0:0,0:0:0:0:
340,260,31696,2,0,P|303:239|273:208,1,85,8|0,0:1|0:0,0:0:0:0:
346,24,31910,1,8,0:0:0:0:
87,0,32125,6,0,B|117:66|189:54|189:54|263:41|292:110,1,255,6|0,0:3|0:0,0:0:0:0:
174,187,32553,6,0,P|187:160|212:133,1,63.75
297,235,32982,38,0,P|260:243|229:269,1,76.4999976654053,8|0,0:1|0:0,0:0:0:0:
325,353,33196,2,0,P|278:349|236:369,1,85,8|0,0:1|0:0,0:0:0:0:
498,209,33410,22,0,P|472:289|461:374,1,170,6|8,0:3|0:0,0:0:0:0:
466,382,34053,53,8,0:0:0:0:
356,147,34268,38,0,P|380:169|410:176,1,63.75,8|0,0:1|0:0,0:0:0:0:
276,0,34696,70,0,B|309:64|380:56|380:56|452:50|485:112,1,255,6|0,0:3|0:0,0:0:0:0:
231,160,35125,6,0,P|226:128|233:97,1,63.75,2|0,0:0|0:0,0:0:0:0:
270,243,35553,37,8,0:0:0:0:
192,21,35768,1,8,0:1:0:0:
357,247,35982,22,0,P|351:206|317:168,1,85,10|0,0:3|0:0,0:0:0:0:
104,18,36196,54,0,P|110:59|136:91,1,85,4|0,0:3|0:0,0:0:0:0:
131,330,36410,5,2,0:3:0:0:
88,345,36518,1,2,0:3:0:0:
102,357,36625,2,0,P|126:276|140:192,1,170,8|0,0:1|0:0,0:0:0:0:
278,369,37053,70,0,P|252:350|215:310,1,85,4|0,0:3|0:0,0:0:0:0:
497,131,37268,22,0,P|449:249|392:363,1,255,6|0,0:3|0:0,0:0:0:0:
323,296,37696,6,0,P|309:267|301:236,1,63.75,4|0,0:3|0:0,0:0:0:0:
110,15,38125,38,0,P|80:43|57:79,1,85,8|0,0:3|0:0,0:0:0:0:
348,155,38339,2,0,P|307:143|264:140,1,85,2|0,0:3|0:0,0:0:0:0:
317,37,38553,22,0,P|234:58|158:95,1,170,10|0,0:0|0:0,0:0:0:0:
99,233,38982,53,4,0:3:0:0:
0,1,39196,1,8,0:1:0:0:
255,52,39410,38,0,P|285:42|317:37,1,63.75,2|0,0:3|0:0,0:0:0:0:
99,233,39839,70,0,B|-24:291|-6:386|75:413|89:360,1,255,6|0,0:3|0:0,0:0:0:0:
135,149,40268,54,0,P|161:116|178:77,1,85,10|0,0:0|0:0,0:0:0:0:
202,370,40482,2,0,P|175:336|159:296,1,85,4|0,0:3|0:0,0:0:0:0:
249,214,40696,38,0,P|218:209|187:215,1,63.75,2|0,0:3|0:0,0:0:0:0:
262,74,41125,70,0,P|279:113|306:147,1,85,10|0,0:0|0:0,0:0:0:0:
279,330,41339,54,0,P|305:296|321:257,1,85,4|0,0:3|0:0,0:0:0:0:
332,24,41553,1,0,0:0:0:0:
386,199,41768,6,0,P|439:191|494:222,1,113.333333333333,8|2,0:1|0:3,0:0:0:0:
494,231,41982,2,0,P|427:240|317:270,1,170,4|8,0:3|0:3,0:0:0:0:
39,239,42410,22,0,P|79:225|113:201,1,85,2|0,0:0|0:0,0:0:0:0:
238,242,43268,6,0,P|222:227|202:219,1,42.5,8|0,0:0|0:0,0:0:0:0:
177,92,43696,2,0,P|172:112|174:133,1,42.5,2|0,0:0|0:0,0:0:0:0:
237,241,44339,6,0,P|222:227|203:219,1,42.5,8|0,0:0|0:0,0:0:0:0:
341,111,44982,54,0,P|306:136|267:150,1,85,2|0,0:0|0:0,0:0:0:0:
463,156,45839,6,0,P|447:141|427:133,1,42.5,8|0,0:0|0:0,0:0:0:0:
393,43,46268,2,0,P|391:22|396:2,1,42.5,2|0,0:0|0:0,0:0:0:0:
495,50,46696,2,0,P|484:61|472:62,2,21.25,2|0|0,0:0|0:0|0:0,0:0:0:0:
427,133,47125,2,0,P|446:140|462:155,1,42.5,8|0,0:0|0:0,0:0:0:0:
385,276,47553,6,0,P|425:262|460:239,1,85,2|0,0:0|0:0,0:0:0:0:
299,295,48410,54,0,P|279:303|263:318,1,42.5,8|0,0:0|0:0,0:0:0:0:
324,213,48839,2,0,P|326:192|321:172,1,42.5,2|0,0:0|0:0,0:0:0:0:
298,295,49482,2,0,P|278:302|262:317,1,42.5,8|0,0:0|0:0,0:0:0:0:
168,184,50125,6,0,P|207:198|242:221,1,85,2|0,0:0|0:0,0:0:0:0:
49,137,50982,6,0,P|65:152|85:160,1,42.5,8|0,0:0|0:0,0:0:0:0:
119,250,51410,2,0,P|121:271|116:291,1,42.5,2|0,0:0|0:0,0:0:0:0:
18,244,51839,2,0,P|25:238|38:233,2,21.25,2|0|0,0:0|0:0|0:0,0:0:0:0:
85,160,52268,2,0,P|66:153|50:138,1,42.5,8|0,0:0|0:0,0:0:0:0:
126,18,52696,54,0,P|86:32|51:55,1,85,2|0,0:0|0:0,0:0:0:0:
153,98,53553,6,0,P|173:106|189:121,1,42.5,8|0,0:0|0:0,0:0:0:0:
260,175,53982,2,0,P|300:161|335:138,1,85,2|0,0:0|0:0,0:0:0:0:
449,161,54625,2,0,P|429:167|413:182,1,42.5,8|0,0:0|0:0,0:0:0:0:
405,289,55268,6,0,P|372:261|335:242,1,85,2|0,0:0|0:0,0:0:0:0:
485,239,56125,2,0,P|493:258|496:279,1,42.5,10|0,0:0|0:0,0:0:0:0:
329,335,56553,54,0,P|293:358|253:372,1,85,10|0,0:0|0:0,0:0:0:0:
236,373,57089,2,0,P|218:370|205:361,1,21.25
406,369,57410,2,0,P|425:376|446:379,1,42.5,2|0,0:0|0:0,0:0:0:0:
388,201,57839,6,0,P|390:243|402:283,2,85,10|0|8,0:0|0:0|0:0,0:0:0:0:
409,114,58910,1,0,0:0:0:0:
503,37,59125,2,0,P|487:36|463:48,1,42.5,2|8,0:0|0:0,0:0:0:0:
293,103,59768,2,0,P|300:117|322:132,1,42.5,8|2,0:0|0:0,0:0:0:0:
141,178,60410,6,0,P|182:170|221:153,1,85
175,80,61268,2,0,P|154:83|134:92,2,42.5,10|2|0,0:0|0:0|0:0,0:0:0:0:
256,192,61803,12,0,62982,0:0:0:0:
377,186,63839,54,0,P|415:192|451:204,1,68,2|2,0:0|0:0,0:0:0:0:
264,349,65125,5,2,0:0:0:0:
174,281,65553,6,0,P|190:214|196:147,1,136,2|2,0:0|0:0,0:0:0:0:
303,111,66839,53,2,0:0:0:0:
127,274,67696,5,2,0:0:0:0:
221,19,68125,6,0,B|265:142|36:148|156:214|216:191|216:191|279:168|399:234|170:240|214:363,1,544,2|0,0:0|0:0,0:0:0:0:
382,283,71982,54,0,B|403:348|335:396|320:358,1,136,2|0,0:0|0:0,0:0:0:0:
384,192,73268,5,2,0:0:0:0:
479,72,74125,6,0,P|445:78|413:88,1,68,2|2,0:0|0:0,0:0:0:0:
274,180,75410,53,2,0:0:0:0:
66,194,75839,6,0,P|135:196|198:223,1,136,2|2,0:0|0:0,0:0:0:0:
178,316,77125,6,0,P|109:314|46:287,1,136,2|2,0:0|0:0,0:0:0:0:
16,101,78410,54,0,B|-72:113|-15:-49|63:-5|147:9|160:38|47:250|75:255|126:292|186:274|214:279|179:41|203:18|286:33|403:24|373:191|294:150,1,748
502,203,83553,70,2,B|460:168|411:193|411:193|393:249|335:261,1,204,6|2,0:3|0:0,0:0:0:0:
251,135,83875,53,0,0:0:0:0:
255,122,83982,2,0,P|300:192|328:272,1,170,8|0,0:3|0:0,0:0:0:0:
441,12,84303,5,0,0:0:0:0:
343,9,84410,2,0,P|335:47|336:88,1,76.4999976654053,2|0,0:0|0:0,0:0:0:0:
426,97,84625,2,0,P|438:60|445:23,1,76.4999976654053,2|0,0:0|0:0,0:0:0:0:
304,193,84839,6,0,P|346:196|387:210,1,85,2|0,0:0|0:0,0:0:0:0:
271,344,85053,54,0,P|253:305|245:264,1,85,8|0,0:1|0:0,0:0:0:0:
421,296,85268,2,0,P|396:331|365:361,1,85,2|0,0:0|0:0,0:0:0:0:
170,311,85482,2,0,P|128:305|95:330,1,85,8|0,0:1|0:0,0:0:0:0:
18,231,85696,2,0,P|102:220|182:192,1,170,8|0,0:0|0:0,0:0:0:0:
323,60,86018,5,0,0:0:0:0:
263,133,86125,6,0,B|227:108|162:87|168:9|219:-26|251:18,1,204,6|0,0:3|0:0,0:0:0:0:
323,60,86446,53,0,0:0:0:0:
322,73,86553,2,0,P|290:101|272:139,2,85,8|0|8,0:0|0:0|0:0,0:0:0:0:
420,67,86875,5,0,0:0:0:0:
439,162,86982,2,0,P|392:170|354:197,2,89.2499972763062,8|0|4,0:1|0:0|0:3,0:0:0:0:
492,238,87303,69,0,0:0:0:0:
467,326,87410,22,0,P|429:299|383:290,1,93.5000028533936,8|0,0:1|0:0,0:0:0:0:
227,374,87625,54,0,P|264:356|295:321,2,85,4|0|0,0:3|0:0|0:0,0:0:0:0:
101,311,87946,5,4,0:3:0:0:
22,284,88053,2,0,P|18:326|32:365,1,85,4|0,0:3|0:0,0:0:0:0:
176,263,88268,2,0,P|149:295|111:313,1,85,4|0,0:3|0:0,0:0:0:0:
15,189,88482,2,0,P|57:196|91:221,1,85,4|0,0:3|0:0,0:0:0:0:
181,99,88696,6,0,B|117:84|58:122|88:192|22:199,1,204,6|0,0:3|0:0,0:0:0:0:
12,54,89018,53,2,0:0:0:0:
23,64,89125,2,0,P|78:85|188:107,1,170,10|0,0:0|0:0,0:0:0:0:
380,37,89446,5,0,0:0:0:0:
315,107,89553,2,0,P|280:130|260:168,1,85,8|0,0:1|0:0,0:0:0:0:
211,9,89768,2,0,P|249:26|291:25,1,85,8|0,0:0|0:0,0:0:0:0:
381,262,89982,6,0,P|377:220|355:184,1,85,10|0,0:0|0:0,0:0:0:0:
465,52,90196,54,0,P|431:76|410:114,1,85,2|0,0:0|0:0,0:0:0:0:
491,369,90410,2,0,P|487:327|465:291,1,85,2|0,0:0|0:0,0:0:0:0:
355,184,90625,2,0,P|393:202|438:199,1,85,10|0,0:0|0:0,0:0:0:0:
379,33,90839,2,0,P|345:57|325:98,1,85,10|0,0:0|0:0,0:0:0:0:
491,129,91053,2,0,P|487:87|462:49,1,85,10|0,0:0|0:0,0:0:0:0:
278,290,91268,22,0,B|285:311|346:318|402:263|389:197|356:162,1,204,6|0,3:0|0:0,0:0:0:0:
242,370,91589,53,8,0:0:0:0:
233,372,91696,2,0,P|194:345|185:308,1,76.4999976654053,4|0,0:3|0:0,0:0:0:0:
250,143,91910,6,0,P|246:189|217:216,1,76.4999976654053,2|0,0:0|0:0,0:0:0:0:
126,85,92125,2,0,P|168:65|205:76,1,76.4999976654053,2|0,0:0|0:0,0:0:0:0:
141,218,92339,2,0,P|102:191|93:153,1,76.4999976654053,2|0,0:0|0:0,0:0:0:0:
0,320,92553,6,0,L|20:151,1,170,8|0,0:1|0:0,0:0:0:0:
226,210,92875,53,2,0:0:0:0:
183,277,92982,22,0,L|204:91,1,187,8|8,0:1|0:0,0:0:0:0:
401,118,93303,53,2,0:0:0:0:
351,233,93410,22,0,L|375:26,1,204,8|4,0:1|0:3,0:0:0:0:
461,350,93839,86,0,B|448:318|333:267|295:358|333:387,1,203.999993774414,6|0,0:3|0:0,0:0:0:0:
474,210,94160,53,0,0:0:0:0:
485,197,94268,2,0,P|482:274|448:367,1,170,6|0,0:3|0:0,0:0:0:0:
301,208,94589,5,0,0:0:0:0:
381,169,94696,2,0,P|413:142|437:107,1,85,6|0,0:3|0:0,0:0:0:0:
439,2,94910,2,0,P|400:20|358:28,1,85,6|0,0:3|0:0,0:0:0:0:
183,5,95125,6,0,P|225:0|263:19,1,85,10|0,0:3|0:0,0:0:0:0:
113,75,95339,54,0,P|88:40|85:-3,1,85,10|0,0:0|0:0,0:0:0:0:
212,91,95553,2,0,P|194:129|158:153,1,85,2|0,0:0|0:0,0:0:0:0:
0,148,95768,2,0,P|37:143|73:157,1,76.4999976654053,10|0,0:0|0:0,0:0:0:0:
48,373,95982,2,0,P|35:264|1:156,1,220.999989883423,8|0,0:0|0:0,0:0:0:0:
131,309,96303,5,2,0:0:0:0:
137,319,96410,6,0,B|170:369|224:348|224:348|286:322|327:390,1,203.999993774414,4|0,0:3|0:0,0:0:0:0:
364,267,96732,53,0,0:0:0:0:
358,280,96839,2,0,P|387:312|403:351,2,85,8|0|8,0:0|0:0|0:0,0:0:0:0:
453,109,97160,5,0,0:0:0:0:
508,183,97268,2,0,P|479:215|463:254,2,85,8|0|8,0:0|0:0|0:0,0:0:0:0:
442,95,97589,69,0,0:0:0:0:
386,190,97696,22,0,P|351:165|309:158,1,85,8|0,0:1|0:0,0:0:0:0:
308,65,97910,54,0,P|345:47|373:16,2,85,4|0|0,0:3|0:0|0:0,0:0:0:0:
129,137,98232,5,4,0:3:0:0:
154,224,98339,2,0,P|155:266|173:303,1,85,4|0,0:3|0:0,0:0:0:0:
6,257,98553,2,0,P|41:234|64:199,1,85,4|0,0:3|0:0,0:0:0:0:
108,365,98768,2,0,P|71:344|29:342,1,85,4|0,0:3|0:0,0:0:0:0:
130,130,98982,6,0,B|154:71|217:109|286:148|304:81,1,204,6|0,0:3|0:0,0:0:0:0:
343,229,99303,53,2,0:0:0:0:
335,236,99410,2,0,P|303:157|292:73,1,170,10|0,0:0|0:0,0:0:0:0:
410,0,99732,5,0,0:0:0:0:
486,12,99839,2,0,P|451:35|431:73,1,85,8|0,0:1|0:0,0:0:0:0:
488,144,100053,2,0,P|510:180|513:222,1,85,8|0,0:1|0:0,0:0:0:0:
367,370,100268,6,0,P|331:348|289:347,1,85,10|0,0:0|0:0,0:0:0:0:
401,219,100482,54,0,P|402:261|421:299,1,85,2|0,0:0|0:0,0:0:0:0:
255,261,100696,2,0,P|291:240|315:205,1,85,2|0,0:0|0:0,0:0:0:0:
111,186,100910,2,0,P|69:188|31:170,1,85,10|0,0:0|0:0,0:0:0:0:
143,38,101125,2,0,P|167:73|171:115,1,85,10|0,0:0|0:0,0:0:0:0:
0,83,101339,2,0,P|18:46|53:22,1,85,10|0,0:0|0:0,0:0:0:0:
16,270,101553,22,0,B|-11:282|-23:345|53:400|123:355,1,204,6|0,0:3|0:0,0:0:0:0:
222,219,101875,53,2,0:0:0:0:
212,212,101982,2,0,P|157:278|134:358,1,170,8|8,0:0|0:0,0:0:0:0:
291,294,102303,1,2,0:0:0:0:
278,293,102410,2,0,P|247:320|228:361,1,85,4|0,0:3|0:0,0:0:0:0:
410,379,102625,2,0,P|401:337|377:303,1,85,2|0,0:0|0:0,0:0:0:0:
502,384,102839,22,0,P|491:300|448:228,1,170,6|8,0:3|0:0,0:0:0:0:
298,100,103160,53,2,0:0:0:0:
307,113,103268,2,0,P|347:127|389:123,1,85,8|0,0:0|0:0,0:0:0:0:
249,12,103482,2,0,P|217:39|199:78,1,85,8|0,0:1|0:0,0:0:0:0:
178,170,103696,2,0,P|163:87|113:17,1,170,2|8,0:0|0:0,0:0:0:0:
38,327,104018,5,0,0:0:0:0:
48,337,104125,6,0,P|99:250|184:196,1,204,6|0,0:3|0:0,0:0:0:0:
29,84,104446,53,0,0:0:0:0:
18,93,104553,2,0,P|56:110|83:142,1,85,8|0,0:0|0:0,0:0:0:0:
204,203,104768,2,2,P|245:196|280:173,1,85,2|0,0:0|0:0,0:0:0:0:
217,26,104982,2,0,P|201:66|206:108,1,85,8|0,0:0|0:0,0:0:0:0:
214,304,105196,2,2,P|252:321|279:353,1,85,2|0,0:0|0:0,0:0:0:0:
456,384,105410,22,0,P|378:334|342:227,1,203.999993774414,6|8,0:3|0:0,0:0:0:0:
447,99,105732,53,0,0:0:0:0:
455,113,105839,2,2,P|438:151|406:178,1,85,2|0,0:0|0:0,0:0:0:0:
342,0,106053,2,2,P|383:-5|422:9,1,85,10|0,0:0|0:0,0:0:0:0:
300,154,106268,2,2,P|275:120|268:79,1,85,2|0,0:0|0:0,0:0:0:0:
179,117,106482,2,2,P|171:158|145:191,1,85,2|0,0:0|0:0,0:0:0:0:
135,375,106696,22,0,P|256:300|234:197,1,203.999993774414,6|0,0:3|0:0,0:0:0:0:
134,3,107018,53,2,0:0:0:0:
124,14,107125,2,2,P|82:20|43:6,1,85,10|0,0:0|0:0,0:0:0:0:
195,103,107339,2,2,P|212:64|246:38,1,85,2|0,0:0|0:0,0:0:0:0:
0,85,107553,22,2,P|25:119|32:160,1,85,8|0,0:1|0:0,0:0:0:0:
143,180,107768,54,2,P|109:206|92:245,1,85,0|0,0:0|0:0,0:0:0:0:
239,188,107982,22,0,P|210:283|227:384,1,204,10|8,0:0|0:3,0:0:0:0:
421,332,108303,53,0,0:0:0:0:
420,315,108410,1,2,0:0:0:0:
414,298,108518,1,8,0:0:0:0:
404,286,108625,2,2,P|364:271|322:276,1,85,8|0,0:1|0:0,0:0:0:0:
512,273,108839,22,2,P|487:239|480:198,1,85,8|0,0:1|0:0,0:0:0:0:
370,172,109053,54,2,P|403:146|420:107,1,85,4|2,0:3|0:0,0:0:0:0:
258,195,109268,22,0,P|292:83|278:-1,1,204,6|0,0:3|0:3,0:0:0:0:
62,81,109589,53,0,0:0:0:0:
75,75,109696,2,0,P|129:140|150:222,1,170,10|0,0:0|0:3,0:0:0:0:
0,381,110018,1,0,0:0:0:0:
1,276,110125,2,0,P|80:305|138:365,1,170,10|0,0:0|0:3,0:0:0:0:
449,270,110446,5,0,0:0:0:0:
441,259,110553,2,0,B|488:187|574:258|544:349|448:368,1,255,6|0,0:3|0:0,0:0:0:0:
263,381,110982,2,0,P|298:357|340:356,1,85,4|0,0:3|0:0,0:0:0:0:
338,248,111196,1,8,0:1:0:0:
324,239,111303,1,2,0:0:0:0:
308,238,111410,2,0,B|248:245|319:424|390:250|443:385,1,255,8|0,0:0|0:0,0:0:0:0:
165,381,111839,6,0,P|190:304|202:176,1,204,6|0,0:3|0:0,0:0:0:0:
194,53,112160,53,0,0:0:0:0:
198,66,112268,2,0,P|226:96|276:99,1,85,8|0,0:0|0:0,0:0:0:0:
458,132,112482,2,0,P|418:141|390:183,1,85,8|0,0:1|0:0,0:0:0:0:
475,300,112696,2,0,P|498:222|454:133,1,170,10|0,0:0|0:0,0:0:0:0:
312,216,113018,1,2,0:0:0:0:
323,306,113125,2,0,P|363:297|391:255,2,85,8|0|0,0:1|0:0|0:0,0:0:0:0:
181,331,113446,5,0,0:0:0:0:
177,317,113553,2,0,P|149:287|99:284,1,85,8|0,0:0|0:0,0:0:0:0:
16,172,113768,2,0,P|56:163|84:121,1,85,8|0,0:1|0:0,0:0:0:0:
3,1,113982,2,0,P|-20:79|24:168,1,170,10|0,0:0|0:0,0:0:0:0:
104,31,114303,69,0,0:0:0:0:
113,20,114410,22,0,P|212:23|283:92,1,204,6|0,0:3|0:0,0:0:0:0:
126,259,114732,53,0,0:0:0:0:
117,246,114839,2,0,P|183:139|303:104,1,255,10|0,0:0|0:0,0:0:0:0:
333,226,115268,22,0,P|306:257|300:299,1,85,8|0,0:0|0:0,0:0:0:0:
470,228,115482,54,0,P|433:210|411:174,1,85,2|0,0:0|0:0,0:0:0:0:
177,158,115696,22,0,P|219:150|258:166,1,85,8|0,0:0|0:0,0:0:0:0:
455,42,115910,54,0,P|425:72|385:82,1,85,8|0,0:1|0:0,0:0:0:0:
276,0,116125,2,0,P|295:37|292:78,1,85,2|0,0:0|0:0,0:0:0:0:
458,46,116339,2,0,P|428:76|388:86,1,85,8|0,0:1|0:0,0:0:0:0:
176,163,116553,22,0,P|218:155|257:171,1,85,8|0,0:1|0:0,0:0:0:0:
401,285,116768,53,0,0:0:0:0:
383,283,116875,1,0,0:0:0:0:
368,289,116982,22,0,B|335:317|264:263|329:166|432:166,1,204,6|0,0:3|0:0,0:0:0:0:
505,156,117303,53,0,0:0:0:0:
512,169,117410,2,0,P|485:201|476:245,1,85,8|0,0:0|0:0,0:0:0:0:
398,376,117625,2,0,P|355:386|311:380,1,85,2|0,0:0|0:0,0:0:0:0:
116,202,117839,22,0,P|147:230|161:269,1,85,8|0,0:1|0:0,0:0:0:0:
18,199,118053,54,0,P|26:157|54:125,1,85,2|0,0:0|0:0,0:0:0:0:
260,262,118268,22,0,P|176:300|64:316,1,204,8|4,0:1|0:3,0:0:0:0:
127,69,118589,53,2,0:0:0:0:
141,84,118696,1,8,0:0:0:0:
149,103,118803,1,0,0:0:0:0:
149,120,118910,2,0,P|191:128|231:111,1,85,8|0,0:0|0:0,0:0:0:0:
319,53,119125,22,0,B|298:84|354:162|435:108|434:205,1,204,6|0,0:3|0:0,0:0:0:0:
444,75,119446,53,2,0:0:0:0:
417,0,119553,22,0,B|449:2|425:128|377:49|275:135|352:265|416:204,1,306,6|0,0:3|0:0,0:0:0:0:
512,259,119982,54,0,P|447:308|334:316,1,170,8|8,0:0|0:0,0:0:0:0:
185,270,120303,1,2,0:0:0:0:
197,376,120410,2,8,P|236:361|259:326,1,85,8|0,0:1|0:0,0:0:0:0:
92,264,120625,2,4,P|85:305|103:343,1,85,4|0,0:3|0:0,0:0:0:0:
142,176,120839,22,0,P|201:234|284:229,1,170,8|8,0:0|0:0,0:0:0:0:
242,122,121160,53,0,0:0:0:0:
232,131,121268,2,4,P|272:137|309:119,1,85,8|0,0:0|0:0,0:0:0:0:
337,2,121482,2,4,P|371:24|387:64,1,85,8|0,0:1|0:0,0:0:0:0:
404,162,121696,2,4,P|377:194|375:236,1,85,8|0,0:1|0:0,0:0:0:0:
434,308,121910,2,4,P|468:330|484:370,1,85,8|0,0:0|0:0,0:0:0:0:
184,344,122125,22,4,P|266:355|341:318,1,170,6|0,0:3|0:0,0:0:0:0:
163,198,122446,53,0,0:0:0:0:
159,210,122553,2,0,P|121:227|79:221,1,85,8|0,0:0|0:0,0:0:0:0:
146,61,122768,2,0,P|161:100|197:124,1,85,8|0,0:1|0:0,0:0:0:0:
26,139,122982,2,0,P|51:108|54:65,1,85,10|0,0:0|0:0,0:0:0:0:
78,220,123196,2,0,P|119:227|158:210,1,85,2|0,0:0|0:0,0:0:0:0:
254,203,123410,2,0,P|269:241|304:264,1,85,8|0,0:1|0:0,0:0:0:0:
407,295,123625,5,6,0:3:0:0:
472,242,123732,1,0,0:0:0:0:
504,162,123839,2,0,P|463:153|425:168,1,85,8|0,0:0|0:0,0:0:0:0:
374,0,124053,2,0,P|387:39|420:65,1,85,8|0,0:1|0:0,0:0:0:0:
304,200,124268,2,0,P|331:169|337:128,1,85,10|0,0:0|0:0,0:0:0:0:
211,50,124482,2,0,P|252:59|290:44,1,85,10|0,0:3|0:0,0:0:0:0:
130,5,124696,21,0,0:0:0:0:
18,338,125553,5,0,0:0:0:0:
221,257,125982,6,0,P|153:256|89:278,1,129.2
235,351,127268,54,0,P|170:372|102:371,1,129.2
300,292,128553,5,0,0:0:0:0:
512,263,129410,5,0,0:0:0:0:
355,312,129839,54,0,P|385:255|398:192,1,129.2
431,72,131125,6,0,P|463:128|512:170,1,129.2
340,115,132410,6,0,P|238:113|146:154,2,193.8,0|0|2,0:0|0:0|0:0,0:0:0:0:
241,236,135839,54,0,P|273:224|307:223,1,64.6,2|2,0:0|0:0,0:0:0:0:
162,287,137125,5,2,0:0:0:0:
24,151,137553,6,0,P|83:182|150:196,1,129.2,2|2,0:0|0:0,0:0:0:0:
0,64,138839,53,2,0:0:0:0:
277,19,139696,5,2,0:0:0:0:
444,99,140125,6,0,B|473:57|400:17|330:68|374:98|301:106,1,193.8,2|0,0:0|0:0,0:0:0:0:
207,57,142696,53,0,0:0:0:0:
102,111,143125,6,0,P|118:111|133:117,2,32.2999996057129
201,171,143982,5,0,0:0:0:0:
80,344,144839,54,0,B|75:259|-91:333|37:165|37:165|119:150|149:261|149:261|191:402|259:355|259:355|388:188|222:262|216:172,1,823.65
249,70,150410,38,0,L|296:150,1,85,4|0,0:3|0:0,0:0:0:0:
376,139,150625,1,0,0:0:0:0:
379,142,150732,2,0,L|399:146,2,21.25
450,213,150839,6,0,B|440:174|395:164|395:164|290:143,1,170,4|0,0:3|0:0,0:0:0:0:
99,78,151160,1,2,0:0:0:0:
169,26,151268,2,0,L|253:44,1,85,8|0,0:1|0:0,0:0:0:0:
512,0,151482,2,0,L|454:63,1,85,4|0,0:3|0:0,0:0:0:0:
389,263,151696,2,0,L|415:344,1,85,4|0,0:3|0:0,0:0:0:0:
302,121,151910,2,0,B|350:135|364:178|364:178|357:131|388:102,1,170,8|0,0:1|0:0,0:0:0:0:
424,350,152339,69,8,0:1:0:0:
278,209,152553,38,0,L|291:261,1,34,2|0,0:0|0:0,0:0:0:0:
161,12,152982,38,0,B|125:10|110:59|131:121|191:128,1,170,4|0,0:3|0:0,0:0:0:0:
203,116,153303,1,2,0:0:0:0:
116,189,153410,2,0,B|150:206|164:359|45:222|7:380|79:383,1,255,4|0,0:3|0:0,0:0:0:0:
23,210,153839,5,8,0:1:0:0:
94,377,154053,1,2,0:0:0:0:
256,37,154268,69,8,0:1:0:0:
261,271,154482,1,2,0:0:0:0:
418,370,154696,5,4,0:3:0:0:
444,295,154803,1,2,0:0:0:0:
470,219,154910,1,8,0:1:0:0:
47,178,155125,70,0,P|45:200|38:219,3,42.5,2|0|0|0,0:0|0:0|0:0|0:0,0:0:0:0:
25,223,155339,2,0,P|76:185|137:171,1,127.5,8|0,0:0|0:0,0:0:0:0:
264,166,155553,2,0,B|191:114|191:114|176:29,1,170,4|0,0:3|0:0,0:0:0:0:
395,62,155875,5,0,0:0:0:0:
384,53,155982,2,0,P|300:55|228:99,1,170,4|0,0:3|0:0,0:0:0:0:
480,45,156410,70,0,P|480:88|461:125,1,85,8|0,0:1|0:0,0:0:0:0:
390,238,156625,2,0,B|413:230|413:230|426:214|426:214|443:219|443:219|468:216,1,85,8|0,0:3|0:0,0:0:0:0:
424,383,156839,2,0,B|386:363|386:363|366:327,1,85,4|0,0:3|0:0,0:0:0:0:
472,225,157053,2,0,B|446:217|446:217|401:232|401:232|393:247,1,90.5250003453255,8|0,0:1|0:0,0:0:0:0:
512,311,157268,5,4,0:3:0:0:
301,261,157482,1,8,0:1:0:0:
500,320,157696,22,0,L|445:306,1,51,2|0,0:0|0:0,0:0:0:0:
229,313,158125,38,0,B|247:275|247:275|285:258,1,42.5,4|0,0:3|0:0,0:0:0:0:
505,159,158446,5,2,0:0:0:0:
512,167,158553,2,0,P|493:204|455:221,1,85,4|0,0:3|0:0,0:0:0:0:
505,76,158768,1,8,0:0:0:0:
179,119,158982,70,0,L|189:203,1,85,8|0,0:1|0:0,0:0:0:0:
299,20,159196,2,0,P|257:16|223:40,1,85
135,43,159410,5,2,0:3:0:0:
122,48,159518,2,0,P|110:36|84:29,1,42.5,2|0,0:0|0:0,0:0:0:0:
111,54,159625,2,0,P|87:40|28:33,1,85,4|0,0:3|0:0,0:0:0:0:
17,129,159839,2,0,L|45:123,4,28.3333333333333,2|0|0|0|0,0:3|0:3|0:3|0:3|0:3,0:0:0:0:
60,205,160053,70,0,P|36:240|0:264,1,85,8|0,0:1|0:0,0:0:0:0:
114,381,160268,6,0,P|71:381|35:361,1,85,10|2,0:3|0:3,0:0:0:0:
159,234,160482,2,0,P|180:273|181:313,1,85,8|4,0:3|0:3,0:0:0:0:
96,297,160696,1,6,0:3:0:0:
406,329,160910,69,2,3:0:0:0:
409,337,161018,2,0,P|403:346|396:354,2,21.25
479,299,161125,2,0,B|474:230|309:211|368:333|253:305,1,255,4|0,3:3|3:0,3:0:0:0:
387,216,161553,6,0,P|427:204|451:170,1,85,8|0,0:1|0:0,0:0:0:0:
467,83,161768,2,0,P|448:45|458:5,1,85,4|0,0:3|0:0,0:0:0:0:
316,86,161982,2,0,P|293:120|253:132,1,85,4|0,0:3|0:0,0:0:0:0:
394,50,162196,2,0,P|436:53|466:82,1,85,8|0,0:1|0:0,0:0:0:0:
323,0,162410,69,2,0:0:0:0:
512,234,162625,1,8,0:1:0:0:
209,315,162839,38,0,P|209:290|224:265,1,51,2|0,0:0|0:0,0:0:0:0:
313,178,163268,38,0,B|317:174|317:174|292:161|292:161|106:207|106:207|78:193,1,255,2|0,0:3|0:0,0:0:0:0:
213,96,163696,2,0,B|213:90|213:90|153:105|153:105|335:202,1,255,2|0,0:3|0:0,0:0:0:0:
381,54,164125,6,0,B|382:48|382:48|306:66,1,85,2|0,0:0|0:0,0:0:0:0:
404,235,164339,2,0,B|408:237|408:237|396:133,1,85,2|0,0:3|0:0,0:0:0:0:
341,316,164553,70,0,B|341:310|341:310|410:346,1,85,10|0,0:0|0:0,0:0:0:0:
494,28,164768,2,0,B|499:26|499:26|462:124,1,85,2|0,0:3|0:0,0:0:0:0:
496,298,164982,5,8,0:0:0:0:
502,244,165089,1,10,0:0:0:0:
508,194,165196,1,2,0:0:0:0:
252,279,165410,70,0,B|178:239,1,85,2|0,0:3|0:0,0:0:0:0:
152,30,165625,2,0,B|226:70,1,85,10|0,0:0|0:0,0:0:0:0:
90,159,165839,6,0,B|240:78,1,170,4|0,0:3|0:0,0:0:0:0:
111,295,166160,1,2,0:0:0:0:
20,310,166268,2,0,B|170:229,1,170,4|0,0:3|0:0,0:0:0:0:
48,53,166696,69,8,0:1:0:0:
383,227,166910,2,0,B|396:236|396:236|385:244|443:242|435:253|435:253|457:258,1,85
264,356,167125,2,0,L|272:260,1,85
285,20,167339,1,8,0:1:0:0:
274,367,167553,5,4,0:3:0:0:
297,26,167768,1,8,0:1:0:0:
155,330,167982,22,0,L|104:356,1,51,2|0,0:0|0:0,0:0:0:0:
407,195,168410,38,0,B|257:276,1,170,4|0,0:3|0:0,0:0:0:0:
437,90,168731,1,4,0:3:0:0:
512,37,168839,2,0,B|431:80,1,85,4|0,0:3|0:0,0:0:0:0:
204,192,169053,2,0,B|129:232,1,85,8|0,0:0|0:0,0:0:0:0:
342,120,169268,6,0,L|335:205,1,85,8|0,0:1|0:0,0:0:0:0:
511,139,169482,70,0,L|504:224,1,85,4|0,0:3|0:0,0:0:0:0:
279,38,169696,6,0,B|252:21|252:21|223:26|223:26|203:12|203:12|188:18|188:18|179:9|179:9|124:3,1,170,2|2,0:3|0:3,0:0:0:0:
110,84,170018,69,2,0:0:0:0:
116,95,170125,2,0,L|140:109,4,28.3333333333333,8|0|0|0|0,0:0|0:0|0:0|0:0|0:0,0:0:0:0:
74,169,170339,2,0,L|236:119,1,170,8|0,0:1|0:0,0:0:0:0:
8,96,170768,5,8,0:3:0:0:
0,313,170982,2,0,B|-7:280|25:216|86:232|83:175,1,170,4|0,0:3|0:0,0:0:0:0:
172,277,171303,2,0,P|153:274|128:279,1,42.5,2|0,0:0|0:0,0:0:0:0:
120,288,171410,2,0,B|24:333|123:387|224:367|260:323,1,255,2|0,0:0|0:0,0:0:0:0:
232,220,171839,70,0,B|292:202|308:232,1,85,8|0,0:1|0:0,0:0:0:0:
364,345,172053,2,0,B|366:282|399:276,1,85,2|0,0:0|0:0,0:0:0:0:
311,56,172268,2,0,B|346:108|322:132,1,85,8|0,0:0|0:0,0:0:0:0:
480,82,172482,2,0,B|441:131|410:116,1,85,8|0,0:1|0:0,0:0:0:0:
299,58,172696,2,0,B|334:110|310:134,1,85
511,261,172910,6,0,B|451:239|456:205,1,85,8|0,0:1|0:0,0:0:0:0:
412,2,173125,70,0,P|393:22|378:48,3,42.5,2|0|0|0,0:0|0:0|0:0|0:0,0:0:0:0:
200,15,173446,1,0,0:0:0:0:
189,9,173553,2,0,B|121:22|155:184,1,170,8|0,0:0|0:0,0:0:0:0:
19,198,173875,1,0,0:0:0:0:
11,209,173982,2,0,B|56:261|179:150,1,170,8|0,0:0|0:0,0:0:0:0:
311,151,174303,1,0,0:0:0:0:
268,212,174410,2,0,B|285:185|236:138,1,85,8|0,0:1|0:0,0:0:0:0:
178,279,174625,5,8,0:0:0:0:
61,109,174839,1,8,0:1:0:0:
237,375,175053,70,0,B|235:327|295:330,1,85,4|0,0:3|0:0,0:0:0:0:
383,216,175268,1,4,0:3:0:0:
367,224,175375,1,10,0:0:0:0:
357,238,175482,2,0,B|355:286|415:283,1,85,6|0,0:3|0:0,0:0:0:0:
475,343,175696,2,0,L|469:367,4,21.25
458,127,175910,1,4,0:3:0:0:
450,119,176125,6,0,B|409:165|505:265,1,170,4|0,0:3|0:0,0:0:0:0:
399,15,176553,1,2,0:0:0:0:
383,27,176660,1,0,0:0:0:0:
374,41,176768,1,2,0:0:0:0:
366,59,176875,1,0,0:0:0:0:
354,78,176982,2,0,B|331:74|331:74|301:97|301:97|267:91,1,85
81,100,177196,2,0,B|130:62|130:62|153:66,1,85
0,144,177410,70,0,B|39:107|188:157,1,170,4|8,0:3|0:1,0:0:0:0:
246,383,177839,2,0,B|194:368|169:239,1,170,4|8,0:3|0:0,0:0:0:0:
37,336,178268,2,0,B|-23:344|-13:228|79:238,1,170,2|0,0:0|0:0,0:0:0:0:
329,349,178589,5,2,0:0:0:0:
339,358,178696,2,0,B|370:318|281:132,1,170,6|0,0:3|0:0,0:0:0:0:
351,113,179018,1,2,0:0:0:0:
358,103,179125,1,8,0:0:0:0:
183,244,179339,1,8,0:1:0:0:
411,179,179553,1,10,0:0:0:0:
181,106,179768,2,0,B|205:86|263:114,1,85,2|2,0:0|0:0,0:0:0:0:
315,263,179982,69,0,0:0:0:0:
356,274,180089,1,8,0:1:0:0:
389,259,180196,1,0,0:0:0:0:
392,220,180303,1,8,0:0:0:0:
373,192,180410,2,0,L|337:173,1,27.6249987354279,2|0,0:0|0:0,0:0:0:0:
355,151,180517,5,2,0:0:0:0:
397,165,180625,1,8,0:0:0:0:
442,172,180732,2,0,B|494:108|467:156|433:150,1,85,2|0,0:0|0:0,0:0:0:0:
380,93,180946,70,0,B|377:168|414:271|472:143|332:245|399:311,1,233.750007133484,2|0,0:0|0:0,0:0:0:0:
410,326,181268,2,0,B|455:248|303:255|345:152|436:133|379:70,1,280.500008560181
296,18,181696,5,4,0:3:0:0:
216,102,181910,2,0,P|206:57|160:25,1,85,2|0,0:0|0:0,0:0:0:0:
168,186,182125,1,8,0:1:0:0:
87,11,182339,1,8,0:3:0:0:
419,44,182553,69,4,0:3:0:0:
354,254,182768,2,0,B|392:287|459:229|361:181|380:129|460:140,1,170,8|2,0:1|0:0,0:0:0:0:
187,8,183196,1,8,0:1:0:0:
323,82,183410,6,0,B|337:45|209:27|181:172|272:310|272:310|215:214|296:219|270:131|145:169|156:85,1,595,2|2,0:0|0:0,0:0:0:0:
414,62,184268,2,0,B|468:60|474:241|321:129|329:273|353:254,1,255,4|0,0:3|0:0,0:0:0:0:
201,316,184696,70,0,B|228:288|283:315,1,85,8|0,0:1|0:0,0:0:0:0:
438,264,184910,2,0,B|448:301|397:336,1,85,8|0,0:0|0:0,0:0:0:0:
220,151,185125,6,0,B|211:191|262:219,1,85,8|0,0:1|0:0,0:0:0:0:
479,331,185339,2,0,B|452:307|399:333,1,85,4|0,0:3|0:0,0:0:0:0:
331,121,185553,69,8,0:0:0:0:
304,91,185660,1,4,0:3:0:0:
322,139,185768,1,8,0:1:0:0:
0,5,185982,6,0,B|34:-20|76:-18|107:0|107:0|107:0|107:0|114:4|121:10|121:10|121:10|121:10|121:10|121:10|128:15|133:22|133:22|134:21|134:21|133:22|133:22|138:28|142:36|142:36|141:37|141:37|142:36|142:36|146:43|148:52|148:52|150:51|150:51|148:52|148:52|148:54|149:59|149:59|140:61|140:61|139:58|139:58|140:61|140:61|132:63|132:63|132:72|132:72|136:72|136:72|132:72|132:72|133:89|133:89|133:89|133:89|133:89|133:89|134:103|134:103|132:101|132:101|132:101|132:101|132:101|132:101|127:98,1,281.371175433594,2|2,0:0|0:0,0:0:0:0:
39,159,186410,2,0,P|60:141|150:113,1,106.25,8|0,0:0|0:0,0:0:0:0:
42,251,186732,1,8,0:0:0:0:
60,263,186839,1,4,0:3:0:0:
60,263,187268,70,0,B|92:292|92:292|83:345,1,85,8|0,0:1|0:0,0:0:0:0:
186,209,187482,2,0,B|144:222|144:222|103:187,1,85,8|0,0:0|0:0,0:0:0:0:
173,349,187696,2,0,B|182:306|182:306|232:288,2,85,8|0|0,0:0|0:0|0:0,0:0:0:0:
277,223,188125,1,8,0:3:0:0:
357,151,188339,1,8,0:1:0:0:
427,72,188553,2,8,B|460:-17|263:-49|318:95|253:77,1,255,10|8,0:0|0:0,0:0:0:0:
149,136,188982,5,2,0:0:0:0:
156,121,189089,1,2,0:0:0:0:
168,112,189196,2,0,B|190:98|216:98|216:98|216:98|216:98|216:98|216:98|226:98|236:100|236:100|236:101|236:101|236:100|236:100|246:103|255:106|255:106|256:106|256:106|255:106|255:106|263:109|274:113|274:113|273:114|273:114|274:113|274:113|288:119|293:121|293:121|294:119|294:119|293:121|293:121|303:125|311:128|311:128|309:129|309:129|311:128|311:128|321:131|331:133|331:133|332:132|332:132|331:133|331:133|341:136|350:137|350:137|349:139|349:139|350:137|350:137|360:139|370:139|370:139|371:138|371:138|370:139|370:139|380:140|390:138|390:138|390:139|390:139|390:138|390:138|400:137|409:134|409:134|409:133|409:133|409:134|409:134|436:124|451:105|448:82|426:71|417:85,1,367.663811265797,2|0,0:0|0:0,0:0:0:0:
329,18,189732,1,2,0:0:0:0:
331,0,189839,2,0,B|330:-1|330:-1|329:-3|329:-3|326:-6|324:-8|324:-8|325:-12|325:-12|322:-10|322:-10|318:-13|314:-15|314:-15|312:-11|312:-11|312:-16|312:-16|308:-17|304:-16|304:-16|302:-19|302:-19|302:-15|302:-15|298:-14|294:-11|294:-11|296:-8|296:-8|293:-10|293:-10|290:-7|287:-2|287:-2|284:-3|284:-3|285:0|285:0|283:3|282:7|282:7|283:9|283:9|281:10|281:10|279:13|278:17|278:17|276:18|276:18|277:21|277:21|276:25|275:27|275:27|276:29|276:29|274:30|274:30|274:34|273:38|273:38|271:39|271:39|272:41|272:41|271:45|270:49|270:49|270:51|270:51|269:52|269:52|264:68|258:78|245:79|219:73|181:78|153:118,1,284.227515600796,2|0,0:0|0:0,0:0:0:0:
54,120,190268,70,0,L|95:246,1,113.333333333333,10|8,0:0|0:0,0:0:0:0:
212,320,190482,2,0,L|177:212,1,113.333333333333,8|2,0:0|0:0,0:0:0:0:
121,330,190696,6,0,L|115:309,2,21.25,8|0|0,0:1|0:0|0:0,0:0:0:0:
108,373,190803,2,0,L|93:333,2,42.5,2|0|8,0:0|0:0|0:0,0:0:0:0:
280,262,191125,69,2,0:0:0:0:
330,325,191232,1,2,0:0:0:0:
381,298,191339,1,8,0:0:0:0:
405,303,191446,1,2,0:0:0:0:
433,231,191553,38,0,B|443:176|399:200|416:128|416:128|387:141|370:125,8,152.999995330811,10|8|8|8|8|8|8|8|0,0:0|0:0|0:0|0:0|0:0|0:0|0:0|0:0|0:0,0:0:0:0:
361,9,194982,6,0,B|365:-3|318:-8|284:39|284:39|237:64|198:45|208:30,1,170,2|2,0:0|0:0,0:0:0:0:
471,15,196268,5,2,0:0:0:0:
354,191,196696,54,0,B|316:224|289:114|278:164|278:164|217:202|316:224|239:290|239:290|140:268|217:202|119:180|119:180|42:246|140:268|80:306|80:306|69:355|42:246|4:279,1,680,2|0,0:0|0:0,0:0:0:0:
237,365,200553,6,0,B|305:412|291:281|373:301|384:325,1,170,2|0,0:0|0:0,0:0:0:0:
432,137,201839,5,2,0:0:0:0:
359,272,202696,54,0,P|399:284|437:303,1,85,2|2,0:0|0:0,0:0:0:0:
390,112,203982,5,2,0:0:0:0:
313,166,204410,6,0,P|231:189|157:230,1,170,2|2,0:0|0:0,0:0:0:0:
73,226,205696,53,2,0:0:0:0:
256,0,206553,5,2,0:0:0:0:
365,83,206982,6,0,B|407:133|480:122|480:122|316:156|282:260|282:260|399:191|670:216|607:207|400:269|231:356|467:348,1,935,2|0,0:0|0:0,0:0:0:0:
44,34,212125,38,0,B|93:64|89:123|89:123|125:164|177:146,1,204,6|0,0:3|0:0,0:0:0:0:
166,233,212446,53,0,0:0:0:0:
68,233,212553,2,0,P|102:158|183:138,1,170,8|0,0:3|0:0,0:0:0:0:
354,232,212875,1,0,0:0:0:0:
263,231,212982,2,0,P|267:189|295:158,1,85,2|0,0:0|0:0,0:0:0:0:
414,312,213196,2,0,P|375:329|335:319,1,85,2|0,0:0|0:0,0:0:0:0:
115,310,213410,22,0,B|55:363|213:425|257:301,1,204,2|8,0:0|0:1,0:0:0:0:
419,175,213732,53,0,0:0:0:0:
446,89,213839,2,0,P|406:80|368:96,1,85,2|0,0:0|0:0,0:0:0:0:
482,249,214053,2,0,P|509:217|513:176,1,85,8|0,0:1|0:0,0:0:0:0:
218,1,214268,2,0,P|231:40|266:65,1,85,8|0,0:0|0:0,0:0:0:0:
431,79,214482,2,0,P|390:70|351:88,1,85
186,183,214696,22,0,P|155:90|71:30,1,204,6|0,0:3|0:0,0:0:0:0:
21,127,215018,53,0,0:0:0:0:
35,215,215125,2,0,P|116:232|194:199,1,170,8|8,0:0|0:0,0:0:0:0:
40,315,215446,5,0,0:0:0:0:
117,367,215553,2,0,P|141:333|180:320,1,85,8|0,0:1|0:0,0:0:0:0:
333,303,215768,2,0,P|291:299|260:271,1,85
390,66,215982,6,0,P|433:159|411:260,1,204,6|4,0:3|0:3,0:0:0:0:
421,372,216303,53,0,0:0:0:0:
478,322,216410,1,0,0:0:0:0:
498,318,216518,1,4,0:3:0:0:
512,323,216625,6,0,P|477:347|435:354,1,85,4|0,0:3|0:0,0:0:0:0:
342,215,216839,2,0,P|380:232|407:264,1,85,4|0,0:3|0:0,0:0:0:0:
362,124,217053,2,0,P|357:82|373:42,1,85,4|0,0:3|0:0,0:0:0:0:
512,136,217268,6,0,P|428:194|331:224,1,204,6|0,0:3|0:0,0:0:0:0:
152,172,217589,53,2,0:0:0:0:
204,99,217696,2,0,P|242:115|269:149,1,85,10|0,0:0|0:0,0:0:0:0:
219,230,217910,2,0,P|203:269|208:310,1,85
73,129,218125,6,0,P|111:145|137:178,1,85,8|0,0:1|0:0,0:0:0:0:
124,349,218339,2,0,P|90:374|48:380,1,85,8|0,0:0|0:0,0:0:0:0:
281,144,218553,6,0,B|314:121|395:117|429:222|362:233,1,204,10|2,0:0|0:0,0:0:0:0:
498,16,218875,53,0,0:0:0:0:
481,107,218982,2,0,P|445:133|418:164,1,85,2|0,0:0|0:0,0:0:0:0:
352,374,219196,2,0,P|324:342|289:316,1,85,10|0,0:0|0:0,0:0:0:0:
345,93,219410,2,0,P|379:68|407:36,1,85,10|0,0:0|0:0,0:0:0:0:
420,302,219625,2,0,P|386:277|358:246,1,85,10|0,0:0|0:0,0:0:0:0:
92,145,219839,22,0,P|199:153|343:181,1,204,10|0,0:0|0:0,0:0:0:0:
76,316,220160,53,8,0:0:0:0:
1,285,220268,2,0,P|40:270|61:234,1,85,4|0,0:3|0:0,0:0:0:0:
99,17,220482,2,0,P|60:32|39:68,1,85,2|0,0:0|0:0,0:0:0:0:
158,236,220696,2,0,P|190:262|232:262,1,85,2|0,0:0|0:0,0:0:0:0:
401,120,220910,2,0,P|369:92|327:92,1,85,2|0,0:0|0:0,0:0:0:0:
503,274,221125,22,0,B|478:69,1,170,8|0,0:1|0:0,0:0:0:0:
305,259,221446,53,2,0:0:0:0:
345,331,221553,22,0,B|320:126,1,187,8|8,0:1|0:0,0:0:0:0:
127,295,221875,53,2,0:0:0:0:
176,380,221982,22,0,B|151:175,1,204,8|4,0:1|0:3,0:0:0:0:
12,267,222303,53,0,0:0:0:0:
43,355,222410,22,0,B|-4:313|62:236|156:252|136:156,1,229.5,6|0,0:3|0:0,0:0:0:0:
51,30,222732,53,0,0:0:0:0:
15,116,222839,2,0,P|63:123|128:86,1,85,6|0,0:3|0:0,0:0:0:0:
208,28,223053,2,0,P|248:15|289:23,1,85
149,250,223268,2,0,P|189:236|231:243,1,85,6|0,0:3|0:0,0:0:0:0:
278,159,223482,2,0,P|320:163|360:150,1,85,6|0,0:3|0:0,0:0:0:0:
349,376,223696,22,0,B|318:405|236:296|381:240,1,212.5,10|10,0:3|0:0,0:0:0:0:
466,47,224018,53,0,0:0:0:0:
510,128,224125,2,0,P|487:163|447:173,1,85,2|0,0:0|0:0,0:0:0:0:
282,158,224339,2,0,P|319:139|358:152,1,85,10|0,0:0|0:0,0:0:0:0:
512,327,224553,2,0,P|477:303|468:263,1,85,8|0,0:0|0:0,0:0:0:0:
388,66,224768,2,0,P|419:38|461:42,1,85,0|2,0:0|0:0,0:0:0:0:
183,168,224982,22,0,B|173:68|292:101|282:2|241:0,1,212.5,6|0,0:3|0:0,0:0:0:0:
108,32,225303,53,0,0:0:0:0:
114,129,225410,2,0,P|152:144|181:174,1,85,8|0,0:0|0:0,0:0:0:0:
94,18,225625,2,0,P|59:43|20:53,1,85,8|0,0:0|0:0,0:0:0:0:
274,249,225839,2,0,P|268:207|279:167,1,85,8|0,0:0|0:0,0:0:0:0:
74,205,226053,2,0,P|40:231|0:241,1,85,8|0,0:0|0:0,0:0:0:0:
283,261,226268,22,0,B|319:315|201:364|135:276,1,212.5,6|4,0:3|0:3,0:0:0:0:
363,223,226589,53,0,0:0:0:0:
373,231,226696,2,0,P|414:239|446:265,1,85,0|4,0:0|0:3,0:0:0:0:
424,94,226910,2,0,P|396:125|358:140,1,85,4|0,0:3|0:0,0:0:0:0:
512,206,227125,2,0,P|498:166|504:125,1,85,4|0,0:3|0:0,0:0:0:0:
448,274,227339,2,0,P|415:247|373:239,1,85,4|0,0:3|0:0,0:0:0:0:
363,368,227553,22,0,B|286:311|380:268|322:192|273:205,1,212.5,6|0,0:3|0:0,0:0:0:0:
176,166,227875,53,2,0:0:0:0:
195,259,227982,2,0,P|246:234|266:190,1,85,10|0,0:0|0:0,0:0:0:0:
256,117,228196,2,0,P|240:77|247:36,1,85
75,3,228410,2,0,P|116:9|148:35,1,85,8|0,0:1|0:0,0:0:0:0:
8,145,228625,2,0,P|-7:105|0:64,1,85,8|0,0:1|0:0,0:0:0:0:
165,126,228839,22,0,B|198:172|107:216|60:181|31:262,1,212.5,10|2,0:0|0:0,0:0:0:0:
135,384,229160,53,0,0:0:0:0:
211,335,229268,2,0,P|200:268|163:246,1,85,2|0,0:0|0:0,0:0:0:0:
43,364,229482,2,0,P|106:387|144:366,1,85,10|0,0:0|0:0,0:0:0:0:
251,193,229696,2,0,P|287:170|328:172,1,85,10|0,0:0|0:0,0:0:0:0:
361,381,229910,2,0,P|308:337|307:294,1,85,10|0,0:0|0:0,0:0:0:0:
413,137,230125,22,0,B|468:120|496:242|373:221|387:297,1,212.5,6|0,0:3|0:0,0:0:0:0:
470,56,230446,53,2,0:0:0:0:
388,18,230553,2,0,P|374:52|314:87,1,85,8|0,0:0|0:0,0:0:0:0:
177,20,230768,1,8,0:0:0:0:
188,14,230875,2,0,P|229:11|266:32,1,85,2|4,0:0|0:3,0:0:0:0:
81,105,231089,1,0,0:0:0:0:
72,97,231196,2,0,P|66:64|48:-2,1,85,2|0,0:0|0:0,0:0:0:0:
269,40,231410,22,0,B|231:54|231:54|186:184|186:184|136:196,1,212.5,6|0,0:3|0:0,0:0:0:0:
5,221,231732,53,2,0:0:0:0:
0,229,231839,2,0,B|52:216|52:216|88:252,1,106.25,8|0,0:0|0:0,0:0:0:0:
150,323,232053,2,0,L|68:342,1,85,8|0,0:1|0:0,0:0:0:0:
230,336,232268,1,2,0:0:0:0:
236,318,232375,1,0,0:0:0:0:
242,300,232482,2,0,B|290:287|290:287|306:229,1,101.999996887207,8|0,0:0|0:0,0:0:0:0:
379,123,232696,22,0,P|387:229|425:328,1,212.5,6|0,0:3|0:0,0:0:0:0:
495,100,233018,53,0,0:0:0:0:
499,14,233125,2,0,P|456:12|420:32,1,85,8|0,0:3|0:0,0:0:0:0:
481,187,233339,2,0,P|503:151|504:109,1,85
260,0,233553,2,0,P|279:37|315:58,1,85,2|0,0:0|0:0,0:0:0:0:
496,22,233768,2,0,P|453:20|417:40,1,85,2|0,0:0|0:0,0:0:0:0:
424,327,233982,22,0,P|386:228|378:122,1,212.5,2|8,0:0|0:1,0:0:0:0:
302,321,234303,53,0,0:0:0:0:
295,334,234410,6,0,P|269:253|258:169,1,170,2|8,0:0|0:1,0:0:0:0:
179,341,234732,69,0,0:0:0:0:
175,351,234839,6,0,P|152:281|143:210,1,144.5,8|0,0:0|0:0,0:0:0:0:
326,56,235160,69,0,0:0:0:0:
260,0,235268,22,0,B|212:-8|168:88|297:73|264:172,1,212.5,6|0,0:3|0:0,0:0:0:0:
3,185,235589,53,0,0:0:0:0:
0,92,235696,2,0,P|97:127|151:216,1,212.5,8|0,0:0|0:0,0:0:0:0:
141,10,236018,1,0,0:0:0:0:
41,17,236125,2,0,P|74:50|85:87,1,85,8|0,0:1|0:0,0:0:0:0:
147,225,236339,2,0,P|107:237|66:230,1,85
276,145,236553,22,0,P|231:241|236:347,1,212.5,8|4,0:1|0:3,0:0:0:0:
512,150,236875,53,0,0:0:0:0:
506,131,236982,1,0,0:0:0:0:
493,121,237089,1,4,0:3:0:0:
410,144,237196,1,4,0:3:0:0:
330,305,237410,5,4,0:3:0:0:
435,58,237625,1,4,0:3:0:0:
426,324,237839,6,0,B|459:322|484:224|350:204|398:139,1,212.5,6|0,0:3|0:0,0:0:0:0:
486,268,238160,53,2,0:0:0:0:
499,368,238268,2,0,P|461:346|422:338,1,85,10|0,0:0|0:0,0:0:0:0:
256,384,238482,2,0,P|294:362|320:332,1,85
118,165,238696,6,0,P|117:208|130:246,1,85,8|0,0:1|0:0,0:0:0:0:
305,201,238910,2,0,P|266:178|228:170,1,85,8|0,0:0|0:0,0:0:0:0:
156,352,239125,6,0,B|118:317|154:220|194:236|232:248|231:182,1,212.5,10|2,0:0|0:0,0:0:0:0:
276,0,239446,53,0,0:0:0:0:
185,7,239553,2,0,P|174:47|177:90,1,85,2|0,0:0|0:0,0:0:0:0:
362,40,239768,2,0,P|327:65|302:99,1,85,10|0,0:0|0:0,0:0:0:0:
318,274,239982,2,0,P|356:292|386:322,1,85,10|0,0:0|0:0,0:0:0:0:
444,177,240196,2,0,P|401:174|360:184,1,85,10|0,0:0|0:0,0:0:0:0:
129,179,240410,22,0,P|70:118|35:42,1,170,10|0,0:0|0:0,0:0:0:0:
0,168,240732,53,8,0:0:0:0:
58,225,240839,2,0,B|109:184|156:192,1,85,4|0,0:3|0:0,0:0:0:0:
128,353,241053,2,0,P|92:276|33:215,2,170,2|2|2,0:0|0:0|0:0,0:0:0:0:
233,347,241589,1,0,0:0:0:0:
335,351,241696,22,0,P|257:327|246:248,1,170,8|0,0:1|0:0,0:0:0:0:
395,129,242018,53,2,0:0:0:0:
481,136,242125,22,0,P|502:227|428:284,1,195.5,8|0,0:1|0:0,0:0:0:0:
219,173,242446,53,2,0:0:0:0:
167,107,242553,22,0,P|243:34|341:74,1,221,8|0,0:1|0:0,0:0:0:0:
425,194,242875,53,0,0:0:0:0:
507,129,242982,22,0,B|522:64|413:2|402:115|342:78,1,212.5,6|0,0:3|0:0,0:0:0:0:
216,0,243303,53,0,0:0:0:0:
117,21,243410,2,0,P|143:57|157:99,1,85,6|0,0:3|0:0,0:0:0:0:
107,254,243625,2,0,P|79:286|62:325,1,85
12,164,243839,2,0,P|53:171|95:167,1,85,6|0,0:3|0:0,0:0:0:0:
369,19,244053,1,6,0:3:0:0:
369,19,244268,22,0,P|328:89|243:127,1,170,10|10,0:3|0:0,0:0:0:0:
139,368,244589,53,0,0:0:0:0:
229,370,244696,22,0,P|194:294|123:251,1,170,2|10,0:0|0:0,0:0:0:0:
511,112,245125,86,0,P|443:160|360:177,1,170,10|0,0:0|0:0,0:0:0:0:
305,353,245446,53,2,0:0:0:0:
373,309,245553,22,0,P|311:251|231:223,1,170,6|0,0:3|0:0,0:0:0:0:
429,371,245875,53,0,0:0:0:0:
500,328,245982,2,0,P|479:285|429:253,1,85,8|0,0:0|0:0,0:0:0:0:
209,368,246196,2,0,P|256:371|309:344,1,85,8|0,0:0|0:0,0:0:0:0:
345,86,246410,2,0,P|318:125|315:184,1,85,8|0,0:0|0:0,0:0:0:0:
185,17,246625,5,8,0:0:0:0:
185,17,246839,6,0,P|258:56|346:80,1,170,10|4,0:3|0:3,0:0:0:0:
58,35,247160,53,0,0:0:0:0:
62,50,247268,22,0,P|83:86|113:116,2,85,2|4|4,0:0|0:3|0:3,0:0:0:0:
29,341,247696,86,0,P|7:259|4:175,1,170,6|4,0:3|0:3,0:0:0:0:
449,220,248125,86,0,B|465:279|406:290|345:298|376:377,1,170,4|0,0:3|0:0,0:0:0:0:
234,364,248446,53,2,0:0:0:0:
157,356,248553,2,0,P|191:332|199:292,2,85,10|0|0,0:0|0:0|0:0,0:0:0:0:
191,56,248982,6,0,P|202:96|189:135,1,85,8|0,0:1|0:0,0:0:0:0:
426,113,249196,2,0,P|413:73|425:33,1,85,8|0,0:1|0:0,0:0:0:0:
175,133,249410,6,0,B|132:228|248:182|350:-34|486:-63|439:44,1,425,10|2,0:0|0:0,0:0:0:0:
243,13,250053,53,10,0:0:0:0:
499,319,250268,2,0,B|522:313|517:180|400:287|440:114,1,170,10|10,0:0|0:0,0:0:0:0:
445,384,250589,1,0,0:0:0:0:
362,360,250696,22,0,B|335:354|307:373|307:373|336:273|394:369|506:205|420:158,1,318.75,6|2,0:3|0:0,0:0:0:0:
274,169,251125,54,0,P|303:199|348:208,1,85,8|0,0:0|0:0,0:0:0:0:
217,93,251339,2,0,P|176:103|146:137,1,85,8|2,0:0|0:0,0:0:0:0:
311,81,251553,2,0,P|322:40|307:-3,1,85,4|0,0:3|0:0,0:0:0:0:
255,180,251768,2,0,P|284:210|329:219,1,85,2|0,0:0|0:0,0:0:0:0:
93,84,251982,22,0,B|103:153|103:153|92:163,1,85,6|0,0:3|0:0,0:0:0:0:
70,179,252196,54,0,B|52:67|52:67|40:60,1,127.5,8|8,0:0|0:0,0:0:0:0:
17,51,252410,1,8,0:0:0:0:
23,332,252625,2,0,B|81:283|81:283|82:274,1,85,8|0,0:1|0:0,0:0:0:0:
307,275,252839,2,0,B|162:219|162:219|150:226,1,170,2|8,0:0|0:0,0:0:0:0:
284,41,253268,22,2,B|209:13|129:232|382:126|352:290|305:285,1,318.75,4|2,0:3|0:0,0:0:0:0:
145,129,253696,54,0,P|192:127|221:155,1,85,10|0,0:0|0:0,0:0:0:0:
98,261,253910,2,0,P|72:221|82:181,1,85,2|0,0:0|0:0,0:0:0:0:
390,123,254125,2,0,P|368:164|328:176,1,85,8|0,0:1|0:0,0:0:0:0:
343,53,254339,1,4,0:3:0:0:
469,59,254500,5,2,0:0:0:0:
465,63,254553,70,0,P|479:89|471:172,1,85,6|2,0:3|0:0,0:0:0:0:
432,213,254768,2,0,P|425:247|438:299,1,85,8|0,0:1|0:0,0:0:0:0:
512,384,254982,6,0,P|512:362|505:342,1,42.5,6|2,0:3|0:0,0:0:0:0:
297,338,255196,2,0,P|296:359|303:379,1,42.5,6|2,0:3|0:0,0:0:0:0:
263,221,255410,1,2,0:0:0:0:
222,289,255553,70,0,P|238:234|218:146,1,141.666666666667,6|0,0:3|0:0,0:0:0:0:
131,362,255839,22,0,B|92:366|32:332|67:157|226:256|281:165|207:82,1,318.75,6|0,0:3|0:0,0:0:0:0:
79,115,256268,54,0,P|167:139|243:130,1,170,2|0,0:0|0:0,0:0:0:0:
327,82,256589,1,2,0:0:0:0:
319,69,256696,2,0,P|361:69|403:90,1,85,4|0,0:3|0:0,0:0:0:0:
348,252,256910,2,0,P|328:216|323:174,1,85,2|0,0:0|0:0,0:0:0:0:
478,125,257125,22,0,P|448:223|436:325,1,204,10|0,0:3|0:0,0:0:0:0:
295,384,257446,53,2,0:0:0:0:
282,374,257553,2,0,P|343:369|393:399,2,85,8|0|8,0:0|0:0|0:1,0:0:0:0:
106,340,257875,1,0,0:0:0:0:
105,330,257982,2,0,P|73:304|32:295,1,85,2|0,0:0|0:0,0:0:0:0:
195,362,258196,2,0,P|208:325|215:277,1,85
64,15,258410,22,0,P|44:115|7:211,1,204,4|0,0:3|0:0,0:0:0:0:
125,227,258732,53,0,0:0:0:0:
137,234,258839,2,0,P|166:208|196:170,1,85,2|0,0:0|0:0,0:0:0:0:
242,63,259053,2,0,P|203:78|162:88,1,85,0|2,0:0|0:0,0:0:0:0:
335,269,259268,2,0,P|361:302|392:330,1,85,8|0,0:1|0:0,0:0:0:0:
367,184,259482,2,0,P|326:175|287:160,1,85,2|0,0:0|0:0,0:0:0:0:
377,33,259696,22,0,B|402:-48|549:10|502:185|309:207,1,318.75,10|0,0:0|0:0,0:0:0:0:
362,41,260125,53,2,0:0:0:0:
469,263,260339,1,8,0:1:0:0:
252,325,260553,22,0,P|231:243|191:157,1,170,8|0,0:0|0:0,0:0:0:0:
134,287,260875,53,8,0:0:0:0:
122,380,260982,22,0,P|101:298|61:212,1,170,10|0,0:0|0:0,0:0:0:0:
102,48,261303,53,2,0:0:0:0:
37,118,261410,2,0,P|127:146|230:151,1,170,6|8,0:3|0:1,0:0:0:0:
251,229,261732,5,2,0:0:0:0:
260,220,261839,2,0,P|301:229|325:263,1,85,8|0,0:0|0:0,0:0:0:0:
266,90,262053,2,0,P|254:50|270:12,1,85,2|0,0:0|0:0,0:0:0:0:
451,211,262268,6,0,L|408:384,1,178.5,10|0,0:0|0:0,0:0:0:0:
252,205,262589,53,2,0:0:0:0:
307,122,262696,22,0,L|258:317,1,195.5,10|0,0:0|0:0,0:0:0:0:
98,127,263018,53,2,0:0:0:0:
159,37,263125,22,0,L|107:246,1,212.5,10|0,0:0|0:0,0:0:0:0:
23,0,263500,53,2,0:0:0:0:
27,4,263553,22,0,B|-45:24|11:205|56:87|163:205|86:245,1,293.2500055933,6|0,0:3|0:0,0:0:0:0:
142,323,263982,54,0,B|87:308|112:181|207:174|234:297|344:213|322:179,1,293.2500055933,4|0,0:3|0:0,0:0:0:0:
329,6,264410,6,0,P|287:33|257:79,1,85,8|0,0:1|0:0,0:0:0:0:
242,320,264625,1,4,0:3:0:0:
477,91,264839,69,2,0:0:0:0:
473,87,264893,6,0,P|411:89|350:120,1,127.5,10|8,0:0|0:1,0:0:0:0:
434,289,265160,1,2,0:0:0:0:
506,218,265268,2,0,P|462:195|407:192,1,85,8|0,0:0|0:0,0:0:0:0:
285,302,265482,2,0,P|321:280|348:248,1,85,8|0,0:1|0:0,0:0:0:0:
238,13,265696,2,0,P|239:98|269:177,1,170,2|0,0:0|0:0,0:0:0:0:
280,313,266018,1,2,0:0:0:0:
217,380,266125,6,8,B|165:405|122:284|231:308|181:209,1,212.5,10|0,0:0|0:0,0:0:0:0:
80,210,266446,53,2,0:3:0:0:
83,296,266553,2,4,B|39:287|87:180|118:276|175:195,1,170,6|0,0:3|0:3,0:3:0:0:
52,14,266928,5,2,0:0:0:0:
48,18,266982,70,0,P|25:53|13:106,1,85,10|0,0:0|0:0,0:0:0:0:
67,207,267196,1,8,0:3:0:0:
302,11,267410,6,0,P|265:30|228:70,1,85,8|0,0:1|0:0,0:0:0:0:
203,193,267625,1,4,0:3:0:0:
274,251,267732,1,2,0:0:0:0:
294,163,267839,2,0,P|252:163|214:183,1,85,2|4,0:0|0:3,0:0:0:0:
340,318,268053,2,0,P|361:281|363:239,1,85,8|0,0:1|0:0,0:0:0:0:
90,377,268268,70,0,P|158:349|255:336,1,170,2|4,0:0|0:3,0:0:0:0:
482,60,268696,22,0,B|550:88|498:244|408:82|318:209|406:297,1,255,6|0,0:3|0:0,0:0:0:0:
366,65,269125,54,0,P|444:162|444:287,1,255,4|8,0:3|0:0,0:0:0:0:
420,0,269553,1,8,0:1:0:0:
379,242,269768,1,2,0:0:0:0:
302,10,269982,22,0,B|249:-8|203:162|367:56|331:288|213:242,1,318.75,10|0,0:0|0:0,0:0:0:0:
189,174,270410,54,0,P|222:200|233:240,1,85,4|0,0:3|0:0,0:0:0:0:
112,319,270625,2,0,P|118:276|148:247,1,85,8|0,0:1|0:0,0:0:0:0:
296,316,270839,1,8,0:0:0:0:
63,260,271053,5,2,0:0:0:0:
35,246,271125,69,0,0:0:0:0:
14,213,271196,5,2,0:0:0:0:
17,168,271268,6,8,B|56:145|96:197|36:253|31:258|-5:303|44:355,1,212.5,14|8,3:3|3:0,3:0:0:0:
155,137,271589,53,8,0:3:0:0:
97,19,271696,2,0,P|71:53|66:95,1,85,4|0,0:3|0:0,0:0:0:0:
305,129,271910,2,0,P|321:168|315:210,1,85,8|0,0:1|0:0,0:0:0:0:
155,137,272125,2,0,P|180:104|219:88,1,85,2|0,0:0|0:0,0:0:0:0:
243,261,272339,2,0,P|201:257|168:231,1,85,2|0,0:0|0:0,0:0:0:0:
480,52,272553,22,0,P|415:139|396:246,1,212.5,10|2,0:0|0:0,0:0:0:0:
494,379,272875,53,8,0:0:0:0:
501,366,272982,2,0,B|487:338|487:338|469:340|454:338,1,42.5
506,352,273089,2,0,B|490:326|490:326|463:333|434:321,1,85,10|4,0:0|0:3,0:0:0:0:
313,341,273410,2,0,B|295:390|351:381|459:307|544:290|509:345,1,255,2|0,0:0|0:0,0:0:0:0:
297,250,273839,6,0,P|266:220|229:199,1,85,10|0,0:0|0:0,0:0:0:0:
110,152,274053,2,0,P|150:139|187:118,1,85,2|0,0:0|0:0,0:0:0:0:
307,235,274268,2,0,P|276:205|239:184,1,85,4|0,0:3|0:0,0:0:0:0:
120,137,274482,2,2,P|160:123|197:102,1,85,0|0,0:0|0:0,0:0:0:0:
383,168,274696,70,0,P|346:189|316:217,1,85,8|0,0:1|0:0,0:0:0:0:
426,86,274910,2,0,P|463:108|504:120,1,85
207,89,275125,6,0,P|170:109|129:121,1,85,8|0,0:0|0:0,0:0:0:0:
0,140,275339,2,0,P|37:162|67:190,1,85,8|0,0:1|0:0,0:0:0:0:
212,93,275553,2,0,P|175:113|134:125,1,85,2|0,0:0|0:0,0:0:0:0:
71,309,275768,2,0,P|107:286|138:257,1,85,8|0,0:1|0:0,0:0:0:0:
200,184,275982,70,0,P|169:155|132:133,1,85,2|0,0:0|0:0,0:0:0:0:
274,130,276196,2,0,P|314:118|351:97,1,85,2|0,0:0|0:0,0:0:0:0:
0,23,276410,6,0,P|36:44|77:55,1,85,10|0,0:0|0:0,0:0:0:0:
205,75,276625,2,0,P|168:96|137:125,1,85
6,40,276839,2,0,P|42:61|83:72,1,85,4|0,0:3|0:0,0:0:0:0:
211,92,277053,2,0,P|174:113|143:142,1,85,2|0,0:0|0:0,0:0:0:0:
328,227,277268,70,0,P|369:238|406:260,1,85,8|0,0:1|0:0,0:0:0:0:
268,157,277482,2,0,P|237:186|201:208,1,85,8|0,0:1|0:0,0:0:0:0:
432,0,277696,6,0,P|410:36|382:67,1,85,10|0,0:0|0:0,0:0:0:0:
450,126,277910,2,0,P|461:167|483:204,2,85,4|0|2,0:3|0:0|0:0,0:0:0:0:
327,6,278232,1,0,0:0:0:0:
313,14,278339,2,0,P|271:14|230:5,1,85,8|0,0:1|0:0,0:0:0:0:
157,151,278553,2,0,P|178:114|208:83,1,85,2|0,0:0|0:0,0:0:0:0:
309,18,278768,2,0,P|266:17|225:8,1,85,8|0,0:0|0:0,0:0:0:0:
24,85,278982,70,2,B|-5:114|89:221|97:66|165:199,1,170,6|2,0:3|0:0,0:0:0:0:
104,340,279303,1,2,0:0:0:0:
93,334,279410,2,0,P|141:255|238:257,1,170,4|2,0:3|0:0,0:0:0:0:
346,340,279732,1,0,0:0:0:0:
336,352,279839,2,0,P|305:323|293:282,1,85,8|0,0:1|0:0,0:0:0:0:
420,286,280053,2,0,P|460:296|501:284,1,85,10|0,0:0|0:0,0:0:0:0:
333,123,280268,6,0,B|294:113|264:194|328:225|389:204,1,170,10|0,0:3|0:0,0:0:0:0:
448,81,280589,1,2,0:0:0:0:
437,75,280696,2,0,B|427:65|359:167|545:141|508:204,1,170,10|8,0:0|0:1,0:0:0:0:
171,127,281125,2,0,P|196:94|237:84,1,85,8|0,0:0|0:0,0:0:0:0:
356,35,281339,2,0,P|315:30|286:0,1,85,2|0,0:0|0:0,0:0:0:0:
26,125,281553,70,0,B|-12:153|64:219|103:131|156:260,1,170,10|0,0:3|0:0,0:0:0:0:
125,69,281875,1,2,0:0:0:0:
176,137,281982,2,0,P|166:180|139:212,1,85,8|0,0:0|0:0,0:0:0:0:
76,351,282196,2,0,L|66:267,1,85,8|0,0:1|0:0,0:0:0:0:
249,211,282410,2,0,L|237:309,1,97.7500018644333,2|0,0:0|0:0,0:0:0:0:
418,256,282625,2,0,L|404:141,1,110.499994941712,8|0,0:0|0:0,0:0:0:0:
365,58,282839,6,0,B|364:49|364:49|434:55|434:55|436:59|436:59|514:67|514:67|512:57,1,170,10|4,0:3|0:3,0:0:0:0:
463,300,283268,2,0,B|464:304|464:304|431:301|431:301|433:306,4,42.5,2|0|2|0|10,0:0|0:0|0:0|0:0|0:0,0:0:0:0:
322,372,283696,2,0,B|324:377|324:377|348:351|348:351|342:295|342:295|336:290|336:290|327:225|327:225|332:217,1,170,10|8,0:0|0:0,0:0:0:0:
225,262,284125,70,0,P|195:231|156:215,1,85,10|0,0:0|0:0,0:0:0:0:
184,47,284339,2,0,P|172:87|178:129,1,85,2|0,0:0|0:0,0:0:0:0:
212,264,284553,2,0,P|182:233|143:217,1,85,4|0,0:3|0:0,0:0:0:0:
171,49,284768,2,2,P|159:89|165:131,1,85,0|0,0:0|0:0,0:0:0:0:
302,384,284982,6,0,P|313:343|307:301,1,85,8|0,0:1|0:0,0:0:0:0:
261,170,285196,2,0,P|290:200|329:216,1,85
460,0,285410,70,0,P|471:40|465:82,1,85,8|0,0:0|0:0,0:0:0:0:
419,214,285625,2,0,P|448:183|487:167,1,85,8|0,0:1|0:0,0:0:0:0:
288,2,285839,6,0,P|276:42|282:84,1,85,2|0,0:0|0:0,0:0:0:0:
410,209,286053,2,0,P|440:178|479:162,1,85,8|0,0:1|0:0,0:0:0:0:
278,9,286268,2,0,P|266:49|272:91,1,85,2|0,0:0|0:0,0:0:0:0:
319,223,286482,2,0,P|289:192|250:176,1,85,2|0,0:0|0:0,0:0:0:0:
12,144,286696,70,0,P|52:133|86:107,1,85,10|0,0:0|0:0,0:0:0:0:
177,2,286910,2,0,P|166:42|172:84,1,85
18,150,287125,2,0,P|58:139|92:113,1,85,4|0,0:3|0:0,0:0:0:0:
183,8,287339,2,0,P|171:48|177:90,1,85,2|0,0:0|0:0,0:0:0:0:
440,144,287553,6,0,P|400:133|366:107,1,85,8|0,0:1|0:0,0:0:0:0:
276,2,287768,2,0,P|287:42|281:84,1,85,8|0,0:1|0:0,0:0:0:0:
25,282,287982,70,0,P|54:251|93:235,1,85,10|0,0:0|0:0,0:0:0:0:
236,218,288196,2,0,P|195:207|161:181,2,85,4|0|2,0:3|0:0|0:0,0:0:0:0:
244,355,288518,1,0,0:0:0:0:
241,345,288625,2,0,P|200:355|166:381,1,85,8|0,0:1|0:0,0:0:0:0:
26,273,288839,2,0,P|55:303|94:319,1,85,2|0,0:0|0:0,0:0:0:0:
238,336,289053,2,0,P|197:346|163:372,1,85,8|0,0:0|0:0,0:0:0:0:
403,243,289268,6,2,B|386:321|340:243|299:358|338:383,1,170,6|2,0:3|0:0,0:0:0:0:
508,346,289589,1,2,0:0:0:0:
512,336,289696,2,0,P|482:256|382:242,1,170,4|2,0:3|0:0,0:0:0:0:
293,138,290018,69,0,0:0:0:0:
280,136,290125,2,0,P|292:176|323:205,1,85,8|0,0:1|0:0,0:0:0:0:
463,127,290339,2,0,P|422:139|382:130,1,85,10|0,0:0|0:0,0:0:0:0:
82,26,290553,6,0,B|71:-12|-13:2|-8:72|39:114,1,170,10|0,0:3|0:0,0:0:0:0:
181,219,290875,1,2,0:0:0:0:
194,223,290982,2,0,B|204:233|272:131|86:157|123:94,1,170,10|8,0:0|0:1,0:0:0:0:
165,324,291303,69,2,0:0:0:0:
175,328,291410,2,0,P|146:297|104:292,1,85,8|0,0:0|0:0,0:0:0:0:
0,232,291625,2,0,P|39:222|65:189,1,85,2|0,0:0|0:0,0:0:0:0:
323,143,291839,6,0,B|378:149|339:263|245:194|267:360,1,203.999993774414,10|0,0:3|0:0,0:0:0:0:
442,116,292160,1,2,0:0:0:0:
497,39,292268,2,0,B|553:45|514:162|418:91|440:261,1,203.999993774414,8|8,0:0|0:1,0:0:0:0:
142,98,292589,1,0,0:0:0:0:
139,85,292696,2,0,P|172:111|238:117,1,101.999996887207,2|0,0:0|0:0,0:0:0:0:
396,0,292910,2,0,P|356:15|311:71,1,101.999996887207,2|0,3:0|3:0,3:0:0:0:
172,324,293125,69,10,0:3:0:0:
185,318,293232,2,0,L|196:216,1,101.999996887207,2|0,3:0|3:0,3:0:0:0:
56,318,293446,5,0,0:0:0:0:
63,325,293553,2,0,B|63:327|63:327|85:324|85:324|85:327,6,28.3333333333333,2|0|10|10|10|0|0,0:0|0:0|0:0|0:0|0:0|0:0|0:0,0:0:0:0:
185,208,293982,2,0,L|58:224,1,127.500004863739,10|8,0:0|0:0,0:0:0:0:
360,342,294410,22,0,P|329:332|311:307,1,59.4999999999999,2|0,0:0|0:0,0:0:0:0:
308,167,294839,2,0,P|315:199|302:226,1,59.4999999999999,2|0,0:0|0:0,0:0:0:0:
172,282,295268,2,0,L|237:270,1,59.4999981842042,2|0,0:0|0:0,0:0:0:0:
103,102,295696,6,0,P|84:79|56:71,1,59.4999999999999,2|0,0:0|0:0,0:0:0:0:
233,114,296125,2,0,P|209:136|179:139,1,59.4999999999999,2|0,0:0|0:0,0:0:0:0:
108,247,296553,2,0,P|101:219|111:191,1,59.4999999999999,2|0,0:0|0:0,0:0:0:0:
366,85,296982,5,2,0:0:0:0:
378,165,297196,1,2,0:0:0:0:
389,243,297410,1,2,0:0:0:0:
400,319,297625,2,0,L|407:368,1,29.7499990921021,2|0,0:0|0:0,0:0:0:0:
396,240,297839,1,2,0:0:0:0:
319,290,298053,1,2,0:0:0:0:
512,150,298268,54,0,L|461:188,1,59.4999981842042,2|0,0:0|0:0,0:0:0:0:
501,65,298696,1,2,0:0:0:0:
418,94,298910,2,0,L|403:119,1,29.7499990921021,2|0,0:0|0:0,0:0:0:0:
334,64,299125,1,2,0:0:0:0:
250,55,299339,1,2,0:0:0:0:
243,286,299553,6,0,P|256:258|294:240,1,59.4999999999999,2|0,0:0|0:0,0:0:0:0:
161,325,299982,1,2,0:0:0:0:
161,233,300196,1,2,0:0:0:0:
227,168,300410,1,2,0:0:0:0:
320,165,300625,1,2,0:0:0:0:
345,291,300839,6,0,L|306:335,1,59.4999981842042,2|0,0:0|0:0,0:0:0:0:
423,258,301268,2,0,L|412:231,1,29.7499990921021,2|0,0:0|0:0,0:0:0:0:
447,341,301482,1,2,0:0:0:0:
512,281,301696,1,2,0:0:0:0:
486,198,301910,1,2,0:0:0:0:
335,110,302125,54,0,P|305:107|280:91,1,59.4999999999999,2|0,0:0|0:0,0:0:0:0:
220,200,302553,2,0,P|221:171|208:144,1,59.4999999999999,2|0,0:0|0:0,0:0:0:0:
345,197,302982,2,0,P|319:211|302:235,1,59.4999999999999,2|0,0:0|0:0,0:0:0:0:
235,288,303410,1,2,0:0:0:0:
136,383,303625,2,0,L|108:371,1,29.7499990921021
63,303,303839,2,0,L|7:323,2,59.4999981842042,2|0|2,0:0|0:0|0:0,0:0:0:0:
139,270,304482,1,0,0:0:0:0:
241,368,304696,6,0,P|235:308|221:247,1,119,2|0,0:0|0:0,0:0:0:0:
337,222,305339,1,2,0:0:0:0:
433,288,305553,2,0,P|435:258|441:229,1,59.4999999999999,2|0,0:0|0:0,0:0:0:0:
218,104,305982,6,0,P|212:133|209:163,1,59.4999999999999,2|0,0:0|0:0,0:0:0:0:
77,59,306410,2,0,P|101:76|123:96,1,59.4999999999999,2|0,0:0|0:0,0:0:0:0:
234,0,306839,2,0,P|207:12|179:21,1,59.4999999999999,2|0,0:0|0:0,0:0:0:0:
358,0,307268,54,0,P|332:53|312:109,1,119,2|2,0:0|0:0,0:0:0:0:
499,123,307910,1,2,0:0:0:0:
433,59,308125,2,0,P|419:85|408:113,1,59.4999999999999,2|0,0:0|0:0,0:0:0:0:
358,384,308553,6,0,P|332:331|312:275,1,119,2|2,0:0|0:0,0:0:0:0:
133,361,309196,1,2,0:0:0:0:
238,371,309410,2,0,P|224:339|216:302,1,59.4999999999999,2|0,0:0|0:0,0:0:0:0:
56,162,309839,6,0,P|84:170|114:174,1,59.4999999999999,2|0,0:0|0:0,0:0:0:0:
133,361,310268,1,2,0:0:0:0:
80,267,310482,2,0,P|109:272|139:273,2,59.4999999999999,2|0|2,0:0|0:0|0:0,0:0:0:0:
53,65,311125,54,0,P|82:73|111:78,1,59.4999999999999,2|0,0:0|0:0,0:0:0:0:
192,41,311553,2,0,P|221:49|250:54,1,59.4999999999999,2|0,0:0|0:0,0:0:0:0:
389,30,311982,2,0,P|360:25|331:17,1,59.4999999999999,2|0,0:0|0:0,0:0:0:0:
192,41,312410,6,0,P|221:49|250:54,1,59.4999999999999,2|0,0:0|0:0,0:0:0:0:
325,114,312839,1,2,0:0:0:0:
444,166,313053,2,0,P|415:174|386:179,1,59.4999999999999,2|2,0:0|0:0,0:0:0:0:
332,246,313482,1,2,0:0:0:0:
210,295,313696,6,0,P|239:303|268:308,1,59.4999999999999,2|0,0:0|0:0,0:0:0:0:
333,367,314125,1,2,0:0:0:0:
457,298,314339,2,0,P|428:306|399:311,1,59.4999999999999,2|0,0:0|0:0,0:0:0:0:
332,246,314768,1,2,0:0:0:0:
256,192,314982,12,0,325268,0:0:0:0:
