osu file format v14

[General]
AudioFilename: audio.mp3
AudioLeadIn: 0
PreviewTime: 175113
Countdown: 0
SampleSet: Soft
StackLeniency: 0.3
Mode: 0
LetterboxInBreaks: 0
WidescreenStoryboard: 1
SamplesMatchPlaybackRate: 1

[Editor]
Bookmarks: 18592,32505,42939,56852,70765,84678,98592,112505,129896,140331,145548,159461,173374,175113,189026,202939,216852,227287,229026,230765,232505,246418,260331,288157,309026
DistanceSpacing: 0.6
BeatDivisor: 4
GridSize: 4
TimelineZoom: 1.8

[Metadata]
Title:Strayer
TitleUnicode:Strayer
Artist:Taishi
ArtistUnicode:Taishi
Creator:Lince Cosmico
Version:PHASE 1: [Numinous]
Source:
Tags:AD:Trance 7 DVSP-0210 Diverse System crossxbeats beats capcom crossbeats REV. SUNRISE electronic instrumental disc 2 doujin indie chekito
BeatmapID:3107885
BeatmapSetID:1461986

[Difficulty]
HPDrainRate:6
CircleSize:4
OverallDifficulty:8
ApproachRate:9
SliderMultiplier:2.4
SliderTickRate:2

[Events]
//Background and Video events
0,0,"bg.jpg",0,0
//Break Periods
2,32705,42339
2,116183,128861
//Storyboard Layer 0 (Background)
//Storyboard Layer 1 (Fail)
//Storyboard Layer 2 (Pass)
//Storyboard Layer 3 (Foreground)
//Storyboard Layer 4 (Overlay)
//Storyboard Sound Samples

[TimingPoints]
4679,434.782608695652,4,2,1,40,1,0
4679,-133.333333333333,4,2,1,40,0,0
18592,-111.111111111111,4,2,1,60,0,0
32070,-111.111111111111,4,2,19,60,0,0
32124,-111.111111111111,4,2,1,60,0,0
32505,-111.111111111111,4,2,20,60,0,0
42939,-71.4285714285714,4,2,1,60,0,0
43374,-71.4285714285714,4,2,2,60,0,0
43592,-100,4,2,2,60,0,0
43809,-83.3333333333333,4,2,3,60,0,0
44243,-83.3333333333333,4,2,4,60,0,0
44461,-100,4,2,1,60,0,0
44678,-71.4285714285714,4,2,5,60,0,0
45113,-83.3333333333333,4,2,3,60,0,0
45548,-83.3333333333333,4,2,2,60,0,0
45982,-83.3333333333333,4,2,6,60,0,0
46417,-83.3333333333333,4,2,7,60,0,0
46418,-71.4285714285714,4,2,7,60,0,0
46852,-71.4285714285714,4,2,1,60,0,0
47287,-83.3333333333333,4,2,1,60,0,0
49461,-71.4285714285714,4,2,1,60,0,0
49896,-62.5,4,2,1,60,0,0
50765,-62.5,4,2,50,60,0,0
50874,-62.5,4,2,1,60,0,0
50983,-62.5,4,2,75,60,0,0
51092,-62.5,4,2,1,60,0,0
52287,-83.3333333333333,4,2,1,60,0,0
52505,-62.5,4,2,60,60,0,0
52939,-71.4285714285714,4,2,70,60,0,0
53048,-71.4285714285714,4,2,1,5,0,0
53157,-125,4,2,1,60,0,0
53265,-125,4,2,1,5,0,0
53374,-83.3333333333333,4,2,71,60,0,0
53483,-83.3333333333333,4,2,1,60,0,0
53592,-83.3333333333333,4,2,71,60,0,0
53700,-83.3333333333333,4,2,1,60,0,0
53809,-62.5,4,2,1,60,0,0
54244,-62.5,4,2,50,60,0,0
54352,-62.5,4,2,1,60,0,0
54896,-100,4,2,1,60,0,0
55113,-62.5,4,2,1,60,0,0
55222,-62.5,4,2,1,60,0,0
55983,-62.5,4,2,48,60,0,0
56092,-62.5,4,2,1,60,0,0
56418,-200,4,2,1,60,0,0
56852,-83.3333333333333,4,2,1,60,0,0
57287,-100,4,2,1,60,0,0
58374,-285.714285714286,4,2,1,60,0,0
58592,-285.714285714286,4,2,13,60,0,0
58700,-285.714285714286,4,2,1,5,0,0
58809,-100,4,2,1,60,0,0
60331,-83.3333333333333,4,2,1,60,0,0
61200,-100,4,2,1,60,0,0
61852,-303.030303030303,4,2,1,60,0,0
62070,-303.030303030303,4,2,13,60,0,0
62178,-303.030303030303,4,2,1,5,0,0
62287,-100,4,2,1,60,0,0
63809,-83.3333333333333,4,2,1,60,0,0
64244,-100,4,2,1,60,0,0
65330,-303.030303030303,4,2,1,60,0,0
65548,-303.030303030303,4,2,13,60,0,0
65657,-303.030303030303,4,2,1,5,0,0
65765,-100,4,2,1,60,0,0
67287,-83.3333333333333,4,2,1,60,0,0
67722,-100,4,2,1,60,0,0
68808,-303.030303030303,4,2,1,60,0,0
69026,-303.030303030303,4,2,13,60,0,0
69135,-303.030303030303,4,2,1,5,0,0
69244,-100,4,2,1,60,0,0
69896,-125,4,2,1,60,0,0
70331,-100,4,2,1,60,0,0
70765,-76.9230769230769,4,2,8,60,0,0
71091,-76.9230769230769,4,2,9,60,0,0
71200,-90.9090909090909,4,2,9,60,0,0
71417,-90.9090909090909,4,2,10,60,0,0
71635,-90.9090909090909,4,2,11,60,0,0
71852,-90.9090909090909,4,2,12,60,0,0
72069,-90.9090909090909,4,2,11,60,0,0
72287,-270.27027027027,4,2,13,60,0,0
72505,-270.27027027027,4,2,13,60,0,0
72613,-270.27027027027,4,2,13,5,0,0
72722,-90.9090909090909,4,2,14,60,0,0
72939,-90.9090909090909,4,2,15,60,0,0
73156,-90.9090909090909,4,2,16,60,0,0
73374,-90.9090909090909,4,2,17,60,0,0
73591,-90.9090909090909,4,2,9,60,0,0
73808,-90.9090909090909,4,2,16,60,0,0
74026,-90.9090909090909,4,2,11,60,0,0
74244,-76.9230769230769,4,2,8,60,0,0
74570,-76.9230769230769,4,2,9,60,0,0
74678,-90.9090909090909,4,2,9,60,0,0
74895,-90.9090909090909,4,2,10,60,0,0
75113,-90.9090909090909,4,2,11,60,0,0
75330,-90.9090909090909,4,2,12,60,0,0
75548,-90.9090909090909,4,2,11,60,0,0
75765,-270.27027027027,4,2,13,60,0,0
75983,-270.27027027027,4,2,13,60,0,0
76092,-270.27027027027,4,2,13,5,0,0
76200,-90.9090909090909,4,2,14,60,0,0
76417,-90.9090909090909,4,2,18,60,0,0
76526,-90.9090909090909,4,2,17,60,0,0
76852,-90.9090909090909,4,2,14,60,0,0
77069,-90.9090909090909,4,2,15,60,0,0
77287,-90.9090909090909,4,2,17,60,0,0
77504,-90.9090909090909,4,2,16,60,0,0
77722,-76.9230769230769,4,2,8,60,0,0
78048,-76.9230769230769,4,2,9,60,0,0
78157,-90.9090909090909,4,2,9,60,0,0
78374,-90.9090909090909,4,2,10,60,0,0
78591,-90.9090909090909,4,2,11,60,0,0
78808,-90.9090909090909,4,2,12,60,0,0
79026,-90.9090909090909,4,2,11,60,0,0
79244,-270.27027027027,4,2,13,60,0,0
79461,-270.27027027027,4,2,13,60,0,0
79570,-270.27027027027,4,2,13,5,0,0
79678,-90.9090909090909,4,2,14,60,0,0
79895,-90.9090909090909,4,2,15,60,0,0
80113,-90.9090909090909,4,2,16,60,0,0
80330,-90.9090909090909,4,2,17,60,0,0
80548,-90.9090909090909,4,2,9,60,0,0
80765,-90.9090909090909,4,2,16,60,0,0
80982,-90.9090909090909,4,2,11,60,0,0
81200,-76.9230769230769,4,2,8,60,0,0
81526,-76.9230769230769,4,2,9,60,0,0
81635,-90.9090909090909,4,2,9,60,0,0
81852,-90.9090909090909,4,2,10,60,0,0
82069,-90.9090909090909,4,2,11,60,0,0
82287,-90.9090909090909,4,2,12,60,0,0
82504,-90.9090909090909,4,2,11,60,0,0
82722,-270.27027027027,4,2,13,60,0,0
82939,-270.27027027027,4,2,13,60,0,0
83048,-270.27027027027,4,2,13,5,0,0
83156,-270.27027027027,4,2,14,60,0,0
83157,-90.9090909090909,4,2,14,60,0,0
83374,-76.9230769230769,4,2,18,60,0,0
83482,-76.9230769230769,4,2,17,60,0,0
83592,-100,4,2,17,60,0,0
83809,-76.9230769230769,4,2,14,60,0,0
84026,-100,4,2,15,60,0,0
84244,-133.333333333333,4,2,17,60,0,0
84461,-100,4,2,16,60,0,0
84678,-71.4285714285714,4,2,8,70,0,1
85004,-71.4285714285714,4,2,9,70,0,1
85330,-71.4285714285714,4,2,10,70,0,1
85548,-83.3333333333333,4,2,11,70,0,1
85765,-83.3333333333333,4,2,12,70,0,1
85982,-83.3333333333333,4,2,11,70,0,1
86200,-71.4285714285714,4,2,13,70,0,1
86418,-71.4285714285714,4,2,13,70,0,1
86526,-71.4285714285714,4,2,13,70,0,1
86635,-71.4285714285714,4,2,14,70,0,1
86852,-71.4285714285714,4,2,15,70,0,1
87070,-100,4,2,16,70,0,1
87287,-71.4285714285714,4,2,17,70,0,1
87505,-100,4,2,9,70,0,1
87722,-71.4285714285714,4,2,16,70,0,1
87939,-100,4,2,11,70,0,1
88157,-71.4285714285714,4,2,8,70,0,1
88483,-71.4285714285714,4,2,9,70,0,1
88592,-83.3333333333333,4,2,9,70,0,1
88808,-83.3333333333333,4,2,10,70,0,1
89026,-71.4285714285714,4,2,11,70,0,1
89243,-71.4285714285714,4,2,12,70,0,1
89461,-71.4285714285714,4,2,11,70,0,1
89678,-71.4285714285714,4,2,13,70,0,1
89896,-71.4285714285714,4,2,13,70,0,1
90004,-71.4285714285714,4,2,13,70,0,1
90113,-71.4285714285714,4,2,14,70,0,1
90331,-71.4285714285714,4,2,18,70,0,1
90439,-71.4285714285714,4,2,17,70,0,1
90548,-100,4,2,17,70,0,1
90765,-71.4285714285714,4,2,14,70,0,1
90983,-100,4,2,15,70,0,1
91200,-71.4285714285714,4,2,17,70,0,1
91418,-100,4,2,16,70,0,1
91635,-71.4285714285714,4,2,8,70,0,1
91961,-71.4285714285714,4,2,9,70,0,1
92070,-83.3333333333333,4,2,9,70,0,1
92287,-83.3333333333333,4,2,10,70,0,1
92505,-71.4285714285714,4,2,11,70,0,1
92722,-71.4285714285714,4,2,12,70,0,1
92939,-71.4285714285714,4,2,11,70,0,1
93157,-62.5,4,2,13,70,0,1
93374,-62.5,4,2,13,70,0,1
93483,-62.5,4,2,13,70,0,1
93591,-62.5,4,2,14,70,0,1
93809,-71.4285714285714,4,2,15,70,0,1
94026,-100,4,2,16,70,0,1
94243,-100,4,2,17,70,0,1
94244,-71.4285714285714,4,2,17,70,0,1
94461,-100,4,2,9,70,0,1
94678,-71.4285714285714,4,2,16,70,0,1
94895,-100,4,2,11,70,0,1
95113,-71.4285714285714,4,2,8,70,0,1
95439,-71.4285714285714,4,2,9,70,0,1
95548,-83.3333333333333,4,2,9,70,0,1
95765,-83.3333333333333,4,2,10,70,0,1
95983,-71.4285714285714,4,2,11,70,0,1
96200,-83.3333333333333,4,2,12,70,0,1
96418,-100,4,2,11,70,0,1
96635,-71.4285714285714,4,2,13,70,0,1
96852,-71.4285714285714,4,2,13,70,0,1
96961,-71.4285714285714,4,2,13,70,0,1
97069,-71.4285714285714,4,2,14,70,0,1
97287,-71.4285714285714,4,2,18,70,0,1
97395,-71.4285714285714,4,2,17,70,0,1
97505,-100,4,2,17,70,0,1
97722,-71.4285714285714,4,2,14,70,0,1
97939,-100,4,2,15,70,0,1
98157,-250,4,2,17,70,0,1
98374,-250,4,2,16,70,0,1
98592,-62.5,4,2,8,70,0,1
98918,-62.5,4,2,9,70,0,1
99026,-76.9230769230769,4,2,9,70,0,1
99243,-76.9230769230769,4,2,10,70,0,1
99461,-66.6666666666667,4,2,11,70,0,1
99678,-76.9230769230769,4,2,12,70,0,1
99896,-90.9090909090909,4,2,11,70,0,1
100113,-62.5,4,2,13,70,0,1
100331,-62.5,4,2,13,70,0,1
100439,-62.5,4,2,13,70,0,1
100548,-62.5,4,2,14,70,0,1
100765,-62.5,4,2,15,70,0,1
100983,-90.9090909090909,4,2,16,70,0,1
101200,-62.5,4,2,17,70,0,1
101418,-90.9090909090909,4,2,9,70,0,1
101635,-62.5,4,2,16,70,0,1
101852,-90.9090909090909,4,2,11,70,0,1
102070,-62.5,4,2,8,70,0,1
102396,-62.5,4,2,9,70,0,1
102505,-76.9230769230769,4,2,9,70,0,1
102722,-76.9230769230769,4,2,10,70,0,1
102939,-90.9090909090909,4,2,11,70,0,1
103156,-90.9090909090909,4,2,12,70,0,1
103374,-90.9090909090909,4,2,11,70,0,1
103591,-90.9090909090909,4,2,13,70,0,1
103592,-62.5,4,2,13,70,0,1
103809,-62.5,4,2,13,70,0,1
103918,-62.5,4,2,13,70,0,1
104026,-62.5,4,2,14,70,0,1
104243,-62.5,4,2,18,70,0,1
104352,-62.5,4,2,17,70,0,1
104461,-83.3333333333333,4,2,17,70,0,1
104678,-62.5,4,2,14,70,0,1
104895,-83.3333333333333,4,2,15,70,0,1
105113,-62.5,4,2,17,70,0,1
105331,-83.3333333333333,4,2,16,70,0,1
105548,-62.5,4,2,8,70,0,1
105874,-62.5,4,2,9,70,0,1
105983,-76.9230769230769,4,2,9,70,0,1
106200,-76.9230769230769,4,2,10,70,0,1
106418,-62.5,4,2,11,70,0,1
106635,-71.4285714285714,4,2,12,70,0,1
106852,-62.5,4,2,11,70,0,1
107069,-62.5,4,2,13,70,0,1
107287,-62.5,4,2,13,70,0,1
107396,-62.5,4,2,13,70,0,1
107504,-62.5,4,2,14,70,0,1
107722,-71.4285714285714,4,2,15,70,0,1
107939,-90.9090909090909,4,2,16,70,0,1
108157,-71.4285714285714,4,2,17,70,0,1
108374,-90.9090909090909,4,2,9,70,0,1
108592,-71.4285714285714,4,2,16,70,0,1
108809,-90.9090909090909,4,2,11,70,0,1
109026,-62.5,4,2,8,70,0,1
109352,-62.5,4,2,9,70,0,1
109461,-76.9230769230769,4,2,9,70,0,1
109678,-76.9230769230769,4,2,10,70,0,1
109896,-66.6666666666667,4,2,11,70,0,1
110113,-90.9090909090909,4,2,12,70,0,1
110331,-76.9230769230769,4,2,11,70,0,1
110548,-62.5,4,2,13,70,0,1
110765,-62.5,4,2,13,70,0,1
110874,-62.5,4,2,13,70,0,1
110982,-62.5,4,2,14,70,0,1
111200,-62.5,4,2,18,70,0,1
111308,-62.5,4,2,17,70,0,1
111418,-76.9230769230769,4,2,17,70,0,1
111635,-62.5,4,2,14,70,0,1
111852,-76.9230769230769,4,2,15,70,0,1
112070,-250,4,2,17,70,0,1
112287,-250,4,2,16,70,0,1
112505,-71.4285714285714,4,2,16,50,0,0
115548,-71.4285714285714,4,2,19,50,0,0
115983,-71.4285714285714,4,2,20,60,0,0
129461,-71.4285714285714,4,2,19,50,0,0
129896,-71.4285714285714,4,2,20,60,0,0
130330,-71.4285714285714,4,2,1,60,0,0
130548,-83.3333333333333,4,2,1,60,0,0
130765,-71.4285714285714,4,2,50,60,0,0
130874,-71.4285714285714,4,2,1,60,0,0
130983,-71.4285714285714,4,2,75,60,0,0
131092,-71.4285714285714,4,2,1,60,0,0
131418,-333.333333333333,4,2,1,60,0,0
131635,-62.5,4,2,21,60,0,0
132287,-83.3333333333333,4,2,21,60,0,0
132505,-62.5,4,2,60,60,0,0
132613,-62.5,4,2,1,60,0,0
132939,-62.5,4,2,70,60,0,0
133048,-62.5,4,2,1,60,0,0
133157,-100,4,2,1,60,0,0
133374,-71.4285714285714,4,2,22,60,0,0
133591,-71.4285714285714,4,2,1,60,0,0
133809,-71.4285714285714,4,2,90,60,0,0
133918,-71.4285714285714,4,2,1,60,0,0
134244,-83.3333333333333,4,2,1,60,0,0
134461,-62.5,4,2,1,60,0,0
135113,-60.6060606060606,4,2,23,60,0,0
135222,-60.6060606060606,4,2,1,60,0,0
135765,-62.5,4,2,1,60,0,0
135983,-62.5,4,2,48,60,0,0
136092,-62.5,4,2,1,60,0,0
136309,-71.4285714285714,4,2,1,60,0,0
136417,-71.4285714285714,4,2,11,60,0,0
136635,-71.4285714285714,4,2,10,60,0,0
136852,-71.4285714285714,4,2,24,60,0,0
137287,-71.4285714285714,4,2,10,60,0,0
137504,-71.4285714285714,4,2,19,60,0,0
137722,-62.5,4,2,50,60,0,0
137831,-62.5,4,2,1,60,0,0
137939,-62.5,4,2,13,60,0,0
138374,-333.333333333333,4,2,13,60,0,0
138592,-100,4,2,21,60,0,0
139461,-125,4,2,21,60,0,0
139787,-71.4285714285714,4,2,65,60,0,0
140331,-71.4285714285714,4,2,1,60,0,0
141200,-71.4285714285714,4,2,9,60,0,0
141417,-71.4285714285714,4,2,10,60,0,0
141635,-71.4285714285714,4,2,19,60,0,0
142069,-71.4285714285714,4,2,25,60,0,0
145331,-71.4285714285714,4,2,25,40,0,0
145548,-666.666666666667,4,2,1,60,0,0
145874,-666.666666666667,4,2,1,5,0,0
145983,-666.666666666667,4,2,2,60,0,0
146309,-666.666666666667,4,2,2,5,0,0
146418,-666.666666666667,4,2,3,60,0,0
146744,-666.666666666667,4,2,3,5,0,0
146852,-666.666666666667,4,2,4,60,0,0
146961,-666.666666666667,4,2,1,60,0,0
147178,-666.666666666667,4,2,4,5,0,0
147287,-666.666666666667,4,2,5,60,0,0
147613,-666.666666666667,4,2,5,5,0,0
147722,-666.666666666667,4,2,3,60,0,0
148048,-666.666666666667,4,2,3,5,0,0
148157,-666.666666666667,4,2,2,60,0,0
148483,-666.666666666667,4,2,2,5,0,0
148591,-666.666666666667,4,2,26,50,0,0
148592,3478.26086956521,4,2,26,50,1,0
148592,-833.333333333333,4,2,26,50,0,0
152287,-833.333333333333,4,2,26,5,0,0
152505,434.782608695652,4,2,11,50,1,0
152939,-100,4,2,13,50,0,0
153374,-100,4,2,8,50,0,0
153809,-100,4,2,14,50,0,0
154244,-100,4,2,15,50,0,0
154678,-100,4,2,16,50,0,0
155113,-100,4,2,17,50,0,0
155548,-100,4,2,11,50,0,0
159461,-133.333333333333,4,2,27,40,0,0
160331,-133.333333333333,4,2,28,40,0,0
160657,-133.333333333333,4,2,29,40,0,0
160765,-133.333333333333,4,2,30,40,0,0
161418,-133.333333333333,4,2,31,40,0,0
161635,-133.333333333333,4,2,32,40,0,0
161852,-133.333333333333,4,2,30,40,0,0
162396,-133.333333333333,4,2,33,40,0,0
162505,-86.9565217391304,4,2,1,40,0,0
162722,-86.9565217391304,4,2,34,40,0,0
162939,-133.333333333333,4,2,35,40,0,0
163374,-133.333333333333,4,2,36,40,0,0
163591,-133.333333333333,4,2,1,40,0,0
163809,-133.333333333333,4,2,37,40,0,0
164026,-133.333333333333,4,2,38,40,0,0
164244,-133.333333333333,4,2,27,40,0,0
164896,-133.333333333333,4,2,39,40,0,0
165113,-133.333333333333,4,2,27,40,0,0
165548,-133.333333333333,4,2,40,40,0,0
166200,-133.333333333333,4,2,41,40,0,0
166418,-133.333333333333,4,2,27,40,0,0
167287,-133.333333333333,4,2,28,40,0,0
167504,-133.333333333333,4,2,29,40,0,0
167722,-133.333333333333,4,2,30,40,0,0
168374,-133.333333333333,4,2,31,40,0,0
168591,-133.333333333333,4,2,32,40,0,0
168809,-133.333333333333,4,2,30,40,0,0
169352,-133.333333333333,4,2,33,40,0,0
169461,-133.333333333333,4,2,1,40,0,0
169678,-133.333333333333,4,2,34,40,0,0
169896,-133.333333333333,4,2,35,40,0,0
170331,-133.333333333333,4,2,36,40,0,0
170765,-133.333333333333,4,2,37,40,0,0
171091,-133.333333333333,4,2,38,40,0,0
171200,-133.333333333333,4,2,27,40,0,0
171418,-83.3333333333333,4,2,27,60,0,0
171852,-83.3333333333333,4,2,39,60,0,0
172070,-83.3333333333333,4,2,27,60,0,0
172504,-83.3333333333333,4,2,40,60,0,0
172939,-250,4,2,40,60,0,0
173374,-74.0740740740741,4,2,99,60,0,0
173700,-66.6666666666667,4,2,99,60,0,0
174026,-33.3333333333333,4,2,99,60,0,0
174244,-62.5,4,2,40,60,0,0
174678,-370.37037037037,4,2,61,60,0,0
175113,-71.4285714285714,4,2,42,70,0,1
175983,-71.4285714285714,4,2,43,70,0,1
176200,-71.4285714285714,4,2,44,70,0,1
176418,-71.4285714285714,4,2,45,70,0,1
177070,-71.4285714285714,4,2,46,70,0,1
177287,-71.4285714285714,4,2,47,70,0,1
177613,-71.4285714285714,4,2,45,70,0,1
178048,-71.4285714285714,4,2,48,70,0,1
178157,-71.4285714285714,4,2,1,70,0,1
178374,-71.4285714285714,4,2,49,70,0,1
178592,-71.4285714285714,4,2,1,70,0,1
178809,-71.4285714285714,4,2,50,70,0,1
179026,-71.4285714285714,4,2,51,70,0,1
179243,-71.4285714285714,4,2,1,70,0,1
179461,-71.4285714285714,4,2,52,70,0,1
179678,-71.4285714285714,4,2,53,70,0,1
179896,-71.4285714285714,4,2,42,70,0,1
180331,-71.4285714285714,4,2,13,70,0,1
180439,-71.4285714285714,4,2,42,70,0,1
180548,-71.4285714285714,4,2,54,70,0,1
180765,-71.4285714285714,4,2,42,70,0,1
181200,-55.5555555555556,4,2,55,70,0,1
181635,-62.5,4,2,55,70,0,1
181852,-83.3333333333333,4,2,56,70,0,1
182070,-71.4285714285714,4,2,42,70,0,1
182939,-71.4285714285714,4,2,43,70,0,1
183156,-71.4285714285714,4,2,44,70,0,1
183374,-71.4285714285714,4,2,45,70,0,1
184026,-71.4285714285714,4,2,46,70,0,1
184243,-71.4285714285714,4,2,47,70,0,1
184570,-71.4285714285714,4,2,45,70,0,1
185004,-71.4285714285714,4,2,48,70,0,1
185113,-71.4285714285714,4,2,1,70,0,1
185330,-71.4285714285714,4,2,49,70,0,1
185548,-71.4285714285714,4,2,1,70,0,1
185765,-71.4285714285714,4,2,50,70,0,1
185983,-71.4285714285714,4,2,51,70,0,1
186309,-71.4285714285714,4,2,1,70,0,1
186417,-71.4285714285714,4,2,57,70,0,1
186743,-71.4285714285714,4,2,56,70,0,1
186852,-71.4285714285714,4,2,42,70,0,1
187287,-71.4285714285714,4,2,42,70,0,1
187396,-71.4285714285714,4,2,42,70,0,1
187504,-71.4285714285714,4,2,54,70,0,1
187722,-71.4285714285714,4,2,42,70,0,1
188156,-71.4285714285714,4,2,55,80,0,1
188157,-55.5555555555556,4,2,55,80,0,1
188592,-83.3333333333333,4,2,55,80,0,1
189026,-62.5,4,2,42,80,0,1
189896,-62.5,4,2,43,80,0,1
190113,-62.5,4,2,44,80,0,1
190331,-62.5,4,2,1,80,0,1
190548,-62.5,4,2,45,80,0,1
190765,-83.3333333333333,4,2,45,80,0,1
190983,-71.4285714285714,4,2,46,80,0,1
191200,-62.5,4,2,47,80,0,1
191526,-62.5,4,2,45,80,0,1
191961,-62.5,4,2,48,80,0,1
192070,-62.5,4,2,1,80,0,1
192287,-62.5,4,2,49,80,0,1
192505,-62.5,4,2,1,80,0,1
192722,-62.5,4,2,50,80,0,1
192939,-62.5,4,2,51,80,0,1
193265,-62.5,4,2,1,80,0,1
193374,-62.5,4,2,52,80,0,1
193700,-62.5,4,2,53,80,0,1
193809,-62.5,4,2,1,80,0,1
194026,-62.5,4,2,42,80,0,1
194461,-62.5,4,2,54,80,0,1
194678,-62.5,4,2,42,80,0,1
195113,-62.5,4,2,55,80,0,1
195548,-62.5,4,2,1,80,0,1
195765,-62.5,4,2,56,80,0,1
195983,-62.5,4,2,42,80,0,1
196852,-62.5,4,2,43,80,0,1
197069,-62.5,4,2,44,80,0,1
197287,-62.5,4,2,1,80,0,1
197504,-62.5,4,2,45,80,0,1
197722,-83.3333333333333,4,2,45,80,0,1
197939,-71.4285714285714,4,2,46,80,0,1
198156,-71.4285714285714,4,2,47,80,0,1
198157,-62.5,4,2,47,80,0,1
198483,-62.5,4,2,45,80,0,1
198917,-62.5,4,2,48,80,0,1
199026,-62.5,4,2,1,80,0,1
199243,-62.5,4,2,49,80,0,1
199461,-62.5,4,2,1,80,0,1
199678,-62.5,4,2,50,80,0,1
199896,-62.5,4,2,51,80,0,1
200222,-62.5,4,2,1,80,0,1
200330,-62.5,4,2,57,80,0,1
200657,-62.5,4,2,56,80,0,1
200765,-62.5,4,2,1,80,0,1
200983,-62.5,4,2,42,80,0,1
201200,-62.5,4,2,42,80,0,1
201309,-62.5,4,2,42,80,0,1
201417,-62.5,4,2,54,80,0,1
201635,-62.5,4,2,42,80,0,1
202070,-62.5,4,2,55,80,0,1
202504,-62.5,4,2,19,80,0,1
202722,-62.5,4,2,55,80,0,1
202939,-100,4,2,20,60,0,0
203156,-100,4,2,21,60,0,0
206417,-100,4,2,22,60,0,0
206526,-100,4,2,1,60,0,0
208157,-100,4,2,13,60,0,0
208265,-100,4,2,23,60,0,0
208592,-100,4,2,11,60,0,0
209461,-250,4,2,11,60,0,0
209678,-250,4,2,10,60,0,0
209896,-100,4,2,24,60,0,0
210222,-100,4,2,16,60,0,0
210548,-100,4,2,19,60,0,0
210983,-100,4,2,58,60,0,0
211200,-100,4,2,1,60,0,0
211635,-100,4,2,59,60,0,0
211852,-100,4,2,13,60,0,0
212939,-100,4,2,16,60,0,0
213374,-100,4,2,19,60,0,0
216852,-83.3333333333333,4,2,20,60,0,0
217069,-83.3333333333333,4,2,1,60,0,0
218591,-83.3333333333333,4,2,21,60,0,0
219026,-83.3333333333333,4,2,1,60,0,0
220330,-83.3333333333333,4,2,22,60,0,0
220439,-83.3333333333333,4,2,1,60,0,0
222070,-83.3333333333333,4,2,13,60,0,0
222178,-83.3333333333333,4,2,23,60,0,0
222287,-71.4285714285714,4,2,23,60,0,0
222505,-83.3333333333333,4,2,1,60,0,0
223374,-100,4,2,11,60,0,0
223591,-100,4,2,10,60,0,0
223592,-83.3333333333333,4,2,10,60,0,0
223809,-83.3333333333333,4,2,24,60,0,0
224135,-83.3333333333333,4,2,10,60,0,0
224461,-83.3333333333333,4,2,19,60,0,0
224896,-83.3333333333333,4,2,13,60,0,0
225548,-83.3333333333333,4,2,21,60,0,0
225983,-83.3333333333333,4,2,1,60,0,0
227287,-74.0740740740741,4,2,99,60,0,0
227613,-66.6666666666667,4,2,99,60,0,0
227939,-33.3333333333333,4,2,99,60,0,0
228157,-62.5,4,2,1,60,0,0
228592,-90.9090909090909,4,2,1,60,0,0
229026,-125,4,2,1,60,0,0
229896,-71.4285714285714,4,2,9,60,0,0
230113,-71.4285714285714,4,2,10,60,0,0
230330,-71.4285714285714,4,2,19,60,0,0
230765,-555.555555555556,4,2,61,60,0,0
231852,-333.333333333333,4,2,61,60,0,0
232504,-62.5,4,2,8,70,0,1
232831,-62.5,4,2,9,70,0,1
232939,-76.9230769230769,4,2,9,70,0,1
233156,-76.9230769230769,4,2,10,70,0,1
233374,-66.6666666666667,4,2,11,70,0,1
233591,-76.9230769230769,4,2,12,70,0,1
233809,-90.9090909090909,4,2,11,70,0,1
234026,-62.5,4,2,13,70,0,1
234244,-62.5,4,2,13,70,0,1
234352,-62.5,4,2,13,70,0,1
234461,-62.5,4,2,14,70,0,1
234678,-62.5,4,2,15,70,0,1
234896,-90.9090909090909,4,2,16,70,0,1
235113,-62.5,4,2,17,70,0,1
235330,-62.5,4,2,9,70,0,1
235331,-90.9090909090909,4,2,9,70,0,1
235548,-62.5,4,2,16,70,0,1
235765,-90.9090909090909,4,2,11,70,0,1
235983,-62.5,4,2,8,70,0,1
236309,-62.5,4,2,9,70,0,1
236418,-76.9230769230769,4,2,9,70,0,1
236635,-76.9230769230769,4,2,10,70,0,1
236852,-90.9090909090909,4,2,11,70,0,1
237069,-90.9090909090909,4,2,12,70,0,1
237287,-90.9090909090909,4,2,11,70,0,1
237504,-90.9090909090909,4,2,13,70,0,1
237505,-62.5,4,2,13,70,0,1
237722,-62.5,4,2,13,70,0,1
237831,-62.5,4,2,13,70,0,1
237939,-62.5,4,2,14,70,0,1
238156,-62.5,4,2,18,70,0,1
238265,-62.5,4,2,17,70,0,1
238374,-83.3333333333333,4,2,17,70,0,1
238591,-62.5,4,2,14,70,0,1
238808,-83.3333333333333,4,2,14,70,0,1
238809,-83.3333333333333,4,2,15,70,0,1
239026,-62.5,4,2,17,70,0,1
239243,-62.5,4,2,16,70,0,1
239244,-83.3333333333333,4,2,16,70,0,1
239461,-62.5,4,2,8,70,0,1
239787,-62.5,4,2,9,70,0,1
239896,-76.9230769230769,4,2,9,70,0,1
240113,-76.9230769230769,4,2,10,70,0,1
240330,-76.9230769230769,4,2,11,70,0,1
240331,-62.5,4,2,11,70,0,1
240548,-71.4285714285714,4,2,12,70,0,1
240765,-62.5,4,2,11,70,0,1
240983,-62.5,4,2,13,70,0,1
241200,-62.5,4,2,13,70,0,1
241309,-62.5,4,2,13,70,0,1
241417,-62.5,4,2,14,70,0,1
241635,-71.4285714285714,4,2,15,70,0,1
241852,-90.9090909090909,4,2,16,70,0,1
242070,-71.4285714285714,4,2,17,70,0,1
242287,-90.9090909090909,4,2,9,70,0,1
242504,-90.9090909090909,4,2,16,70,0,1
242505,-71.4285714285714,4,2,16,70,0,1
242722,-90.9090909090909,4,2,11,70,0,1
242939,-62.5,4,2,8,70,0,1
243265,-62.5,4,2,9,70,0,1
243374,-76.9230769230769,4,2,9,70,0,1
243591,-76.9230769230769,4,2,10,70,0,1
243809,-66.6666666666667,4,2,11,70,0,1
244026,-90.9090909090909,4,2,12,70,0,1
244243,-90.9090909090909,4,2,11,70,0,1
244244,-76.9230769230769,4,2,11,70,0,1
244461,-62.5,4,2,13,70,0,1
244678,-62.5,4,2,13,70,0,1
244787,-62.5,4,2,13,70,0,1
244896,-62.5,4,2,14,70,0,1
245113,-62.5,4,2,18,70,0,1
245221,-62.5,4,2,17,70,0,1
245331,-76.9230769230769,4,2,17,70,0,1
245548,-62.5,4,2,14,70,0,1
245765,-62.5,4,2,15,70,0,1
245766,-76.9230769230769,4,2,15,70,0,1
245983,-250,4,2,17,70,0,1
246200,-250,4,2,16,70,0,1
246417,-250,4,2,8,70,0,1
246418,-71.4285714285714,4,2,8,70,0,1
246744,-71.4285714285714,4,2,9,70,0,1
247070,-71.4285714285714,4,2,10,70,0,1
247287,-83.3333333333333,4,2,11,70,0,1
247504,-83.3333333333333,4,2,12,70,0,1
247722,-83.3333333333333,4,2,11,70,0,1
247939,-71.4285714285714,4,2,13,70,0,1
248157,-71.4285714285714,4,2,13,70,0,1
248265,-71.4285714285714,4,2,13,70,0,1
248374,-71.4285714285714,4,2,14,70,0,1
248591,-71.4285714285714,4,2,15,70,0,1
248809,-100,4,2,16,70,0,1
249026,-71.4285714285714,4,2,17,70,0,1
249243,-71.4285714285714,4,2,9,70,0,1
249244,-100,4,2,9,70,0,1
249461,-71.4285714285714,4,2,16,70,0,1
249678,-100,4,2,11,70,0,1
249896,-71.4285714285714,4,2,8,70,0,1
250222,-71.4285714285714,4,2,9,70,0,1
250331,-83.3333333333333,4,2,9,70,0,1
250548,-83.3333333333333,4,2,10,70,0,1
250765,-71.4285714285714,4,2,11,70,0,1
250983,-71.4285714285714,4,2,12,70,0,1
251200,-71.4285714285714,4,2,11,70,0,1
251417,-71.4285714285714,4,2,13,70,0,1
251635,-71.4285714285714,4,2,13,70,0,1
251744,-71.4285714285714,4,2,13,70,0,1
251852,-71.4285714285714,4,2,14,70,0,1
252070,-71.4285714285714,4,2,18,70,0,1
252178,-71.4285714285714,4,2,17,70,0,1
252287,-100,4,2,17,70,0,1
252504,-71.4285714285714,4,2,14,70,0,1
252722,-100,4,2,15,70,0,1
252939,-71.4285714285714,4,2,17,70,0,1
253156,-71.4285714285714,4,2,16,70,0,1
253157,-100,4,2,16,70,0,1
253374,-76.9230769230769,4,2,8,70,0,1
253700,-76.9230769230769,4,2,9,70,0,1
253809,-83.3333333333333,4,2,9,70,0,1
254026,-83.3333333333333,4,2,10,70,0,1
254243,-83.3333333333333,4,2,11,70,0,1
254244,-76.9230769230769,4,2,11,70,0,1
254461,-76.9230769230769,4,2,12,70,0,1
254678,-76.9230769230769,4,2,11,70,0,1
254896,-76.9230769230769,4,2,13,70,0,1
255113,-76.9230769230769,4,2,13,70,0,1
255222,-76.9230769230769,4,2,13,70,0,1
255330,-76.9230769230769,4,2,14,70,0,1
255548,-83.3333333333333,4,2,15,70,0,1
255765,-111.111111111111,4,2,16,70,0,1
255983,-83.3333333333333,4,2,17,70,0,1
256200,-111.111111111111,4,2,9,70,0,1
256417,-111.111111111111,4,2,16,70,0,1
256418,-83.3333333333333,4,2,16,70,0,1
256635,-111.111111111111,4,2,11,70,0,1
256852,-83.3333333333333,4,2,8,70,0,1
257178,-83.3333333333333,4,2,9,70,0,1
257287,-90.9090909090909,4,2,9,70,0,1
257504,-90.9090909090909,4,2,10,70,0,1
257722,-90.9090909090909,4,2,11,70,0,1
257939,-90.9090909090909,4,2,12,70,0,1
258156,-90.9090909090909,4,2,11,70,0,1
258374,-90.9090909090909,4,2,13,70,0,1
258592,-90.9090909090909,4,2,13,70,0,1
258700,-90.9090909090909,4,2,13,70,0,1
258809,-90.9090909090909,4,2,14,70,0,1
259026,-100,4,2,18,70,0,1
259134,-100,4,2,17,70,0,1
259244,-133.333333333333,4,2,17,70,0,1
259461,-100,4,2,14,70,0,1
259678,-100,4,2,15,70,0,1
259679,-133.333333333333,4,2,15,70,0,1
259896,-250,4,2,17,70,0,1
260113,-100,4,2,16,70,0,1
260331,-133.333333333333,4,2,16,50,0,0
260439,-133.333333333333,4,2,16,50,0,0
288157,-200,4,2,16,30,0,0
309026,-200,4,2,16,5,0,0

[Colours]
Combo1 : 131,6,255
Combo2 : 51,51,255
Combo3 : 151,151,255
Combo4 : 164,255,255

[HitObjects]
48,192,4679,6,0,P|34:223|68:269,1,90.0000034332277,0|0,1:1|2:2,0:0:0:0:
135,325,5113,6,0,P|182:306|228:304,1,90.0000034332277,0|0,1:1|2:2,0:0:0:0:
254,226,5548,2,0,P|300:233|340:265,1,90.0000034332277,0|0,1:1|2:2,0:0:0:0:
412,227,5983,2,0,P|445:266|453:310,1,90.0000034332277,0|0,1:1|2:2,0:0:0:0:
135,325,6418,6,0,P|182:306|228:304,1,90.0000034332277,0|0,1:1|2:2,0:0:0:0:
254,226,6852,2,0,P|300:233|340:265,1,90.0000034332277,0|0,1:1|2:2,0:0:0:0:
135,325,7287,6,0,P|182:306|228:304,1,90.0000034332277,0|0,1:1|2:2,0:0:0:0:
412,227,7722,2,0,P|445:266|453:310,1,90.0000034332277,0|0,1:1|2:2,0:0:0:0:
453,303,8157,5,0,1:1:0:0:
260,181,8374,2,0,L|254:226,4,45.0000017166138,0|0|0|0|0,2:2|2:2|1:1|2:2|2:2,0:0:0:0:
184,170,9026,2,0,L|178:215,4,45.0000017166138,0|0|0|0|0,1:1|2:2|2:2|2:2|1:1,0:0:0:0:
100,148,9678,1,0,2:2:0:0:
100,148,9896,6,0,P|95:103|120:69,1,90.0000034332277,0|0,1:1|2:2,0:0:0:0:
205,91,10331,2,0,P|210:136|185:170,1,90.0000034332277,0|0,1:1|2:2,0:0:0:0:
359,283,10765,6,0,P|364:238|339:204,1,90.0000034332277,0|0,1:1|2:2,0:0:0:0:
254,226,11200,2,0,P|249:271|274:305,1,90.0000034332277,0|0,1:1|2:2,0:0:0:0:
128,356,11635,5,0,1:1:0:0:
128,356,12070,6,0,P|98:311|54:298,1,90.0000034332277,0|0,1:1|2:2,0:0:0:0:
176,255,12505,2,0,P|212:225|261:229,1,90.0000034332277,0|0,1:1|2:2,0:0:0:0:
76,132,12939,2,0,P|72:176|99:212,1,90.0000034332277,0|0,1:1|2:2,0:0:0:0:
128,356,13374,6,0,P|98:311|54:298,1,90.0000034332277,0|0,1:1|2:2,0:0:0:0:
176,255,13809,2,0,P|212:225|261:229,1,90.0000034332277,0|0,1:1|2:2,0:0:0:0:
128,356,14244,6,0,P|98:311|54:298,1,90.0000034332277,0|0,1:1|2:2,0:0:0:0:
99,212,14678,2,0,P|71:169|89:116,1,90.0000034332277,0|0,1:1|2:2,0:0:0:0:
76,132,15113,5,0,1:1:0:0:
260,270,15331,2,0,L|253:225,4,45.0000017166138,0|0|0|0|0,2:2|2:2|1:1|2:2|2:2,0:0:0:0:
336,259,15983,2,0,L|329:214,4,45.0000017166138,0|0|0|0|0,1:1|2:2|2:2|2:2|1:1,0:0:0:0:
381,334,16635,1,0,2:2:0:0:
381,334,16852,6,0,P|421:306|411:266,1,90.0000034332277,0|0,1:1|2:2,0:0:0:0:
207,165,17287,2,0,P|170:186|174:229,1,90.0000034332277,0|0,1:1|2:2,0:0:0:0:
173,228,17939,1,0,2:2:0:0:
173,228,18374,1,0,1:1:0:0:
224,296,18592,6,0,B|348:310|348:310|324:315|310:331,1,161.999995056153,0|0,1:1|2:2,0:0:0:0:
363,384,19026,1,8,1:1:0:0:
173,228,19244,1,0,2:2:0:0:
173,228,19352,1,0,2:2:0:0:
173,228,19461,2,0,B|163:145|163:145|182:127,1,107.999996704102,0|0,1:1|2:2,0:0:0:0:
264,126,19787,1,0,2:2:0:0:
264,126,19896,2,0,B|273:208|273:208|255:227,1,107.999996704102,8|0,1:1|2:2,0:0:0:0:
115,83,20331,6,0,P|73:42|25:47,1,107.999996704102,0|0,1:1|2:2,0:0:0:0:
0,125,20657,1,0,2:2:0:0:
0,125,20765,2,0,B|31:167|31:167|96:155,1,107.999996704102,8|0,1:1|2:2,0:0:0:0:
264,126,21200,2,0,B|318:115|318:115|349:158,1,107.999996704102,0|0,1:1|2:2,0:0:0:0:
321,236,21526,1,0,2:2:0:0:
322,236,21635,2,0,P|269:238|234:199,1,107.999996704102,8|0,1:1|2:2,0:0:0:0:
209,50,22070,5,0,1:1:0:0:
146,238,22287,1,0,2:2:0:0:
146,238,22505,2,0,L|123:315,2,53.9999983520508,8|0|0,1:1|2:2|2:2,0:0:0:0:
209,50,22939,5,0,1:1:0:0:
232,213,23157,2,0,L|309:236,1,53.9999983520508,0|0,2:2|2:2,0:0:0:0:
165,134,23374,2,0,L|113:118,1,53.9999983520508,8|0,1:1|2:2,0:0:0:0:
255,126,23592,1,0,2:2:0:0:
54,244,23809,6,0,P|94:295|146:275,1,107.999996704102,0|0,1:1|2:2,0:0:0:0:
193,346,24135,1,0,2:2:0:0:
193,346,24244,2,0,B|223:322|223:322|299:344,1,107.999996704102,8|0,1:1|2:2,0:0:0:0:
130,289,24678,2,0,P|78:289|54:244,1,107.999996704102,0|0,1:1|2:2,0:0:0:0:
98,176,25005,1,0,2:2:0:0:
98,176,25113,2,0,P|149:176|174:221,1,107.999996704102,8|0,1:1|2:2,0:0:0:0:
289,341,25548,5,0,1:1:0:0:
289,341,25983,2,0,B|338:331|338:331|346:337|346:337|403:326,1,107.999996704102,8|0,1:1|2:2,0:0:0:0:
483,246,26309,1,0,2:2:0:0:
483,246,26418,2,0,B|434:236|434:236|426:242|426:242|369:231,1,107.999996704102,0|0,1:1|2:2,0:0:0:0:
297,203,26852,2,0,B|290:197|290:197|280:92,1,107.999996704102,8|0,1:1|2:2,0:0:0:0:
203,268,27287,6,0,L|82:256,1,107.999996704102,0|0,1:1|2:2,0:0:0:0:
96,337,27613,1,0,2:2:0:0:
96,336,27722,2,0,B|142:364|142:364|194:346,1,107.999996704102,8|0,1:1|2:2,0:0:0:0:
297,203,28157,2,0,L|418:191,1,107.999996704102,0|0,1:1|2:2,0:0:0:0:
403,272,28483,1,0,2:2:0:0:
403,271,28592,2,0,B|357:298|357:298|305:280,1,107.999996704102,8|0,1:1|2:2,0:0:0:0:
206,173,29026,5,0,1:1:0:0:
302,76,29244,1,0,2:2:0:0:
195,183,29461,2,0,L|132:177,2,53.9999983520508,8|0|0,1:1|2:2|2:2,0:0:0:0:
318,58,29896,1,0,1:1:0:0:
403,271,30113,2,0,L|466:265,1,53.9999983520508,0|0,2:2|2:2,0:0:0:0:
343,340,30331,2,0,L|289:345,1,53.9999983520508,8|0,1:1|2:2,0:0:0:0:
210,352,30548,1,0,2:2:0:0:
199,354,30657,1,0,2:2:0:0:
188,356,30765,6,0,L|182:302,3,53.9999983520508,0|0|0|0,1:1|2:2|2:2|2:2,0:0:0:0:
98,271,31200,2,0,L|92:217,3,53.9999983520508,8|0|0|0,1:1|2:2|2:2|2:2,0:0:0:0:
226,158,31635,2,0,L|220:104,3,53.9999983520508,0|0|0|0,1:1|2:2|2:2|2:2,0:0:0:0:
58,77,32070,6,0,L|56:51,6,26.9999991760254,2|0|0|0|0|0|0,1:2|2:2|2:2|2:2|2:2|2:2|2:2,0:0:0:0:
134,134,32505,5,6,2:2:0:0:
105,303,42939,6,0,B|91:365|91:365|166:381|166:381|207:185,1,335.999989746094,2|2,1:2|2:2,0:0:0:0:
119,68,43592,6,0,P|87:68|58:99,1,60,0|0,1:1|2:2,0:0:0:0:
240,86,43809,2,0,P|227:52|198:33,1,71.9999978027344,10|0,1:2|2:2,0:0:0:0:
2,147,44026,2,0,B|68:161|68:161|74:170|74:170|152:187|152:187|162:181|162:181|217:192,1,215.999993408203,0|0,1:1|2:2,0:0:0:0:
292,213,44461,2,0,P|306:210|321:212,2,30,0|0|0,1:1|2:2|2:2,0:0:0:0:
243,280,44678,6,0,P|337:320|333:210,1,251.999992309571,2|0,2:2|2:2,0:0:0:0:
471,180,45113,2,0,B|404:191|404:191|398:199|398:199|333:209,1,143.999995605469,2|0,2:2|1:1,0:0:0:0:
173,345,45548,1,10,1:2:0:0:
185,348,45765,2,0,L|266:363,1,71.9999978027344,0|0,2:2|2:2,0:0:0:0:
94,304,45983,6,0,B|76:208|76:208|115:173,1,143.999995605469,2|0,2:2|2:2,0:0:0:0:
196,185,46309,1,0,2:2:0:0:
196,185,46418,6,0,B|169:38|169:38|92:81|92:81|110:177,1,335.999989746094,2|0,1:2|2:2,0:0:0:0:
276,126,47070,1,0,1:1:0:0:
94,304,47287,2,0,B|69:324|69:324|117:314,1,71.9999978027344,8|0,1:1|2:2,0:0:0:0:
180,262,47505,2,0,B|333:298|333:298|299:296|277:319,1,215.999993408203,0|0,1:1|2:2,0:0:0:0:
328,374,47939,1,0,1:1:0:0:
512,188,48157,6,0,B|464:133|464:133|387:165,1,143.999995605469,0|0,2:2|2:2,0:0:0:0:
404,244,48483,1,0,2:2:0:0:
404,244,48592,2,0,B|430:266|430:266|476:249,2,71.9999978027344,0|0|0,2:2|2:2|2:2,0:0:0:0:
250,107,49026,6,0,P|279:48|345:69,1,143.999995605469,8|0,1:1|2:2,0:0:0:0:
320,157,49352,1,0,2:2:0:0:
320,157,49461,2,0,P|279:159|248:131,1,83.9999974365235,0|0,2:2|2:2,0:0:0:0:
309,31,49678,2,0,P|346:48|363:86,1,83.9999974365235,0|0,2:2|2:2,0:0:0:0:
295,290,49896,6,0,B|243:297|243:297|236:304|236:304|178:312|178:312|215:210|215:210|139:197|139:197|137:188|137:188|134:196|134:196|56:185|56:185|69:214|69:214|66:220|66:220|72:222|72:222|92:268,1,480,2|0,1:1|2:2,0:0:0:0:
84,251,50548,2,0,B|105:286|105:286|129:221,1,96,0|0,1:1|2:2,0:0:0:0:
125,41,50765,2,0,B|66:33|66:33|56:104|56:104|127:114,1,192,10|8,1:1|1:1,0:0:0:0:
192,89,51092,1,0,2:2:0:0:
192,89,51200,1,0,2:2:0:0:
295,290,51418,2,0,P|305:243|341:213,1,96,0|0,1:1|2:2,0:0:0:0:
442,243,51635,6,0,P|401:359|294:284,1,288,2|0,2:1|2:2,0:0:0:0:
442,243,52070,2,0,P|472:208|460:159,1,96,0|0,2:2|2:2,0:0:0:0:
405,59,52287,6,0,B|356:51|356:51|354:60|354:60|405:68,1,107.999996704102,0|0,1:1|2:2,0:0:0:0:
405,59,52505,6,0,B|203:96|203:96|288:62,1,288,2|0,2:1|2:2,0:0:0:0:
277,158,52939,2,0,L|360:145,1,83.9999974365235,10|0,1:1|2:2,0:0:0:0:
355,223,53157,2,0,L|308:231,1,48,0|0,1:1|2:2,0:0:0:0:
97,308,53374,6,0,B|93:300|93:300|18:284,1,71.9999978027344,8|0,1:1|2:2,0:0:0:0:
157,367,53592,2,0,B|218:353|218:353|222:345,1,71.9999978027344,8|0,1:1|2:2,0:0:0:0:
97,308,53809,2,0,P|119:255|156:244,1,96,0|0,2:2|2:2,0:0:0:0:
231,264,54026,5,0,1:1:0:0:
35,116,54244,2,0,P|18:54|118:53,1,192,10|0,1:1|2:2,0:0:0:0:
106,133,54570,1,0,2:2:0:0:
106,133,54678,2,0,P|60:149|14:112,1,96,0|0,2:2|2:2,0:0:0:0:
189,109,54896,2,0,L|279:101,1,60,0|0,1:1|2:2,0:0:0:0:
195,189,55113,6,0,B|371:175|371:175|368:127|440:100|488:168|446:242|373:218|371:174,1,384,10|0,1:1|2:2,0:0:0:0:
407,172,55765,1,0,2:2:0:0:
223,275,55983,2,0,B|89:293|89:293|117:285|135:258,1,192,4|0,2:1|2:2,0:0:0:0:
68,218,56309,1,0,2:2:0:0:
68,218,56418,2,0,P|60:194|64:222,1,90,4|0,2:2|2:2,0:0:0:0:
217,361,56852,6,0,P|310:371|301:271,1,215.999993408203,0|0,1:1|2:2,0:0:0:0:
249,211,57287,2,0,B|253:155|253:155|247:149|247:149|252:86,1,120,0|0,1:1|2:2,0:0:0:0:
305,274,57722,6,0,P|339:271|363:252,1,60,0|0,1:1|2:2,0:0:0:0:
430,280,57939,2,0,P|435:251|427:223,1,60,0|0,2:2|2:2,0:0:0:0:
469,161,58157,2,0,P|442:148|412:150,1,60,0|0,1:1|2:2,0:0:0:0:
364,94,58374,6,0,P|342:120|339:157,1,62.9999980773926,0|0,2:2|2:2,0:0:0:0:
337,147,58809,5,0,2:2:0:0:
223,293,59026,2,0,L|134:283,1,60,0|0,1:1|2:2,0:0:0:0:
152,274,59244,2,0,L|211:280,1,60,0|0,2:2|2:2,0:0:0:0:
40,207,59461,2,0,L|129:197,1,60,0|0,1:1|2:2,0:0:0:0:
111,188,59678,2,0,L|51:194,1,60,0|0,2:2|2:2,0:0:0:0:
181,131,59896,1,0,1:1:0:0:
186,120,60005,1,0,2:2:0:0:
191,109,60113,1,0,2:2:0:0:
196,98,60222,1,0,2:2:0:0:
201,87,60331,6,0,P|281:58|257:159,1,215.999993408203,0|0,1:1|2:2,0:0:0:0:
219,219,60765,2,0,B|186:246|201:282|201:282|274:299,1,143.999995605469,0|0,1:1|2:2,0:0:0:0:
501,230,61200,6,0,P|486:201|456:182,1,60,0|0,1:1|2:2,0:0:0:0:
427,255,61418,2,0,P|395:245|361:252,1,60,0|0,2:2|2:2,0:0:0:0:
392,325,61635,2,0,P|363:340|344:370,1,60,0|0,1:1|2:2,0:0:0:0:
501,230,61852,6,0,P|486:201|457:183,1,59.3999998187256,0|0,2:2|2:2,0:0:0:0:
464,185,62287,5,0,2:2:0:0:
364,49,62505,2,0,P|341:66|330:98,1,60,0|0,1:1|2:2,0:0:0:0:
332,108,62722,2,0,L|267:98,1,60,0|0,2:2|2:2,0:0:0:0:
195,81,62939,2,0,P|188:108|200:140,1,60,0|0,1:1|2:2,0:0:0:0:
208,146,63157,2,0,L|151:180,1,60,0|0,2:2|2:2,0:0:0:0:
86,214,63374,2,0,P|98:239|128:255,1,60,0|0,1:1|2:2,0:0:0:0:
137,255,63592,2,0,L|115:317,1,60,0|0,2:2|2:2,0:0:0:0:
196,351,63809,6,0,B|270:339|270:339|289:316|289:316|406:292,1,215.999993408203,0|0,1:1|2:2,0:0:0:0:
463,351,64244,2,0,P|407:347|397:292,1,120,0|0,1:1|2:2,0:0:0:0:
277,224,64678,6,0,P|292:194|319:175,1,60,0|0,1:1|2:2,0:0:0:0:
309,105,64896,2,0,P|342:108|372:134,1,60,0|0,2:2|2:2,0:0:0:0:
438,100,65113,2,0,P|443:125|420:171,1,60,0|0,1:1|2:2,0:0:0:0:
483,215,65331,6,0,P|457:233|424:234,1,59.3999998187256,0|0,2:2|2:2,0:0:0:0:
429,235,65765,5,0,2:2:0:0:
308,331,65983,2,0,L|245:326,1,60,0|0,1:1|2:2,0:0:0:0:
240,337,66200,2,0,L|180:332,1,60,0|0,2:2|2:2,0:0:0:0:
169,254,66418,2,0,L|106:249,1,60,0|0,1:1|2:2,0:0:0:0:
101,260,66635,2,0,L|41:255,1,60,0|0,2:2|2:2,0:0:0:0:
17,176,66852,1,0,1:1:0:0:
14,164,66961,1,0,2:2:0:0:
11,152,67070,1,0,2:2:0:0:
9,140,67178,1,0,2:2:0:0:
6,128,67287,6,0,P|43:64|91:153,1,215.999993408203,0|0,1:1|2:2,0:0:0:0:
161,198,67722,2,0,B|167:205|167:205|290:191,1,120,0|0,1:1|2:2,0:0:0:0:
430,324,68157,6,0,P|415:353|385:372,1,60,0|0,1:1|2:2,0:0:0:0:
356,299,68374,2,0,P|324:308|290:301,1,60,0|0,2:2|2:2,0:0:0:0:
321,229,68592,2,0,P|292:214|273:184,1,60,0|0,1:1|2:2,0:0:0:0:
430,324,68809,6,0,P|417:350|393:368,1,59.3999998187256,0|0,2:2|2:2,0:0:0:0:
393,368,69244,5,0,2:2:0:0:
501,228,69461,2,0,B|505:220|505:220|493:156,1,60,0|0,1:1|2:2,0:0:0:0:
493,157,69678,1,0,2:2:0:0:
356,299,69896,2,0,P|317:259|269:266,1,96,0|0,2:2|2:2,0:0:0:0:
202,83,70331,2,0,B|190:144|190:144|186:146|186:146|175:209,1,120,0|0,2:2|1:1,0:0:0:0:
51,306,70765,6,0,B|40:266|1:258|1:258|72:271|72:271|80:268|80:268|76:271|76:271|149:285,1,233.999989288331,2|0,1:2|2:2,0:0:0:0:
207,328,71146,1,0,2:2:0:0:
213,335,71200,2,0,P|284:324|297:273,1,132.00000402832,2|2,1:2|2:2,0:0:0:0:
410,93,71635,6,0,P|409:59|388:24,1,66.0000020141602,2|0,1:2|2:2,0:0:0:0:
269,121,71852,2,0,P|236:120|207:135,1,66.0000020141602,2|0,2:2|2:2,0:0:0:0:
333,78,72070,2,0,P|310:54|279:44,1,66.0000020141602,2|0,1:2|2:2,0:0:0:0:
253,194,72287,6,0,P|229:216|219:247,1,66.6000016259766,2|0,2:2|2:2,0:0:0:0:
218,247,72722,5,2,2:2:0:0:
432,366,72939,2,0,L|446:295,1,66.0000020141602,2|0,1:2|2:2,0:0:0:0:
447,289,73157,2,0,L|376:275,1,66.0000020141602,2|0,2:2|2:2,0:0:0:0:
365,158,73374,2,0,L|330:94,1,66.0000020141602,2|0,1:2|2:2,0:0:0:0:
326,89,73592,2,0,L|262:123,1,66.0000020141602,2|0,2:2|2:2,0:0:0:0:
178,41,73809,2,0,L|110:14,1,66.0000020141602,2|0,1:2|2:2,0:0:0:0:
104,13,74026,2,0,L|77:80,1,66.0000020141602,2|0,2:2|2:2,0:0:0:0:
42,165,74244,6,0,B|186:221|186:221|189:212|189:212|199:226|199:226|278:257,1,233.999989288331,2|0,1:2|2:2,0:0:0:0:
303,295,74624,1,0,2:2:0:0:
306,304,74678,2,0,B|316:356|269:374|269:374|219:355,1,132.00000402832,2|2,1:2|2:2,0:0:0:0:
386,265,75113,6,0,P|425:250|447:219,1,66.0000020141602,2|0,1:2|2:2,0:0:0:0:
299,139,75331,2,0,P|284:109|257:90,1,66.0000020141602,2|0,2:2|2:2,0:0:0:0:
371,182,75548,2,0,P|384:151|382:119,1,66.0000020141602,2|0,1:2|2:2,0:0:0:0:
219,167,75765,6,0,P|177:160|142:176,1,66.6000016259766,2|0,2:2|2:2,0:0:0:0:
154,167,76200,5,2,2:2:0:0:
1,345,76418,2,0,P|25:375|75:375,1,66.0000020141602,2|0,1:2|2:2,0:0:0:0:
59,380,76635,2,0,L|136:359,1,66.0000020141602,2|0,2:2|2:2,0:0:0:0:
171,286,76852,2,0,P|195:256|245:256,1,66.0000020141602,2|0,1:2|2:2,0:0:0:0:
229,251,77070,2,0,L|306:272,1,66.0000020141602,2|0,2:2|2:2,0:0:0:0:
335,343,77287,2,0,P|359:373|409:373,1,66.0000020141602,2|0,1:2|2:2,0:0:0:0:
393,378,77505,2,0,L|470:357,1,66.0000020141602,2|0,2:2|2:2,0:0:0:0:
511,172,77722,6,0,B|361:135|361:135|400:149|416:189,1,233.999989288331,2|0,1:2|2:2,0:0:0:0:
343,213,78102,1,0,2:2:0:0:
344,221,78157,2,0,P|305:245|335:210,1,132.00000402832,2|2,1:2|2:2,0:0:0:0:
174,232,78592,6,0,P|137:229|105:197,1,66.0000020141602,2|0,1:2|2:2,0:0:0:0:
220,90,78809,2,0,P|222:58|240:31,1,66.0000020141602,2|0,2:2|2:2,0:0:0:0:
168,151,79026,2,0,P|146:128|140:96,1,66.0000020141602,2|0,1:2|2:2,0:0:0:0:
299,85,79244,6,0,P|326:60|371:60,1,66.6000016259766,2|0,2:2|2:2,0:0:0:0:
355,56,79678,5,2,2:2:0:0:
492,178,79896,2,0,L|504:257,1,66.0000020141602,2|0,1:2|2:2,0:0:0:0:
503,255,80113,2,0,L|424:267,1,66.0000020141602,2|0,2:2|2:2,0:0:0:0:
337,286,80331,2,0,L|314:362,1,66.0000020141602,2|0,1:2|2:2,0:0:0:0:
314,360,80548,2,0,L|237:337,1,66.0000020141602,2|0,2:2|2:2,0:0:0:0:
150,317,80765,2,0,L|97:376,1,66.0000020141602,2|0,1:2|2:2,0:0:0:0:
98,375,80983,2,0,L|35:321,1,66.0000020141602,2|0,2:2|2:2,0:0:0:0:
226,250,81200,6,0,B|236:197|236:197|243:202|243:202|236:195|236:195|240:169|240:169|230:173|230:173|241:167|241:167|263:46,1,233.999989288331,2|0,1:2|2:2,0:0:0:0:
325,135,81581,1,0,2:2:0:0:
330,141,81635,2,0,B|368:104|411:122|411:122|433:170,1,132.00000402832,2|2,1:2|2:2,0:0:0:0:
185,39,82070,6,0,P|161:11|112:-2,1,66.0000020141602,2|0,1:2|2:2,0:0:0:0:
83,154,82287,2,0,P|55:173|38:201,1,66.0000020141602,2|0,2:2|2:2,0:0:0:0:
113,79,82505,2,0,P|80:75|49:86,1,66.0000020141602,2|0,1:2|2:2,0:0:0:0:
108,232,82722,6,0,P|98:267|109:300,1,66.6000016259766,2|0,2:2|2:2,0:0:0:0:
106,295,83157,5,2,2:2:0:0:
217,354,83374,6,0,L|310:339,1,77.9999964294435,2|0,1:2|2:2,0:0:0:0:
305,339,83592,2,0,P|314:313|303:276,1,60,2|0,2:2|2:2,0:0:0:0:
418,257,83809,6,0,L|473:180,1,77.9999964294435,2|0,2:2|2:2,0:0:0:0:
469,184,84026,2,0,P|456:159|423:141,1,60,2|0,2:2|2:2,0:0:0:0:
294,341,84244,6,0,L|270:346,3,22.5000008583069,2|0|0|0,2:2|2:2|2:2|2:2,0:0:0:0:
305,339,84461,2,0,P|314:313|303:276,1,60,2|0,1:2|2:2,0:0:0:0:
341,193,84678,6,0,B|303:147|303:147|239:171|239:171|108:139,1,251.999992309571,6|0,1:2|2:2,0:0:0:0:
97,73,85059,1,0,2:2:0:0:
102,65,85113,2,0,B|141:22|208:39|208:39|233:92,1,167.999994873047,10|2,1:2|2:2,0:0:0:0:
341,193,85439,1,0,2:2:0:0:
355,192,85548,6,0,L|440:182,1,71.9999978027344,2|0,1:2|2:2,0:0:0:0:
274,300,85765,2,0,L|359:290,1,71.9999978027344,2|0,2:2|2:2,0:0:0:0:
145,175,85983,2,0,L|230:165,1,71.9999978027344,10|0,1:2|2:2,0:0:0:0:
31,324,86200,6,0,B|111:318|111:318|146:332|146:332|180:311|180:311|274:300,1,251.999992309571,2|0,2:2|2:2,0:0:0:0:
274,300,86635,5,2,2:2:0:0:
465,81,86852,2,0,P|423:81|395:129,1,83.9999974365235,10|0,1:2|2:2,0:0:0:0:
395,125,87070,2,0,L|410:194,1,60,2|0,2:2|2:2,0:0:0:0:
213,84,87287,2,0,P|192:120|219:168,1,83.9999974365235,2|0,1:2|2:2,0:0:0:0:
216,166,87505,2,0,L|283:187,1,60,2|0,2:2|2:2,0:0:0:0:
89,303,87722,2,0,P|110:339|165:339,1,83.9999974365235,10|0,1:2|2:2,0:0:0:0:
162,342,87939,2,0,L|214:294,1,60,2|0,2:2|2:2,0:0:0:0:
441,272,88157,6,0,B|472:261|472:261|366:214|366:214|358:218|358:218|260:178,1,251.999992309571,2|0,1:2|2:2,0:0:0:0:
221,80,88537,1,0,2:2:0:0:
213,84,88592,2,0,B|157:115|157:115|191:132|191:132|235:112,1,143.999995605469,10|2,1:2|0:0,0:0:0:0:
455,13,89026,6,0,L|443:97,1,83.9999974365235,2|0,1:2|2:2,0:0:0:0:
328,131,89244,2,0,L|316:220,1,83.9999974365235,2|0,2:2|2:2,0:0:0:0:
441,271,89461,2,0,L|429:355,1,83.9999974365235,10|0,1:2|2:2,0:0:0:0:
147,313,89678,6,0,B|160:371|160:371|230:355|230:355|202:234,1,251.999992309571,2|0,2:2|2:2,0:0:0:0:
203,238,90113,5,2,2:2:0:0:
41,70,90331,2,0,B|60:109|60:109|114:116,1,83.9999974365235,10|0,1:2|2:2,0:0:0:0:
110,114,90548,2,0,L|176:80,1,60,2|0,2:2|2:2,0:0:0:0:
203,238,90765,2,0,B|242:255|242:255|288:226,1,83.9999974365235,2|0,1:2|2:2,0:0:0:0:
282,229,90983,2,0,L|318:145,1,60,2|0,2:2|2:2,0:0:0:0:
423,252,91200,2,0,B|464:240|464:240|480:188,1,83.9999974365235,10|0,1:2|2:2,0:0:0:0:
478,191,91418,2,0,L|454:105,1,60,2|0,2:2|2:2,0:0:0:0:
320,6,91635,6,0,B|307:12|307:12|295:112|295:112|285:108|285:108|295:115|295:115|282:225,1,251.999992309571,2|0,1:2|2:2,0:0:0:0:
235,288,92015,1,0,2:2:0:0:
229,295,92070,2,0,B|205:318|205:318|133:312|128:247,1,143.999995605469,10|2,1:2|2:2,0:0:0:0:
26,87,92505,6,0,P|60:50|103:47,1,83.9999974365235,2|0,1:2|2:2,0:0:0:0:
189,93,92722,2,0,P|231:110|272:143,1,83.9999974365235,2|0,2:2|2:2,0:0:0:0:
339,197,92939,2,0,P|379:187|404:154,1,83.9999974365235,10|0,1:2|2:2,0:0:0:0:
435,19,93157,6,0,P|302:5|261:132,1,288,2|0,2:2|2:2,0:0:0:0:
260,131,93592,5,2,2:2:0:0:
381,289,93809,2,0,L|470:280,1,83.9999974365235,10|0,1:2|2:2,0:0:0:0:
475,276,94026,2,0,P|459:247|436:237,1,60,2|0,2:2|2:2,0:0:0:0:
205,310,94244,2,0,L|278:360,1,83.9999974365235,2|0,1:2|2:2,0:0:0:0:
285,360,94461,2,0,P|291:327|280:305,1,60,2|0,2:2|2:2,0:0:0:0:
56,212,94678,2,0,L|80:298,1,83.9999974365235,10|0,1:2|2:2,0:0:0:0:
85,302,94896,2,0,P|110:281|119:256,1,60,2|0,2:2|2:2,0:0:0:0:
107,48,95113,6,0,B|47:37|47:37|35:108|35:108|153:129,1,251.999992309571,2|0,1:2|2:2,0:0:0:0:
226,103,95494,1,0,2:2:0:0:
231,94,95548,2,0,B|262:20|262:20|214:77,1,143.999995605469,10|2,1:2|2:2,0:0:0:0:
297,281,95983,6,0,L|379:295,1,83.9999974365235,2|0,1:2|2:2,0:0:0:0:
231,94,96200,2,0,L|311:108,1,71.9999978027344,2|0,2:2|2:2,0:0:0:0:
360,197,96418,2,0,L|432:209,1,60,10|0,1:2|2:2,0:0:0:0:
512,335,96635,6,0,B|482:344|482:344|452:312|452:312|394:300|394:300|399:309|399:309|388:299|388:299|278:278,1,251.999992309571,2|0,2:2|2:2,0:0:0:0:
297,281,97070,5,2,2:2:0:0:
50,331,97287,6,0,B|111:282|111:282|126:287,1,83.9999974365235,10|0,1:2|2:2,0:0:0:0:
116,283,97505,2,0,P|134:308|130:337,1,60,2|0,2:2|2:2,0:0:0:0:
172,171,97722,6,0,B|249:173|249:173|257:186,1,83.9999974365235,2|0,1:2|2:2,0:0:0:0:
252,179,97939,2,0,P|250:208|228:228,1,60,2|0,2:2|2:2,0:0:0:0:
355,45,98157,6,0,L|366:36,6,12,10|0|0|0|2|0|0,1:2|2:2|2:2|2:2|2:2|2:2|2:2,0:0:0:0:
355,45,98592,6,0,B|303:31|303:31|306:23|306:23|297:29|297:29|204:4|204:4|208:5|208:5|189:75|189:75|239:88,1,288,2|0,1:2|2:2,0:0:0:0:
345,117,98972,1,0,2:2:0:0:
353,121,99026,2,0,B|403:138|406:202|406:202|358:229,1,155.999992858887,10|2,1:2|2:2,0:0:0:0:
224,312,99352,1,0,2:2:0:0:
206,306,99461,6,0,L|112:282,1,90.0000034332277,2|0,1:2|2:2,0:0:0:0:
353,121,99678,2,0,L|269:142,1,77.9999964294435,2|0,2:2|2:2,0:0:0:0:
107,296,99896,2,0,L|40:280,1,66.0000020141602,10|0,1:2|2:2,0:0:0:0:
263,130,100113,6,0,B|350:108|350:108|348:102|348:102|355:107|355:107|399:96|399:96|454:131|454:131|513:81,1,288,2|0,2:2|2:2,0:0:0:0:
509,84,100548,5,2,2:2:0:0:
234,48,100765,2,0,B|224:84|224:84|262:129,1,96,10|0,1:2|2:2,0:0:0:0:
261,128,100983,2,0,L|339:109,1,66.0000020141602,2|0,2:2|2:2,0:0:0:0:
159,176,101200,2,0,B|149:212|149:212|187:257,1,96,2|0,1:2|2:2,0:0:0:0:
186,256,101418,2,0,L|264:237,1,66.0000020141602,2|0,2:2|2:2,0:0:0:0:
84,304,101635,2,0,B|74:340|74:340|112:385,1,96,10|0,1:2|2:2,0:0:0:0:
111,384,101852,2,0,L|189:365,1,66.0000020141602,2|0,2:2|2:2,0:0:0:0:
385,297,102070,6,0,B|406:228|406:228|411:237|411:237|410:217|410:217|426:169|426:169|345:145|345:145|389:212,1,288,2|0,1:2|2:2,0:0:0:0:
408,378,102450,1,0,2:2:0:0:
401,384,102505,2,0,B|338:368|338:368|335:363|335:363|251:343,1,155.999992858887,10|2,1:2|2:2,0:0:0:0:
9,183,102939,6,0,L|86:165,1,66.0000020141602,2|0,1:2|2:2,0:0:0:0:
184,257,103157,2,0,L|261:238,1,66.0000020141602,2|0,2:2|2:2,0:0:0:0:
0,175,103374,2,0,L|76:157,1,66.0000020141602,10|0,1:2|2:2,0:0:0:0:
188,265,103592,6,0,B|250:249|250:249|226:130|226:130|235:135|235:135|223:120|223:120|203:28,1,288,2|0,2:2|2:2,0:0:0:0:
207,48,104026,5,2,2:2:0:0:
285,349,104244,2,0,P|319:380|376:369,1,96,10|0,1:2|2:2,0:0:0:0:
375,366,104461,2,0,L|391:292,1,71.9999978027344,2|0,2:2|2:2,0:0:0:0:
188,265,104678,2,0,P|154:296|97:285,1,96,2|0,1:2|2:2,0:0:0:0:
98,282,104896,2,0,L|82:208,1,71.9999978027344,2|0,2:2|2:2,0:0:0:0:
305,155,105113,2,0,P|339:186|396:175,1,96,10|0,1:2|2:2,0:0:0:0:
395,172,105331,2,0,L|411:98,1,71.9999978027344,2|0,2:2|2:2,0:0:0:0:
147,14,105548,6,0,B|114:4|108:31|65:30|65:30|174:54|174:54|178:63|178:63|267:83,1,288,2|0,1:2|2:2,0:0:0:0:
388,166,105928,1,0,2:2:0:0:
395,172,105983,2,0,B|346:185|346:185|342:193|342:193|239:217,1,155.999992858887,10|2,1:2|2:2,0:0:0:0:
114,341,106418,6,0,P|62:319|45:265,1,96,2|0,1:2|2:2,0:0:0:0:
92,206,106635,2,0,P|98:164|111:121,1,83.9999974365235,2|0,2:2|2:2,0:0:0:0:
179,64,106852,2,0,P|223:78|247:119,1,96,10|0,1:2|2:2,0:0:0:0:
327,298,107070,6,0,P|218:333|260:213,1,288,2|0,2:2|2:2,0:0:0:0:
247,214,107505,5,2,2:2:0:0:
512,322,107722,2,0,B|474:328|474:328|470:333|470:333|424:341,1,83.9999974365235,10|0,1:2|2:2,0:0:0:0:
423,343,107939,2,0,L|407:261,1,66.0000020141602,2|0,2:2|2:2,0:0:0:0:
339,217,108157,2,0,B|301:213|301:213|295:216|295:216|249:212,1,83.9999974365235,2|0,1:2|2:2,0:0:0:0:
247,214,108374,2,0,L|252:130,1,66.0000020141602,2|0,2:2|2:2,0:0:0:0:
175,89,108592,2,0,B|139:75|139:75|133:77|133:77|89:61,1,83.9999974365235,10|0,1:2|2:2,0:0:0:0:
87,62,108809,2,0,L|114:-17,1,66.0000020141602,2|0,2:2|2:2,0:0:0:0:
54,162,109026,6,0,B|9:315|9:315|84:303|84:303|98:253,1,288,2|0,1:2|2:2,0:0:0:0:
160,192,109407,1,0,2:2:0:0:
164,184,109461,2,0,B|195:142|253:161|253:161|284:208,1,155.999992858887,10|2,1:2|2:2,0:0:0:0:
85,304,109896,6,0,L|180:294,1,90.0000034332277,2|0,1:2|2:2,0:0:0:0:
405,275,110113,2,0,L|470:268,1,66.0000020141602,2|0,2:2|2:2,0:0:0:0:
250,289,110331,2,0,L|329:282,1,77.9999964294435,10|0,1:2|2:2,0:0:0:0:
465,87,110548,6,0,B|417:35|417:35|357:72|357:72|308:67|308:67|298:60|298:60|303:67|303:67|225:59,1,288,2|0,2:2|2:2,0:0:0:0:
227,60,110983,5,2,2:2:0:0:
31,139,111200,6,0,B|81:130|81:130|138:175,1,96,10|0,1:2|2:2,0:0:0:0:
125,170,111418,2,0,L|93:269,1,77.9999964294435,2|0,2:2|2:2,0:0:0:0:
212,333,111635,6,0,B|262:342|262:342|319:297,1,96,2|0,1:2|2:2,0:0:0:0:
306,302,111852,2,0,L|274:203,1,77.9999964294435,2|0,2:2|2:2,0:0:0:0:
393,139,112070,6,0,L|401:124,8,12,10|0|0|0|2|0|0|0|0,1:2|2:2|2:2|2:2|2:2|2:2|2:2|2:2|2:2,0:0:0:0:
256,192,112613,12,2,115548,2:2:0:0:
256,192,115983,5,6,1:2:0:0:
256,192,129461,5,2,2:2:0:0:
112,45,129896,6,0,B|22:29|22:29|8:107|8:107|172:136,1,335.999989746094,10|0,1:2|2:2,0:0:0:0:
353,113,130548,2,0,P|327:86|277:80,1,71.9999978027344,0|0,1:1|2:2,0:0:0:0:
256,192,130765,2,0,P|220:200|185:249,1,83.9999974365235,10|0,1:1|2:2,0:0:0:0:
474,129,130983,1,8,1:1:0:0:
474,129,131092,1,0,2:2:0:0:
474,129,131200,6,0,P|484:93|459:39,1,83.9999974365235,0|0,2:2|2:2,0:0:0:0:
256,192,131418,2,0,L|241:195,2,8.99999972534181,0|0|0,1:1|2:2|2:2,0:0:0:0:
327,228,131635,6,0,B|417:243|417:243|452:250|470:294|439:329|403:322|403:322|222:290,1,384,10|0,2:2|2:2,0:0:0:0:
74,193,132287,2,0,P|109:199|138:221,1,71.9999978027344,0|0,1:1|2:2,0:0:0:0:
6,262,132505,6,0,P|126:326|138:221,1,288,10|0,2:1|2:2,0:0:0:0:
95,39,132939,6,0,L|0:30,1,96,2|0,1:1|2:2,0:0:0:0:
8,107,133157,2,0,L|67:112,1,60,0|0,1:1|2:2,0:0:0:0:
230,206,133374,6,0,B|234:197|234:197|404:178,1,167.999994873047,10|0,1:2|2:2,0:0:0:0:
300,90,133700,1,0,2:2:0:0:
302,105,133809,2,0,B|319:262|319:262|328:266,1,167.999994873047,2|0,2:2|1:1,0:0:0:0:
392,111,134244,2,0,B|384:119|384:119|391:179,1,71.9999978027344,8|0,1:1|2:2,0:0:0:0:
328,266,134461,6,0,P|252:334|231:206,1,288,0|0,1:1|2:2,0:0:0:0:
149,173,134896,2,0,P|196:172|229:205,1,96,0|0,1:1|2:2,0:0:0:0:
328,266,135113,6,0,B|326:279|326:279|325:288|325:288|322:295|322:295|320:297|320:297|317:306|317:306|310:311|310:311|306:316|306:316|303:322|303:322|294:326|294:326|285:331|285:331|281:332|281:332|272:334|272:334|264:337|264:337|251:335|251:335|242:332|242:332|231:329|231:329|227:324|227:324|221:322|221:322|212:315|212:315|204:306|204:306|201:299|201:299|196:289|196:289|192:280|192:280|194:275|194:275|192:264|192:264|194:253|194:253|193:247|193:247|197:237|197:237|201:233|201:233|203:227|203:227|210:217|210:217|219:212|219:212|233:204,1,297.000002832413,10|0,2:2|2:2,0:0:0:0:
312,184,135548,1,0,2:2:0:0:
116,282,135765,2,0,B|77:318|77:318|124:322,1,96,0|0,1:1|2:2,0:0:0:0:
230,205,135983,6,0,B|235:123|235:123|229:116|229:116|241:116|241:116|235:109|235:109|241:23,1,192,12|0,1:1|2:2,0:0:0:0:
160,71,136309,1,0,2:2:0:0:
148,83,136418,6,0,P|108:108|54:96,1,83.9999974365235,6|0,1:2|2:2,0:0:0:0:
312,184,136635,2,0,P|352:209|406:197,1,83.9999974365235,2|0,1:2|2:2,0:0:0:0:
116,282,136852,6,0,B|36:294|36:294|48:369|48:369|226:341,1,335.999989746094,10|2,1:2|2:2,0:0:0:0:
312,184,137505,1,2,1:2:0:0:
226,341,137722,6,0,P|315:346|339:255,1,192,10|2,1:1|0:0,0:0:0:0:
312,184,138048,1,0,2:2:0:0:
312,184,138157,2,0,B|260:169|260:169|282:213,1,96,0|0,2:2|2:2,0:0:0:0:
423,315,138374,2,0,L|437:324,2,8.99999972534181,0|0|0,2:2|2:2|2:2,0:0:0:0:
341,260,138592,5,2,1:2:0:0:
392,202,138700,2,0,P|416:185|444:174,1,60,0|0,2:2|2:2,0:0:0:0:
290,318,138918,2,0,B|135:282|135:282|121:260,1,180,0|0,2:2|2:2,0:0:0:0:
83,194,139461,6,0,P|52:192|85:188,1,96,8|0,2:2|2:2,0:0:0:0:
123,264,139787,2,0,B|161:242|163:201|163:201|220:188|220:188|219:197|219:197|228:186|228:186|333:162,1,251.999992309571,2|0,2:2|2:2,0:0:0:0:
419,142,140331,5,0,1:1:0:0:
240,92,141200,5,2,2:2:0:0:
256,191,141418,1,2,2:2:0:0:
272,290,141635,1,2,2:2:0:0:
256,192,142070,5,2,2:2:0:0:
256,192,142178,12,0,145331,2:2:0:0:
308,8,145548,6,0,L|321:38,1,26.9999991760254,2|0,2:2|2:2,0:0:0:0:
422,99,145983,6,0,L|408:130,1,26.9999991760254,2|0,2:2|2:2,0:0:0:0:
439,244,146418,6,0,L|410:257,1,26.9999991760254,2|0,2:2|2:2,0:0:0:0:
348,358,146852,6,0,L|321:348,1,26.9999991760254,2|0,2:2|2:2,0:0:0:0:
203,375,147287,6,0,L|192:346,1,26.9999991760254,2|0,2:2|2:2,0:0:0:0:
89,284,147722,6,0,L|99:255,1,26.9999991760254,2|0,2:2|2:2,0:0:0:0:
72,139,148157,6,0,L|101:126,1,26.9999991760254,2|0,2:2|2:2,0:0:0:0:
163,25,148592,6,0,L|190:38,1,30.6000007470703,2|0,2:2|2:2,0:0:0:0:
265,138,152505,5,2,2:2:0:0:
301,160,152940,1,2,2:2:0:0:
309,201,153375,1,2,2:2:0:0:
285,237,153809,1,2,2:2:0:0:
244,245,154244,1,2,2:2:0:0:
210,222,154679,1,2,2:2:0:0:
201,180,155114,1,2,2:2:0:0:
224,146,155548,1,2,2:2:0:0:
256,192,157722,12,0,159244,2:2:0:0:
388,287,159461,5,6,1:2:0:0:
388,287,159896,2,0,P|355:336|317:333,1,90.0000034332277,2|0,1:2|2:2,0:0:0:0:
328,337,160331,2,0,B|269:333|269:333|262:339|262:339|183:333,1,135.000005149841,2|2,1:2|2:2,0:0:0:0:
195,333,160765,1,0,1:1:0:0:
328,337,160983,1,2,2:2:0:0:
125,377,161200,5,0,1:1:0:0:
125,377,161309,1,0,2:2:0:0:
125,377,161418,1,2,2:2:0:0:
125,292,161635,2,0,L|111:192,1,90.0000034332277,2|0,1:2|2:2,0:0:0:0:
17,70,162070,6,0,P|16:116|54:138,1,90.0000034332277,2|0,1:2|2:2,0:0:0:0:
75,48,162396,1,2,2:2:0:0:
75,48,162505,2,0,P|41:46|15:68,2,69.0000013160706,0|0|2,1:1|2:2|2:2,0:0:0:0:
132,116,162939,1,0,1:1:0:0:
300,77,163157,5,2,2:2:0:0:
212,95,163374,2,0,L|310:75,1,90.0000034332277,2|0,1:2|2:2,0:0:0:0:
423,168,163809,6,0,P|393:212|350:220,1,90.0000034332277,2|0,1:2|2:2,0:0:0:0:
350,143,164135,1,2,2:2:0:0:
350,143,164244,2,0,P|308:111|301:66,1,90.0000034332277,0|2,1:1|2:2,0:0:0:0:
381,70,164678,5,0,1:1:0:0:
388,65,164787,1,0,2:2:0:0:
395,60,164896,1,2,2:2:0:0:
281,200,165113,2,0,P|267:238|292:277,1,90.0000034332277,2|0,1:2|2:2,0:0:0:0:
367,313,165439,1,0,2:2:0:0:
367,313,165548,6,0,B|373:304|373:304|468:296,1,90.0000034332277,2|0,1:2|2:2,0:0:0:0:
466,369,165874,2,0,B|460:378|460:378|365:386,1,90.0000034332277,2|0,2:2|2:2,0:0:0:0:
381,384,166200,1,2,2:2:0:0:
229,366,166418,5,2,1:2:0:0:
229,366,166852,6,0,P|210:318|176:286,1,90.0000034332277,2|0,1:2|2:2,0:0:0:0:
220,211,167287,2,0,P|183:182|132:174,1,90.0000034332277,2|0,1:2|2:2,0:0:0:0:
111,96,167613,1,2,0:0:0:0:
111,96,167722,2,0,P|59:98|22:122,1,90.0000034332277,0|2,1:1|2:2,0:0:0:0:
229,366,168157,6,0,P|210:318|176:286,1,90.0000034332277,0|2,1:1|2:2,0:0:0:0:
220,211,168592,2,0,P|183:182|132:174,1,90.0000034332277,2|0,1:2|2:2,0:0:0:0:
229,366,169026,6,0,P|210:318|176:286,1,90.0000034332277,2|0,1:2|2:2,0:0:0:0:
111,96,169352,1,2,0:0:0:0:
111,96,169461,2,0,P|59:98|22:122,1,90.0000034332277,0|2,1:1|2:2,0:0:0:0:
27,117,169896,5,0,1:1:0:0:
141,173,170113,1,2,1:2:0:0:
65,215,170331,5,2,1:2:0:0:
218,136,170548,1,0,1:1:0:0:
131,91,170765,1,2,1:2:0:0:
308,185,170982,5,0,1:1:0:0:
316,189,171092,1,2,2:2:0:0:
323,193,171200,1,0,1:1:0:0:
65,215,171418,2,0,P|66:256|95:282,1,71.9999978027344,2|0,1:2|2:2,0:0:0:0:
154,328,171635,5,0,1:1:0:0:
175,324,171744,1,0,1:1:0:0:
196,320,171852,1,2,1:2:0:0:
217,316,171961,1,0,1:1:0:0:
292,355,172070,5,2,1:2:0:0:
314,327,172178,1,0,1:1:0:0:
336,299,172287,1,0,1:1:0:0:
358,271,172396,1,0,1:1:0:0:
436,247,172505,5,2,1:2:0:0:
418,199,172613,1,0,1:1:0:0:
400,151,172722,1,0,1:1:0:0:
382,103,172831,1,2,1:2:0:0:
364,56,172939,6,0,L|358:39,6,12,0|0|0|0|2|0|0,1:1|1:1|1:1|1:1|1:2|1:1|1:1,0:0:0:0:
256,220,173374,6,0,B|264:200|284:191|284:191|264:183|256:164|256:164|247:183|227:191|227:191|247:200|256:220,1,162.000000617981,8|0,1:1|2:2,0:0:0:0:
192,128,173700,6,0,L|320:256,1,180.000006866455,8|0,2:2|2:2,0:0:0:0:
320,128,174026,2,0,L|188:260,1,180.000006866455,8|0,2:2|2:2,0:0:0:0:
326,330,174244,6,0,P|371:320|388:277,1,96,0|0,2:2|2:2,0:0:0:0:
457,229,174461,2,0,P|467:202|458:174,2,48,0|0|0,2:2|2:2|2:2,0:0:0:0:
266,384,174678,6,0,P|235:372|222:355,1,48.6000011865235,8|0,0:0|2:2,0:0:0:0:
143,327,175113,6,0,B|137:288|137:288|121:269|121:269|131:249|131:249|120:158,1,167.999994873047,6|0,1:2|2:2,0:0:0:0:
177,80,175439,1,0,2:2:0:0:
187,66,175548,2,0,P|258:44|294:121,1,167.999994873047,2|0,1:2|2:2,0:0:0:0:
121,155,175874,1,0,2:2:0:0:
105,147,175983,6,0,B|64:116|64:116|75:-5,1,167.999994873047,2|0,1:2|2:2,0:0:0:0:
190,195,176309,1,2,2:2:0:0:
206,203,176418,2,0,B|247:234|247:234|236:355,1,167.999994873047,0|2,1:1|2:2,0:0:0:0:
236,350,176852,5,0,1:1:0:0:
55,274,177070,2,0,P|84:237|127:236,1,83.9999974365235,2|0,2:2|2:2,0:0:0:0:
206,203,177287,2,0,B|306:231|306:231|330:280|330:280|432:311,1,251.999992309571,2|0,1:2|2:2,0:0:0:0:
306,231,177722,6,0,P|363:168|436:191,1,167.999994873047,2|0,1:2|2:2,0:0:0:0:
291,349,178048,1,2,2:2:0:0:
291,349,178157,2,0,P|368:368|419:307,1,167.999994873047,0|2,1:1|2:2,0:0:0:0:
304,110,178592,5,0,1:1:0:0:
304,110,178700,1,0,2:2:0:0:
304,110,178809,2,0,L|212:122,1,83.9999974365235,2|0,2:2|2:2,0:0:0:0:
121,52,179026,2,0,L|287:30,1,167.999994873047,2|0,1:2|2:2,0:0:0:0:
304,110,179352,1,0,2:2:0:0:
304,110,179461,6,0,L|486:87,1,167.999994873047,2|0,1:2|2:2,0:0:0:0:
364,184,179787,1,2,2:2:0:0:
364,184,179896,2,0,L|447:173,1,83.9999974365235,0|0,1:1|2:2,0:0:0:0:
288,247,180113,6,0,P|226:182|201:293,1,251.999992309571,2|0,2:2|2:2,0:0:0:0:
311,325,180548,2,0,P|346:304|364:266,1,83.9999974365235,2|0,2:2|2:2,0:0:0:0:
131,143,180765,2,0,P|91:249|197:290,1,251.999992309571,2|0,1:2|2:2,0:0:0:0:
288,247,181200,6,0,B|298:159|298:159|291:153|291:153|303:26,1,215.999993408203,2|0,1:2|2:2,0:0:0:0:
422,63,181526,1,2,2:2:0:0:
422,63,181635,2,0,P|415:111|369:126,1,96,0|0,1:1|2:2,0:0:0:0:
201,157,181852,2,0,L|116:139,1,71.9999978027344,2|0,2:2|2:2,0:0:0:0:
363,266,182070,6,0,B|398:305|362:351|362:351|290:336,1,167.999994873047,2|0,1:2|2:2,0:0:0:0:
218,308,182396,1,0,2:2:0:0:
218,308,182505,2,0,B|210:244|210:244|203:249|203:249|209:238|209:238|200:151,1,167.999994873047,2|0,1:2|2:2,0:0:0:0:
98,46,182831,1,0,2:2:0:0:
98,46,182939,6,0,B|61:50|61:50|66:86|66:86|187:70,1,167.999994873047,2|0,1:2|2:2,0:0:0:0:
302,139,183265,1,2,2:2:0:0:
302,139,183374,2,0,B|286:173|286:173|320:186|320:186|367:73,1,167.999994873047,0|2,1:1|2:2,0:0:0:0:
356,99,183809,5,0,1:1:0:0:
179,255,184026,2,0,L|96:239,1,83.9999974365235,2|0,2:2|2:2,0:0:0:0:
88,251,184244,2,0,B|228:277|228:277|249:297|249:297|277:286|277:286|349:298,1,251.999992309571,2|0,1:2|2:2,0:0:0:0:
472,368,184678,6,0,P|501:313|413:313,1,167.999994873047,2|0,1:2|2:2,0:0:0:0:
265,206,185005,1,2,2:2:0:0:
265,206,185113,2,0,P|303:144|352:198,1,167.999994873047,0|2,1:1|2:2,0:0:0:0:
126,313,185548,5,0,1:1:0:0:
120,318,185657,1,0,2:2:0:0:
114,324,185765,2,0,B|103:322|103:322|85:241,1,83.9999974365235,2|0,2:2|2:2,0:0:0:0:
19,179,185983,2,0,B|88:161|88:161|148:64|148:64|221:46,1,251.999992309571,2|0,1:2|2:2,0:0:0:0:
175,193,186418,6,0,P|286:214|251:83,1,251.999992309571,2|2,1:2|0:0,0:0:0:0:
294,105,186852,2,0,P|253:119|240:160,1,83.9999974365235,0|0,1:1|2:2,0:0:0:0:
342,342,187070,6,0,B|471:371|471:371|487:301|487:301|441:291,1,251.999992309571,2|0,2:2|2:2,0:0:0:0:
359,259,187505,2,0,L|342:341,1,83.9999974365235,2|0,2:2|2:2,0:0:0:0:
341,342,187722,6,0,B|368:210|368:210|364:196|364:196|378:200|378:200|373:186|373:186|388:104,1,251.999992309571,2|0,1:2|2:2,0:0:0:0:
279,247,188157,2,0,B|265:143|265:143|259:135|259:135|269:134|269:134|263:126|263:126|250:37,1,215.999993408203,2|0,1:2|2:2,0:0:0:0:
181,184,188483,1,2,2:2:0:0:
181,184,188592,2,0,B|149:122|149:122|143:118|143:118|149:115|149:115|143:112|143:112|117:61,1,143.999995605469,0|2,1:1|2:2,0:0:0:0:
68,317,189026,6,0,B|74:347|92:360|121:354|121:354|152:345|152:345|153:350|153:350|157:343|157:343|225:324,1,192,2|0,1:2|2:2,0:0:0:0:
376,193,189352,1,0,2:2:0:0:
438,240,189461,2,0,B|431:270|413:283|384:277|384:277|353:268|353:268|352:273|352:273|348:266|348:266|280:247,1,192,10|0,1:2|2:2,0:0:0:0:
112,73,189787,1,0,2:2:0:0:
112,73,189896,6,0,B|118:33|118:33|71:25|71:25|53:127,1,192,2|0,1:2|2:2,0:0:0:0:
220,302,190222,1,2,2:2:0:0:
220,302,190331,2,0,B|213:341|213:341|260:349|260:349|278:247,1,192,8|2,1:1|2:2,0:0:0:0:
83,263,190765,6,0,P|100:301|144:305,1,71.9999978027344,0|0,1:1|2:2,0:0:0:0:
278,247,190983,2,0,P|319:251|348:203,1,83.9999974365235,2|0,2:2|2:2,0:0:0:0:
462,114,191200,2,0,B|390:100|390:100|338:123|338:123|290:82|290:82|177:60,1,288,10|0,1:2|2:2,0:0:0:0:
2,143,191635,6,0,P|19:223|120:201,1,192,2|0,1:2|2:2,0:0:0:0:
196,63,191961,1,2,2:2:0:0:
196,63,192070,2,0,P|109:49|86:133,1,192,8|2,1:1|2:2,0:0:0:0:
232,310,192505,5,0,1:1:0:0:
239,316,192613,1,0,2:2:0:0:
246,321,192722,2,0,L|355:310,1,96,2|0,2:2|2:2,0:0:0:0:
0,354,192939,2,0,B|8:361|8:361|69:356|69:356|81:369|81:369|75:355|75:355|257:337,1,288,10|0,1:2|2:2,0:0:0:0:
431,179,193374,6,0,B|281:152|281:152|268:223|268:223|331:234,1,288,2|2,1:2|2:2,0:0:0:0:
341,311,193809,2,0,P|389:301|401:251,1,96,8|0,1:1|2:2,0:0:0:0:
346,81,194026,2,0,B|317:40|317:40|276:76,1,96,2|0,2:2|2:2,0:0:0:0:
84,268,194244,6,0,L|190:258,1,96,0|0,1:1|2:2,0:0:0:0:
171,178,194461,2,0,L|75:187,1,96,2|0,2:2|2:2,0:0:0:0:
66,106,194678,2,0,B|221:91|221:91|240:103|240:103|279:86|279:86|362:78,1,288,10|0,1:2|2:2,0:0:0:0:
468,147,195113,6,0,P|439:69|336:92,1,192,2|0,1:2|2:2,0:0:0:0:
362,223,195439,1,2,2:2:0:0:
362,223,195548,2,0,P|449:237|485:155,1,192,8|2,1:1|2:2,0:0:0:0:
201,10,195983,6,0,B|193:19|193:19|226:184|226:184|219:197,1,192,2|0,1:2|2:2,0:0:0:0:
137,130,196309,1,0,2:2:0:0:
63,103,196418,2,0,B|57:113|57:113|90:278|90:278|82:287,1,192,10|0,1:2|2:2,0:0:0:0:
226,343,196744,1,0,2:2:0:0:
226,343,196852,6,0,B|329:324|329:324|321:277|321:277|282:284,1,192,2|0,1:2|2:2,0:0:0:0:
411,210,197178,1,2,2:2:0:0:
411,210,197287,2,0,B|446:111|446:111|402:95|402:95|388:133,1,192,8|2,1:1|2:2,0:0:0:0:
67,358,197722,6,0,P|90:330|130:324,1,71.9999978027344,0|0,1:1|2:2,0:0:0:0:
218,242,197939,2,0,P|253:247|283:288,1,83.9999974365235,2|0,2:2|2:2,0:0:0:0:
73,178,198157,2,0,B|116:125|116:125|186:151|186:151|328:98,1,288,10|0,1:2|2:2,0:0:0:0:
434,226,198592,6,0,P|445:313|362:282,1,192,2|0,1:2|2:2,0:0:0:0:
321,194,198918,1,2,2:2:0:0:
321,194,199026,2,0,B|340:101|340:101|345:94|345:94|366:0,1,192,8|2,1:1|2:2,0:0:0:0:
268,299,199461,5,0,1:1:0:0:
260,305,199570,1,0,2:2:0:0:
252,310,199678,2,0,P|207:303|188:253,1,96,2|0,2:2|2:2,0:0:0:0:
6,129,199896,2,0,B|43:193|43:193|147:178|147:178|138:192|138:192|155:177|155:177|261:162,1,288,10|0,1:2|2:2,0:0:0:0:
460,243,200331,6,0,P|359:257|370:113,1,288,2|2,1:2|2:2,0:0:0:0:
369,113,200765,2,0,P|405:141|400:186,1,96,8|0,1:1|2:2,0:0:0:0:
252,310,200983,6,0,B|241:238|241:238|232:227|232:227|223:164|223:164|229:151|229:151|210:12,1,288,2|0,2:2|2:2,0:0:0:0:
212,29,201418,2,0,L|106:44,1,96,2|0,2:2|2:2,0:0:0:0:
369,113,201635,2,0,B|236:134|236:134|228:142|228:142|87:162,1,288,10|0,1:2|2:2,0:0:0:0:
252,310,202070,6,0,B|346:296|346:296|331:193,1,192,2|0,1:2|2:2,0:0:0:0:
369,113,202396,1,2,2:2:0:0:
369,113,202505,6,0,B|417:97|417:97|390:134,1,96,2|0,2:2|2:2,0:0:0:0:
255,225,202722,2,0,L|139:243,1,96,2|0,2:2|2:2,0:0:0:0:
78,253,202939,6,0,P|36:217|54:152,1,120,6|0,1:2|2:2,0:0:0:0:
107,98,203265,1,0,2:2:0:0:
107,98,203374,2,0,P|166:106|234:124,1,120,0|0,1:1|2:2,0:0:0:0:
255,225,203700,1,0,2:2:0:0:
255,225,203809,6,0,B|247:275|247:275|323:289,1,120,0|0,1:1|2:2,0:0:0:0:
378,217,204135,1,0,2:2:0:0:
378,217,204244,2,0,B|386:167|386:167|310:153,1,120,0|0,1:1|2:2,0:0:0:0:
444,328,204678,5,2,1:2:0:0:
444,328,204896,2,0,P|425:304|397:299,1,60,0|0,2:2|2:2,0:0:0:0:
322,337,205113,2,0,P|257:347|204:371,1,120,0|0,1:1|2:2,0:0:0:0:
140,311,205439,1,0,2:2:0:0:
140,311,205548,6,0,P|79:315|62:255,1,120,0|0,1:1|2:2,0:0:0:0:
1,201,205874,1,0,2:2:0:0:
1,201,205983,2,0,P|-3:140|57:123,1,120,0|0,1:1|2:2,0:0:0:0:
126,64,206418,5,2,1:2:0:0:
130,52,206526,1,0,2:2:0:0:
134,40,206635,2,0,L|71:25,1,60,0|0,2:2|2:2,0:0:0:0:
219,67,206852,6,0,B|292:85|292:85|303:38,1,120,0|0,1:1|2:2,0:0:0:0:
238,155,207178,1,0,2:2:0:0:
238,155,207287,2,0,B|276:219|276:219|317:193,1,120,0|0,1:1|2:2,0:0:0:0:
189,231,207613,1,0,2:2:0:0:
189,231,207722,2,0,L|171:304,1,60,0|0,1:1|2:2,0:0:0:0:
240,356,207939,6,0,B|314:340|314:340|317:330|317:330|421:306,1,180,0|0,2:2|2:2,0:0:0:0:
408,308,208374,2,0,P|443:326|454:353,1,60,0|0,2:2|2:2,0:0:0:0:
314,195,208592,2,0,P|340:136|401:129,1,120,0|0,1:1|2:2,0:0:0:0:
439,57,208918,1,0,2:2:0:0:
439,57,209026,6,0,P|498:83|505:144,1,120,0|0,1:1|2:2,0:0:0:0:
327,190,209352,1,0,2:2:0:0:
314,195,209461,2,0,L|298:202,6,12,2|0|0|0|2|0|0,1:2|2:2|2:2|2:2|2:2|2:2|2:2,0:0:0:0:
249,135,209896,6,0,B|199:126|199:126|182:132|182:132|166:120|166:120|67:101,1,180,2|0,1:2|2:2,0:0:0:0:
0,48,210331,2,0,P|56:50|74:113,1,120,2|2,1:2|2:2,0:0:0:0:
45,181,210657,1,0,2:2:0:0:
45,181,210765,6,0,P|65:233|122:236,1,120,0|2,1:1|2:2,0:0:0:0:
203,266,211092,1,0,2:2:0:0:
203,266,211200,2,0,P|263:286|326:326,1,120,0|0,1:1|2:2,0:0:0:0:
378,373,211635,5,2,1:2:0:0:
378,373,211852,2,0,P|395:349|432:326,1,60,0|0,2:2|2:2,0:0:0:0:
311,314,212070,2,0,P|259:284|203:266,1,120,2|0,1:2|2:2,0:0:0:0:
335,221,212396,1,0,2:2:0:0:
335,221,212505,6,0,P|346:174|277:164,1,120,2|0,1:2|2:2,0:0:0:0:
260,83,212831,1,0,2:2:0:0:
260,83,212939,2,0,P|212:72|203:141,1,120,2|2,1:2|0:0,0:0:0:0:
335,221,213374,5,0,1:1:0:0:
345,227,213483,1,0,2:2:0:0:
355,233,213592,2,0,L|423:224,1,60,0|0,2:2|2:2,0:0:0:0:
282,358,213809,2,0,L|103:384,1,180,0|0,1:1|2:2,0:0:0:0:
88,302,214244,6,0,L|266:275,1,180,0|0,1:1|2:2,0:0:0:0:
194,201,214678,2,0,L|134:210,1,60,0|0,1:1|2:2,0:0:0:0:
49,227,214896,5,0,2:2:0:0:
279,184,215113,1,0,1:1:0:0:
302,181,215222,1,0,2:2:0:0:
325,178,215331,1,0,2:2:0:0:
49,227,215548,6,0,P|10:180|28:121,1,120,0|0,1:1|2:2,0:0:0:0:
104,93,215874,1,0,2:2:0:0:
104,93,215983,2,0,P|151:54|210:72,1,120,0|0,1:1|2:2,0:0:0:0:
325,178,216309,1,0,2:2:0:0:
325,178,216418,6,0,L|395:188,1,60,2|0,1:2|2:2,0:0:0:0:
376,264,216635,2,0,L|316:255,1,60,0|0,2:2|2:2,0:0:0:0:
138,256,216852,6,0,B|92:303|129:352|129:352|170:363,1,143.999995605469,6|0,1:2|2:2,0:0:0:0:
241,325,217178,1,0,2:2:0:0:
241,325,217287,2,0,B|231:257|231:257|225:251|225:251|213:166,1,143.999995605469,8|0,1:1|2:2,0:0:0:0:
192,42,217613,1,0,2:2:0:0:
192,42,217722,6,0,B|101:56|101:56|109:107,1,143.999995605469,0|0,1:1|2:2,0:0:0:0:
215,184,218048,1,0,2:2:0:0:
215,184,218157,2,0,B|305:169|305:169|297:118,1,143.999995605469,8|0,1:1|2:2,0:0:0:0:
69,191,218592,5,2,1:2:0:0:
69,191,218809,2,0,P|52:222|22:242,1,71.9999978027344,0|0,2:2|2:2,0:0:0:0:
118,273,219026,2,0,P|159:338|235:341,1,143.999995605469,8|0,1:1|2:2,0:0:0:0:
307,313,219352,1,0,2:2:0:0:
307,313,219461,6,0,B|302:299|302:299|328:187|328:187|347:174,1,143.999995605469,0|0,1:1|2:2,0:0:0:0:
424,203,219787,1,0,2:2:0:0:
424,203,219896,2,0,B|429:217|429:217|403:329|403:329|384:342,1,143.999995605469,8|0,1:1|2:2,0:0:0:0:
495,133,220331,5,2,1:2:0:0:
500,119,220439,1,0,2:2:0:0:
503,105,220548,2,0,P|476:77|439:76,1,71.9999978027344,0|0,2:2|2:2,0:0:0:0:
387,13,220765,2,0,B|308:55|308:55|299:86|299:86|208:137,1,215.999993408203,8|0,1:1|2:2,0:0:0:0:
308,55,221200,6,0,B|258:25|258:25|174:69,1,143.999995605469,0|0,1:1|2:2,0:0:0:0:
134,130,221526,1,0,2:2:0:0:
134,130,221635,2,0,L|55:118,1,71.9999978027344,8|0,1:1|2:2,0:0:0:0:
216,253,221852,6,0,P|214:353|116:360,1,215.999993408203,0|0,2:2|2:2,0:0:0:0:
117,360,222287,2,0,P|124:318|168:301,1,83.9999974365235,0|0,2:2|2:2,0:0:0:0:
303,191,222505,2,0,B|362:207|362:207|383:232|383:232|413:221|413:221|519:253,1,215.999993408203,8|0,1:1|2:2,0:0:0:0:
413,139,222939,2,0,P|404:109|429:146,1,143.999995605469,0|0,1:1|2:2,0:0:0:0:
390,319,223265,1,0,2:2:0:0:
390,319,223374,6,0,P|359:347|317:333,1,60,10|0,1:2|2:2,0:0:0:0:
216,253,223592,2,0,P|176:240|168:185,1,71.9999978027344,2|0,2:2|2:2,0:0:0:0:
78,105,223809,6,0,B|46:70|46:70|210:109,1,215.999993408203,2|0,1:2|2:2,0:0:0:0:
284,71,224244,2,0,P|272:41|230:36,1,71.9999978027344,10|0,1:2|2:2,0:0:0:0:
215,253,224461,2,0,P|251:265|288:230,1,71.9999978027344,2|0,2:2|2:2,0:0:0:0:
482,121,224678,6,0,B|383:103|383:103|375:150,1,143.999995605469,0|2,1:1|2:2,0:0:0:0:
363,231,225005,1,0,2:2:0:0:
363,231,225113,2,0,B|461:248|461:248|469:201,1,143.999995605469,8|0,1:2|2:2,0:0:0:0:
284,71,225548,5,2,1:2:0:0:
284,71,225765,2,0,P|241:79|222:111,1,71.9999978027344,0|0,2:2|2:2,0:0:0:0:
149,129,225983,2,0,B|137:227|137:227|130:240|130:240|119:346,1,215.999993408203,8|0,1:1|2:2,0:0:0:0:
24,271,226418,6,0,P|92:278|119:341,1,143.999995605469,0|0,1:1|2:2,0:0:0:0:
203,384,226744,1,0,2:2:0:0:
203,384,226852,2,0,P|259:340|335:323,1,143.999995605469,8|0,1:1|2:2,0:0:0:0:
256,164,227287,6,0,B|264:184|284:193|284:193|264:201|256:220|256:220|247:201|227:193|227:193|247:184|256:164,1,162.000000617981,8|0,1:1|2:2,0:0:0:0:
192,256,227613,6,0,L|320:128,1,180.000006866455,8|0,2:2|2:2,0:0:0:0:
320,256,227939,2,0,L|188:124,1,180.000006866455,8|0,2:2|2:2,0:0:0:0:
326,54,228157,6,0,P|371:64|388:107,1,96,0|0,2:2|2:2,0:0:0:0:
457,155,228374,2,0,P|467:182|458:210,2,48,0|0|0,2:2|2:2|2:2,0:0:0:0:
266,0,228592,1,0,2:2:0:0:
233,4,228700,1,0,2:2:0:0:
210,27,228809,1,0,2:2:0:0:
308,253,229026,5,0,1:1:0:0:
320,256,229135,2,0,B|366:272|366:272|349:317,1,96,0|0,2:2|2:2,0:0:0:0:
268,353,229461,2,0,B|223:336|223:336|240:291,1,96,0|0,2:2|2:2,0:0:0:0:
347,172,229787,1,0,2:2:0:0:
361,161,229896,6,0,P|413:157|446:190,1,83.9999974365235,2|0,2:2|2:2,0:0:0:0:
161,277,230113,1,2,2:2:0:0:
161,277,230331,6,0,P|135:245|135:204,1,83.9999974365235,2|0,2:2|2:2,0:0:0:0:
222,160,230548,2,0,P|245:112|290:100,1,83.9999974365235,0|0,2:2|2:2,0:0:0:0:
361,161,230765,6,0,P|414:156|443:180,1,86.4000021093751,2|0,2:2|2:2,0:0:0:0:
346,289,231852,2,0,L|349:303,2,8.99999972534181,0|0|0,2:2|2:2|2:2,0:0:0:0:
295,219,232070,6,0,P|268:231|254:254,1,53.9999983520508,8|0,2:2|2:2,0:0:0:0:
176,349,232504,6,0,B|165:277|165:277|143:247|143:247|157:214|157:214|151:168|151:168|161:171|161:171|149:155|149:155|136:52,1,288,6|0,1:2|2:2,0:0:0:0:
19,118,232885,1,0,2:2:0:0:
13,126,232939,2,0,B|-21:185|35:222|35:222|80:199,1,155.999992858887,10|2,1:2|2:2,0:0:0:0:
231,119,233265,1,0,2:2:0:0:
231,119,233374,6,0,P|267:88|276:34,1,90.0000034332277,2|0,1:2|2:2,0:0:0:0:
147,247,233592,2,0,P|176:276|222:273,1,77.9999964294435,2|0,2:2|2:2,0:0:0:0:
354,357,233809,2,0,P|394:340|410:301,1,66.0000020141602,10|0,1:2|2:2,0:0:0:0:
512,153,234026,6,0,B|378:172|378:172|374:180|374:180|223:201,1,288,2|0,2:2|2:2,0:0:0:0:
231,199,234461,5,2,2:2:0:0:
42,41,234678,2,0,L|142:69,1,96,10|0,1:2|2:2,0:0:0:0:
146,70,234896,2,0,L|123:156,1,66.0000020141602,2|0,2:2|2:2,0:0:0:0:
149,296,235113,2,0,L|249:268,1,96,2|0,1:2|2:2,0:0:0:0:
253,267,235331,2,0,L|230:181,1,66.0000020141602,2|0,2:2|2:2,0:0:0:0:
256,41,235548,2,0,L|356:69,1,96,10|0,1:2|2:2,0:0:0:0:
360,70,235766,2,0,L|337:156,1,66.0000020141602,2|0,2:2|2:2,0:0:0:0:
488,345,235983,6,0,B|439:367|439:367|382:310|382:310|323:290|323:290|330:284|330:284|321:289|321:289|227:258,1,288,2|0,1:2|2:2,0:0:0:0:
38,289,236363,1,0,2:2:0:0:
43,297,236418,2,0,B|59:320|67:343|67:343|132:350|149:294,1,155.999992858887,10|2,1:2|2:2,0:0:0:0:
233,184,236744,1,0,2:2:0:0:
237,168,236852,6,0,L|230:90,1,66.0000020141602,2|0,1:2|2:2,0:0:0:0:
97,228,237070,2,0,L|63:157,1,66.0000020141602,2|0,2:2|2:2,0:0:0:0:
312,347,237287,2,0,L|332:271,1,66.0000020141602,10|0,1:2|2:2,0:0:0:0:
466,154,237505,6,0,B|458:106|411:114|411:114|363:121|363:121|360:126|360:126|359:118|359:118|355:122|355:122|288:133|288:133|237:141|230:102,1,288,2|0,2:2|2:2,0:0:0:0:
231,102,237939,5,2,2:2:0:0:
508,229,238157,2,0,P|492:283|441:290,1,96,10|0,1:2|2:2,0:0:0:0:
448,297,238374,2,0,L|393:240,1,71.9999978027344,2|0,2:2|2:2,0:0:0:0:
312,347,238592,2,0,P|265:378|221:350,1,96,2|0,1:2|2:2,0:0:0:0:
222,360,238809,2,0,L|216:280,1,71.9999978027344,2|0,2:2|2:2,0:0:0:0:
85,310,239026,2,0,P|29:303|13:254,1,96,10|0,1:2|2:2,0:0:0:0:
8,262,239244,2,0,L|54:197,1,71.9999978027344,2|0,2:2|2:2,0:0:0:0:
200,47,239461,6,0,B|225:192|225:192|154:205|154:205|142:138,1,288,2|0,1:2|2:2,0:0:0:0:
295,100,239842,1,0,2:2:0:0:
296,111,239896,2,0,L|323:268,1,155.999992858887,10|2,1:2|2:2,0:0:0:0:
482,63,240331,6,0,P|448:28|394:35,1,96,2|0,1:2|2:2,0:0:0:0:
296,111,240548,2,0,L|311:197,1,83.9999974365235,2|0,2:2|2:2,0:0:0:0:
254,316,240765,2,0,P|207:316|175:282,1,96,10|0,1:2|2:2,0:0:0:0:
53,100,240983,6,0,B|95:52|95:52|52:220|52:220|72:267,1,288,2|0,2:2|2:2,0:0:0:0:
71,266,241418,5,2,2:2:0:0:
254,316,241635,2,0,L|357:325,1,83.9999974365235,10|0,1:2|2:2,0:0:0:0:
346,324,241852,2,0,P|344:290|317:267,1,66.0000020141602,2|0,2:2|2:2,0:0:0:0:
403,215,242070,2,0,L|487:155,1,83.9999974365235,2|0,1:2|2:2,0:0:0:0:
478,161,242287,2,0,P|454:136|419:135,1,66.0000020141602,2|0,2:2|2:2,0:0:0:0:
327,94,242505,2,0,L|242:34,1,83.9999974365235,10|0,1:2|2:2,0:0:0:0:
251,40,242722,2,0,P|274:15|309:14,1,66.0000020141602,2|0,2:2|2:2,0:0:0:0:
496,281,242939,6,0,P|446:342|403:214,1,288,2|0,1:2|2:2,0:0:0:0:
473,169,243320,1,0,2:2:0:0:
478,161,243374,2,0,P|481:113|407:138,1,155.999992858887,10|2,1:2|2:2,0:0:0:0:
230,375,243809,6,0,P|273:381|307:354,1,90.0000034332277,2|0,1:2|2:2,0:0:0:0:
407,136,244026,2,0,P|383:103|341:100,1,66.0000020141602,2|0,2:2|2:2,0:0:0:0:
496,281,244244,2,0,P|470:313|433:319,1,77.9999964294435,10|0,1:2|2:2,0:0:0:0:
243,260,244461,6,0,B|230:145|230:145|238:148|238:148|230:144|230:144|215:26|215:26|181:14,1,288,2|0,2:2|2:2,0:0:0:0:
181,14,244896,5,2,2:2:0:0:
5,135,245113,6,0,L|117:151,1,96,10|0,1:2|2:2,0:0:0:0:
112,150,245331,2,0,L|99:244,1,77.9999964294435,2|0,2:2|2:2,0:0:0:0:
146,352,245548,6,0,L|258:336,1,96,2|0,1:2|2:2,0:0:0:0:
253,337,245766,2,0,L|240:243,1,77.9999964294435,2|0,2:2|2:2,0:0:0:0:
287,135,245983,6,0,L|291:117,6,12,10|0|0|0|2|0|0,1:2|2:2|2:2|2:2|2:2|2:2|2:2,0:0:0:0:
342,273,246418,6,0,B|468:295|468:295|480:224|480:224|421:213,1,251.999992309571,2|0,1:2|2:2,0:0:0:0:
421,129,246798,1,0,2:2:0:0:
416,122,246852,2,0,B|379:84|379:84|316:73|286:134,1,167.999994873047,10|2,1:2|2:2,0:0:0:0:
221,211,247178,1,0,2:2:0:0:
215,227,247287,6,0,L|224:298,1,71.9999978027344,2|0,1:2|2:2,0:0:0:0:
106,236,247505,2,0,L|97:165,1,71.9999978027344,2|0,2:2|2:2,0:0:0:0:
196,116,247722,2,0,L|187:45,1,71.9999978027344,10|0,1:2|2:2,0:0:0:0:
6,283,247939,6,0,B|42:340|42:340|222:296,1,251.999992309571,2|0,2:2|2:2,0:0:0:0:
223,296,248374,5,2,2:2:0:0:
410,371,248592,2,0,P|445:350|448:295,1,83.9999974365235,10|0,1:2|2:2,0:0:0:0:
451,296,248809,2,0,L|393:267,1,60,2|0,2:2|2:2,0:0:0:0:
365,188,249026,2,0,P|378:149|345:105,1,83.9999974365235,2|0,1:2|2:2,0:0:0:0:
348,104,249244,2,0,L|284:119,1,60,2|0,2:2|2:2,0:0:0:0:
212,76,249461,2,0,P|197:37|143:25,1,83.9999974365235,10|0,1:2|2:2,0:0:0:0:
145,23,249678,2,0,L|106:75,1,60,2|0,2:2|2:2,0:0:0:0:
15,223,249896,6,0,P|89:172|79:286,1,251.999992309571,2|0,1:2|2:2,0:0:0:0:
179,340,250276,1,0,2:2:0:0:
186,345,250331,2,0,B|255:334|255:334|260:330|260:330|336:317,1,143.999995605469,10|2,1:2|2:2,0:0:0:0:
490,233,250657,1,0,0:0:0:0:
498,222,250765,6,0,P|469:182|427:176,1,83.9999974365235,2|0,1:2|2:2,0:0:0:0:
248,115,250983,2,0,P|228:160|244:199,1,83.9999974365235,2|0,2:2|2:2,0:0:0:0:
404,96,251200,2,0,P|355:102|329:135,1,83.9999974365235,10|0,1:2|2:2,0:0:0:0:
186,260,251418,6,0,P|290:308|309:197,1,251.999992309571,2|0,2:2|2:2,0:0:0:0:
316,206,251852,5,2,2:2:0:0:
125,42,252070,2,0,L|37:62,1,83.9999974365235,10|0,1:2|2:2,0:0:0:0:
26,65,252287,2,0,L|71:107,1,60,2|0,2:2|2:2,0:0:0:0:
261,142,252505,2,0,L|349:162,1,83.9999974365235,2|0,1:2|2:2,0:0:0:0:
360,165,252722,2,0,L|315:207,1,60,2|0,2:2|2:2,0:0:0:0:
125,242,252939,2,0,L|37:262,1,83.9999974365235,10|0,1:2|2:2,0:0:0:0:
26,265,253157,2,0,L|71:307,1,60,2|0,2:2|2:2,0:0:0:0:
251,360,253374,6,0,B|296:375|296:375|323:350|323:350|485:328,1,233.999989288331,2|0,1:2|2:2,0:0:0:0:
385,314,253755,1,0,2:2:0:0:
383,305,253809,2,0,B|372:230|372:230|370:230|370:230|357:147,1,143.999995605469,10|2,1:2|2:2,0:0:0:0:
472,44,254244,6,0,P|452:77|391:83,1,77.9999964294435,2|0,1:2|2:2,0:0:0:0:
194,154,254461,2,0,P|164:128|169:67,1,77.9999964294435,2|0,2:2|2:2,0:0:0:0:
359,163,254678,2,0,P|321:169|288:150,1,77.9999964294435,10|0,1:2|2:2,0:0:0:0:
101,23,254896,6,0,P|19:40|36:180,1,233.999989288331,2|0,2:2|2:2,0:0:0:0:
19,169,255331,5,2,2:2:0:0:
107,304,255548,2,0,L|174:328,1,71.9999978027344,10|0,1:2|2:2,0:0:0:0:
186,333,255765,2,0,L|208:273,1,53.9999983520508,2|0,2:2|2:2,0:0:0:0:
283,253,255983,2,0,L|349:228,1,71.9999978027344,2|0,1:2|2:2,0:0:0:0:
362,224,256200,2,0,L|340:163,1,53.9999983520508,2|0,2:2|2:2,0:0:0:0:
384,100,256418,2,0,L|419:38,1,71.9999978027344,10|0,1:2|2:2,0:0:0:0:
426,27,256635,2,0,L|370:-5,1,53.9999983520508,2|0,2:2|2:2,0:0:0:0:
476,198,256852,6,0,B|436:300|436:300|357:219,1,215.999993408203,2|0,1:2|2:2,0:0:0:0:
275,173,257233,1,0,2:2:0:0:
266,172,257287,2,0,B|206:157|206:157|200:149|200:149|130:133,1,132.00000402832,10|2,1:2|2:2,0:0:0:0:
79,256,257722,6,0,L|14:271,1,66.0000020141602,2|0,1:2|2:2,0:0:0:0:
232,77,257939,2,0,L|167:61,1,66.0000020141602,2|0,2:2|2:2,0:0:0:0:
67,173,258157,2,0,L|2:188,1,66.0000020141602,10|0,1:2|2:2,0:0:0:0:
189,252,258374,6,0,B|261:268|261:268|278:284|278:284|306:277|306:277|391:295,1,198.000006042481,2|0,2:2|2:2,0:0:0:0:
376,291,258809,5,2,2:2:0:0:
501,150,259026,6,0,L|435:128,1,60,2|0,1:2|2:2,0:0:0:0:
432,127,259244,2,0,L|414:184,1,45.0000017166138,2|0,2:2|2:2,0:0:0:0:
373,55,259461,6,0,L|307:77,1,60,10|0,1:2|2:2,0:0:0:0:
304,78,259679,2,0,L|286:21,1,45.0000017166138,2|0,2:2|2:2,0:0:0:0:
243,157,259896,6,0,L|237:179,2,12,2|0|0,1:2|2:2|2:2,0:0:0:0:
246,144,260113,2,0,L|180:122,1,60,2|0,1:2|2:2,0:0:0:0:
80,61,260331,6,0,P|68:98|61:148,1,90.0000034332277,4|0,1:2|2:2,0:0:0:0:
14,289,260765,2,0,P|60:329|101:312,1,90.0000034332277,0|0,1:1|2:2,0:0:0:0:
156,377,261092,1,0,2:2:0:0:
156,377,261200,2,0,P|213:357|219:313,1,90.0000034332277,0|0,1:1|2:2,0:0:0:0:
303,298,261526,1,0,2:2:0:0:
303,298,261635,2,0,P|314:238|279:211,1,90.0000034332277,0|0,1:1|2:2,0:0:0:0:
308,131,262070,5,0,1:1:0:0:
396,149,262287,1,0,2:2:0:0:
396,149,262396,1,0,2:2:0:0:
396,149,262505,2,0,L|308:131,1,90.0000034332277,0|0,1:1|2:2,0:0:0:0:
250,68,262831,1,0,2:2:0:0:
250,68,262939,2,0,L|161:49,1,90.0000034332277,0|0,1:1|2:2,0:0:0:0:
103,111,263265,1,0,2:2:0:0:
103,111,263374,2,0,L|12:92,1,90.0000034332277,0|0,1:1|2:2,0:0:0:0:
14,92,263809,5,0,1:1:0:0:
126,268,264026,2,0,L|186:258,1,45.0000017166138,0|0,2:2|2:2,0:0:0:0:
73,328,264244,2,0,L|28:335,1,45.0000017166138,0|0,1:1|2:2,0:0:0:0:
143,366,264461,1,0,2:2:0:0:
46,252,264678,1,0,1:1:0:0:
223,200,264896,6,0,L|283:190,1,45.0000017166138,0|0,2:2|2:2,0:0:0:0:
170,260,265114,2,0,L|125:267,1,45.0000017166138,0|0,1:1|2:2,0:0:0:0:
240,298,265331,1,0,2:2:0:0:
143,184,265548,1,0,1:1:0:0:
320,132,265765,6,0,L|380:122,1,45.0000017166138,0|0,2:2|2:2,0:0:0:0:
267,192,265983,2,0,L|222:199,1,45.0000017166138,0|0,1:1|2:2,0:0:0:0:
337,230,266200,1,0,2:2:0:0:
240,116,266417,1,0,1:1:0:0:
417,64,266635,6,0,L|477:54,1,45.0000017166138,0|0,2:2|2:2,0:0:0:0:
364,124,266853,2,0,L|319:131,1,45.0000017166138,0|0,1:1|2:2,0:0:0:0:
434,162,267070,1,0,2:2:0:0:
337,48,267287,5,0,1:1:0:0:
163,142,267505,1,0,2:2:0:0:
163,142,267613,1,0,2:2:0:0:
163,142,267722,2,0,P|140:182|152:228,1,90.0000034332277,0|0,1:1|2:2,0:0:0:0:
215,286,268048,1,0,2:2:0:0:
215,286,268157,2,0,L|312:273,1,90.0000034332277,0|0,1:1|2:2,0:0:0:0:
227,364,268483,1,0,2:2:0:0:
227,364,268592,2,0,L|317:353,1,90.0000034332277,0|0,1:1|2:2,0:0:0:0:
378,296,268918,1,0,2:2:0:0:
378,296,269026,6,0,P|412:253|394:213,1,90.0000034332277,0|0,1:1|2:2,0:0:0:0:
342,169,269352,1,0,2:2:0:0:
342,169,269461,2,0,P|312:124|334:84,1,90.0000034332277,0|0,1:1|2:2,0:0:0:0:
417,39,269787,1,0,2:2:0:0:
417,39,269896,2,0,L|507:51,1,90.0000034332277,0|0,1:1|2:2,0:0:0:0:
495,129,270222,1,0,2:2:0:0:
494,129,270331,2,0,L|404:117,1,90.0000034332277,0|0,1:1|2:2,0:0:0:0:
466,252,270765,5,0,1:1:0:0:
386,268,270983,2,0,L|326:258,1,45.0000017166138,0|0,2:2|2:2,0:0:0:0:
439,328,271201,2,0,L|483:335,1,45.0000017166138,0|0,1:1|2:2,0:0:0:0:
369,366,271418,1,0,2:2:0:0:
466,252,271635,1,0,1:1:0:0:
289,200,271853,6,0,L|229:190,1,45.0000017166138,0|0,2:2|2:2,0:0:0:0:
342,260,272071,2,0,L|386:267,1,45.0000017166138,0|0,1:1|2:2,0:0:0:0:
272,298,272288,1,0,2:2:0:0:
369,184,272505,1,0,1:1:0:0:
192,132,272722,6,0,L|132:122,1,45.0000017166138,0|0,2:2|2:2,0:0:0:0:
245,192,272940,2,0,L|289:199,1,45.0000017166138,0|0,1:1|2:2,0:0:0:0:
175,230,273157,1,0,2:2:0:0:
272,116,273374,1,0,1:1:0:0:
95,64,273592,6,0,L|35:54,1,45.0000017166138,0|0,2:2|2:2,0:0:0:0:
148,124,273810,2,0,L|170:128,2,22.5000008583069,0|0|0,2:2|2:2|2:2,0:0:0:0:
78,162,274026,2,0,L|18:152,1,45.0000017166138,0|0,1:1|2:2,0:0:0:0:
175,48,274244,5,0,1:1:0:0:
253,255,274461,1,0,2:2:0:0:
253,255,274570,1,0,2:2:0:0:
253,255,274678,2,0,L|344:246,1,90.0000034332277,0|0,1:1|2:2,0:0:0:0:
407,197,275005,1,0,2:2:0:0:
407,197,275113,2,0,P|453:183|470:138,1,90.0000034332277,0|0,1:1|2:2,0:0:0:0:
409,85,275439,1,0,2:2:0:0:
409,85,275548,2,0,P|363:99|346:144,1,90.0000034332277,0|0,1:1|2:2,0:0:0:0:
342,246,275983,5,0,1:1:0:0:
354,335,276200,1,0,2:2:0:0:
354,335,276309,1,0,2:2:0:0:
354,335,276418,2,0,L|341:245,1,90.0000034332277,0|0,1:1|2:2,0:0:0:0:
275,344,276744,1,0,2:2:0:0:
275,344,276853,2,0,L|262:254,1,90.0000034332277,0|0,1:1|2:2,0:0:0:0:
252,175,277178,1,0,2:2:0:0:
252,175,277287,2,0,L|239:85,1,90.0000034332277,0|0,1:1|2:2,0:0:0:0:
143,18,277722,5,0,1:1:0:0:
126,116,277939,2,0,L|186:126,1,45.0000017166138,0|0,2:2|2:2,0:0:0:0:
73,56,278157,2,0,L|28:48,1,45.0000017166138,0|0,1:1|2:2,0:0:0:0:
143,18,278374,1,0,2:2:0:0:
46,132,278592,1,0,1:1:0:0:
223,184,278809,6,0,L|283:194,1,45.0000017166138,0|0,2:2|2:2,0:0:0:0:
170,124,279027,2,0,L|125:116,1,45.0000017166138,0|0,1:1|2:2,0:0:0:0:
240,86,279244,1,0,2:2:0:0:
143,200,279461,1,0,1:1:0:0:
320,252,279678,6,0,L|380:262,1,45.0000017166138,0|0,2:2|2:2,0:0:0:0:
267,192,279896,2,0,L|222:184,1,45.0000017166138,0|0,1:1|2:2,0:0:0:0:
337,154,280113,1,0,2:2:0:0:
240,268,280330,1,0,1:1:0:0:
417,320,280548,6,0,L|477:330,1,45.0000017166138,0|0,2:2|2:2,0:0:0:0:
364,260,280766,2,0,L|319:252,1,45.0000017166138,0|0,1:1|2:2,0:0:0:0:
434,222,280983,1,0,2:2:0:0:
337,336,281200,5,0,1:1:0:0:
265,162,281418,1,0,2:2:0:0:
265,162,281526,1,0,2:2:0:0:
265,162,281635,2,0,L|280:60,1,90.0000034332277,0|0,1:1|2:2,0:0:0:0:
221,16,281961,1,0,2:2:0:0:
221,16,282070,2,0,P|173:11|143:48,1,90.0000034332277,0|0,1:1|2:2,0:0:0:0:
71,60,282396,1,0,2:2:0:0:
71,60,282505,2,0,P|36:93|45:140,1,90.0000034332277,0|0,1:1|2:2,0:0:0:0:
99,194,282831,1,0,2:2:0:0:
99,194,282939,6,0,L|196:177,1,90.0000034332277,0|0,1:1|2:2,0:0:0:0:
265,162,283265,1,0,2:2:0:0:
265,162,283374,2,0,L|249:73,1,90.0000034332277,0|0,1:1|2:2,0:0:0:0:
343,148,283700,1,0,2:2:0:0:
343,148,283809,2,0,L|327:59,1,90.0000034332277,0|0,1:1|2:2,0:0:0:0:
172,90,284135,1,0,2:2:0:0:
172,90,284244,2,0,L|189:187,1,90.0000034332277,0|0,1:1|2:2,0:0:0:0:
46,252,284678,5,0,1:1:0:0:
126,268,284896,2,0,L|186:258,1,45.0000017166138,0|0,2:2|2:2,0:0:0:0:
73,328,285114,2,0,L|28:335,1,45.0000017166138,0|0,1:1|2:2,0:0:0:0:
143,366,285331,1,0,2:2:0:0:
46,252,285548,1,0,1:1:0:0:
223,200,285766,6,0,L|283:190,1,45.0000017166138,0|0,2:2|2:2,0:0:0:0:
170,260,285984,2,0,L|125:267,1,45.0000017166138,0|0,1:1|2:2,0:0:0:0:
240,298,286201,1,0,2:2:0:0:
143,184,286418,1,0,1:1:0:0:
320,132,286635,6,0,L|380:122,1,45.0000017166138,0|0,2:2|2:2,0:0:0:0:
267,192,286853,2,0,L|222:199,1,45.0000017166138,0|0,1:1|2:2,0:0:0:0:
337,230,287070,1,0,2:2:0:0:
240,116,287287,1,0,1:1:0:0:
417,64,287505,6,0,L|477:54,1,45.0000017166138,0|0,2:2|2:2,0:0:0:0:
364,124,287723,2,0,L|339:129,2,22.5000008583069,0|0|0,2:2|2:2|2:2,0:0:0:0:
434,162,287939,2,0,L|494:152,1,45.0000017166138,0|0,1:1|2:2,0:0:0:0:
337,48,288157,6,0,P|308:39|274:33,1,60,0|0,1:1|2:2,0:0:0:0:
96,75,288592,6,0,P|115:102|152:109,1,60,0|0,1:1|2:2,0:0:0:0:
156,189,289026,2,0,P|192:201|223:186,1,60,0|0,1:1|2:2,0:0:0:0:
280,238,289462,2,0,P|316:224|329:192,1,60,0|0,1:1|2:2,0:0:0:0:
96,75,289896,6,0,P|115:102|152:109,1,60,0|0,1:1|2:2,0:0:0:0:
156,189,290331,2,0,P|192:201|223:186,1,60,0|0,1:1|2:2,0:0:0:0:
96,75,290765,6,0,P|115:102|152:109,1,60,0|0,1:1|2:2,0:0:0:0:
280,238,291200,2,0,P|316:224|329:192,1,60,0|0,1:1|2:2,0:0:0:0:
394,151,291635,6,0,L|463:164,1,60,0|0,1:1|2:2,0:0:0:0:
407,74,292070,2,0,L|476:87,1,60,0|0,1:1|2:2,0:0:0:0:
339,283,292505,6,0,L|270:296,1,60,0|0,1:1|2:2,0:0:0:0:
326,206,292940,2,0,L|257:219,1,60,0|0,1:1|2:2,0:0:0:0:
212,85,293374,6,0,L|143:72,1,60,0|0,1:1|2:2,0:0:0:0:
199,162,293809,2,0,L|130:149,1,60,0|0,1:1|2:2,0:0:0:0:
85,282,294244,6,0,L|16:295,1,60,0|0,1:1|2:2,0:0:0:0:
72,205,294679,2,0,L|3:218,1,60,0|0,1:1|2:2,0:0:0:0:
172,348,295113,5,0,1:1:0:0:
341,325,295548,6,0,P|327:294|292:280,1,60,0|0,1:1|2:2,0:0:0:0:
303,201,295982,2,0,P|269:182|236:191,1,60,0|0,1:1|2:2,0:0:0:0:
191,129,296418,2,0,P|152:135|134:164,1,60,0|0,1:1|2:2,0:0:0:0:
341,325,296852,6,0,P|327:294|292:280,1,60,0|0,1:1|2:2,0:0:0:0:
303,201,297287,2,0,P|269:182|236:191,1,60,0|0,1:1|2:2,0:0:0:0:
341,325,297721,6,0,P|327:294|292:280,1,60,0|0,1:1|2:2,0:0:0:0:
191,129,298156,2,0,P|152:135|134:164,1,60,0|0,1:1|2:2,0:0:0:0:
77,272,298592,6,0,L|8:259,1,60,0|0,1:1|2:2,0:0:0:0:
64,349,299027,2,0,L|-5:336,1,60,0|0,1:1|2:2,0:0:0:0:
132,140,299462,6,0,L|201:127,1,60,0|0,1:1|2:2,0:0:0:0:
145,217,299897,2,0,L|214:204,1,60,0|0,1:1|2:2,0:0:0:0:
259,338,300331,6,0,L|328:351,1,60,0|0,1:1|2:2,0:0:0:0:
272,261,300765,1,0,2:2:0:0:
286,263,300874,1,0,2:2:0:0:
301,266,300983,1,0,2:2:0:0:
316,269,301092,1,0,2:2:0:0:
329,272,301200,2,0,L|336:231,1,30,0|0,2:2|2:2,0:0:0:0:
348,163,301418,1,0,2:2:0:0:
351,148,301526,1,0,2:2:0:0:
354,131,301635,6,0,L|364:82,3,30
256,192,302070,12,0,309026,2:2:0:0:
