osu file format v14

[General]
AudioFilename: audio.mp3
AudioLeadIn: 0
PreviewTime: 46494
Countdown: 0
SampleSet: Normal
StackLeniency: 0.7
Mode: 3
LetterboxInBreaks: 0
SpecialStyle: 0
WidescreenStoryboard: 1

[Editor]
Bookmarks: 14704,29249
DistanceSpacing: 0.1
BeatDivisor: 3
GridSize: 32
TimelineZoom: 2.699999

[Metadata]
Title:Otherside
TitleUnicode:Otherside
Artist:Taishi
ArtistUnicode:Taishi
Creator:AHHHHHHHHHHHHHH
Version:Normal
Source:CROSSxBEATS
Tags:AD:TRANCE 7 ad trance advantage diverse system instrumental electronic compllege progressive ambient
BeatmapID:2716760
BeatmapSetID:1310624

[Difficulty]
HPDrainRate:7
CircleSize:4
OverallDifficulty:6.5
ApproachRate:5
SliderMultiplier:1.4
SliderTickRate:1

[Events]
//Background and Video events
0,0,"81833027_p10.jpg",0,0
//Break Periods
//Storyboard Layer 0 (Background)
//Storyboard Layer 1 (Fail)
//Storyboard Layer 2 (Pass)
//Storyboard Layer 3 (Foreground)
//Storyboard Layer 4 (Overlay)
//Storyboard Sound Samples

[TimingPoints]
159,454.545454545455,4,1,1,100,1,0
76522,-100,4,1,1,100,0,1
83340,-100,4,1,1,100,0,0

[HitObjects]
64,192,159,5,2,0:0:0:0:
448,192,159,1,0,0:0:0:0:
320,192,386,1,0,0:0:0:0:
192,192,613,1,2,0:0:0:0:
448,192,840,1,0,0:0:0:0:
320,192,1068,1,2,0:0:0:0:
64,192,1295,1,0,0:0:0:0:
192,192,1522,1,2,0:0:0:0:
320,192,1749,1,0,0:0:0:0:
64,192,1977,1,2,0:0:0:0:
192,192,2204,1,0,0:0:0:0:
448,192,2431,1,2,0:0:0:0:
64,192,2659,1,0,0:0:0:0:
320,192,2886,1,2,0:0:0:0:
192,192,3113,1,0,0:0:0:0:
64,192,3340,1,2,0:0:0:0:
320,192,3454,1,0,0:0:0:0:
448,192,3568,1,0,0:0:0:0:
192,192,3681,1,0,0:0:0:0:
64,192,3795,1,2,0:0:0:0:
320,192,4022,1,0,0:0:0:0:
192,192,4249,1,2,0:0:0:0:
448,192,4477,1,0,0:0:0:0:
320,192,4704,1,2,0:0:0:0:
64,192,4931,1,0,0:0:0:0:
448,192,5159,1,2,0:0:0:0:
192,192,5386,1,0,0:0:0:0:
320,192,5613,1,2,0:0:0:0:
64,192,5840,1,0,0:0:0:0:
192,192,6068,1,2,0:0:0:0:
448,192,6295,1,0,0:0:0:0:
64,192,6522,1,2,0:0:0:0:
192,192,6749,1,0,0:0:0:0:
320,192,6977,1,2,0:0:0:0:
448,192,7090,1,0,0:0:0:0:
64,192,7204,1,0,0:0:0:0:
192,192,7318,1,0,0:0:0:0:
320,192,7431,1,2,0:0:0:0:
192,192,7659,1,0,0:0:0:0:
448,192,7886,1,2,0:0:0:0:
64,192,7999,1,0,0:0:0:0:
320,192,8113,1,0,0:0:0:0:
192,192,8227,1,0,0:0:0:0:
448,192,8340,1,2,0:0:0:0:
64,192,8568,1,0,0:0:0:0:
320,192,8795,1,2,0:0:0:0:
192,192,8909,1,0,0:0:0:0:
448,192,9022,1,0,0:0:0:0:
64,192,9136,1,0,0:0:0:0:
320,192,9249,1,2,0:0:0:0:
192,192,9477,1,0,0:0:0:0:
448,192,9704,1,2,0:0:0:0:
320,192,9818,1,0,0:0:0:0:
64,192,9931,1,0,0:0:0:0:
192,192,10045,1,0,0:0:0:0:
448,192,10159,1,2,0:0:0:0:
64,192,10386,1,0,0:0:0:0:
320,192,10613,1,2,0:0:0:0:
448,192,10727,1,0,0:0:0:0:
192,192,10840,1,0,0:0:0:0:
64,192,10954,1,0,0:0:0:0:
320,192,11068,1,2,0:0:0:0:
192,192,11295,1,0,0:0:0:0:
448,192,11522,1,2,0:0:0:0:
64,192,11749,1,0,0:0:0:0:
192,192,11977,1,2,0:0:0:0:
320,192,12204,1,0,0:0:0:0:
64,192,12431,1,2,0:0:0:0:
448,192,12659,1,0,0:0:0:0:
320,192,12886,1,2,0:0:0:0:
320,192,13340,1,2,0:0:0:0:
320,192,13795,1,2,0:0:0:0:
320,192,14249,1,2,0:0:0:0:
64,192,14477,128,0,14704:0:0:0:0:
448,192,14704,1,0,0:0:0:0:
320,192,14704,1,2,0:0:0:0:
192,192,14931,1,0,0:0:0:0:
64,192,15159,1,2,0:0:0:0:
320,192,15272,1,0,0:0:0:0:
448,192,15386,1,0,0:0:0:0:
64,192,15499,1,0,0:0:0:0:
320,192,15613,128,2,15840:0:0:0:0:
192,192,15840,1,0,0:0:0:0:
448,192,16068,1,2,0:0:0:0:
320,192,16181,1,0,0:0:0:0:
192,192,16409,1,0,0:0:0:0:
64,192,16522,128,2,16749:0:0:0:0:
192,192,16749,1,0,0:0:0:0:
320,192,16977,1,2,0:0:0:0:
448,192,17090,1,0,0:0:0:0:
192,192,17204,1,0,0:0:0:0:
320,192,17318,1,0,0:0:0:0:
448,192,17431,128,2,17659:0:0:0:0:
64,192,17659,1,0,0:0:0:0:
320,192,17886,1,2,0:0:0:0:
64,192,17999,1,0,0:0:0:0:
448,192,18113,1,0,0:0:0:0:
192,192,18340,1,2,0:0:0:0:
320,192,18568,1,0,0:0:0:0:
64,192,18795,1,2,0:0:0:0:
320,192,18909,1,0,0:0:0:0:
448,192,19022,1,0,0:0:0:0:
64,192,19136,1,0,0:0:0:0:
320,192,19249,128,2,19477:0:0:0:0:
192,192,19477,1,0,0:0:0:0:
448,192,19704,1,2,0:0:0:0:
320,192,19818,1,0,0:0:0:0:
192,192,20045,1,0,0:0:0:0:
64,192,20159,128,2,20386:0:0:0:0:
192,192,20386,1,0,0:0:0:0:
320,192,20613,1,2,0:0:0:0:
448,192,20727,1,0,0:0:0:0:
192,192,20840,1,0,0:0:0:0:
320,192,20954,1,0,0:0:0:0:
64,192,21068,128,2,21295:0:0:0:0:
448,192,21295,1,0,0:0:0:0:
192,192,21409,1,0,0:0:0:0:
320,192,21522,128,2,21749:0:0:0:0:
192,192,21749,128,0,21977:0:0:0:0:
64,192,21977,1,2,0:0:0:0:
448,192,22204,1,0,0:0:0:0:
320,192,22431,1,2,0:0:0:0:
192,192,22545,1,0,0:0:0:0:
64,192,22659,1,0,0:0:0:0:
320,192,22772,1,0,0:0:0:0:
192,192,22886,128,2,23113:0:0:0:0:
448,192,23113,1,0,0:0:0:0:
320,192,23340,1,2,0:0:0:0:
64,192,23454,1,0,0:0:0:0:
192,192,23681,1,0,0:0:0:0:
320,192,23795,128,2,24022:0:0:0:0:
448,192,24022,1,0,0:0:0:0:
192,192,24249,1,2,0:0:0:0:
64,192,24363,1,0,0:0:0:0:
320,192,24477,1,0,0:0:0:0:
192,192,24590,1,0,0:0:0:0:
64,192,24704,128,2,24931:0:0:0:0:
320,192,24931,1,0,0:0:0:0:
448,192,25159,1,2,0:0:0:0:
192,192,25272,1,0,0:0:0:0:
320,192,25386,1,0,0:0:0:0:
64,192,25613,1,2,0:0:0:0:
448,192,25840,1,0,0:0:0:0:
320,192,26068,1,2,0:0:0:0:
192,192,26181,1,0,0:0:0:0:
64,192,26295,1,0,0:0:0:0:
320,192,26409,1,0,0:0:0:0:
192,192,26522,128,2,26749:0:0:0:0:
448,192,26749,1,0,0:0:0:0:
320,192,26977,1,2,0:0:0:0:
64,192,27090,1,0,0:0:0:0:
192,192,27318,1,0,0:0:0:0:
320,192,27431,128,2,27659:0:0:0:0:
448,192,27659,1,0,0:0:0:0:
192,192,27886,1,2,0:0:0:0:
64,192,27999,1,0,0:0:0:0:
320,192,28113,1,0,0:0:0:0:
192,192,28227,1,0,0:0:0:0:
448,192,28340,128,2,28568:0:0:0:0:
64,192,28568,1,0,0:0:0:0:
320,192,28681,1,0,0:0:0:0:
192,192,28795,128,0,29022:0:0:0:0:
320,192,29022,128,0,29249:0:0:0:0:
448,192,29249,128,2,29704:0:0:0:0:
64,192,29249,1,0,0:0:0:0:
320,192,29477,1,0,0:0:0:0:
64,192,29704,128,8,30159:0:0:0:0:
192,192,29931,1,0,0:0:0:0:
448,192,30159,1,2,0:0:0:0:
320,192,30272,1,0,0:0:0:0:
192,192,30386,1,0,0:0:0:0:
64,192,30499,1,0,0:0:0:0:
448,192,30613,128,8,31068:0:0:0:0:
64,192,30840,1,0,0:0:0:0:
192,192,31068,128,2,31522:0:0:0:0:
320,192,31295,1,0,0:0:0:0:
448,192,31522,128,8,31977:0:0:0:0:
64,192,31749,1,0,0:0:0:0:
192,192,31977,1,2,0:0:0:0:
320,192,32090,1,0,0:0:0:0:
64,192,32204,1,0,0:0:0:0:
448,192,32318,1,0,0:0:0:0:
192,192,32431,128,8,32659:0:0:0:0:
320,192,32659,1,0,0:0:0:0:
448,192,32772,1,0,0:0:0:0:
64,192,32886,128,2,33340:0:0:0:0:
192,192,33113,1,0,0:0:0:0:
448,192,33340,128,8,33568:0:0:0:0:
320,192,33568,128,0,33795:0:0:0:0:
64,192,33795,1,2,0:0:0:0:
192,192,33909,1,0,0:0:0:0:
448,192,34022,1,0,0:0:0:0:
320,192,34136,1,0,0:0:0:0:
64,192,34249,128,8,34704:0:0:0:0:
448,192,34477,1,0,0:0:0:0:
320,192,34704,128,2,35159:0:0:0:0:
192,192,34931,1,0,0:0:0:0:
64,192,35159,128,8,35613:0:0:0:0:
448,192,35386,1,0,0:0:0:0:
192,192,35613,1,2,0:0:0:0:
320,192,35727,1,0,0:0:0:0:
448,192,35840,1,0,0:0:0:0:
64,192,35954,1,0,0:0:0:0:
192,192,36068,128,8,36295:0:0:0:0:
320,192,36295,128,0,36522:0:0:0:0:
64,192,36522,128,2,37431:0:0:0:0:
448,192,36749,1,0,0:0:0:0:
448,192,36977,1,8,0:0:0:0:
448,192,37204,1,0,0:0:0:0:
320,192,37431,1,2,0:0:0:0:
192,192,37545,1,0,0:0:0:0:
448,192,37659,1,0,0:0:0:0:
64,192,37772,1,0,0:0:0:0:
320,192,37886,128,8,38340:0:0:0:0:
192,192,38113,1,0,0:0:0:0:
448,192,38340,128,2,39249:0:0:0:0:
64,192,38568,1,0,0:0:0:0:
64,192,38795,1,8,0:0:0:0:
64,192,39022,1,0,0:0:0:0:
320,192,39249,1,2,0:0:0:0:
192,192,39363,1,0,0:0:0:0:
448,192,39477,1,0,0:0:0:0:
64,192,39590,1,0,0:0:0:0:
320,192,39704,1,8,0:0:0:0:
192,192,40045,1,0,0:0:0:0:
320,192,40159,128,2,40840:0:0:0:0:
64,192,40386,1,0,0:0:0:0:
448,192,40613,1,0,0:0:0:0:
64,192,40840,1,0,0:0:0:0:
192,192,41068,128,2,41977:0:0:0:0:
320,192,41295,1,0,0:0:0:0:
448,192,41522,1,0,0:0:0:0:
320,192,41977,1,0,0:0:0:0:
64,192,42204,1,0,0:0:0:0:
192,192,42318,1,0,0:0:0:0:
448,192,42431,1,0,0:0:0:0:
448,192,42659,1,0,0:0:0:0:
64,192,42886,1,0,0:0:0:0:
192,192,42999,1,0,0:0:0:0:
320,192,43113,1,0,0:0:0:0:
192,192,43227,1,0,0:0:0:0:
64,192,43340,128,0,43568:0:0:0:0:
448,192,43568,128,0,43795:0:0:0:0:
192,192,43795,128,0,46522:0:0:0:0:
448,192,46522,1,0,0:0:0:0:
320,192,47431,128,0,50613:0:0:0:0:
64,192,47431,1,0,0:0:0:0:
448,192,50159,1,0,0:0:0:0:
192,192,50613,1,0,0:0:0:0:
192,192,51068,128,0,51749:0:0:0:0:
192,192,51977,128,0,54249:0:0:0:0:
448,192,52431,1,0,0:0:0:0:
64,192,52659,1,0,0:0:0:0:
64,192,52886,1,0,0:0:0:0:
448,192,54249,1,0,0:0:0:0:
192,192,54477,1,0,0:0:0:0:
64,192,54704,128,0,57886:0:0:0:0:
320,192,56295,1,0,0:0:0:0:
320,192,56522,1,0,0:0:0:0:
448,192,57886,1,0,0:0:0:0:
192,192,58113,1,0,0:0:0:0:
320,192,58340,128,0,59022:0:0:0:0:
320,192,59249,128,0,61522:0:0:0:0:
448,192,59704,1,0,0:0:0:0:
192,192,60159,1,0,0:0:0:0:
64,192,61068,1,0,0:0:0:0:
64,192,61977,128,0,65159:0:0:0:0:
192,192,64704,1,0,0:0:0:0:
320,192,65159,1,0,0:0:0:0:
320,192,65613,128,0,66295:0:0:0:0:
320,192,66522,128,0,68795:0:0:0:0:
64,192,66977,1,0,0:0:0:0:
448,192,67204,1,0,0:0:0:0:
192,192,67431,1,0,0:0:0:0:
192,192,68795,1,0,0:0:0:0:
64,192,69022,1,0,0:0:0:0:
192,192,69249,128,0,72431:0:0:0:0:
64,192,70840,1,0,0:0:0:0:
64,192,71068,1,0,0:0:0:0:
320,192,72431,1,0,0:0:0:0:
64,192,72659,1,0,0:0:0:0:
320,192,72886,128,0,73568:0:0:0:0:
320,192,73795,128,0,75613:0:0:0:0:
448,192,74249,1,0,0:0:0:0:
192,192,74704,1,0,0:0:0:0:
64,192,75613,1,0,0:0:0:0:
448,192,75765,1,0,0:0:0:0:
320,192,75840,1,0,0:0:0:0:
192,192,75916,1,0,0:0:0:0:
64,192,75992,1,0,0:0:0:0:
448,192,76068,128,0,76295:0:0:0:0:
192,192,76295,128,0,76522:0:0:0:0:
448,192,76522,1,0,0:0:0:0:
320,192,76522,128,2,76977:0:0:0:0:
192,192,76977,1,8,0:0:0:0:
64,192,77052,1,0,0:0:0:0:
448,192,77128,1,0,0:0:0:0:
192,192,77204,1,0,0:0:0:0:
320,192,77280,128,0,77431:0:0:0:0:
192,192,77431,128,2,77886:0:0:0:0:
320,192,77886,1,8,0:0:0:0:
448,192,77962,1,0,0:0:0:0:
64,192,78037,1,0,0:0:0:0:
320,192,78113,1,0,0:0:0:0:
192,192,78189,128,0,78340:0:0:0:0:
320,192,78340,128,2,78795:0:0:0:0:
192,192,78795,1,8,0:0:0:0:
64,192,78871,1,0,0:0:0:0:
448,192,78946,1,0,0:0:0:0:
192,192,79022,1,0,0:0:0:0:
320,192,79098,128,0,79249:0:0:0:0:
192,192,79249,128,2,79704:0:0:0:0:
448,192,79704,1,8,0:0:0:0:
320,192,79780,1,0,0:0:0:0:
64,192,79855,1,0,0:0:0:0:
192,192,79931,128,0,80159:0:0:0:0:
448,192,80159,128,2,80613:0:0:0:0:
64,192,80613,1,8,0:0:0:0:
192,192,80689,1,0,0:0:0:0:
320,192,80765,1,0,0:0:0:0:
64,192,80840,1,0,0:0:0:0:
448,192,80916,128,0,81068:0:0:0:0:
64,192,81068,128,2,81522:0:0:0:0:
448,192,81522,1,8,0:0:0:0:
192,192,81598,1,0,0:0:0:0:
320,192,81674,1,0,0:0:0:0:
448,192,81749,1,0,0:0:0:0:
64,192,81825,128,0,81977:0:0:0:0:
320,192,81977,128,2,82431:0:0:0:0:
64,192,82431,1,8,0:0:0:0:
192,192,82507,1,0,0:0:0:0:
448,192,82583,1,0,0:0:0:0:
320,192,82659,1,0,0:0:0:0:
192,192,82734,128,0,82886:0:0:0:0:
64,192,82886,1,2,0:0:0:0:
448,192,83037,1,0,0:0:0:0:
64,192,83189,1,0,0:0:0:0:
320,192,83340,128,0,83568:0:0:0:0:
192,192,83568,128,0,83795:0:0:0:0:
448,192,83795,1,0,0:0:0:0:
64,192,83795,1,2,0:0:0:0:
320,192,83946,1,0,0:0:0:0:
192,192,84098,1,0,0:0:0:0:
448,192,84249,1,8,0:0:0:0:
320,192,84325,1,0,0:0:0:0:
64,192,84401,1,0,0:0:0:0:
448,192,84477,1,0,0:0:0:0:
192,192,84552,1,0,0:0:0:0:
320,192,84704,1,2,0:0:0:0:
64,192,84855,1,0,0:0:0:0:
448,192,85007,1,0,0:0:0:0:
320,192,85159,1,8,0:0:0:0:
64,192,85310,1,0,0:0:0:0:
320,192,85462,1,0,0:0:0:0:
64,192,85613,1,2,0:0:0:0:
192,192,85765,1,0,0:0:0:0:
320,192,85916,1,0,0:0:0:0:
64,192,86068,1,8,0:0:0:0:
192,192,86143,1,0,0:0:0:0:
448,192,86219,1,0,0:0:0:0:
64,192,86295,1,0,0:0:0:0:
320,192,86371,1,0,0:0:0:0:
192,192,86522,1,2,0:0:0:0:
448,192,86674,1,0,0:0:0:0:
192,192,86825,1,0,0:0:0:0:
320,192,86977,1,8,0:0:0:0:
64,192,87052,1,0,0:0:0:0:
448,192,87128,1,0,0:0:0:0:
320,192,87204,1,0,0:0:0:0:
192,192,87280,1,0,0:0:0:0:
64,192,87431,1,2,0:0:0:0:
448,192,87583,1,0,0:0:0:0:
320,192,87734,1,0,0:0:0:0:
64,192,87886,1,8,0:0:0:0:
192,192,87962,1,0,0:0:0:0:
448,192,88037,1,0,0:0:0:0:
64,192,88113,1,0,0:0:0:0:
320,192,88189,1,0,0:0:0:0:
192,192,88340,1,2,0:0:0:0:
448,192,88492,1,0,0:0:0:0:
64,192,88643,1,0,0:0:0:0:
192,192,88795,1,8,0:0:0:0:
448,192,88946,1,0,0:0:0:0:
192,192,89098,1,0,0:0:0:0:
448,192,89249,1,2,0:0:0:0:
320,192,89401,1,0,0:0:0:0:
192,192,89552,1,0,0:0:0:0:
448,192,89704,1,8,0:0:0:0:
320,192,89780,1,0,0:0:0:0:
64,192,89855,1,0,0:0:0:0:
448,192,89931,1,0,0:0:0:0:
192,192,90007,1,0,0:0:0:0:
64,192,90159,128,2,90613:0:0:0:0:
448,192,90310,1,0,0:0:0:0:
192,192,90462,1,0,0:0:0:0:
320,192,90613,128,8,91068:0:0:0:0:
448,192,90765,1,0,0:0:0:0:
64,192,90916,1,0,0:0:0:0:
192,192,91068,128,2,91522:0:0:0:0:
448,192,91219,1,0,0:0:0:0:
64,192,91371,1,0,0:0:0:0:
448,192,91522,1,8,0:0:0:0:
320,192,91598,1,0,0:0:0:0:
64,192,91674,1,0,0:0:0:0:
448,192,91749,1,0,0:0:0:0:
192,192,91825,128,0,91977:0:0:0:0:
320,192,91977,128,2,92431:0:0:0:0:
64,192,92128,1,0,0:0:0:0:
448,192,92280,1,0,0:0:0:0:
192,192,92431,1,8,0:0:0:0:
448,192,92583,1,0,0:0:0:0:
64,192,92734,1,0,0:0:0:0:
192,192,92886,128,2,93340:0:0:0:0:
448,192,93037,1,0,0:0:0:0:
64,192,93189,1,0,0:0:0:0:
448,192,93340,1,8,0:0:0:0:
320,192,93416,1,0,0:0:0:0:
64,192,93492,1,0,0:0:0:0:
448,192,93568,1,0,0:0:0:0:
192,192,93643,128,0,93795:0:0:0:0:
320,192,93795,128,2,94249:0:0:0:0:
64,192,93946,1,0,0:0:0:0:
448,192,94098,1,0,0:0:0:0:
192,192,94249,1,8,0:0:0:0:
448,192,94325,1,0,0:0:0:0:
64,192,94401,1,0,0:0:0:0:
192,192,94477,1,0,0:0:0:0:
320,192,94704,128,2,95159:0:0:0:0:
64,192,94855,1,0,0:0:0:0:
448,192,95007,1,0,0:0:0:0:
64,192,95159,1,8,0:0:0:0:
192,192,95234,1,0,0:0:0:0:
448,192,95310,1,0,0:0:0:0:
64,192,95386,1,0,0:0:0:0:
320,192,95462,128,0,95613:0:0:0:0:
192,192,95613,128,2,96068:0:0:0:0:
448,192,95765,1,0,0:0:0:0:
64,192,95916,1,0,0:0:0:0:
448,192,96068,1,8,0:0:0:0:
64,192,96219,1,0,0:0:0:0:
192,192,96371,1,0,0:0:0:0:
320,192,96522,128,2,96977:0:0:0:0:
64,192,96674,1,0,0:0:0:0:
448,192,96825,1,0,0:0:0:0:
64,192,96977,1,8,0:0:0:0:
192,192,97052,1,0,0:0:0:0:
448,192,97128,1,0,0:0:0:0:
64,192,97204,1,0,0:0:0:0:
320,192,97280,128,0,97431:0:0:0:0:
192,192,97431,128,2,97886:0:0:0:0:
448,192,97583,1,0,0:0:0:0:
64,192,97734,1,0,0:0:0:0:
448,192,97886,1,0,0:0:0:0:
320,192,97962,1,0,0:0:0:0:
64,192,98037,1,0,0:0:0:0:
192,192,98113,128,0,98340:0:0:0:0:
448,192,98340,1,2,0:0:0:0:
320,192,98492,1,0,0:0:0:0:
192,192,98643,1,0,0:0:0:0:
448,192,98795,1,8,0:0:0:0:
320,192,98871,1,0,0:0:0:0:
64,192,98946,1,0,0:0:0:0:
448,192,99022,1,0,0:0:0:0:
192,192,99098,1,0,0:0:0:0:
320,192,99249,1,2,0:0:0:0:
64,192,99401,1,0,0:0:0:0:
192,192,99552,1,0,0:0:0:0:
448,192,99704,1,8,0:0:0:0:
64,192,99855,1,0,0:0:0:0:
448,192,100007,1,0,0:0:0:0:
64,192,100159,1,2,0:0:0:0:
192,192,100310,1,0,0:0:0:0:
320,192,100462,1,0,0:0:0:0:
64,192,100613,1,8,0:0:0:0:
192,192,100689,1,0,0:0:0:0:
448,192,100765,1,0,0:0:0:0:
64,192,100840,1,0,0:0:0:0:
320,192,100916,1,0,0:0:0:0:
192,192,101068,1,2,0:0:0:0:
448,192,101219,1,0,0:0:0:0:
320,192,101371,1,0,0:0:0:0:
64,192,101522,1,8,0:0:0:0:
192,192,101598,1,0,0:0:0:0:
448,192,101674,1,0,0:0:0:0:
320,192,101749,1,0,0:0:0:0:
64,192,101825,1,0,0:0:0:0:
192,192,101977,1,2,0:0:0:0:
448,192,102128,1,0,0:0:0:0:
320,192,102280,1,0,0:0:0:0:
64,192,102431,1,8,0:0:0:0:
192,192,102507,1,0,0:0:0:0:
448,192,102583,1,0,0:0:0:0:
64,192,102659,1,0,0:0:0:0:
320,192,102734,1,0,0:0:0:0:
192,192,102886,1,2,0:0:0:0:
448,192,103037,1,0,0:0:0:0:
64,192,103189,1,0,0:0:0:0:
192,192,103340,1,8,0:0:0:0:
320,192,103492,1,0,0:0:0:0:
192,192,103643,1,0,0:0:0:0:
320,192,103795,1,2,0:0:0:0:
64,192,103946,1,0,0:0:0:0:
448,192,104098,1,0,0:0:0:0:
64,192,104249,1,0,0:0:0:0:
192,192,104325,1,0,0:0:0:0:
448,192,104401,1,0,0:0:0:0:
64,192,104477,1,0,0:0:0:0:
320,192,104552,1,0,0:0:0:0:
192,192,104704,128,0,105159:0:0:0:0:
64,192,105159,128,0,105613:0:0:0:0:
320,192,105613,128,0,106068:0:0:0:0:
64,192,106068,128,0,106522:0:0:0:0:
192,192,106522,128,0,107431:0:0:0:0:
448,192,107431,128,0,108340:0:0:0:0:
192,192,108340,128,0,109249:0:0:0:0:
320,192,109249,128,0,110159:0:0:0:0:
448,192,110159,128,0,110613:0:0:0:0:
320,192,110613,128,0,111068:0:0:0:0:
192,192,111068,128,0,113795:0:0:0:0:
320,192,113795,128,0,114704:0:0:0:0:
64,192,114704,128,0,118340:0:0:0:0:
