osu file format v14

[General]
AudioFilename: audio.mp3
AudioLeadIn: 0
PreviewTime: 46494
Countdown: 0
SampleSet: Normal
StackLeniency: 0.7
Mode: 3
LetterboxInBreaks: 0
SpecialStyle: 0
WidescreenStoryboard: 1

[Editor]
Bookmarks: 14704,29249
DistanceSpacing: 0.1
BeatDivisor: 4
GridSize: 32
TimelineZoom: 1.6

[Metadata]
Title:Otherside
TitleUnicode:Otherside
Artist:Taishi
ArtistUnicode:Taishi
Creator:AHHHHHHHHHHHHHH
Version:Hard
Source:CROSSxBEATS
Tags:AD:TRANCE 7 ad trance advantage diverse system instrumental electronic compllege progressive ambient
BeatmapID:2716758
BeatmapSetID:1310624

[Difficulty]
HPDrainRate:7.5
CircleSize:4
OverallDifficulty:7
ApproachRate:5
SliderMultiplier:1.4
SliderTickRate:1

[Events]
//Background and Video events
0,0,"81833027_p10.jpg",0,0
//Break Periods
//Storyboard Layer 0 (Background)
//Storyboard Layer 1 (Fail)
//Storyboard Layer 2 (Pass)
//Storyboard Layer 3 (Foreground)
//Storyboard Layer 4 (Overlay)
//Storyboard Sound Samples

[TimingPoints]
159,454.545454545455,4,1,1,100,1,0
76522,-100,4,1,1,100,0,1
83340,-100,4,1,1,100,0,0

[HitObjects]
64,192,159,5,2,0:0:0:0:
448,192,159,1,0,0:0:0:0:
320,192,386,1,0,0:0:0:0:
448,192,613,1,0,0:0:0:0:
192,192,613,1,2,0:0:0:0:
64,192,840,1,0,0:0:0:0:
320,192,1068,1,0,0:0:0:0:
192,192,1068,1,2,0:0:0:0:
448,192,1295,1,0,0:0:0:0:
320,192,1522,1,0,0:0:0:0:
64,192,1522,1,2,0:0:0:0:
192,192,1749,1,0,0:0:0:0:
448,192,1977,1,0,0:0:0:0:
320,192,1977,1,2,0:0:0:0:
64,192,2204,1,0,0:0:0:0:
448,192,2431,1,0,0:0:0:0:
192,192,2431,1,2,0:0:0:0:
320,192,2659,1,0,0:0:0:0:
192,192,2886,1,0,0:0:0:0:
64,192,2886,1,2,0:0:0:0:
448,192,3113,1,0,0:0:0:0:
320,192,3340,1,0,0:0:0:0:
64,192,3340,1,2,0:0:0:0:
448,192,3454,1,0,0:0:0:0:
192,192,3568,1,0,0:0:0:0:
320,192,3681,1,0,0:0:0:0:
448,192,3795,1,0,0:0:0:0:
64,192,3795,1,2,0:0:0:0:
192,192,4022,1,0,0:0:0:0:
64,192,4136,1,0,0:0:0:0:
448,192,4249,1,0,0:0:0:0:
320,192,4249,1,2,0:0:0:0:
64,192,4477,1,0,0:0:0:0:
448,192,4704,1,0,0:0:0:0:
192,192,4704,1,2,0:0:0:0:
320,192,4931,1,0,0:0:0:0:
448,192,5045,1,0,0:0:0:0:
192,192,5159,1,0,0:0:0:0:
64,192,5159,1,2,0:0:0:0:
320,192,5386,1,0,0:0:0:0:
448,192,5613,1,0,0:0:0:0:
64,192,5613,1,2,0:0:0:0:
192,192,5840,1,0,0:0:0:0:
448,192,5954,1,0,0:0:0:0:
320,192,6068,1,0,0:0:0:0:
64,192,6068,1,2,0:0:0:0:
448,192,6295,1,0,0:0:0:0:
192,192,6522,1,0,0:0:0:0:
64,192,6522,1,2,0:0:0:0:
320,192,6749,1,0,0:0:0:0:
64,192,6863,1,0,0:0:0:0:
192,192,6977,1,0,0:0:0:0:
448,192,6977,1,2,0:0:0:0:
320,192,7090,1,0,0:0:0:0:
64,192,7204,1,0,0:0:0:0:
192,192,7318,1,0,0:0:0:0:
448,192,7431,1,0,0:0:0:0:
320,192,7431,1,2,0:0:0:0:
64,192,7545,1,0,0:0:0:0:
192,192,7659,1,0,0:0:0:0:
320,192,7772,1,0,0:0:0:0:
448,192,7886,1,0,0:0:0:0:
64,192,7886,1,2,0:0:0:0:
192,192,7999,1,0,0:0:0:0:
320,192,8113,1,0,0:0:0:0:
64,192,8227,1,0,0:0:0:0:
448,192,8340,1,0,0:0:0:0:
192,192,8340,1,2,0:0:0:0:
320,192,8454,1,0,0:0:0:0:
64,192,8568,1,0,0:0:0:0:
448,192,8681,1,0,0:0:0:0:
320,192,8795,1,0,0:0:0:0:
192,192,8795,1,2,0:0:0:0:
64,192,8909,1,0,0:0:0:0:
448,192,9022,1,0,0:0:0:0:
192,192,9136,1,0,0:0:0:0:
320,192,9249,1,0,0:0:0:0:
64,192,9249,1,2,0:0:0:0:
448,192,9363,1,0,0:0:0:0:
192,192,9477,1,0,0:0:0:0:
320,192,9590,1,0,0:0:0:0:
448,192,9704,1,0,0:0:0:0:
64,192,9704,1,2,0:0:0:0:
192,192,9818,1,0,0:0:0:0:
320,192,9931,1,0,0:0:0:0:
64,192,10045,1,0,0:0:0:0:
448,192,10159,1,0,0:0:0:0:
192,192,10159,1,2,0:0:0:0:
320,192,10272,1,0,0:0:0:0:
64,192,10386,1,0,0:0:0:0:
448,192,10499,1,0,0:0:0:0:
192,192,10613,1,0,0:0:0:0:
320,192,10613,1,2,0:0:0:0:
64,192,10727,1,0,0:0:0:0:
448,192,10840,1,0,0:0:0:0:
320,192,10954,1,0,0:0:0:0:
192,192,11068,1,0,0:0:0:0:
64,192,11068,1,2,0:0:0:0:
448,192,11181,1,0,0:0:0:0:
64,192,11295,1,0,0:0:0:0:
320,192,11409,1,0,0:0:0:0:
448,192,11522,1,0,0:0:0:0:
192,192,11522,1,2,0:0:0:0:
64,192,11636,1,0,0:0:0:0:
320,192,11749,1,0,0:0:0:0:
192,192,11863,1,0,0:0:0:0:
448,192,11977,1,0,0:0:0:0:
64,192,11977,1,2,0:0:0:0:
320,192,12090,1,0,0:0:0:0:
64,192,12204,1,0,0:0:0:0:
192,192,12318,1,0,0:0:0:0:
448,192,12431,1,0,0:0:0:0:
320,192,12431,1,2,0:0:0:0:
192,192,12659,1,0,0:0:0:0:
64,192,12886,128,2,13113:0:0:0:0:
448,192,13340,128,2,13568:0:0:0:0:
64,192,13795,128,2,14022:0:0:0:0:
320,192,14249,1,2,0:0:0:0:
64,192,14477,128,0,14704:0:0:0:0:
192,192,14477,128,0,14704:0:0:0:0:
320,192,14704,1,0,0:0:0:0:
448,192,14704,1,2,0:0:0:0:
192,192,14818,1,0,0:0:0:0:
448,192,14931,1,0,0:0:0:0:
320,192,15045,1,0,0:0:0:0:
192,192,15159,1,0,0:0:0:0:
64,192,15159,1,2,0:0:0:0:
448,192,15272,1,0,0:0:0:0:
192,192,15386,1,0,0:0:0:0:
448,192,15499,1,0,0:0:0:0:
64,192,15613,1,0,0:0:0:0:
192,192,15613,128,2,15840:0:0:0:0:
448,192,15840,1,0,0:0:0:0:
320,192,15954,1,0,0:0:0:0:
448,192,16068,1,0,0:0:0:0:
64,192,16068,1,2,0:0:0:0:
192,192,16181,1,0,0:0:0:0:
320,192,16295,1,0,0:0:0:0:
192,192,16409,1,0,0:0:0:0:
448,192,16522,128,0,16749:0:0:0:0:
320,192,16522,1,2,0:0:0:0:
192,192,16749,1,0,0:0:0:0:
64,192,16863,1,0,0:0:0:0:
448,192,16977,1,0,0:0:0:0:
320,192,16977,1,2,0:0:0:0:
192,192,17090,1,0,0:0:0:0:
448,192,17204,1,0,0:0:0:0:
192,192,17318,1,0,0:0:0:0:
448,192,17431,1,0,0:0:0:0:
320,192,17431,128,2,17659:0:0:0:0:
64,192,17659,1,0,0:0:0:0:
192,192,17772,1,0,0:0:0:0:
448,192,17886,1,0,0:0:0:0:
64,192,17886,1,2,0:0:0:0:
320,192,17999,1,0,0:0:0:0:
192,192,18113,1,0,0:0:0:0:
448,192,18227,1,0,0:0:0:0:
192,192,18340,1,0,0:0:0:0:
64,192,18340,1,2,0:0:0:0:
320,192,18454,1,0,0:0:0:0:
64,192,18568,1,0,0:0:0:0:
192,192,18681,1,0,0:0:0:0:
448,192,18795,1,0,0:0:0:0:
320,192,18795,1,2,0:0:0:0:
64,192,18909,1,0,0:0:0:0:
448,192,19022,1,0,0:0:0:0:
64,192,19136,1,0,0:0:0:0:
448,192,19249,1,0,0:0:0:0:
320,192,19249,128,2,19477:0:0:0:0:
192,192,19477,1,0,0:0:0:0:
64,192,19590,1,0,0:0:0:0:
448,192,19704,1,0,0:0:0:0:
192,192,19704,1,2,0:0:0:0:
320,192,19818,1,0,0:0:0:0:
64,192,19931,1,0,0:0:0:0:
320,192,20045,1,0,0:0:0:0:
192,192,20159,128,0,20386:0:0:0:0:
64,192,20159,1,2,0:0:0:0:
448,192,20386,1,0,0:0:0:0:
320,192,20499,1,0,0:0:0:0:
192,192,20613,1,0,0:0:0:0:
64,192,20613,1,2,0:0:0:0:
448,192,20727,1,0,0:0:0:0:
192,192,20840,1,0,0:0:0:0:
448,192,20954,1,0,0:0:0:0:
320,192,21068,128,0,21295:0:0:0:0:
192,192,21068,128,2,21295:0:0:0:0:
64,192,21295,1,0,0:0:0:0:
448,192,21409,1,0,0:0:0:0:
192,192,21522,128,0,21749:0:0:0:0:
64,192,21522,128,2,21749:0:0:0:0:
448,192,21749,128,0,21977:0:0:0:0:
320,192,21749,128,0,21977:0:0:0:0:
192,192,21977,1,0,0:0:0:0:
64,192,21977,1,2,0:0:0:0:
320,192,22090,1,0,0:0:0:0:
64,192,22204,1,0,0:0:0:0:
192,192,22318,1,0,0:0:0:0:
448,192,22431,1,0,0:0:0:0:
320,192,22431,1,2,0:0:0:0:
64,192,22545,1,0,0:0:0:0:
320,192,22659,1,0,0:0:0:0:
64,192,22772,1,0,0:0:0:0:
320,192,22886,128,2,23113:0:0:0:0:
448,192,22886,1,0,0:0:0:0:
192,192,23113,1,0,0:0:0:0:
64,192,23227,1,0,0:0:0:0:
448,192,23340,1,0,0:0:0:0:
192,192,23340,1,2,0:0:0:0:
320,192,23454,1,0,0:0:0:0:
64,192,23568,1,0,0:0:0:0:
448,192,23681,1,0,0:0:0:0:
192,192,23795,1,0,0:0:0:0:
64,192,23795,128,2,24022:0:0:0:0:
320,192,24022,1,0,0:0:0:0:
448,192,24136,1,0,0:0:0:0:
192,192,24249,1,0,0:0:0:0:
64,192,24249,1,2,0:0:0:0:
320,192,24363,1,0,0:0:0:0:
64,192,24477,1,0,0:0:0:0:
320,192,24590,1,0,0:0:0:0:
192,192,24704,128,0,24931:0:0:0:0:
64,192,24704,1,2,0:0:0:0:
448,192,24931,1,0,0:0:0:0:
320,192,25045,1,0,0:0:0:0:
448,192,25159,1,0,0:0:0:0:
64,192,25159,1,2,0:0:0:0:
192,192,25272,1,0,0:0:0:0:
320,192,25386,1,0,0:0:0:0:
64,192,25499,1,0,0:0:0:0:
448,192,25613,1,0,0:0:0:0:
320,192,25613,1,2,0:0:0:0:
192,192,25727,1,0,0:0:0:0:
448,192,25840,1,0,0:0:0:0:
320,192,25954,1,0,0:0:0:0:
192,192,26068,1,0,0:0:0:0:
64,192,26068,1,2,0:0:0:0:
448,192,26181,1,0,0:0:0:0:
64,192,26295,1,0,0:0:0:0:
448,192,26409,1,0,0:0:0:0:
192,192,26522,128,0,26749:0:0:0:0:
64,192,26522,1,2,0:0:0:0:
320,192,26749,1,0,0:0:0:0:
448,192,26863,1,0,0:0:0:0:
320,192,26977,1,0,0:0:0:0:
64,192,26977,1,2,0:0:0:0:
192,192,27090,1,0,0:0:0:0:
448,192,27204,1,0,0:0:0:0:
64,192,27318,1,0,0:0:0:0:
448,192,27431,128,0,27659:0:0:0:0:
320,192,27431,1,2,0:0:0:0:
64,192,27659,1,0,0:0:0:0:
192,192,27772,1,0,0:0:0:0:
448,192,27886,1,0,0:0:0:0:
320,192,27886,1,2,0:0:0:0:
64,192,27999,1,0,0:0:0:0:
320,192,28113,1,0,0:0:0:0:
64,192,28227,1,0,0:0:0:0:
320,192,28340,128,0,28568:0:0:0:0:
192,192,28340,128,2,28568:0:0:0:0:
448,192,28568,1,0,0:0:0:0:
64,192,28681,1,0,0:0:0:0:
448,192,28795,128,0,29022:0:0:0:0:
320,192,28795,128,0,29022:0:0:0:0:
192,192,29022,128,0,29249:0:0:0:0:
64,192,29022,128,0,29249:0:0:0:0:
448,192,29249,128,0,29590:0:0:0:0:
320,192,29249,128,2,29590:0:0:0:0:
192,192,29477,1,0,0:0:0:0:
64,192,29590,1,0,0:0:0:0:
448,192,29704,128,0,30045:0:0:0:0:
320,192,29704,128,8,30045:0:0:0:0:
192,192,29931,1,0,0:0:0:0:
64,192,30045,1,0,0:0:0:0:
448,192,30159,1,0,0:0:0:0:
320,192,30159,1,2,0:0:0:0:
192,192,30272,1,0,0:0:0:0:
448,192,30386,1,0,0:0:0:0:
320,192,30499,1,0,0:0:0:0:
192,192,30613,1,0,0:0:0:0:
64,192,30613,128,8,31068:0:0:0:0:
448,192,30840,1,0,0:0:0:0:
192,192,30954,1,0,0:0:0:0:
448,192,31068,128,0,31409:0:0:0:0:
320,192,31068,128,2,31409:0:0:0:0:
192,192,31295,1,0,0:0:0:0:
64,192,31409,1,0,0:0:0:0:
448,192,31522,128,0,31863:0:0:0:0:
320,192,31522,128,8,31863:0:0:0:0:
192,192,31749,1,0,0:0:0:0:
64,192,31863,1,0,0:0:0:0:
448,192,31977,1,0,0:0:0:0:
320,192,31977,1,2,0:0:0:0:
192,192,32090,1,0,0:0:0:0:
448,192,32204,1,0,0:0:0:0:
320,192,32318,1,0,0:0:0:0:
192,192,32431,1,0,0:0:0:0:
64,192,32431,128,8,32659:0:0:0:0:
320,192,32659,128,0,32886:0:0:0:0:
448,192,32772,1,0,0:0:0:0:
192,192,32886,128,0,33227:0:0:0:0:
64,192,32886,128,2,33227:0:0:0:0:
448,192,33113,1,0,0:0:0:0:
320,192,33227,1,0,0:0:0:0:
192,192,33340,128,0,33568:0:0:0:0:
64,192,33340,128,8,33568:0:0:0:0:
448,192,33568,128,0,33795:0:0:0:0:
192,192,33795,1,0,0:0:0:0:
64,192,33795,1,2,0:0:0:0:
320,192,33909,1,0,0:0:0:0:
64,192,34022,1,0,0:0:0:0:
192,192,34136,1,0,0:0:0:0:
448,192,34249,128,0,34704:0:0:0:0:
320,192,34249,1,8,0:0:0:0:
64,192,34477,1,0,0:0:0:0:
320,192,34590,1,0,0:0:0:0:
192,192,34704,128,0,35045:0:0:0:0:
64,192,34704,128,2,35045:0:0:0:0:
320,192,34931,1,0,0:0:0:0:
448,192,35045,1,0,0:0:0:0:
192,192,35159,128,0,35499:0:0:0:0:
64,192,35159,128,8,35499:0:0:0:0:
320,192,35386,1,0,0:0:0:0:
448,192,35499,1,0,0:0:0:0:
192,192,35613,1,0,0:0:0:0:
64,192,35613,1,2,0:0:0:0:
320,192,35727,1,0,0:0:0:0:
64,192,35840,1,0,0:0:0:0:
192,192,35954,1,0,0:0:0:0:
448,192,36068,128,0,36295:0:0:0:0:
320,192,36068,1,8,0:0:0:0:
192,192,36295,128,0,36522:0:0:0:0:
448,192,36522,128,0,37431:0:0:0:0:
320,192,36522,1,2,0:0:0:0:
64,192,36636,1,0,0:0:0:0:
192,192,36749,1,0,0:0:0:0:
320,192,36863,1,0,0:0:0:0:
192,192,36977,1,8,0:0:0:0:
64,192,37090,1,0,0:0:0:0:
192,192,37204,1,0,0:0:0:0:
320,192,37318,1,0,0:0:0:0:
64,192,37431,1,2,0:0:0:0:
192,192,37545,1,0,0:0:0:0:
320,192,37659,1,0,0:0:0:0:
64,192,37772,1,0,0:0:0:0:
448,192,37886,1,0,0:0:0:0:
192,192,37886,1,8,0:0:0:0:
320,192,37999,1,0,0:0:0:0:
64,192,38113,1,0,0:0:0:0:
192,192,38227,1,0,0:0:0:0:
448,192,38340,128,0,39249:0:0:0:0:
320,192,38340,1,2,0:0:0:0:
64,192,38454,1,0,0:0:0:0:
192,192,38568,1,0,0:0:0:0:
320,192,38681,1,0,0:0:0:0:
192,192,38795,1,8,0:0:0:0:
64,192,38909,1,0,0:0:0:0:
192,192,39022,1,0,0:0:0:0:
320,192,39136,1,0,0:0:0:0:
64,192,39249,1,2,0:0:0:0:
192,192,39363,1,0,0:0:0:0:
320,192,39477,1,0,0:0:0:0:
64,192,39590,1,0,0:0:0:0:
448,192,39704,1,0,0:0:0:0:
192,192,39704,1,8,0:0:0:0:
320,192,39818,1,0,0:0:0:0:
320,192,40045,1,0,0:0:0:0:
192,192,40159,1,0,0:0:0:0:
64,192,40159,128,2,40613:0:0:0:0:
320,192,40386,1,0,0:0:0:0:
192,192,40499,1,0,0:0:0:0:
448,192,40613,1,0,0:0:0:0:
448,192,40840,1,0,0:0:0:0:
192,192,40954,1,0,0:0:0:0:
448,192,41068,128,0,41522:0:0:0:0:
320,192,41068,1,2,0:0:0:0:
64,192,41295,1,0,0:0:0:0:
320,192,41409,1,0,0:0:0:0:
64,192,41522,1,0,0:0:0:0:
192,192,41636,1,0,0:0:0:0:
320,192,41749,1,0,0:0:0:0:
448,192,41863,1,0,0:0:0:0:
64,192,41977,128,0,43795:0:0:0:0:
192,192,42204,1,0,0:0:0:0:
448,192,42318,1,0,0:0:0:0:
320,192,42431,1,0,0:0:0:0:
192,192,42545,1,0,0:0:0:0:
448,192,42659,1,0,0:0:0:0:
320,192,42772,1,0,0:0:0:0:
192,192,42886,1,0,0:0:0:0:
320,192,42999,1,0,0:0:0:0:
448,192,43113,1,0,0:0:0:0:
192,192,43227,1,0,0:0:0:0:
320,192,43340,128,0,43568:0:0:0:0:
448,192,43568,128,0,43795:0:0:0:0:
192,192,43909,1,0,0:0:0:0:
320,192,44022,1,0,0:0:0:0:
448,192,44249,1,0,0:0:0:0:
320,192,44363,128,0,46522:0:0:0:0:
448,192,46522,1,0,0:0:0:0:
64,192,46522,1,0,0:0:0:0:
192,192,47431,128,0,50613:0:0:0:0:
64,192,47431,128,0,50613:0:0:0:0:
448,192,50159,1,0,0:0:0:0:
320,192,50613,1,0,0:0:0:0:
448,192,51068,128,0,51749:0:0:0:0:
64,192,51068,128,0,51749:0:0:0:0:
448,192,51977,128,0,54249:0:0:0:0:
64,192,51977,128,0,54249:0:0:0:0:
320,192,52431,1,0,0:0:0:0:
192,192,52659,1,0,0:0:0:0:
192,192,52886,1,0,0:0:0:0:
320,192,54249,1,0,0:0:0:0:
64,192,54477,1,0,0:0:0:0:
448,192,54704,128,0,57886:0:0:0:0:
192,192,54704,128,0,57886:0:0:0:0:
320,192,56295,1,0,0:0:0:0:
320,192,56522,1,0,0:0:0:0:
64,192,57886,1,0,0:0:0:0:
320,192,58113,1,0,0:0:0:0:
192,192,58340,128,0,59022:0:0:0:0:
64,192,58340,128,0,59022:0:0:0:0:
192,192,59249,128,0,61522:0:0:0:0:
64,192,59249,128,0,61522:0:0:0:0:
448,192,59704,1,0,0:0:0:0:
320,192,60159,1,0,0:0:0:0:
448,192,61068,1,0,0:0:0:0:
320,192,61522,1,0,0:0:0:0:
192,192,61749,1,0,0:0:0:0:
448,192,61977,128,0,65159:0:0:0:0:
64,192,61977,128,0,65159:0:0:0:0:
192,192,64704,1,0,0:0:0:0:
320,192,65159,1,0,0:0:0:0:
448,192,65613,128,0,66295:0:0:0:0:
192,192,65613,128,0,66295:0:0:0:0:
448,192,66522,128,0,68795:0:0:0:0:
192,192,66522,128,0,68795:0:0:0:0:
64,192,66977,1,0,0:0:0:0:
320,192,67204,1,0,0:0:0:0:
64,192,67431,1,0,0:0:0:0:
320,192,68795,1,0,0:0:0:0:
64,192,69022,1,0,0:0:0:0:
320,192,69249,128,0,72431:0:0:0:0:
192,192,69249,128,0,72431:0:0:0:0:
64,192,70840,1,0,0:0:0:0:
64,192,71068,1,0,0:0:0:0:
448,192,72431,1,0,0:0:0:0:
192,192,72659,1,0,0:0:0:0:
448,192,72886,128,0,73568:0:0:0:0:
64,192,72886,128,0,73568:0:0:0:0:
448,192,73795,128,0,75613:0:0:0:0:
64,192,73795,128,0,75613:0:0:0:0:
320,192,74249,1,0,0:0:0:0:
192,192,74704,1,0,0:0:0:0:
192,192,75613,1,0,0:0:0:0:
320,192,75689,1,0,0:0:0:0:
448,192,75765,1,0,0:0:0:0:
64,192,75840,1,0,0:0:0:0:
192,192,75916,1,0,0:0:0:0:
320,192,75992,1,0,0:0:0:0:
448,192,76068,128,0,76295:0:0:0:0:
64,192,76295,128,0,76522:0:0:0:0:
448,192,76522,128,0,76977:0:0:0:0:
320,192,76522,128,2,76977:0:0:0:0:
64,192,76977,1,8,0:0:0:0:
192,192,77052,1,0,0:0:0:0:
448,192,77128,1,0,0:0:0:0:
320,192,77204,1,0,0:0:0:0:
64,192,77280,1,0,0:0:0:0:
192,192,77355,1,0,0:0:0:0:
448,192,77431,128,0,77886:0:0:0:0:
320,192,77431,128,2,77886:0:0:0:0:
64,192,77886,1,8,0:0:0:0:
192,192,77962,1,0,0:0:0:0:
320,192,78037,1,0,0:0:0:0:
64,192,78113,1,0,0:0:0:0:
448,192,78189,1,0,0:0:0:0:
320,192,78265,1,0,0:0:0:0:
192,192,78340,128,0,78795:0:0:0:0:
64,192,78340,128,2,78795:0:0:0:0:
448,192,78795,1,8,0:0:0:0:
320,192,78871,1,0,0:0:0:0:
64,192,78946,1,0,0:0:0:0:
192,192,79022,1,0,0:0:0:0:
448,192,79098,1,0,0:0:0:0:
320,192,79174,1,0,0:0:0:0:
192,192,79249,128,0,79704:0:0:0:0:
64,192,79249,128,2,79704:0:0:0:0:
448,192,79704,1,8,0:0:0:0:
320,192,79780,1,0,0:0:0:0:
192,192,79855,1,0,0:0:0:0:
64,192,79931,128,0,80159:0:0:0:0:
448,192,80159,128,0,80613:0:0:0:0:
320,192,80159,128,2,80613:0:0:0:0:
64,192,80613,1,8,0:0:0:0:
192,192,80689,1,0,0:0:0:0:
448,192,80765,1,0,0:0:0:0:
320,192,80840,1,0,0:0:0:0:
64,192,80916,1,0,0:0:0:0:
192,192,80992,1,0,0:0:0:0:
448,192,81068,128,0,81522:0:0:0:0:
320,192,81068,128,2,81522:0:0:0:0:
64,192,81522,1,8,0:0:0:0:
192,192,81598,1,0,0:0:0:0:
448,192,81674,1,0,0:0:0:0:
320,192,81749,1,0,0:0:0:0:
192,192,81825,1,0,0:0:0:0:
448,192,81901,1,0,0:0:0:0:
320,192,81977,128,0,82431:0:0:0:0:
64,192,81977,128,2,82431:0:0:0:0:
192,192,82431,1,8,0:0:0:0:
448,192,82507,1,0,0:0:0:0:
320,192,82583,1,0,0:0:0:0:
192,192,82659,1,0,0:0:0:0:
448,192,82734,1,0,0:0:0:0:
320,192,82810,1,0,0:0:0:0:
192,192,82886,128,0,83037:0:0:0:0:
64,192,82886,128,2,83037:0:0:0:0:
448,192,83037,128,0,83189:0:0:0:0:
320,192,83037,128,0,83189:0:0:0:0:
192,192,83189,128,0,83340:0:0:0:0:
64,192,83189,128,0,83340:0:0:0:0:
448,192,83340,128,0,83568:0:0:0:0:
192,192,83568,128,0,83795:0:0:0:0:
64,192,83568,128,0,83795:0:0:0:0:
448,192,83795,128,0,83946:0:0:0:0:
320,192,83795,1,2,0:0:0:0:
64,192,83946,128,0,84098:0:0:0:0:
448,192,84098,128,0,84249:0:0:0:0:
192,192,84249,1,0,0:0:0:0:
64,192,84249,1,8,0:0:0:0:
320,192,84325,1,0,0:0:0:0:
448,192,84401,1,0,0:0:0:0:
192,192,84477,1,0,0:0:0:0:
320,192,84552,1,0,0:0:0:0:
64,192,84628,1,0,0:0:0:0:
448,192,84704,128,0,84855:0:0:0:0:
192,192,84704,1,2,0:0:0:0:
64,192,84855,128,0,85007:0:0:0:0:
448,192,85007,128,0,85159:0:0:0:0:
192,192,85159,128,0,85310:0:0:0:0:
64,192,85159,128,8,85310:0:0:0:0:
448,192,85310,128,0,85462:0:0:0:0:
320,192,85310,128,0,85462:0:0:0:0:
192,192,85462,128,0,85613:0:0:0:0:
64,192,85462,128,0,85613:0:0:0:0:
448,192,85613,128,0,85765:0:0:0:0:
320,192,85613,1,2,0:0:0:0:
64,192,85765,128,0,85916:0:0:0:0:
448,192,85916,128,0,86068:0:0:0:0:
192,192,86068,1,8,0:0:0:0:
64,192,86068,1,0,0:0:0:0:
320,192,86143,1,0,0:0:0:0:
448,192,86219,1,0,0:0:0:0:
192,192,86295,1,0,0:0:0:0:
64,192,86371,1,0,0:0:0:0:
320,192,86446,1,0,0:0:0:0:
448,192,86522,128,0,86674:0:0:0:0:
192,192,86522,1,2,0:0:0:0:
64,192,86674,128,0,86825:0:0:0:0:
448,192,86825,128,0,86977:0:0:0:0:
320,192,86977,1,0,0:0:0:0:
64,192,86977,1,8,0:0:0:0:
192,192,87052,1,0,0:0:0:0:
448,192,87128,1,0,0:0:0:0:
320,192,87204,1,0,0:0:0:0:
192,192,87280,128,0,87431:0:0:0:0:
448,192,87431,1,0,0:0:0:0:
64,192,87431,128,2,87583:0:0:0:0:
320,192,87583,128,0,87734:0:0:0:0:
64,192,87734,128,0,87886:0:0:0:0:
448,192,87886,1,0,0:0:0:0:
320,192,87886,1,8,0:0:0:0:
192,192,87962,1,0,0:0:0:0:
64,192,88037,1,0,0:0:0:0:
448,192,88113,1,0,0:0:0:0:
192,192,88189,1,0,0:0:0:0:
320,192,88265,1,0,0:0:0:0:
448,192,88340,1,0,0:0:0:0:
64,192,88340,128,2,88492:0:0:0:0:
320,192,88492,128,0,88643:0:0:0:0:
64,192,88643,128,0,88795:0:0:0:0:
448,192,88795,128,0,88946:0:0:0:0:
320,192,88795,128,8,88946:0:0:0:0:
192,192,88946,128,0,89098:0:0:0:0:
64,192,88946,128,0,89098:0:0:0:0:
448,192,89098,128,0,89249:0:0:0:0:
320,192,89098,128,0,89249:0:0:0:0:
192,192,89249,1,0,0:0:0:0:
64,192,89249,128,2,89401:0:0:0:0:
320,192,89401,128,0,89552:0:0:0:0:
64,192,89552,128,0,89704:0:0:0:0:
448,192,89704,1,0,0:0:0:0:
320,192,89704,1,8,0:0:0:0:
192,192,89780,1,0,0:0:0:0:
64,192,89855,1,0,0:0:0:0:
448,192,89931,1,0,0:0:0:0:
320,192,90007,1,0,0:0:0:0:
192,192,90083,1,0,0:0:0:0:
448,192,90159,1,0,0:0:0:0:
64,192,90159,128,2,90310:0:0:0:0:
320,192,90310,128,0,90462:0:0:0:0:
64,192,90462,128,0,90613:0:0:0:0:
448,192,90613,1,0,0:0:0:0:
320,192,90613,1,8,0:0:0:0:
192,192,90689,1,0,0:0:0:0:
64,192,90765,1,0,0:0:0:0:
320,192,90840,1,0,0:0:0:0:
192,192,90916,128,0,91068:0:0:0:0:
448,192,91068,128,0,91522:0:0:0:0:
64,192,91068,128,2,91522:0:0:0:0:
320,192,91219,1,0,0:0:0:0:
192,192,91371,1,0,0:0:0:0:
320,192,91522,1,8,0:0:0:0:
192,192,91598,1,0,0:0:0:0:
448,192,91674,1,0,0:0:0:0:
64,192,91749,1,0,0:0:0:0:
320,192,91825,1,0,0:0:0:0:
192,192,91901,1,0,0:0:0:0:
448,192,91977,128,0,92431:0:0:0:0:
64,192,91977,128,2,92431:0:0:0:0:
320,192,92128,1,0,0:0:0:0:
192,192,92280,1,0,0:0:0:0:
320,192,92431,128,8,92583:0:0:0:0:
448,192,92583,128,0,92734:0:0:0:0:
64,192,92583,128,0,92734:0:0:0:0:
320,192,92734,128,0,92886:0:0:0:0:
192,192,92734,128,0,92886:0:0:0:0:
448,192,92886,128,0,93340:0:0:0:0:
64,192,92886,128,2,93340:0:0:0:0:
192,192,93037,1,0,0:0:0:0:
320,192,93189,1,0,0:0:0:0:
192,192,93340,1,8,0:0:0:0:
320,192,93416,1,0,0:0:0:0:
64,192,93492,1,0,0:0:0:0:
448,192,93568,1,0,0:0:0:0:
192,192,93643,1,0,0:0:0:0:
320,192,93719,1,0,0:0:0:0:
448,192,93795,128,0,94249:0:0:0:0:
64,192,93795,128,2,94249:0:0:0:0:
192,192,93946,1,0,0:0:0:0:
320,192,94098,1,0,0:0:0:0:
192,192,94249,1,8,0:0:0:0:
320,192,94325,1,0,0:0:0:0:
64,192,94401,1,0,0:0:0:0:
192,192,94477,1,0,0:0:0:0:
320,192,94552,128,0,94704:0:0:0:0:
448,192,94704,128,0,95159:0:0:0:0:
64,192,94704,128,2,95159:0:0:0:0:
320,192,94855,1,0,0:0:0:0:
192,192,95007,1,0,0:0:0:0:
320,192,95159,1,8,0:0:0:0:
192,192,95234,1,0,0:0:0:0:
448,192,95310,1,0,0:0:0:0:
64,192,95386,1,0,0:0:0:0:
320,192,95462,1,0,0:0:0:0:
192,192,95537,1,0,0:0:0:0:
448,192,95613,128,0,96068:0:0:0:0:
64,192,95613,128,2,96068:0:0:0:0:
320,192,95765,1,0,0:0:0:0:
192,192,95916,1,0,0:0:0:0:
320,192,96068,128,8,96219:0:0:0:0:
448,192,96219,128,0,96371:0:0:0:0:
64,192,96219,128,0,96371:0:0:0:0:
320,192,96371,128,0,96522:0:0:0:0:
192,192,96371,128,0,96522:0:0:0:0:
448,192,96522,128,0,96977:0:0:0:0:
64,192,96522,128,2,96977:0:0:0:0:
192,192,96674,1,0,0:0:0:0:
320,192,96825,1,0,0:0:0:0:
192,192,96977,1,8,0:0:0:0:
320,192,97052,1,0,0:0:0:0:
64,192,97128,1,0,0:0:0:0:
448,192,97204,1,0,0:0:0:0:
192,192,97280,1,0,0:0:0:0:
64,192,97355,1,0,0:0:0:0:
448,192,97431,128,0,97886:0:0:0:0:
320,192,97431,128,2,97886:0:0:0:0:
192,192,97583,1,0,0:0:0:0:
64,192,97734,1,0,0:0:0:0:
192,192,97886,1,0,0:0:0:0:
64,192,97962,1,0,0:0:0:0:
320,192,98037,1,0,0:0:0:0:
448,192,98113,128,0,98340:0:0:0:0:
192,192,98340,1,0,0:0:0:0:
64,192,98340,128,2,98492:0:0:0:0:
448,192,98492,128,0,98643:0:0:0:0:
64,192,98643,128,0,98795:0:0:0:0:
448,192,98795,1,0,0:0:0:0:
320,192,98795,1,8,0:0:0:0:
192,192,98871,1,0,0:0:0:0:
64,192,98946,1,0,0:0:0:0:
320,192,99022,1,0,0:0:0:0:
192,192,99098,1,0,0:0:0:0:
448,192,99174,1,0,0:0:0:0:
320,192,99249,1,0,0:0:0:0:
64,192,99249,128,2,99401:0:0:0:0:
448,192,99401,128,0,99552:0:0:0:0:
64,192,99552,128,0,99704:0:0:0:0:
448,192,99704,128,0,99855:0:0:0:0:
320,192,99704,128,8,99855:0:0:0:0:
192,192,99855,128,0,100007:0:0:0:0:
64,192,99855,128,0,100007:0:0:0:0:
448,192,100007,128,0,100159:0:0:0:0:
320,192,100007,128,0,100159:0:0:0:0:
192,192,100159,1,0,0:0:0:0:
64,192,100159,128,2,100310:0:0:0:0:
448,192,100310,128,0,100462:0:0:0:0:
64,192,100462,128,0,100613:0:0:0:0:
448,192,100613,1,0,0:0:0:0:
320,192,100613,1,8,0:0:0:0:
192,192,100689,1,0,0:0:0:0:
64,192,100765,1,0,0:0:0:0:
320,192,100840,1,0,0:0:0:0:
448,192,100916,1,0,0:0:0:0:
192,192,100992,1,0,0:0:0:0:
320,192,101068,1,0,0:0:0:0:
64,192,101068,128,2,101219:0:0:0:0:
448,192,101219,128,0,101371:0:0:0:0:
64,192,101371,128,0,101522:0:0:0:0:
448,192,101522,1,0,0:0:0:0:
192,192,101522,1,8,0:0:0:0:
320,192,101598,1,0,0:0:0:0:
64,192,101674,1,0,0:0:0:0:
192,192,101749,1,0,0:0:0:0:
320,192,101825,128,0,101977:0:0:0:0:
448,192,101977,128,0,102128:0:0:0:0:
64,192,101977,1,2,0:0:0:0:
192,192,102128,128,0,102280:0:0:0:0:
448,192,102280,128,0,102431:0:0:0:0:
192,192,102431,1,0,0:0:0:0:
64,192,102431,1,8,0:0:0:0:
320,192,102507,1,0,0:0:0:0:
448,192,102583,1,0,0:0:0:0:
64,192,102659,1,0,0:0:0:0:
320,192,102734,1,0,0:0:0:0:
192,192,102810,1,0,0:0:0:0:
448,192,102886,128,0,103037:0:0:0:0:
64,192,102886,1,2,0:0:0:0:
192,192,103037,128,0,103189:0:0:0:0:
448,192,103189,128,0,103340:0:0:0:0:
192,192,103340,128,0,103492:0:0:0:0:
64,192,103340,128,8,103492:0:0:0:0:
448,192,103492,128,0,103643:0:0:0:0:
320,192,103492,128,0,103643:0:0:0:0:
192,192,103643,128,0,103795:0:0:0:0:
64,192,103643,128,0,103795:0:0:0:0:
448,192,103795,128,0,103946:0:0:0:0:
320,192,103795,1,2,0:0:0:0:
192,192,103946,128,0,104098:0:0:0:0:
448,192,104098,128,0,104249:0:0:0:0:
64,192,104249,1,0,0:0:0:0:
320,192,104325,1,0,0:0:0:0:
448,192,104401,1,0,0:0:0:0:
192,192,104477,1,0,0:0:0:0:
64,192,104552,1,0,0:0:0:0:
320,192,104628,1,0,0:0:0:0:
448,192,104704,128,0,104855:0:0:0:0:
192,192,104855,128,0,105007:0:0:0:0:
64,192,105007,128,0,105159:0:0:0:0:
448,192,105159,1,0,0:0:0:0:
320,192,105234,1,0,0:0:0:0:
192,192,105310,1,0,0:0:0:0:
64,192,105386,1,0,0:0:0:0:
448,192,105462,128,0,105613:0:0:0:0:
192,192,105613,128,0,106068:0:0:0:0:
64,192,105613,1,0,0:0:0:0:
320,192,106068,128,0,106522:0:0:0:0:
192,192,106522,128,0,109249:0:0:0:0:
64,192,106522,128,0,107431:0:0:0:0:
448,192,107431,128,0,108340:0:0:0:0:
320,192,108340,128,0,109249:0:0:0:0:
64,192,109249,128,0,109477:0:0:0:0:
192,192,109477,128,0,110159:0:0:0:0:
448,192,110159,128,0,110613:0:0:0:0:
320,192,110613,128,0,111068:0:0:0:0:
192,192,111068,128,0,113795:0:0:0:0:
320,192,113795,128,0,114704:0:0:0:0:
448,192,114704,128,0,116522:0:0:0:0:
64,192,114704,128,0,118340:0:0:0:0:
