osu file format v14

[General]
AudioFilename: insideblue.mp3
AudioLeadIn: 0
PreviewTime: 265881
Countdown: 0
SampleSet: Normal
StackLeniency: 0.7
Mode: 3
LetterboxInBreaks: 0
SpecialStyle: 0
WidescreenStoryboard: 1

[Editor]
Bookmarks: 881,29966,59057,73602,88148,102693,117245,131790,146335,177245,206335,220881,235426,249972,266335,280880,295425,309971,324971,353607
DistanceSpacing: 1.15
BeatDivisor: 6
GridSize: 16
TimelineZoom: 2.599998

[Metadata]
Title:INSIDE BLUE INSIDE - Part2
TitleUnicode:INSIDE BLUE INSIDE - Part2
Artist:Taishi
ArtistUnicode:Taishi
Creator:Ballistic
Version:Demersal
Source:
Tags:compllege COCD-0006 河合泰志 Yasushi Kawai electronic instrumental ambient breakbeat electronica ethnic trance long note LN omln3 penguinosity elexire
BeatmapID:3943642
BeatmapSetID:1911841

[Difficulty]
HPDrainRate:8.5
CircleSize:4
OverallDifficulty:7
ApproachRate:5
SliderMultiplier:1.4
SliderTickRate:1

[Events]
//Background and Video events
0,0,"insideblue.jpg",0,0
//Break Periods
//Storyboard Layer 0 (Background)
//Storyboard Layer 1 (Fail)
//Storyboard Layer 2 (Pass)
//Storyboard Layer 3 (Foreground)
//Storyboard Layer 4 (Overlay)
//Storyboard Sound Samples

[TimingPoints]
930,454.545454545455,4,1,1,35,1,0

[HitObjects]
64,192,930,5,0,0:0:0:0:
448,192,930,1,0,0:0:0:0:
320,192,980,1,0,0:0:0:0:
192,192,1031,1,0,0:0:0:0:
448,192,1081,1,0,0:0:0:0:
320,192,1132,1,0,0:0:0:0:
64,192,1182,1,0,0:0:0:0:
448,192,1233,128,0,1384:0:0:0:0:
192,192,1308,128,0,1384:0:0:0:0:
64,192,1384,1,0,0:0:0:0:
320,192,1384,1,0,0:0:0:0:
192,192,1839,1,0,0:0:0:0:
448,192,2293,1,0,0:0:0:0:
192,192,2293,1,0,0:0:0:0:
64,192,2748,1,0,0:0:0:0:
448,192,3202,1,0,0:0:0:0:
64,192,3202,1,0,0:0:0:0:
320,192,3657,1,0,0:0:0:0:
320,192,4111,1,0,0:0:0:0:
64,192,4111,1,0,0:0:0:0:
192,192,4566,1,0,0:0:0:0:
448,192,5020,1,0,0:0:0:0:
192,192,5020,1,0,0:0:0:0:
320,192,5475,1,0,0:0:0:0:
64,192,5930,1,0,0:0:0:0:
320,192,5930,1,0,0:0:0:0:
448,192,6384,1,0,0:0:0:0:
448,192,6839,1,0,0:0:0:0:
64,192,6839,1,0,0:0:0:0:
192,192,7293,1,0,0:0:0:0:
448,192,7748,1,0,0:0:0:0:
192,192,7748,1,0,0:0:0:0:
320,192,8202,1,0,0:0:0:0:
64,192,8657,1,0,0:0:0:0:
320,192,8657,1,0,0:0:0:0:
192,192,9111,1,0,0:0:0:0:
448,192,9566,1,0,0:0:0:0:
192,192,9566,1,0,0:0:0:0:
320,192,10020,1,0,0:0:0:0:
64,192,10475,1,0,0:0:0:0:
320,192,10475,1,0,0:0:0:0:
192,192,10930,1,0,0:0:0:0:
448,192,11384,1,0,0:0:0:0:
192,192,11384,1,0,0:0:0:0:
320,192,11839,128,0,12748:0:0:0:0:
64,192,11839,1,0,0:0:0:0:
64,192,12293,1,0,0:0:0:0:
192,192,12293,1,0,0:0:0:0:
448,192,12748,1,0,0:0:0:0:
192,192,13202,1,0,0:0:0:0:
448,192,13202,1,0,0:0:0:0:
64,192,13600,128,0,14566:0:0:0:0:
320,192,13657,1,0,0:0:0:0:
320,192,14111,1,0,0:0:0:0:
448,192,14111,1,0,0:0:0:0:
192,192,14566,1,0,0:0:0:0:
448,192,15020,1,0,0:0:0:0:
192,192,15020,1,0,0:0:0:0:
448,192,15475,5,0,0:0:0:0:
64,192,15475,1,0,0:0:0:0:
192,192,15525,1,0,0:0:0:0:
320,192,15576,1,0,0:0:0:0:
64,192,15626,1,0,0:0:0:0:
192,192,15677,1,0,0:0:0:0:
448,192,15727,1,0,0:0:0:0:
64,192,15778,128,0,15930:0:0:0:0:
320,192,15854,128,0,15930:0:0:0:0:
192,192,15930,1,0,0:0:0:0:
448,192,15930,1,0,0:0:0:0:
320,192,16384,1,0,0:0:0:0:
64,192,16839,1,0,0:0:0:0:
320,192,16839,1,0,0:0:0:0:
448,192,17293,1,0,0:0:0:0:
64,192,17748,1,0,0:0:0:0:
448,192,17748,1,0,0:0:0:0:
192,192,18202,1,0,0:0:0:0:
448,192,18657,1,0,0:0:0:0:
192,192,18657,1,0,0:0:0:0:
320,192,19111,1,0,0:0:0:0:
64,192,19566,1,0,0:0:0:0:
320,192,19566,1,0,0:0:0:0:
192,192,20020,1,0,0:0:0:0:
448,192,20475,1,0,0:0:0:0:
192,192,20475,1,0,0:0:0:0:
64,192,20930,1,0,0:0:0:0:
448,192,21384,1,0,0:0:0:0:
64,192,21384,1,0,0:0:0:0:
320,192,21839,1,0,0:0:0:0:
64,192,22293,1,0,0:0:0:0:
320,192,22293,1,0,0:0:0:0:
192,192,22748,1,0,0:0:0:0:
448,192,23202,1,0,0:0:0:0:
192,192,23202,1,0,0:0:0:0:
320,192,23657,1,0,0:0:0:0:
64,192,24111,1,0,0:0:0:0:
320,192,24111,1,0,0:0:0:0:
192,192,24566,1,0,0:0:0:0:
448,192,25020,1,0,0:0:0:0:
192,192,25020,1,0,0:0:0:0:
320,192,25475,1,0,0:0:0:0:
64,192,25930,1,0,0:0:0:0:
320,192,25930,1,0,0:0:0:0:
448,192,26384,1,0,0:0:0:0:
192,192,26384,128,0,27293:0:0:0:0:
448,192,26839,1,0,0:0:0:0:
320,192,26839,1,0,0:0:0:0:
64,192,27293,1,0,0:0:0:0:
320,192,27748,1,0,0:0:0:0:
64,192,27748,1,0,0:0:0:0:
448,192,28202,128,0,29642:0:0:0:0:
192,192,28202,1,0,0:0:0:0:
64,192,28657,1,0,0:0:0:0:
192,192,28657,1,0,0:0:0:0:
192,192,29111,128,0,29566:0:0:0:0:
64,192,29566,5,0,0:0:0:0:
320,192,29566,128,0,29642:0:0:0:0:
192,192,29717,128,0,29793:0:0:0:0:
320,192,29869,128,0,29945:0:0:0:0:
64,192,30020,5,0,0:0:0:0:
448,192,30020,1,0,0:0:0:0:
320,192,30071,1,0,0:0:0:0:
192,192,30121,1,0,0:0:0:0:
448,192,30172,1,0,0:0:0:0:
192,192,30222,1,0,0:0:0:0:
64,192,30273,1,0,0:0:0:0:
320,192,30323,128,0,30778:0:0:0:0:
448,192,30399,128,0,30551:0:0:0:0:
64,192,30475,1,0,0:0:0:0:
192,192,30475,1,0,0:0:0:0:
192,192,30626,128,0,30702:0:0:0:0:
320,192,30930,1,0,0:0:0:0:
64,192,30930,1,0,0:0:0:0:
192,192,31233,1,0,0:0:0:0:
192,192,31384,1,0,0:0:0:0:
448,192,31384,1,0,0:0:0:0:
320,192,31839,1,0,0:0:0:0:
448,192,31839,1,0,0:0:0:0:
192,192,32142,1,0,0:0:0:0:
192,192,32293,1,0,0:0:0:0:
64,192,32293,128,0,32369:0:0:0:0:
320,192,32445,128,0,32596:0:0:0:0:
64,192,32748,1,0,0:0:0:0:
448,192,32748,1,0,0:0:0:0:
192,192,33051,1,0,0:0:0:0:
192,192,33202,1,0,0:0:0:0:
320,192,33202,1,0,0:0:0:0:
192,192,33657,1,0,0:0:0:0:
448,192,33657,1,0,0:0:0:0:
320,192,33960,1,0,0:0:0:0:
320,192,34111,1,0,0:0:0:0:
64,192,34111,128,0,34187:0:0:0:0:
192,192,34263,128,0,34414:0:0:0:0:
192,192,34566,1,0,0:0:0:0:
64,192,34566,1,0,0:0:0:0:
320,192,34869,1,0,0:0:0:0:
320,192,35020,1,0,0:0:0:0:
448,192,35020,1,0,0:0:0:0:
320,192,35475,1,0,0:0:0:0:
192,192,35475,1,0,0:0:0:0:
64,192,35778,1,0,0:0:0:0:
448,192,35930,1,0,0:0:0:0:
64,192,35930,128,0,36005:0:0:0:0:
320,192,36081,128,0,36233:0:0:0:0:
320,192,36384,1,0,0:0:0:0:
448,192,36384,1,0,0:0:0:0:
64,192,36687,1,0,0:0:0:0:
64,192,36839,1,0,0:0:0:0:
320,192,36839,1,0,0:0:0:0:
192,192,37293,128,0,37899:0:0:0:0:
448,192,37293,128,0,37445:0:0:0:0:
64,192,37520,128,0,37672:0:0:0:0:
448,192,37596,1,0,0:0:0:0:
448,192,37748,128,0,38051:0:0:0:0:
320,192,37748,1,0,0:0:0:0:
64,192,37899,128,0,37975:0:0:0:0:
64,192,38202,1,0,0:0:0:0:
448,192,38202,1,0,0:0:0:0:
320,192,38505,1,0,0:0:0:0:
320,192,38657,1,0,0:0:0:0:
64,192,38657,1,0,0:0:0:0:
192,192,39111,1,0,0:0:0:0:
448,192,39111,1,0,0:0:0:0:
64,192,39414,1,0,0:0:0:0:
64,192,39566,1,0,0:0:0:0:
192,192,39566,128,0,39642:0:0:0:0:
448,192,39717,128,0,39869:0:0:0:0:
192,192,40020,1,0,0:0:0:0:
64,192,40020,1,0,0:0:0:0:
448,192,40323,1,0,0:0:0:0:
448,192,40475,1,0,0:0:0:0:
192,192,40475,1,0,0:0:0:0:
320,192,40930,1,0,0:0:0:0:
64,192,40930,1,0,0:0:0:0:
192,192,41233,1,0,0:0:0:0:
192,192,41384,128,0,41460:0:0:0:0:
64,192,41384,1,0,0:0:0:0:
320,192,41536,128,0,41687:0:0:0:0:
448,192,41839,1,0,0:0:0:0:
64,192,41839,1,0,0:0:0:0:
192,192,42142,1,0,0:0:0:0:
192,192,42293,1,0,0:0:0:0:
448,192,42293,1,0,0:0:0:0:
320,192,42748,1,0,0:0:0:0:
64,192,42748,1,0,0:0:0:0:
448,192,43051,1,0,0:0:0:0:
448,192,43202,1,0,0:0:0:0:
192,192,43202,128,0,43278:0:0:0:0:
320,192,43354,128,0,43505:0:0:0:0:
320,192,43657,1,0,0:0:0:0:
448,192,43657,1,0,0:0:0:0:
192,192,43960,1,0,0:0:0:0:
192,192,44111,1,0,0:0:0:0:
448,192,44111,1,0,0:0:0:0:
448,192,44566,5,0,0:0:0:0:
64,192,44566,1,0,0:0:0:0:
192,192,44616,1,0,0:0:0:0:
320,192,44667,1,0,0:0:0:0:
64,192,44717,1,0,0:0:0:0:
320,192,44768,1,0,0:0:0:0:
448,192,44818,1,0,0:0:0:0:
192,192,44869,128,0,45323:0:0:0:0:
64,192,44945,128,0,45096:0:0:0:0:
320,192,45020,1,0,0:0:0:0:
448,192,45020,1,0,0:0:0:0:
320,192,45172,128,0,45248:0:0:0:0:
448,192,45475,1,0,0:0:0:0:
192,192,45475,1,0,0:0:0:0:
320,192,45778,1,0,0:0:0:0:
320,192,45930,1,0,0:0:0:0:
64,192,45930,1,0,0:0:0:0:
192,192,46384,1,0,0:0:0:0:
64,192,46384,1,0,0:0:0:0:
320,192,46687,1,0,0:0:0:0:
448,192,46839,128,0,46914:0:0:0:0:
320,192,46839,1,0,0:0:0:0:
192,192,46990,128,0,47142:0:0:0:0:
64,192,47293,1,0,0:0:0:0:
448,192,47293,1,0,0:0:0:0:
320,192,47596,1,0,0:0:0:0:
320,192,47748,1,0,0:0:0:0:
192,192,47748,1,0,0:0:0:0:
320,192,48202,1,0,0:0:0:0:
64,192,48202,1,0,0:0:0:0:
192,192,48505,1,0,0:0:0:0:
448,192,48657,128,0,48733:0:0:0:0:
192,192,48657,1,0,0:0:0:0:
64,192,48808,128,0,48960:0:0:0:0:
320,192,49111,1,0,0:0:0:0:
448,192,49111,1,0,0:0:0:0:
192,192,49414,1,0,0:0:0:0:
192,192,49566,1,0,0:0:0:0:
64,192,49566,1,0,0:0:0:0:
320,192,50020,1,0,0:0:0:0:
192,192,50020,1,0,0:0:0:0:
448,192,50323,1,0,0:0:0:0:
448,192,50475,128,0,50551:0:0:0:0:
64,192,50475,1,0,0:0:0:0:
192,192,50626,128,0,50778:0:0:0:0:
64,192,50930,1,0,0:0:0:0:
320,192,50930,1,0,0:0:0:0:
448,192,51233,1,0,0:0:0:0:
192,192,51384,1,0,0:0:0:0:
448,192,51384,1,0,0:0:0:0:
448,192,51839,128,0,51990:0:0:0:0:
192,192,51839,128,0,52445:0:0:0:0:
64,192,52066,128,0,52217:0:0:0:0:
448,192,52142,1,0,0:0:0:0:
320,192,52293,128,0,52596:0:0:0:0:
448,192,52293,1,0,0:0:0:0:
64,192,52445,128,0,52520:0:0:0:0:
448,192,52748,1,0,0:0:0:0:
64,192,52748,1,0,0:0:0:0:
192,192,53051,1,0,0:0:0:0:
320,192,53202,1,0,0:0:0:0:
192,192,53202,1,0,0:0:0:0:
192,192,53657,1,0,0:0:0:0:
448,192,53657,1,0,0:0:0:0:
320,192,53960,1,0,0:0:0:0:
320,192,54111,128,0,54187:0:0:0:0:
448,192,54111,1,0,0:0:0:0:
64,192,54263,128,0,54414:0:0:0:0:
448,192,54566,1,0,0:0:0:0:
64,192,54566,1,0,0:0:0:0:
320,192,54869,1,0,0:0:0:0:
64,192,55020,1,0,0:0:0:0:
320,192,55020,1,0,0:0:0:0:
448,192,55475,1,0,0:0:0:0:
64,192,55778,128,0,55930:0:0:0:0:
448,192,55930,1,0,0:0:0:0:
192,192,55930,1,0,0:0:0:0:
64,192,56384,5,0,0:0:0:0:
448,192,56687,128,0,56839:0:0:0:0:
64,192,56839,1,0,0:0:0:0:
320,192,56839,1,0,0:0:0:0:
192,192,57293,128,0,57369:0:0:0:0:
320,192,57293,128,0,57748:0:0:0:0:
192,192,57445,128,0,57596:0:0:0:0:
448,192,57596,128,0,57748:0:0:0:0:
64,192,57748,128,0,57823:0:0:0:0:
192,192,57748,128,0,57899:0:0:0:0:
448,192,57823,128,0,57975:0:0:0:0:
64,192,57899,128,0,57975:0:0:0:0:
320,192,57899,128,0,57975:0:0:0:0:
64,192,58051,128,0,58126:0:0:0:0:
320,192,58051,128,0,58202:0:0:0:0:
64,192,58202,128,0,58581:0:0:0:0:
192,192,58202,128,0,58430:0:0:0:0:
320,192,58354,128,0,58430:0:0:0:0:
448,192,58354,128,0,58581:0:0:0:0:
320,192,58505,128,0,58657:0:0:0:0:
192,192,58505,128,0,58657:0:0:0:0:
64,192,58657,128,0,58960:0:0:0:0:
448,192,58657,128,0,58733:0:0:0:0:
192,192,58733,128,0,58884:0:0:0:0:
320,192,58808,128,0,59036:0:0:0:0:
448,192,58884,128,0,58960:0:0:0:0:
192,192,58960,128,0,59111:0:0:0:0:
64,192,59036,128,0,59111:0:0:0:0:
320,192,59111,5,0,0:0:0:0:
448,192,59111,1,0,0:0:0:0:
192,192,59162,1,0,0:0:0:0:
64,192,59212,1,0,0:0:0:0:
320,192,59263,1,0,0:0:0:0:
192,192,59313,1,0,0:0:0:0:
448,192,59364,1,0,0:0:0:0:
320,192,59414,128,0,59642:0:0:0:0:
64,192,59490,128,0,59642:0:0:0:0:
192,192,59566,128,0,59869:0:0:0:0:
448,192,59566,1,0,0:0:0:0:
320,192,59717,128,0,60020:0:0:0:0:
64,192,59869,128,0,59945:0:0:0:0:
192,192,59945,128,0,60020:0:0:0:0:
64,192,60020,1,0,0:0:0:0:
448,192,60020,1,0,0:0:0:0:
448,192,60172,128,0,60475:0:0:0:0:
64,192,60172,128,0,60475:0:0:0:0:
192,192,60323,1,0,0:0:0:0:
192,192,60475,1,0,0:0:0:0:
320,192,60475,1,0,0:0:0:0:
448,192,60551,128,0,60854:0:0:0:0:
64,192,60551,128,0,60930:0:0:0:0:
320,192,60626,128,0,60854:0:0:0:0:
192,192,60778,128,0,60930:0:0:0:0:
448,192,60930,128,0,61005:0:0:0:0:
320,192,60930,128,0,61005:0:0:0:0:
64,192,61005,128,0,61081:0:0:0:0:
320,192,61081,128,0,61157:0:0:0:0:
192,192,61081,128,0,61308:0:0:0:0:
320,192,61233,128,0,61384:0:0:0:0:
64,192,61308,128,0,61460:0:0:0:0:
448,192,61384,128,0,61611:0:0:0:0:
192,192,61384,128,0,61460:0:0:0:0:
192,192,61536,128,0,61687:0:0:0:0:
320,192,61611,128,0,61763:0:0:0:0:
448,192,61687,128,0,61763:0:0:0:0:
64,192,61763,128,0,61839:0:0:0:0:
320,192,61839,128,0,62066:0:0:0:0:
192,192,61839,128,0,61914:0:0:0:0:
192,192,61990,128,0,62142:0:0:0:0:
448,192,62066,128,0,62217:0:0:0:0:
320,192,62142,128,0,62217:0:0:0:0:
64,192,62217,128,0,62293:0:0:0:0:
192,192,62293,128,0,62445:0:0:0:0:
448,192,62293,128,0,62369:0:0:0:0:
320,192,62369,128,0,62520:0:0:0:0:
64,192,62445,128,0,62520:0:0:0:0:
192,192,62520,128,0,62596:0:0:0:0:
448,192,62596,128,0,62748:0:0:0:0:
320,192,62596,128,0,62748:0:0:0:0:
192,192,62748,5,0,0:0:0:0:
64,192,62748,1,0,0:0:0:0:
320,192,62798,1,0,0:0:0:0:
448,192,62849,1,0,0:0:0:0:
192,192,62899,1,0,0:0:0:0:
320,192,62950,1,0,0:0:0:0:
64,192,63000,1,0,0:0:0:0:
192,192,63051,128,0,63278:0:0:0:0:
448,192,63126,128,0,63278:0:0:0:0:
64,192,63202,1,0,0:0:0:0:
320,192,63202,128,0,63430:0:0:0:0:
192,192,63354,128,0,63505:0:0:0:0:
320,192,63505,128,0,63657:0:0:0:0:
192,192,63581,128,0,63657:0:0:0:0:
64,192,63657,1,0,0:0:0:0:
448,192,63657,1,0,0:0:0:0:
64,192,63808,128,0,64111:0:0:0:0:
448,192,63808,128,0,64111:0:0:0:0:
320,192,63960,1,0,0:0:0:0:
320,192,64111,1,0,0:0:0:0:
192,192,64111,1,0,0:0:0:0:
64,192,64187,128,0,64490:0:0:0:0:
448,192,64187,128,0,64566:0:0:0:0:
192,192,64263,128,0,64490:0:0:0:0:
320,192,64414,128,0,64566:0:0:0:0:
64,192,64566,128,0,64642:0:0:0:0:
192,192,64566,128,0,64642:0:0:0:0:
448,192,64642,128,0,64717:0:0:0:0:
64,192,64717,128,0,64793:0:0:0:0:
320,192,64717,128,0,64945:0:0:0:0:
64,192,64869,128,0,65020:0:0:0:0:
448,192,64945,128,0,65096:0:0:0:0:
192,192,65020,128,0,65248:0:0:0:0:
320,192,65020,128,0,65096:0:0:0:0:
320,192,65172,128,0,65323:0:0:0:0:
64,192,65248,128,0,65399:0:0:0:0:
192,192,65323,128,0,65399:0:0:0:0:
448,192,65399,128,0,65475:0:0:0:0:
320,192,65475,128,0,65551:0:0:0:0:
64,192,65475,128,0,65702:0:0:0:0:
320,192,65626,128,0,65778:0:0:0:0:
192,192,65702,128,0,65854:0:0:0:0:
448,192,65778,128,0,65854:0:0:0:0:
64,192,65854,128,0,65930:0:0:0:0:
448,192,65930,128,0,66005:0:0:0:0:
192,192,65930,128,0,66081:0:0:0:0:
320,192,66005,128,0,66157:0:0:0:0:
64,192,66081,128,0,66157:0:0:0:0:
192,192,66157,128,0,66233:0:0:0:0:
448,192,66233,128,0,66384:0:0:0:0:
320,192,66233,128,0,66384:0:0:0:0:
64,192,66384,1,0,0:0:0:0:
192,192,66384,1,0,0:0:0:0:
320,192,66435,1,0,0:0:0:0:
448,192,66485,1,0,0:0:0:0:
192,192,66536,1,0,0:0:0:0:
320,192,66586,1,0,0:0:0:0:
64,192,66637,1,0,0:0:0:0:
192,192,66687,128,0,66914:0:0:0:0:
448,192,66763,128,0,66914:0:0:0:0:
320,192,66839,128,0,67142:0:0:0:0:
64,192,66839,1,0,0:0:0:0:
192,192,66990,128,0,67293:0:0:0:0:
448,192,67142,128,0,67217:0:0:0:0:
320,192,67217,128,0,67293:0:0:0:0:
448,192,67293,1,0,0:0:0:0:
64,192,67293,1,0,0:0:0:0:
448,192,67445,128,0,67748:0:0:0:0:
64,192,67445,128,0,67748:0:0:0:0:
192,192,67596,1,0,0:0:0:0:
320,192,67748,1,0,0:0:0:0:
192,192,67748,1,0,0:0:0:0:
448,192,67823,128,0,68126:0:0:0:0:
64,192,67823,128,0,68202:0:0:0:0:
320,192,67899,128,0,68126:0:0:0:0:
192,192,68051,128,0,68202:0:0:0:0:
320,192,68202,128,0,68278:0:0:0:0:
448,192,68202,128,0,68278:0:0:0:0:
64,192,68278,128,0,68354:0:0:0:0:
192,192,68354,128,0,68581:0:0:0:0:
448,192,68354,128,0,68430:0:0:0:0:
448,192,68505,128,0,68657:0:0:0:0:
64,192,68581,128,0,68733:0:0:0:0:
192,192,68657,128,0,68733:0:0:0:0:
320,192,68657,128,0,68884:0:0:0:0:
192,192,68808,128,0,68960:0:0:0:0:
448,192,68884,128,0,69036:0:0:0:0:
320,192,68960,128,0,69036:0:0:0:0:
64,192,69036,128,0,69111:0:0:0:0:
448,192,69111,128,0,69339:0:0:0:0:
192,192,69111,128,0,69187:0:0:0:0:
192,192,69263,128,0,69414:0:0:0:0:
320,192,69339,128,0,69490:0:0:0:0:
64,192,69414,128,0,69490:0:0:0:0:
448,192,69490,128,0,69566:0:0:0:0:
320,192,69566,128,0,69717:0:0:0:0:
64,192,69566,128,0,69642:0:0:0:0:
192,192,69642,128,0,69793:0:0:0:0:
448,192,69717,128,0,69793:0:0:0:0:
320,192,69793,128,0,69869:0:0:0:0:
192,192,69869,128,0,70020:0:0:0:0:
64,192,69869,128,0,70020:0:0:0:0:
448,192,70020,1,0,0:0:0:0:
320,192,70020,1,0,0:0:0:0:
192,192,70071,1,0,0:0:0:0:
64,192,70121,1,0,0:0:0:0:
320,192,70172,1,0,0:0:0:0:
192,192,70222,1,0,0:0:0:0:
448,192,70273,1,0,0:0:0:0:
320,192,70323,128,0,70551:0:0:0:0:
64,192,70399,128,0,70551:0:0:0:0:
192,192,70475,128,0,70702:0:0:0:0:
448,192,70475,1,0,0:0:0:0:
320,192,70626,128,0,70778:0:0:0:0:
192,192,70778,128,0,70930:0:0:0:0:
320,192,70854,128,0,70930:0:0:0:0:
64,192,70930,1,0,0:0:0:0:
448,192,70930,1,0,0:0:0:0:
448,192,71081,128,0,71384:0:0:0:0:
64,192,71081,128,0,71384:0:0:0:0:
320,192,71233,1,0,0:0:0:0:
192,192,71384,1,0,0:0:0:0:
320,192,71384,1,0,0:0:0:0:
448,192,71460,128,0,71839:0:0:0:0:
64,192,71460,128,0,71763:0:0:0:0:
192,192,71536,128,0,71763:0:0:0:0:
320,192,71687,128,0,71839:0:0:0:0:
64,192,71839,128,0,71914:0:0:0:0:
192,192,71839,128,0,71914:0:0:0:0:
448,192,71914,128,0,71990:0:0:0:0:
192,192,71990,128,0,72066:0:0:0:0:
320,192,71990,128,0,72217:0:0:0:0:
192,192,72142,128,0,72293:0:0:0:0:
448,192,72217,128,0,72369:0:0:0:0:
64,192,72293,128,0,72520:0:0:0:0:
320,192,72293,128,0,72369:0:0:0:0:
320,192,72445,128,0,72596:0:0:0:0:
192,192,72520,128,0,72672:0:0:0:0:
64,192,72596,128,0,72672:0:0:0:0:
448,192,72672,128,0,72748:0:0:0:0:
192,192,72748,128,0,72975:0:0:0:0:
320,192,72748,128,0,72823:0:0:0:0:
320,192,72899,128,0,73051:0:0:0:0:
64,192,72975,128,0,73126:0:0:0:0:
192,192,73051,128,0,73126:0:0:0:0:
320,192,73126,128,0,73202:0:0:0:0:
64,192,73202,128,0,73278:0:0:0:0:
320,192,73278,128,0,73354:0:0:0:0:
192,192,73354,128,0,73430:0:0:0:0:
448,192,73430,128,0,73505:0:0:0:0:
320,192,73505,128,0,73581:0:0:0:0:
448,192,73581,128,0,73657:0:0:0:0:
192,192,73657,128,0,73884:0:0:0:0:
64,192,73657,1,0,0:0:0:0:
320,192,73707,128,0,73783:0:0:0:0:
448,192,73758,1,0,0:0:0:0:
64,192,73808,128,0,73884:0:0:0:0:
448,192,73859,1,0,0:0:0:0:
320,192,73909,1,0,0:0:0:0:
192,192,73960,128,0,74036:0:0:0:0:
64,192,73960,128,0,74036:0:0:0:0:
448,192,74111,128,0,74263:0:0:0:0:
192,192,74111,128,0,74187:0:0:0:0:
320,192,74111,128,0,74414:0:0:0:0:
192,192,74263,128,0,74490:0:0:0:0:
64,192,74414,128,0,74490:0:0:0:0:
448,192,74414,128,0,74490:0:0:0:0:
320,192,74490,128,0,74566:0:0:0:0:
64,192,74566,128,0,74642:0:0:0:0:
448,192,74566,128,0,74869:0:0:0:0:
192,192,74566,128,0,74717:0:0:0:0:
320,192,74717,128,0,74793:0:0:0:0:
64,192,74717,128,0,74869:0:0:0:0:
320,192,74869,128,0,75020:0:0:0:0:
192,192,74869,128,0,74945:0:0:0:0:
64,192,75020,128,0,75248:0:0:0:0:
192,192,75020,128,0,75096:0:0:0:0:
448,192,75020,128,0,75096:0:0:0:0:
448,192,75172,128,0,75399:0:0:0:0:
192,192,75172,128,0,75399:0:0:0:0:
320,192,75323,128,0,75551:0:0:0:0:
64,192,75323,128,0,75399:0:0:0:0:
448,192,75475,1,0,0:0:0:0:
64,192,75475,128,0,75778:0:0:0:0:
192,192,75475,128,0,75626:0:0:0:0:
448,192,75626,128,0,75702:0:0:0:0:
320,192,75626,128,0,75702:0:0:0:0:
192,192,75702,1,0,0:0:0:0:
320,192,75778,128,0,75854:0:0:0:0:
448,192,75778,1,0,0:0:0:0:
192,192,75930,1,0,0:0:0:0:
320,192,75930,128,0,76081:0:0:0:0:
64,192,75930,128,0,76005:0:0:0:0:
192,192,76081,128,0,76233:0:0:0:0:
448,192,76081,128,0,76157:0:0:0:0:
64,192,76233,128,0,76308:0:0:0:0:
320,192,76233,128,0,76384:0:0:0:0:
192,192,76308,128,0,76384:0:0:0:0:
448,192,76384,128,0,76460:0:0:0:0:
64,192,76384,128,0,76687:0:0:0:0:
448,192,76536,128,0,76687:0:0:0:0:
320,192,76536,128,0,76611:0:0:0:0:
192,192,76687,128,0,76763:0:0:0:0:
320,192,76763,128,0,76839:0:0:0:0:
64,192,76839,1,0,0:0:0:0:
192,192,76839,128,0,76914:0:0:0:0:
192,192,76990,1,0,0:0:0:0:
64,192,76990,128,0,77066:0:0:0:0:
64,192,77142,128,0,77293:0:0:0:0:
320,192,77142,128,0,77217:0:0:0:0:
192,192,77217,1,0,0:0:0:0:
448,192,77293,5,0,0:0:0:0:
320,192,77293,1,0,0:0:0:0:
192,192,77344,128,0,77420:0:0:0:0:
64,192,77394,1,0,0:0:0:0:
448,192,77445,128,0,77520:0:0:0:0:
320,192,77495,1,0,0:0:0:0:
64,192,77546,1,0,0:0:0:0:
448,192,77596,128,0,77672:0:0:0:0:
192,192,77596,128,0,77672:0:0:0:0:
192,192,77748,128,0,77823:0:0:0:0:
320,192,77748,128,0,77975:0:0:0:0:
448,192,77748,128,0,77899:0:0:0:0:
192,192,77899,128,0,78051:0:0:0:0:
448,192,77975,128,0,78051:0:0:0:0:
64,192,78051,128,0,78126:0:0:0:0:
320,192,78051,128,0,78126:0:0:0:0:
192,192,78126,128,0,78202:0:0:0:0:
64,192,78202,128,0,78505:0:0:0:0:
448,192,78202,128,0,78278:0:0:0:0:
320,192,78202,128,0,78581:0:0:0:0:
448,192,78354,1,0,0:0:0:0:
192,192,78354,128,0,78430:0:0:0:0:
192,192,78505,128,0,78657:0:0:0:0:
448,192,78505,128,0,78581:0:0:0:0:
320,192,78657,128,0,78733:0:0:0:0:
64,192,78657,128,0,78733:0:0:0:0:
448,192,78657,128,0,78884:0:0:0:0:
64,192,78808,128,0,79036:0:0:0:0:
320,192,78808,128,0,79036:0:0:0:0:
192,192,78960,128,0,79036:0:0:0:0:
448,192,78960,128,0,79187:0:0:0:0:
64,192,79111,128,0,79414:0:0:0:0:
192,192,79111,128,0,79263:0:0:0:0:
320,192,79111,1,0,0:0:0:0:
320,192,79263,128,0,79339:0:0:0:0:
448,192,79263,128,0,79339:0:0:0:0:
192,192,79339,1,0,0:0:0:0:
448,192,79414,1,0,0:0:0:0:
320,192,79414,128,0,79490:0:0:0:0:
64,192,79566,128,0,79642:0:0:0:0:
320,192,79566,128,0,79717:0:0:0:0:
192,192,79566,1,0,0:0:0:0:
448,192,79717,128,0,79793:0:0:0:0:
192,192,79717,128,0,79869:0:0:0:0:
320,192,79869,128,0,80020:0:0:0:0:
64,192,79869,128,0,79945:0:0:0:0:
192,192,79945,128,0,80020:0:0:0:0:
64,192,80020,128,0,80323:0:0:0:0:
448,192,80020,128,0,80096:0:0:0:0:
320,192,80172,128,0,80248:0:0:0:0:
448,192,80172,128,0,80323:0:0:0:0:
192,192,80323,128,0,80399:0:0:0:0:
320,192,80399,128,0,80475:0:0:0:0:
192,192,80475,128,0,80551:0:0:0:0:
64,192,80475,1,0,0:0:0:0:
64,192,80626,128,0,80702:0:0:0:0:
192,192,80626,1,0,0:0:0:0:
64,192,80778,128,0,80930:0:0:0:0:
320,192,80778,128,0,80854:0:0:0:0:
192,192,80854,1,0,0:0:0:0:
448,192,80930,5,0,0:0:0:0:
320,192,80930,1,0,0:0:0:0:
192,192,80980,128,0,81056:0:0:0:0:
64,192,81031,1,0,0:0:0:0:
448,192,81081,128,0,81157:0:0:0:0:
320,192,81132,1,0,0:0:0:0:
64,192,81182,1,0,0:0:0:0:
192,192,81233,128,0,81308:0:0:0:0:
448,192,81233,128,0,81308:0:0:0:0:
64,192,81384,128,0,81536:0:0:0:0:
320,192,81384,128,0,81460:0:0:0:0:
192,192,81384,128,0,81687:0:0:0:0:
320,192,81536,128,0,81763:0:0:0:0:
448,192,81687,128,0,81763:0:0:0:0:
64,192,81687,128,0,81763:0:0:0:0:
192,192,81763,128,0,81839:0:0:0:0:
448,192,81839,128,0,81914:0:0:0:0:
64,192,81839,128,0,82142:0:0:0:0:
320,192,81839,128,0,81990:0:0:0:0:
192,192,81990,128,0,82066:0:0:0:0:
448,192,81990,128,0,82142:0:0:0:0:
192,192,82142,128,0,82293:0:0:0:0:
320,192,82142,128,0,82217:0:0:0:0:
448,192,82293,128,0,82520:0:0:0:0:
320,192,82293,128,0,82369:0:0:0:0:
64,192,82293,128,0,82369:0:0:0:0:
64,192,82445,128,0,82672:0:0:0:0:
320,192,82445,128,0,82672:0:0:0:0:
192,192,82596,128,0,82823:0:0:0:0:
448,192,82596,128,0,82672:0:0:0:0:
64,192,82748,1,0,0:0:0:0:
448,192,82748,128,0,83051:0:0:0:0:
320,192,82748,128,0,82899:0:0:0:0:
64,192,82899,128,0,82975:0:0:0:0:
192,192,82899,128,0,82975:0:0:0:0:
320,192,82975,1,0,0:0:0:0:
192,192,83051,128,0,83126:0:0:0:0:
64,192,83051,1,0,0:0:0:0:
320,192,83202,1,0,0:0:0:0:
192,192,83202,128,0,83354:0:0:0:0:
448,192,83202,128,0,83278:0:0:0:0:
320,192,83354,128,0,83505:0:0:0:0:
64,192,83354,128,0,83430:0:0:0:0:
448,192,83505,128,0,83581:0:0:0:0:
192,192,83505,128,0,83657:0:0:0:0:
320,192,83581,128,0,83657:0:0:0:0:
64,192,83657,128,0,83733:0:0:0:0:
448,192,83657,128,0,83960:0:0:0:0:
64,192,83808,128,0,83960:0:0:0:0:
192,192,83808,128,0,83884:0:0:0:0:
320,192,83960,128,0,84036:0:0:0:0:
192,192,84036,128,0,84111:0:0:0:0:
448,192,84111,1,0,0:0:0:0:
320,192,84111,128,0,84187:0:0:0:0:
320,192,84263,1,0,0:0:0:0:
448,192,84263,128,0,84339:0:0:0:0:
192,192,84414,128,0,84490:0:0:0:0:
448,192,84414,128,0,84566:0:0:0:0:
320,192,84490,1,0,0:0:0:0:
64,192,84566,5,0,0:0:0:0:
192,192,84566,1,0,0:0:0:0:
320,192,84616,128,0,84692:0:0:0:0:
448,192,84667,1,0,0:0:0:0:
64,192,84717,128,0,84793:0:0:0:0:
192,192,84768,1,0,0:0:0:0:
448,192,84818,1,0,0:0:0:0:
64,192,84869,128,0,84945:0:0:0:0:
320,192,84869,128,0,84945:0:0:0:0:
64,192,85020,128,0,85172:0:0:0:0:
192,192,85020,128,0,85248:0:0:0:0:
320,192,85020,128,0,85096:0:0:0:0:
320,192,85172,128,0,85323:0:0:0:0:
64,192,85248,128,0,85323:0:0:0:0:
192,192,85323,128,0,85399:0:0:0:0:
448,192,85323,128,0,85399:0:0:0:0:
320,192,85399,128,0,85475:0:0:0:0:
192,192,85475,128,0,85854:0:0:0:0:
64,192,85475,128,0,85551:0:0:0:0:
448,192,85475,128,0,85778:0:0:0:0:
320,192,85626,128,0,85702:0:0:0:0:
64,192,85626,1,0,0:0:0:0:
64,192,85778,128,0,85854:0:0:0:0:
320,192,85778,128,0,85930:0:0:0:0:
64,192,85930,128,0,86157:0:0:0:0:
448,192,85930,128,0,86005:0:0:0:0:
192,192,85930,128,0,86005:0:0:0:0:
192,192,86081,128,0,86308:0:0:0:0:
448,192,86081,128,0,86308:0:0:0:0:
64,192,86233,128,0,86460:0:0:0:0:
320,192,86233,128,0,86308:0:0:0:0:
192,192,86384,1,0,0:0:0:0:
320,192,86384,128,0,86536:0:0:0:0:
448,192,86384,128,0,86687:0:0:0:0:
64,192,86536,128,0,86611:0:0:0:0:
192,192,86536,128,0,86611:0:0:0:0:
320,192,86611,1,0,0:0:0:0:
192,192,86687,128,0,86763:0:0:0:0:
64,192,86687,1,0,0:0:0:0:
320,192,86839,1,0,0:0:0:0:
192,192,86839,128,0,86990:0:0:0:0:
448,192,86839,128,0,86914:0:0:0:0:
320,192,86990,128,0,87142:0:0:0:0:
64,192,86990,128,0,87066:0:0:0:0:
448,192,87142,128,0,87217:0:0:0:0:
192,192,87142,128,0,87293:0:0:0:0:
320,192,87217,128,0,87293:0:0:0:0:
64,192,87293,128,0,87369:0:0:0:0:
448,192,87293,128,0,87596:0:0:0:0:
64,192,87445,128,0,87596:0:0:0:0:
192,192,87445,1,0,0:0:0:0:
320,192,87520,1,0,0:0:0:0:
192,192,87596,1,0,0:0:0:0:
448,192,87672,1,0,0:0:0:0:
320,192,87748,128,0,87823:0:0:0:0:
64,192,87748,1,0,0:0:0:0:
320,192,87899,1,0,0:0:0:0:
64,192,87899,128,0,87975:0:0:0:0:
192,192,88051,1,0,0:0:0:0:
448,192,88051,128,0,88126:0:0:0:0:
448,192,88202,1,0,0:0:0:0:
320,192,88202,128,0,88430:0:0:0:0:
192,192,88253,128,0,88329:0:0:0:0:
64,192,88303,1,0,0:0:0:0:
448,192,88354,128,0,88430:0:0:0:0:
64,192,88404,1,0,0:0:0:0:
192,192,88455,1,0,0:0:0:0:
448,192,88505,128,0,88581:0:0:0:0:
320,192,88505,128,0,88581:0:0:0:0:
192,192,88657,128,0,88960:0:0:0:0:
320,192,88657,128,0,88733:0:0:0:0:
64,192,88657,128,0,88808:0:0:0:0:
320,192,88808,128,0,89036:0:0:0:0:
64,192,88960,128,0,89036:0:0:0:0:
448,192,88960,128,0,89036:0:0:0:0:
192,192,89036,128,0,89111:0:0:0:0:
320,192,89111,128,0,89187:0:0:0:0:
448,192,89111,128,0,89339:0:0:0:0:
64,192,89111,128,0,89263:0:0:0:0:
192,192,89263,128,0,89414:0:0:0:0:
320,192,89263,128,0,89793:0:0:0:0:
448,192,89414,128,0,89490:0:0:0:0:
64,192,89414,128,0,89566:0:0:0:0:
192,192,89566,128,0,89717:0:0:0:0:
448,192,89566,128,0,89793:0:0:0:0:
64,192,89717,128,0,89945:0:0:0:0:
192,192,89793,128,0,90020:0:0:0:0:
320,192,89869,128,0,90020:0:0:0:0:
448,192,89869,128,0,89945:0:0:0:0:
448,192,90020,128,0,90172:0:0:0:0:
64,192,90020,128,0,90248:0:0:0:0:
320,192,90172,128,0,90248:0:0:0:0:
192,192,90172,128,0,90399:0:0:0:0:
448,192,90248,128,0,90323:0:0:0:0:
320,192,90323,128,0,90475:0:0:0:0:
64,192,90399,128,0,90475:0:0:0:0:
448,192,90475,128,0,90551:0:0:0:0:
192,192,90475,128,0,90626:0:0:0:0:
64,192,90626,128,0,90702:0:0:0:0:
320,192,90626,128,0,90778:0:0:0:0:
192,192,90778,128,0,90930:0:0:0:0:
448,192,90778,128,0,90854:0:0:0:0:
320,192,90854,128,0,90930:0:0:0:0:
448,192,90930,128,0,91233:0:0:0:0:
64,192,90930,128,0,91005:0:0:0:0:
192,192,91081,128,0,91157:0:0:0:0:
64,192,91081,128,0,91233:0:0:0:0:
320,192,91233,128,0,91308:0:0:0:0:
192,192,91308,128,0,91384:0:0:0:0:
320,192,91384,128,0,91460:0:0:0:0:
448,192,91384,1,0,0:0:0:0:
448,192,91536,128,0,91611:0:0:0:0:
320,192,91536,1,0,0:0:0:0:
448,192,91687,128,0,91839:0:0:0:0:
192,192,91687,128,0,91763:0:0:0:0:
320,192,91763,1,0,0:0:0:0:
64,192,91839,5,0,0:0:0:0:
192,192,91839,1,0,0:0:0:0:
320,192,91889,128,0,91965:0:0:0:0:
448,192,91940,1,0,0:0:0:0:
64,192,91990,128,0,92066:0:0:0:0:
192,192,92041,1,0,0:0:0:0:
448,192,92091,1,0,0:0:0:0:
320,192,92142,128,0,92217:0:0:0:0:
64,192,92142,128,0,92217:0:0:0:0:
448,192,92293,128,0,92445:0:0:0:0:
320,192,92293,128,0,92520:0:0:0:0:
192,192,92293,128,0,92369:0:0:0:0:
192,192,92445,128,0,92596:0:0:0:0:
448,192,92520,128,0,92596:0:0:0:0:
320,192,92596,128,0,92672:0:0:0:0:
64,192,92596,128,0,92672:0:0:0:0:
192,192,92672,128,0,92748:0:0:0:0:
320,192,92748,128,0,92823:0:0:0:0:
448,192,92748,128,0,92899:0:0:0:0:
64,192,92748,128,0,92899:0:0:0:0:
192,192,92899,128,0,93051:0:0:0:0:
320,192,92899,128,0,93202:0:0:0:0:
448,192,93051,128,0,93430:0:0:0:0:
64,192,93051,128,0,93126:0:0:0:0:
192,192,93202,128,0,93354:0:0:0:0:
64,192,93202,128,0,93430:0:0:0:0:
320,192,93354,128,0,93581:0:0:0:0:
192,192,93430,128,0,93657:0:0:0:0:
64,192,93505,128,0,93581:0:0:0:0:
448,192,93505,128,0,93657:0:0:0:0:
64,192,93657,128,0,93884:0:0:0:0:
320,192,93657,128,0,93808:0:0:0:0:
192,192,93808,128,0,93884:0:0:0:0:
448,192,93808,128,0,94036:0:0:0:0:
320,192,93884,128,0,93960:0:0:0:0:
192,192,93960,128,0,94111:0:0:0:0:
64,192,93960,1,0,0:0:0:0:
320,192,94036,128,0,94111:0:0:0:0:
64,192,94111,128,0,94263:0:0:0:0:
448,192,94111,128,0,94187:0:0:0:0:
320,192,94263,128,0,94414:0:0:0:0:
192,192,94263,128,0,94339:0:0:0:0:
64,192,94414,128,0,94490:0:0:0:0:
192,192,94414,128,0,94566:0:0:0:0:
320,192,94490,128,0,94566:0:0:0:0:
448,192,94566,128,0,94642:0:0:0:0:
64,192,94566,128,0,94869:0:0:0:0:
448,192,94717,128,0,94869:0:0:0:0:
320,192,94717,128,0,94793:0:0:0:0:
192,192,94869,128,0,94945:0:0:0:0:
320,192,94945,128,0,95020:0:0:0:0:
64,192,95020,1,0,0:0:0:0:
192,192,95020,128,0,95096:0:0:0:0:
192,192,95172,1,0,0:0:0:0:
64,192,95172,128,0,95248:0:0:0:0:
64,192,95323,128,0,95475:0:0:0:0:
320,192,95323,128,0,95399:0:0:0:0:
192,192,95399,1,0,0:0:0:0:
448,192,95475,5,0,0:0:0:0:
320,192,95475,1,0,0:0:0:0:
192,192,95525,128,0,95601:0:0:0:0:
64,192,95576,1,0,0:0:0:0:
448,192,95626,128,0,95702:0:0:0:0:
320,192,95677,1,0,0:0:0:0:
64,192,95727,1,0,0:0:0:0:
448,192,95778,128,0,95854:0:0:0:0:
192,192,95778,128,0,95854:0:0:0:0:
320,192,95930,128,0,96233:0:0:0:0:
192,192,95930,128,0,96005:0:0:0:0:
448,192,95930,128,0,96081:0:0:0:0:
192,192,96081,128,0,96308:0:0:0:0:
448,192,96233,128,0,96308:0:0:0:0:
64,192,96233,128,0,96308:0:0:0:0:
320,192,96308,128,0,96384:0:0:0:0:
448,192,96384,128,0,96536:0:0:0:0:
64,192,96384,128,0,96611:0:0:0:0:
192,192,96384,128,0,96460:0:0:0:0:
192,192,96536,128,0,97066:0:0:0:0:
320,192,96536,128,0,96687:0:0:0:0:
448,192,96687,128,0,96839:0:0:0:0:
64,192,96687,128,0,96763:0:0:0:0:
320,192,96839,128,0,96990:0:0:0:0:
64,192,96839,128,0,97066:0:0:0:0:
448,192,96990,128,0,97217:0:0:0:0:
320,192,97066,128,0,97293:0:0:0:0:
64,192,97142,128,0,97217:0:0:0:0:
192,192,97142,128,0,97293:0:0:0:0:
448,192,97293,128,0,97520:0:0:0:0:
64,192,97293,128,0,97445:0:0:0:0:
320,192,97445,128,0,97672:0:0:0:0:
192,192,97445,128,0,97520:0:0:0:0:
64,192,97520,128,0,97596:0:0:0:0:
192,192,97596,128,0,97748:0:0:0:0:
448,192,97672,128,0,97748:0:0:0:0:
64,192,97748,128,0,97823:0:0:0:0:
320,192,97748,128,0,97899:0:0:0:0:
448,192,97899,128,0,97975:0:0:0:0:
192,192,97899,128,0,98051:0:0:0:0:
320,192,98051,128,0,98202:0:0:0:0:
64,192,98051,128,0,98126:0:0:0:0:
192,192,98126,128,0,98202:0:0:0:0:
64,192,98202,128,0,98505:0:0:0:0:
448,192,98202,128,0,98278:0:0:0:0:
320,192,98354,128,0,98430:0:0:0:0:
448,192,98354,128,0,98505:0:0:0:0:
192,192,98505,128,0,98581:0:0:0:0:
320,192,98581,128,0,98657:0:0:0:0:
192,192,98657,128,0,98733:0:0:0:0:
64,192,98657,1,0,0:0:0:0:
64,192,98808,128,0,98884:0:0:0:0:
192,192,98808,1,0,0:0:0:0:
64,192,98960,128,0,99111:0:0:0:0:
320,192,98960,128,0,99036:0:0:0:0:
192,192,99036,1,0,0:0:0:0:
448,192,99111,5,0,0:0:0:0:
320,192,99111,1,0,0:0:0:0:
192,192,99162,128,0,99238:0:0:0:0:
64,192,99212,1,0,0:0:0:0:
448,192,99263,128,0,99339:0:0:0:0:
320,192,99313,1,0,0:0:0:0:
64,192,99364,1,0,0:0:0:0:
192,192,99414,128,0,99490:0:0:0:0:
448,192,99414,128,0,99490:0:0:0:0:
320,192,99566,128,0,99642:0:0:0:0:
192,192,99566,128,0,99793:0:0:0:0:
64,192,99566,128,0,99717:0:0:0:0:
320,192,99717,128,0,99869:0:0:0:0:
64,192,99793,128,0,99869:0:0:0:0:
448,192,99869,128,0,99945:0:0:0:0:
192,192,99869,128,0,99945:0:0:0:0:
320,192,99945,128,0,100020:0:0:0:0:
448,192,100020,128,0,100172:0:0:0:0:
64,192,100020,128,0,100172:0:0:0:0:
192,192,100020,128,0,100096:0:0:0:0:
192,192,100172,128,0,100475:0:0:0:0:
320,192,100172,128,0,100323:0:0:0:0:
448,192,100323,128,0,100399:0:0:0:0:
64,192,100323,128,0,100702:0:0:0:0:
448,192,100475,128,0,100702:0:0:0:0:
320,192,100475,128,0,100626:0:0:0:0:
192,192,100626,128,0,100854:0:0:0:0:
320,192,100702,128,0,100930:0:0:0:0:
64,192,100778,128,0,100930:0:0:0:0:
448,192,100778,128,0,100854:0:0:0:0:
192,192,100930,128,0,101081:0:0:0:0:
448,192,100930,128,0,101157:0:0:0:0:
64,192,101081,128,0,101308:0:0:0:0:
320,192,101081,128,0,101157:0:0:0:0:
192,192,101157,128,0,101233:0:0:0:0:
320,192,101233,128,0,101384:0:0:0:0:
448,192,101233,1,0,0:0:0:0:
192,192,101308,128,0,101384:0:0:0:0:
64,192,101384,128,0,101460:0:0:0:0:
448,192,101384,128,0,101536:0:0:0:0:
320,192,101536,128,0,101611:0:0:0:0:
192,192,101536,128,0,101687:0:0:0:0:
320,192,101687,128,0,101839:0:0:0:0:
448,192,101687,128,0,101763:0:0:0:0:
192,192,101763,128,0,101839:0:0:0:0:
448,192,101839,128,0,102142:0:0:0:0:
64,192,101839,128,0,101914:0:0:0:0:
192,192,101990,1,0,0:0:0:0:
64,192,101990,128,0,102142:0:0:0:0:
320,192,102066,1,0,0:0:0:0:
192,192,102142,1,0,0:0:0:0:
448,192,102217,1,0,0:0:0:0:
64,192,102293,1,0,0:0:0:0:
320,192,102293,128,0,102369:0:0:0:0:
64,192,102445,128,0,102520:0:0:0:0:
320,192,102445,1,0,0:0:0:0:
448,192,102596,128,0,102672:0:0:0:0:
192,192,102596,1,0,0:0:0:0:
64,192,102748,5,0,0:0:0:0:
192,192,102748,1,0,0:0:0:0:
320,192,102798,128,0,102874:0:0:0:0:
448,192,102849,1,0,0:0:0:0:
192,192,102899,128,0,102975:0:0:0:0:
64,192,102950,1,0,0:0:0:0:
448,192,103000,1,0,0:0:0:0:
192,192,103051,128,0,103278:0:0:0:0:
64,192,103126,128,0,103278:0:0:0:0:
320,192,103202,128,0,103505:0:0:0:0:
448,192,103202,128,0,103354:0:0:0:0:
192,192,103354,128,0,103657:0:0:0:0:
448,192,103505,128,0,103581:0:0:0:0:
64,192,103505,128,0,103581:0:0:0:0:
320,192,103581,128,0,103657:0:0:0:0:
64,192,103657,128,0,103808:0:0:0:0:
448,192,103657,128,0,103884:0:0:0:0:
192,192,103808,128,0,103960:0:0:0:0:
320,192,103808,128,0,104339:0:0:0:0:
64,192,103960,128,0,104111:0:0:0:0:
448,192,103960,128,0,104036:0:0:0:0:
192,192,104111,128,0,104263:0:0:0:0:
448,192,104111,128,0,104339:0:0:0:0:
64,192,104263,128,0,104490:0:0:0:0:
192,192,104339,128,0,104566:0:0:0:0:
320,192,104414,128,0,104566:0:0:0:0:
448,192,104414,128,0,104490:0:0:0:0:
64,192,104566,128,0,104717:0:0:0:0:
448,192,104566,128,0,104793:0:0:0:0:
192,192,104717,128,0,104945:0:0:0:0:
320,192,104717,128,0,104793:0:0:0:0:
320,192,104869,128,0,105020:0:0:0:0:
64,192,104945,128,0,105096:0:0:0:0:
192,192,105020,128,0,105096:0:0:0:0:
448,192,105020,128,0,105248:0:0:0:0:
192,192,105172,128,0,105323:0:0:0:0:
64,192,105172,128,0,105323:0:0:0:0:
320,192,105248,128,0,105399:0:0:0:0:
448,192,105323,128,0,105399:0:0:0:0:
64,192,105399,128,0,105475:0:0:0:0:
192,192,105475,128,0,105551:0:0:0:0:
320,192,105475,128,0,105702:0:0:0:0:
448,192,105475,128,0,105626:0:0:0:0:
192,192,105626,128,0,105778:0:0:0:0:
448,192,105702,128,0,105854:0:0:0:0:
320,192,105778,128,0,105854:0:0:0:0:
64,192,105854,128,0,105930:0:0:0:0:
448,192,105930,128,0,106005:0:0:0:0:
192,192,105930,128,0,106081:0:0:0:0:
320,192,106005,128,0,106157:0:0:0:0:
64,192,106081,128,0,106157:0:0:0:0:
448,192,106081,128,0,106157:0:0:0:0:
192,192,106157,128,0,106233:0:0:0:0:
320,192,106233,128,0,106384:0:0:0:0:
448,192,106233,128,0,106384:0:0:0:0:
64,192,106384,5,0,0:0:0:0:
192,192,106384,1,0,0:0:0:0:
320,192,106435,128,0,106511:0:0:0:0:
448,192,106485,1,0,0:0:0:0:
192,192,106536,128,0,106611:0:0:0:0:
64,192,106586,1,0,0:0:0:0:
448,192,106637,1,0,0:0:0:0:
192,192,106687,128,0,106914:0:0:0:0:
64,192,106763,128,0,106914:0:0:0:0:
448,192,106839,128,0,106990:0:0:0:0:
320,192,106839,128,0,107066:0:0:0:0:
192,192,106990,128,0,107142:0:0:0:0:
64,192,107142,1,0,0:0:0:0:
320,192,107142,128,0,107293:0:0:0:0:
192,192,107217,128,0,107293:0:0:0:0:
64,192,107293,128,0,107445:0:0:0:0:
448,192,107293,128,0,107369:0:0:0:0:
320,192,107445,128,0,107748:0:0:0:0:
192,192,107445,128,0,107596:0:0:0:0:
64,192,107596,128,0,107672:0:0:0:0:
448,192,107596,128,0,107975:0:0:0:0:
64,192,107748,128,0,107975:0:0:0:0:
192,192,107748,128,0,107899:0:0:0:0:
320,192,107899,128,0,108126:0:0:0:0:
192,192,107975,128,0,108202:0:0:0:0:
448,192,108051,128,0,108202:0:0:0:0:
64,192,108051,128,0,108126:0:0:0:0:
320,192,108202,128,0,108430:0:0:0:0:
64,192,108202,128,0,108354:0:0:0:0:
448,192,108354,128,0,108430:0:0:0:0:
192,192,108354,128,0,108581:0:0:0:0:
448,192,108505,128,0,108657:0:0:0:0:
64,192,108581,128,0,108733:0:0:0:0:
320,192,108657,128,0,108884:0:0:0:0:
192,192,108657,128,0,108733:0:0:0:0:
192,192,108808,128,0,108960:0:0:0:0:
64,192,108808,128,0,108960:0:0:0:0:
448,192,108884,128,0,109036:0:0:0:0:
320,192,108960,128,0,109036:0:0:0:0:
64,192,109036,128,0,109111:0:0:0:0:
192,192,109111,128,0,109187:0:0:0:0:
448,192,109111,128,0,109339:0:0:0:0:
320,192,109111,128,0,109263:0:0:0:0:
192,192,109263,128,0,109414:0:0:0:0:
320,192,109339,128,0,109490:0:0:0:0:
64,192,109414,128,0,109490:0:0:0:0:
448,192,109490,128,0,109566:0:0:0:0:
192,192,109566,128,0,109642:0:0:0:0:
320,192,109566,128,0,109717:0:0:0:0:
64,192,109642,128,0,109793:0:0:0:0:
448,192,109717,128,0,109793:0:0:0:0:
192,192,109717,128,0,109793:0:0:0:0:
320,192,109793,128,0,109869:0:0:0:0:
64,192,109869,128,0,110020:0:0:0:0:
192,192,109869,128,0,110020:0:0:0:0:
320,192,110020,1,0,0:0:0:0:
448,192,110020,1,0,0:0:0:0:
192,192,110071,128,0,110147:0:0:0:0:
64,192,110121,1,0,0:0:0:0:
320,192,110172,128,0,110248:0:0:0:0:
448,192,110222,1,0,0:0:0:0:
64,192,110273,1,0,0:0:0:0:
320,192,110323,128,0,110551:0:0:0:0:
448,192,110399,128,0,110551:0:0:0:0:
192,192,110475,128,0,110778:0:0:0:0:
64,192,110475,128,0,110626:0:0:0:0:
320,192,110626,128,0,110930:0:0:0:0:
64,192,110778,128,0,110854:0:0:0:0:
448,192,110778,128,0,110854:0:0:0:0:
192,192,110854,128,0,110930:0:0:0:0:
448,192,110930,128,0,111081:0:0:0:0:
64,192,110930,128,0,111157:0:0:0:0:
320,192,111081,128,0,111233:0:0:0:0:
192,192,111081,128,0,111611:0:0:0:0:
448,192,111233,128,0,111384:0:0:0:0:
64,192,111233,128,0,111308:0:0:0:0:
320,192,111384,128,0,111536:0:0:0:0:
64,192,111384,128,0,111611:0:0:0:0:
448,192,111536,128,0,111763:0:0:0:0:
320,192,111611,128,0,111839:0:0:0:0:
64,192,111687,128,0,111763:0:0:0:0:
192,192,111687,128,0,111839:0:0:0:0:
64,192,111839,128,0,112066:0:0:0:0:
448,192,111839,128,0,111990:0:0:0:0:
192,192,111990,128,0,112066:0:0:0:0:
320,192,111990,128,0,112217:0:0:0:0:
192,192,112142,128,0,112293:0:0:0:0:
448,192,112217,128,0,112369:0:0:0:0:
64,192,112293,128,0,112520:0:0:0:0:
320,192,112293,128,0,112369:0:0:0:0:
448,192,112445,128,0,112596:0:0:0:0:
320,192,112445,128,0,112596:0:0:0:0:
192,192,112520,128,0,112672:0:0:0:0:
64,192,112596,128,0,112672:0:0:0:0:
448,192,112672,128,0,112748:0:0:0:0:
64,192,112748,128,0,112899:0:0:0:0:
192,192,112748,128,0,112975:0:0:0:0:
320,192,112748,128,0,112823:0:0:0:0:
320,192,112899,128,0,113051:0:0:0:0:
64,192,112975,128,0,113126:0:0:0:0:
192,192,113051,128,0,113126:0:0:0:0:
448,192,113126,128,0,113202:0:0:0:0:
320,192,113202,128,0,113354:0:0:0:0:
64,192,113202,128,0,113278:0:0:0:0:
192,192,113278,128,0,113430:0:0:0:0:
448,192,113354,128,0,113430:0:0:0:0:
64,192,113354,128,0,113430:0:0:0:0:
320,192,113430,128,0,113505:0:0:0:0:
64,192,113505,128,0,113657:0:0:0:0:
192,192,113505,128,0,113657:0:0:0:0:
448,192,113657,1,0,0:0:0:0:
320,192,113657,1,0,0:0:0:0:
192,192,113707,128,0,113783:0:0:0:0:
64,192,113758,1,0,0:0:0:0:
320,192,113808,128,0,113884:0:0:0:0:
448,192,113859,1,0,0:0:0:0:
64,192,113909,1,0,0:0:0:0:
320,192,113960,128,0,114187:0:0:0:0:
448,192,114036,128,0,114187:0:0:0:0:
192,192,114111,128,0,114339:0:0:0:0:
64,192,114111,128,0,114263:0:0:0:0:
320,192,114263,128,0,114414:0:0:0:0:
192,192,114414,128,0,114566:0:0:0:0:
448,192,114414,1,0,0:0:0:0:
320,192,114490,128,0,114566:0:0:0:0:
64,192,114566,128,0,114642:0:0:0:0:
448,192,114566,128,0,114717:0:0:0:0:
320,192,114717,128,0,114869:0:0:0:0:
192,192,114717,128,0,115020:0:0:0:0:
64,192,114869,128,0,115248:0:0:0:0:
448,192,114869,128,0,114945:0:0:0:0:
320,192,115020,128,0,115172:0:0:0:0:
448,192,115020,128,0,115248:0:0:0:0:
192,192,115172,128,0,115399:0:0:0:0:
320,192,115248,128,0,115475:0:0:0:0:
448,192,115323,128,0,115399:0:0:0:0:
64,192,115323,128,0,115475:0:0:0:0:
448,192,115475,128,0,115626:0:0:0:0:
192,192,115475,128,0,115702:0:0:0:0:
320,192,115626,128,0,115854:0:0:0:0:
64,192,115626,128,0,115702:0:0:0:0:
64,192,115778,128,0,115930:0:0:0:0:
448,192,115854,128,0,116005:0:0:0:0:
320,192,115930,128,0,116005:0:0:0:0:
192,192,115930,128,0,116157:0:0:0:0:
320,192,116081,128,0,116308:0:0:0:0:
64,192,116157,128,0,116308:0:0:0:0:
192,192,116233,128,0,116308:0:0:0:0:
448,192,116308,128,0,116460:0:0:0:0:
64,192,116384,128,0,116611:0:0:0:0:
320,192,116384,128,0,116460:0:0:0:0:
448,192,116536,128,0,116687:0:0:0:0:
192,192,116611,128,0,116763:0:0:0:0:
320,192,116687,128,0,116763:0:0:0:0:
64,192,116763,128,0,116839:0:0:0:0:
192,192,116839,128,0,116990:0:0:0:0:
448,192,116839,128,0,116914:0:0:0:0:
320,192,116914,128,0,117066:0:0:0:0:
448,192,116990,128,0,117066:0:0:0:0:
64,192,116990,128,0,117066:0:0:0:0:
192,192,117066,128,0,117142:0:0:0:0:
320,192,117142,128,0,117217:0:0:0:0:
448,192,117142,128,0,117217:0:0:0:0:
448,192,117293,5,0,0:0:0:0:
192,192,117293,128,0,118051:0:0:0:0:
64,192,117596,1,0,0:0:0:0:
320,192,117748,128,0,118657:0:0:0:0:
448,192,117748,1,0,0:0:0:0:
64,192,117899,1,0,0:0:0:0:
448,192,118051,1,0,0:0:0:0:
64,192,118202,128,0,118884:0:0:0:0:
192,192,118430,1,0,0:0:0:0:
448,192,118657,1,0,0:0:0:0:
192,192,118657,128,0,119111:0:0:0:0:
320,192,118884,128,0,119111:0:0:0:0:
64,192,119111,1,0,0:0:0:0:
448,192,119566,1,0,0:0:0:0:
320,192,119566,1,0,0:0:0:0:
320,192,119793,1,0,0:0:0:0:
192,192,120020,1,0,0:0:0:0:
448,192,120248,1,0,0:0:0:0:
64,192,120475,1,0,0:0:0:0:
320,192,120475,1,0,0:0:0:0:
192,192,120930,1,0,0:0:0:0:
64,192,121233,1,0,0:0:0:0:
192,192,121384,1,0,0:0:0:0:
448,192,121384,1,0,0:0:0:0:
320,192,121536,1,0,0:0:0:0:
64,192,121687,1,0,0:0:0:0:
448,192,121839,128,0,122066:0:0:0:0:
192,192,121952,128,0,122520:0:0:0:0:
320,192,122066,128,0,122748:0:0:0:0:
64,192,122293,1,0,0:0:0:0:
448,192,122293,1,0,0:0:0:0:
64,192,122520,1,0,0:0:0:0:
192,192,122748,1,0,0:0:0:0:
448,192,122805,1,0,0:0:0:0:
192,192,122861,1,0,0:0:0:0:
448,192,122918,1,0,0:0:0:0:
320,192,123202,1,0,0:0:0:0:
64,192,123202,1,0,0:0:0:0:
64,192,123430,1,0,0:0:0:0:
448,192,123657,1,0,0:0:0:0:
192,192,123884,1,0,0:0:0:0:
448,192,124111,1,0,0:0:0:0:
320,192,124111,1,0,0:0:0:0:
320,192,124566,128,0,125323:0:0:0:0:
64,192,124566,1,0,0:0:0:0:
448,192,124869,1,0,0:0:0:0:
64,192,125020,1,0,0:0:0:0:
192,192,125020,128,0,125930:0:0:0:0:
448,192,125172,1,0,0:0:0:0:
64,192,125323,1,0,0:0:0:0:
448,192,125475,128,0,126157:0:0:0:0:
320,192,125702,1,0,0:0:0:0:
320,192,125930,128,0,126384:0:0:0:0:
64,192,125930,1,0,0:0:0:0:
192,192,126157,128,0,126384:0:0:0:0:
448,192,126384,1,0,0:0:0:0:
320,192,126611,1,0,0:0:0:0:
192,192,126839,1,0,0:0:0:0:
64,192,126839,1,0,0:0:0:0:
192,192,127066,1,0,0:0:0:0:
320,192,127293,1,0,0:0:0:0:
64,192,127520,1,0,0:0:0:0:
192,192,127748,1,0,0:0:0:0:
448,192,127748,1,0,0:0:0:0:
320,192,128202,1,0,0:0:0:0:
192,192,128354,1,0,0:0:0:0:
448,192,128505,1,0,0:0:0:0:
320,192,128657,1,0,0:0:0:0:
64,192,128657,1,0,0:0:0:0:
192,192,128827,1,0,0:0:0:0:
448,192,128998,1,0,0:0:0:0:
64,192,129111,128,0,129339:0:0:0:0:
320,192,129225,128,0,129793:0:0:0:0:
192,192,129339,128,0,130020:0:0:0:0:
448,192,129566,1,0,0:0:0:0:
64,192,129566,1,0,0:0:0:0:
448,192,129793,1,0,0:0:0:0:
320,192,130020,1,0,0:0:0:0:
64,192,130248,128,0,131839:0:0:0:0:
448,192,130475,1,0,0:0:0:0:
192,192,130475,1,0,0:0:0:0:
320,192,130702,1,0,0:0:0:0:
192,192,130930,1,0,0:0:0:0:
448,192,131157,1,0,0:0:0:0:
192,192,131384,1,0,0:0:0:0:
320,192,131384,1,0,0:0:0:0:
192,192,131611,1,0,0:0:0:0:
320,192,131839,128,0,132066:0:0:0:0:
448,192,131839,128,0,133657:0:0:0:0:
192,192,132066,128,0,132520:0:0:0:0:
64,192,132293,1,0,0:0:0:0:
320,192,132293,128,0,132748:0:0:0:0:
64,192,132520,128,0,132748:0:0:0:0:
192,192,132748,128,0,132975:0:0:0:0:
320,192,132975,128,0,133430:0:0:0:0:
192,192,133202,1,0,0:0:0:0:
64,192,133202,128,0,133543:0:0:0:0:
192,192,133430,128,0,133770:0:0:0:0:
320,192,133543,128,0,133657:0:0:0:0:
64,192,133657,128,0,133884:0:0:0:0:
320,192,133884,128,0,134339:0:0:0:0:
448,192,134111,1,0,0:0:0:0:
64,192,134111,128,0,134566:0:0:0:0:
448,192,134339,128,0,134566:0:0:0:0:
192,192,134566,128,0,134793:0:0:0:0:
320,192,134793,128,0,135248:0:0:0:0:
192,192,135020,1,0,0:0:0:0:
64,192,135020,128,0,135361:0:0:0:0:
192,192,135248,128,0,135589:0:0:0:0:
320,192,135361,128,0,135475:0:0:0:0:
448,192,135475,128,0,135702:0:0:0:0:
192,192,135702,128,0,136157:0:0:0:0:
448,192,135930,128,0,136384:0:0:0:0:
64,192,135930,1,0,0:0:0:0:
64,192,136157,128,0,136384:0:0:0:0:
320,192,136384,128,0,136611:0:0:0:0:
192,192,136611,128,0,137066:0:0:0:0:
320,192,136839,1,0,0:0:0:0:
448,192,136839,128,0,137180:0:0:0:0:
320,192,137066,128,0,137407:0:0:0:0:
192,192,137180,128,0,137293:0:0:0:0:
64,192,137293,128,0,137520:0:0:0:0:
320,192,137520,128,0,137975:0:0:0:0:
64,192,137748,128,0,138202:0:0:0:0:
448,192,137748,1,0,0:0:0:0:
448,192,137975,128,0,138202:0:0:0:0:
192,192,138202,128,0,138430:0:0:0:0:
320,192,138430,128,0,138884:0:0:0:0:
192,192,138657,1,0,0:0:0:0:
64,192,138657,128,0,138998:0:0:0:0:
192,192,138884,128,0,139225:0:0:0:0:
320,192,138998,128,0,139111:0:0:0:0:
448,192,139111,128,0,139339:0:0:0:0:
64,192,139111,128,0,140930:0:0:0:0:
320,192,139339,128,0,139793:0:0:0:0:
448,192,139566,1,0,0:0:0:0:
192,192,139566,128,0,140020:0:0:0:0:
448,192,139793,128,0,140020:0:0:0:0:
320,192,140020,128,0,140248:0:0:0:0:
192,192,140248,128,0,140702:0:0:0:0:
320,192,140475,1,0,0:0:0:0:
448,192,140475,128,0,140816:0:0:0:0:
320,192,140702,128,0,141043:0:0:0:0:
192,192,140816,128,0,140930:0:0:0:0:
448,192,140930,128,0,141157:0:0:0:0:
192,192,141157,128,0,141611:0:0:0:0:
448,192,141384,128,0,141839:0:0:0:0:
64,192,141384,1,0,0:0:0:0:
64,192,141611,128,0,141839:0:0:0:0:
320,192,141839,128,0,142066:0:0:0:0:
192,192,142066,128,0,142520:0:0:0:0:
320,192,142293,1,0,0:0:0:0:
448,192,142293,128,0,142634:0:0:0:0:
320,192,142520,128,0,142861:0:0:0:0:
192,192,142634,128,0,142748:0:0:0:0:
64,192,142748,128,0,142975:0:0:0:0:
320,192,142975,128,0,143430:0:0:0:0:
448,192,143202,1,0,0:0:0:0:
64,192,143202,128,0,143657:0:0:0:0:
448,192,143430,128,0,143657:0:0:0:0:
192,192,143657,128,0,143884:0:0:0:0:
320,192,143884,128,0,144339:0:0:0:0:
192,192,144111,1,0,0:0:0:0:
64,192,144111,128,0,144452:0:0:0:0:
192,192,144339,128,0,144680:0:0:0:0:
320,192,144452,128,0,144566:0:0:0:0:
448,192,144566,128,0,144793:0:0:0:0:
64,192,144793,128,0,146384:0:0:0:0:
192,192,145020,1,0,0:0:0:0:
448,192,145020,128,0,145702:0:0:0:0:
192,192,145248,128,0,145475:0:0:0:0:
320,192,145475,128,0,145702:0:0:0:0:
192,192,145702,128,0,146157:0:0:0:0:
448,192,145930,128,0,146270:0:0:0:0:
320,192,145930,1,0,0:0:0:0:
320,192,146157,128,0,146270:0:0:0:0:
192,192,146270,128,0,146384:0:0:0:0:
320,192,146384,128,0,148657:0:0:0:0:
448,192,146384,128,0,147293:0:0:0:0:
64,192,147066,1,0,0:0:0:0:
192,192,147293,128,0,149566:0:0:0:0:
448,192,148657,128,0,151157:0:0:0:0:
64,192,149566,128,0,152066:0:0:0:0:
320,192,150020,1,0,0:0:0:0:
192,192,150475,1,0,0:0:0:0:
320,192,150702,1,0,0:0:0:0:
192,192,151157,128,0,152975:0:0:0:0:
448,192,152066,128,0,153657:0:0:0:0:
320,192,152975,128,0,154111:0:0:0:0:
64,192,153657,128,0,155702:0:0:0:0:
192,192,153657,1,0,0:0:0:0:
192,192,154111,128,0,155702:0:0:0:0:
448,192,154339,1,0,0:0:0:0:
320,192,155702,128,0,157520:0:0:0:0:
448,192,155702,128,0,158430:0:0:0:0:
64,192,157293,1,0,0:0:0:0:
192,192,157520,128,0,162066:0:0:0:0:
320,192,157748,1,0,0:0:0:0:
64,192,157975,1,0,0:0:0:0:
64,192,158430,128,0,159339:0:0:0:0:
320,192,159339,128,0,160930:0:0:0:0:
64,192,160930,1,0,0:0:0:0:
448,192,160930,128,0,161611:0:0:0:0:
320,192,161611,1,0,0:0:0:0:
64,192,161611,128,0,165020:0:0:0:0:
320,192,162066,128,0,166611:0:0:0:0:
448,192,164566,1,0,0:0:0:0:
192,192,165020,1,0,0:0:0:0:
448,192,165020,128,0,166384:0:0:0:0:
64,192,165248,1,0,0:0:0:0:
64,192,166384,128,0,175475:0:0:0:0:
192,192,166611,128,0,168202:0:0:0:0:
320,192,168202,128,0,170020:0:0:0:0:
448,192,168202,1,0,0:0:0:0:
192,192,168884,1,0,0:0:0:0:
448,192,170020,128,0,175475:0:0:0:0:
192,192,170020,128,0,175475:0:0:0:0:
320,192,171839,128,0,175475:0:0:0:0:
192,192,177180,1,0,0:0:0:0:
320,192,177236,1,0,0:0:0:0:
192,192,177293,128,0,180816:0:0:0:0:
64,192,177293,128,0,178998:0:0:0:0:
448,192,177293,128,0,179907:0:0:0:0:
320,192,178316,128,0,183657:0:0:0:0:
64,192,179225,128,0,182748:0:0:0:0:
448,192,180134,128,0,184566:0:0:0:0:
192,192,181043,128,0,183202:0:0:0:0:
64,192,184566,128,0,185361:0:0:0:0:
192,192,184623,128,0,186270:0:0:0:0:
320,192,184680,128,0,187180:0:0:0:0:
448,192,184736,128,0,188089:0:0:0:0:
64,192,185589,128,0,192142:0:0:0:0:
192,192,186498,128,0,190930:0:0:0:0:
320,192,187407,128,0,190475:0:0:0:0:
448,192,188316,128,0,190020:0:0:0:0:
448,192,191839,128,0,194452:0:0:0:0:
320,192,191990,128,0,193543:0:0:0:0:
192,192,192142,128,0,195361:0:0:0:0:
64,192,192293,128,0,192634:0:0:0:0:
64,192,192861,128,0,197180:0:0:0:0:
320,192,193770,128,0,197748:0:0:0:0:
448,192,194680,128,0,197293:0:0:0:0:
192,192,195589,128,0,198202:0:0:0:0:
64,192,197407,128,0,199566:0:0:0:0:
448,192,199111,128,0,204566:0:0:0:0:
320,192,199339,128,0,200816:0:0:0:0:
192,192,199566,128,0,202634:0:0:0:0:
64,192,199793,128,0,204907:0:0:0:0:
320,192,201043,128,0,204680:0:0:0:0:
192,192,202861,128,0,204793:0:0:0:0:
448,192,204907,128,0,205816:0:0:0:0:
320,192,205134,128,0,205589:0:0:0:0:
64,192,205361,128,0,206157:0:0:0:0:
192,192,205589,128,0,206043:0:0:0:0:
320,192,205816,128,0,206043:0:0:0:0:
448,192,206043,128,0,206270:0:0:0:0:
192,192,206157,128,0,206384:0:0:0:0:
320,192,206270,128,0,206384:0:0:0:0:
64,192,206384,128,0,206460:0:0:0:0:
448,192,206384,128,0,207066:0:0:0:0:
192,192,206498,1,0,0:0:0:0:
320,192,206611,128,0,206687:0:0:0:0:
64,192,206839,128,0,208202:0:0:0:0:
192,192,206839,128,0,206914:0:0:0:0:
320,192,207066,128,0,207142:0:0:0:0:
448,192,207293,128,0,207369:0:0:0:0:
192,192,207975,128,0,208051:0:0:0:0:
448,192,208430,128,0,208505:0:0:0:0:
192,192,208657,128,0,208733:0:0:0:0:
64,192,208884,128,0,208960:0:0:0:0:
320,192,209111,128,0,209187:0:0:0:0:
192,192,209339,128,0,209414:0:0:0:0:
320,192,209566,128,0,209642:0:0:0:0:
64,192,209793,128,0,209869:0:0:0:0:
192,192,210020,128,0,210096:0:0:0:0:
320,192,210248,128,0,210323:0:0:0:0:
192,192,210475,128,0,210551:0:0:0:0:
64,192,210702,128,0,210778:0:0:0:0:
448,192,210930,128,0,211005:0:0:0:0:
192,192,211611,128,0,211687:0:0:0:0:
448,192,212066,128,0,212142:0:0:0:0:
192,192,212293,128,0,212369:0:0:0:0:
64,192,212520,128,0,212596:0:0:0:0:
320,192,212748,128,0,212823:0:0:0:0:
192,192,212975,128,0,213051:0:0:0:0:
320,192,213202,128,0,213278:0:0:0:0:
64,192,213430,128,0,213505:0:0:0:0:
192,192,213657,128,0,213733:0:0:0:0:
448,192,213707,128,0,213960:0:0:0:0:
320,192,213884,128,0,213960:0:0:0:0:
192,192,214111,128,0,214187:0:0:0:0:
64,192,214339,128,0,214414:0:0:0:0:
192,192,214566,128,0,214793:0:0:0:0:
448,192,214566,128,0,214642:0:0:0:0:
192,192,215248,128,0,215323:0:0:0:0:
320,192,215475,128,0,215702:0:0:0:0:
448,192,215702,128,0,215778:0:0:0:0:
192,192,215930,128,0,216005:0:0:0:0:
64,192,216157,128,0,216233:0:0:0:0:
192,192,216384,128,0,216611:0:0:0:0:
320,192,216384,128,0,216460:0:0:0:0:
448,192,216611,128,0,216687:0:0:0:0:
192,192,216839,128,0,216914:0:0:0:0:
64,192,217066,128,0,217142:0:0:0:0:
448,192,217293,128,0,217520:0:0:0:0:
192,192,217293,128,0,217369:0:0:0:0:
320,192,217520,128,0,217596:0:0:0:0:
192,192,217748,128,0,217823:0:0:0:0:
64,192,217975,128,0,218051:0:0:0:0:
448,192,218202,128,0,218278:0:0:0:0:
192,192,218884,128,0,218960:0:0:0:0:
448,192,219339,128,0,219414:0:0:0:0:
192,192,219566,128,0,219642:0:0:0:0:
64,192,219793,128,0,219869:0:0:0:0:
320,192,220020,128,0,220475:0:0:0:0:
192,192,220248,128,0,220702:0:0:0:0:
448,192,220475,128,0,220930:0:0:0:0:
320,192,220702,128,0,220930:0:0:0:0:
64,192,220930,128,0,221270:0:0:0:0:
192,192,220930,128,0,221157:0:0:0:0:
448,192,221157,128,0,221270:0:0:0:0:
320,192,221270,128,0,221384:0:0:0:0:
64,192,221384,128,0,221611:0:0:0:0:
192,192,221384,128,0,221611:0:0:0:0:
448,192,221611,128,0,221725:0:0:0:0:
320,192,221611,128,0,221725:0:0:0:0:
448,192,221839,128,0,222066:0:0:0:0:
192,192,221839,128,0,222748:0:0:0:0:
320,192,222293,1,0,0:0:0:0:
64,192,222293,128,0,222407:0:0:0:0:
64,192,222520,128,0,222748:0:0:0:0:
320,192,222748,128,0,223657:0:0:0:0:
64,192,222975,128,0,223202:0:0:0:0:
448,192,223202,128,0,223316:0:0:0:0:
192,192,223202,128,0,223430:0:0:0:0:
448,192,223430,128,0,223657:0:0:0:0:
192,192,223657,128,0,223884:0:0:0:0:
64,192,223657,128,0,224793:0:0:0:0:
320,192,223884,128,0,224111:0:0:0:0:
192,192,224111,128,0,224225:0:0:0:0:
448,192,224111,128,0,224339:0:0:0:0:
192,192,224339,128,0,224566:0:0:0:0:
448,192,224566,128,0,224793:0:0:0:0:
320,192,224793,128,0,225020:0:0:0:0:
192,192,224793,128,0,228202:0:0:0:0:
448,192,225020,128,0,225134:0:0:0:0:
64,192,225020,128,0,225248:0:0:0:0:
448,192,225248,128,0,225475:0:0:0:0:
64,192,225475,128,0,225702:0:0:0:0:
320,192,225930,128,0,226043:0:0:0:0:
448,192,225930,1,0,0:0:0:0:
320,192,226157,128,0,226384:0:0:0:0:
64,192,226384,1,0,0:0:0:0:
448,192,226611,128,0,226839:0:0:0:0:
64,192,226839,128,0,226952:0:0:0:0:
320,192,226839,128,0,227066:0:0:0:0:
64,192,227066,128,0,227293:0:0:0:0:
320,192,227293,128,0,227520:0:0:0:0:
448,192,227520,128,0,227748:0:0:0:0:
320,192,227748,128,0,227861:0:0:0:0:
64,192,227748,128,0,227975:0:0:0:0:
320,192,227975,128,0,228202:0:0:0:0:
64,192,228202,128,0,228430:0:0:0:0:
448,192,228202,128,0,229111:0:0:0:0:
192,192,228430,128,0,228657:0:0:0:0:
320,192,228657,128,0,228884:0:0:0:0:
64,192,228657,128,0,228770:0:0:0:0:
64,192,228884,128,0,229111:0:0:0:0:
192,192,229111,128,0,229339:0:0:0:0:
320,192,229111,128,0,230020:0:0:0:0:
448,192,229566,1,0,0:0:0:0:
64,192,229566,128,0,229680:0:0:0:0:
64,192,229793,128,0,230020:0:0:0:0:
192,192,230020,128,0,230930:0:0:0:0:
448,192,230248,128,0,230475:0:0:0:0:
320,192,230475,128,0,230589:0:0:0:0:
64,192,230475,128,0,230702:0:0:0:0:
320,192,230702,128,0,230930:0:0:0:0:
448,192,230930,128,0,231157:0:0:0:0:
64,192,230930,128,0,231839:0:0:0:0:
320,192,231157,128,0,231384:0:0:0:0:
448,192,231384,128,0,231498:0:0:0:0:
192,192,231384,128,0,231611:0:0:0:0:
448,192,231611,128,0,231839:0:0:0:0:
192,192,231839,128,0,232066:0:0:0:0:
320,192,231839,128,0,234680:0:0:0:0:
64,192,232066,128,0,232293:0:0:0:0:
192,192,232293,128,0,232407:0:0:0:0:
448,192,232293,128,0,232520:0:0:0:0:
192,192,232520,128,0,232748:0:0:0:0:
448,192,232748,128,0,232975:0:0:0:0:
64,192,233202,128,0,233316:0:0:0:0:
448,192,233202,1,0,0:0:0:0:
64,192,233430,128,0,233657:0:0:0:0:
64,192,233884,128,0,234907:0:0:0:0:
192,192,234111,128,0,234339:0:0:0:0:
448,192,234111,128,0,234225:0:0:0:0:
448,192,234339,128,0,234793:0:0:0:0:
192,192,234566,128,0,234793:0:0:0:0:
320,192,234793,128,0,235020:0:0:0:0:
64,192,235020,128,0,235134:0:0:0:0:
448,192,235020,128,0,235096:0:0:0:0:
192,192,235096,128,0,235172:0:0:0:0:
320,192,235191,128,0,235248:0:0:0:0:
448,192,235248,1,0,0:0:0:0:
64,192,235248,128,0,235323:0:0:0:0:
320,192,235305,128,0,235390:0:0:0:0:
192,192,235361,128,0,235475:0:0:0:0:
64,192,235475,128,0,235702:0:0:0:0:
448,192,235475,128,0,235816:0:0:0:0:
320,192,235702,128,0,235816:0:0:0:0:
192,192,235816,128,0,235930:0:0:0:0:
320,192,235930,128,0,236157:0:0:0:0:
64,192,235930,128,0,236157:0:0:0:0:
448,192,236157,128,0,236270:0:0:0:0:
192,192,236157,128,0,236270:0:0:0:0:
320,192,236384,128,0,237407:0:0:0:0:
192,192,236384,128,0,236611:0:0:0:0:
448,192,236498,128,0,236611:0:0:0:0:
64,192,236611,128,0,236725:0:0:0:0:
448,192,236725,128,0,236839:0:0:0:0:
64,192,236839,128,0,236952:0:0:0:0:
192,192,236839,128,0,236952:0:0:0:0:
192,192,237066,128,0,237180:0:0:0:0:
64,192,237180,128,0,237293:0:0:0:0:
448,192,237293,128,0,237407:0:0:0:0:
192,192,237293,128,0,238316:0:0:0:0:
320,192,237520,128,0,237748:0:0:0:0:
64,192,237634,128,0,237748:0:0:0:0:
448,192,237748,128,0,237861:0:0:0:0:
64,192,237861,128,0,237975:0:0:0:0:
448,192,237975,128,0,238089:0:0:0:0:
320,192,237975,128,0,238089:0:0:0:0:
64,192,238202,128,0,238316:0:0:0:0:
448,192,238202,128,0,239452:0:0:0:0:
320,192,238316,128,0,238430:0:0:0:0:
64,192,238430,128,0,238543:0:0:0:0:
192,192,238543,128,0,238657:0:0:0:0:
64,192,238657,128,0,238770:0:0:0:0:
320,192,238657,128,0,238770:0:0:0:0:
320,192,238884,128,0,238998:0:0:0:0:
192,192,238998,128,0,239111:0:0:0:0:
64,192,239111,128,0,239225:0:0:0:0:
320,192,239111,128,0,239339:0:0:0:0:
192,192,239339,128,0,239452:0:0:0:0:
64,192,239339,128,0,241043:0:0:0:0:
320,192,239452,128,0,239566:0:0:0:0:
192,192,239566,128,0,239680:0:0:0:0:
448,192,239566,128,0,239680:0:0:0:0:
448,192,239793,128,0,239907:0:0:0:0:
320,192,239793,128,0,239907:0:0:0:0:
192,192,240020,128,0,240248:0:0:0:0:
448,192,240134,128,0,240248:0:0:0:0:
320,192,240248,128,0,240361:0:0:0:0:
192,192,240361,128,0,240475:0:0:0:0:
448,192,240475,128,0,240589:0:0:0:0:
320,192,240475,128,0,240589:0:0:0:0:
192,192,240702,128,0,240816:0:0:0:0:
320,192,240702,128,0,240816:0:0:0:0:
448,192,240816,128,0,240930:0:0:0:0:
192,192,240930,128,0,241043:0:0:0:0:
320,192,240930,128,0,242861:0:0:0:0:
64,192,241157,128,0,241384:0:0:0:0:
448,192,241270,128,0,241384:0:0:0:0:
192,192,241384,128,0,241498:0:0:0:0:
448,192,241498,128,0,241611:0:0:0:0:
64,192,241611,128,0,241725:0:0:0:0:
192,192,241611,128,0,241725:0:0:0:0:
64,192,241839,128,0,241952:0:0:0:0:
448,192,241952,128,0,242066:0:0:0:0:
192,192,242066,128,0,242180:0:0:0:0:
448,192,242180,128,0,242293:0:0:0:0:
64,192,242293,128,0,242407:0:0:0:0:
192,192,242293,128,0,242407:0:0:0:0:
64,192,242520,128,0,242634:0:0:0:0:
448,192,242520,128,0,242634:0:0:0:0:
192,192,242634,128,0,242748:0:0:0:0:
448,192,242748,128,0,242861:0:0:0:0:
64,192,242748,128,0,244680:0:0:0:0:
192,192,242975,128,0,243089:0:0:0:0:
320,192,243089,128,0,243202:0:0:0:0:
192,192,243202,128,0,243316:0:0:0:0:
448,192,243202,128,0,243316:0:0:0:0:
320,192,243430,128,0,243543:0:0:0:0:
448,192,243430,128,0,243543:0:0:0:0:
192,192,243657,128,0,243884:0:0:0:0:
448,192,243770,128,0,243884:0:0:0:0:
320,192,243884,128,0,243998:0:0:0:0:
192,192,243998,128,0,244111:0:0:0:0:
448,192,244111,128,0,244225:0:0:0:0:
320,192,244111,128,0,244225:0:0:0:0:
192,192,244339,128,0,244452:0:0:0:0:
448,192,244339,128,0,244452:0:0:0:0:
320,192,244452,128,0,244566:0:0:0:0:
192,192,244566,128,0,244680:0:0:0:0:
448,192,244566,128,0,246498:0:0:0:0:
64,192,244793,128,0,245020:0:0:0:0:
320,192,244907,128,0,245020:0:0:0:0:
192,192,245020,128,0,245134:0:0:0:0:
320,192,245134,128,0,245248:0:0:0:0:
64,192,245248,128,0,245361:0:0:0:0:
192,192,245248,128,0,245361:0:0:0:0:
64,192,245475,128,0,245702:0:0:0:0:
192,192,245589,128,0,245702:0:0:0:0:
320,192,245702,128,0,245816:0:0:0:0:
64,192,245816,128,0,245930:0:0:0:0:
192,192,245930,128,0,246043:0:0:0:0:
320,192,245930,128,0,246043:0:0:0:0:
64,192,246157,128,0,246270:0:0:0:0:
320,192,246270,128,0,246384:0:0:0:0:
64,192,246384,128,0,246498:0:0:0:0:
192,192,246384,128,0,248202:0:0:0:0:
320,192,246611,128,0,246725:0:0:0:0:
64,192,246725,128,0,246839:0:0:0:0:
448,192,246839,128,0,246952:0:0:0:0:
64,192,246952,128,0,247066:0:0:0:0:
448,192,247066,128,0,247180:0:0:0:0:
320,192,247066,128,0,247180:0:0:0:0:
320,192,247293,128,0,247520:0:0:0:0:
64,192,247407,128,0,247520:0:0:0:0:
448,192,247520,128,0,247634:0:0:0:0:
64,192,247634,128,0,247748:0:0:0:0:
448,192,247748,128,0,247861:0:0:0:0:
320,192,247748,128,0,247861:0:0:0:0:
448,192,247975,128,0,248089:0:0:0:0:
64,192,247975,128,0,248089:0:0:0:0:
320,192,248089,128,0,248202:0:0:0:0:
64,192,248202,128,0,248316:0:0:0:0:
448,192,248202,128,0,248316:0:0:0:0:
192,192,248430,128,0,248657:0:0:0:0:
64,192,248543,128,0,248657:0:0:0:0:
320,192,248657,128,0,248770:0:0:0:0:
64,192,248770,128,0,248884:0:0:0:0:
320,192,248884,128,0,248998:0:0:0:0:
448,192,248884,128,0,248998:0:0:0:0:
192,192,249111,128,0,249225:0:0:0:0:
320,192,249339,128,0,249452:0:0:0:0:
448,192,249566,128,0,249642:0:0:0:0:
64,192,249566,128,0,249680:0:0:0:0:
192,192,249642,128,0,249717:0:0:0:0:
320,192,249736,128,0,249793:0:0:0:0:
448,192,249793,1,0,0:0:0:0:
64,192,249793,128,0,249869:0:0:0:0:
320,192,249850,128,0,249935:0:0:0:0:
192,192,249907,128,0,250248:0:0:0:0:
64,192,250020,128,0,250134:0:0:0:0:
448,192,250020,128,0,250475:0:0:0:0:
320,192,250248,128,0,250361:0:0:0:0:
64,192,250361,128,0,250475:0:0:0:0:
192,192,250475,128,0,250589:0:0:0:0:
320,192,250475,1,0,0:0:0:0:
64,192,250589,1,0,0:0:0:0:
192,192,250702,128,0,250930:0:0:0:0:
448,192,250930,128,0,251043:0:0:0:0:
192,192,251043,1,0,0:0:0:0:
448,192,251157,1,0,0:0:0:0:
320,192,251157,1,0,0:0:0:0:
448,192,251270,1,0,0:0:0:0:
192,192,251384,128,0,251611:0:0:0:0:
320,192,251384,1,0,0:0:0:0:
64,192,251611,1,0,0:0:0:0:
448,192,251611,128,0,251725:0:0:0:0:
192,192,251725,1,0,0:0:0:0:
192,192,251839,1,0,0:0:0:0:
448,192,251839,1,0,0:0:0:0:
320,192,251839,128,0,252066:0:0:0:0:
64,192,252066,128,0,252180:0:0:0:0:
192,192,252180,1,0,0:0:0:0:
64,192,252293,1,0,0:0:0:0:
320,192,252293,128,0,252407:0:0:0:0:
64,192,252407,1,0,0:0:0:0:
320,192,252520,128,0,252634:0:0:0:0:
192,192,252520,128,0,252748:0:0:0:0:
320,192,252748,128,0,252975:0:0:0:0:
448,192,252861,1,0,0:0:0:0:
192,192,252975,128,0,253089:0:0:0:0:
448,192,253089,1,0,0:0:0:0:
320,192,253202,1,0,0:0:0:0:
192,192,253202,128,0,253316:0:0:0:0:
192,192,253430,128,0,253657:0:0:0:0:
64,192,253430,1,0,0:0:0:0:
448,192,253543,1,0,0:0:0:0:
320,192,253543,1,0,0:0:0:0:
320,192,253657,128,0,253884:0:0:0:0:
64,192,253657,128,0,253770:0:0:0:0:
192,192,253884,128,0,254111:0:0:0:0:
64,192,253884,128,0,253998:0:0:0:0:
320,192,253998,1,0,0:0:0:0:
320,192,254111,128,0,254225:0:0:0:0:
64,192,254111,128,0,254452:0:0:0:0:
448,192,254225,1,0,0:0:0:0:
192,192,254339,128,0,254680:0:0:0:0:
320,192,254339,128,0,254452:0:0:0:0:
320,192,254566,128,0,254907:0:0:0:0:
64,192,254566,128,0,254680:0:0:0:0:
448,192,254680,128,0,254793:0:0:0:0:
64,192,254793,128,0,255248:0:0:0:0:
192,192,254793,128,0,254907:0:0:0:0:
448,192,254907,128,0,255020:0:0:0:0:
192,192,255020,128,0,255248:0:0:0:0:
320,192,255020,128,0,255134:0:0:0:0:
320,192,255248,128,0,255589:0:0:0:0:
448,192,255248,128,0,255361:0:0:0:0:
192,192,255361,1,0,0:0:0:0:
64,192,255361,1,0,0:0:0:0:
192,192,255475,128,0,255930:0:0:0:0:
448,192,255475,1,0,0:0:0:0:
448,192,255702,128,0,255816:0:0:0:0:
320,192,255702,128,0,255816:0:0:0:0:
64,192,255816,128,0,255930:0:0:0:0:
448,192,255930,128,0,256270:0:0:0:0:
320,192,255930,128,0,256043:0:0:0:0:
64,192,256043,128,0,256157:0:0:0:0:
192,192,256157,128,0,256270:0:0:0:0:
320,192,256157,128,0,256725:0:0:0:0:
192,192,256384,128,0,257066:0:0:0:0:
448,192,256384,128,0,256498:0:0:0:0:
64,192,256611,128,0,256725:0:0:0:0:
448,192,256611,128,0,256952:0:0:0:0:
320,192,256839,128,0,257293:0:0:0:0:
64,192,256839,128,0,256952:0:0:0:0:
64,192,257066,128,0,257180:0:0:0:0:
448,192,257066,128,0,257180:0:0:0:0:
192,192,257180,128,0,257407:0:0:0:0:
64,192,257293,128,0,257634:0:0:0:0:
448,192,257293,128,0,257861:0:0:0:0:
192,192,257520,128,0,257975:0:0:0:0:
320,192,257634,128,0,257748:0:0:0:0:
64,192,257748,128,0,257861:0:0:0:0:
448,192,257975,128,0,258543:0:0:0:0:
320,192,257975,128,0,258089:0:0:0:0:
64,192,257975,128,0,258657:0:0:0:0:
192,192,258202,128,0,258316:0:0:0:0:
320,192,258202,128,0,258543:0:0:0:0:
192,192,258430,128,0,258770:0:0:0:0:
320,192,258657,128,0,258770:0:0:0:0:
448,192,258657,128,0,258884:0:0:0:0:
64,192,258770,128,0,258884:0:0:0:0:
320,192,258884,128,0,258998:0:0:0:0:
192,192,258884,128,0,259339:0:0:0:0:
64,192,258998,128,0,259225:0:0:0:0:
448,192,259111,128,0,259225:0:0:0:0:
320,192,259111,128,0,259680:0:0:0:0:
64,192,259339,128,0,259680:0:0:0:0:
448,192,259339,128,0,259452:0:0:0:0:
448,192,259566,128,0,259680:0:0:0:0:
192,192,259566,128,0,259793:0:0:0:0:
64,192,259793,128,0,259907:0:0:0:0:
320,192,259793,128,0,260134:0:0:0:0:
448,192,259793,128,0,260361:0:0:0:0:
192,192,260020,128,0,260134:0:0:0:0:
64,192,260020,128,0,260816:0:0:0:0:
192,192,260248,128,0,260361:0:0:0:0:
320,192,260248,128,0,260589:0:0:0:0:
192,192,260475,128,0,260589:0:0:0:0:
448,192,260475,128,0,260816:0:0:0:0:
192,192,260702,128,0,261043:0:0:0:0:
320,192,260702,128,0,261270:0:0:0:0:
448,192,260930,128,0,261725:0:0:0:0:
64,192,260930,128,0,261498:0:0:0:0:
192,192,261157,128,0,261725:0:0:0:0:
320,192,261384,128,0,261839:0:0:0:0:
64,192,261611,128,0,262180:0:0:0:0:
448,192,261839,128,0,261952:0:0:0:0:
192,192,261839,128,0,262407:0:0:0:0:
320,192,261952,128,0,262180:0:0:0:0:
448,192,262066,128,0,262407:0:0:0:0:
320,192,262293,128,0,262748:0:0:0:0:
64,192,262293,128,0,262520:0:0:0:0:
192,192,262520,128,0,262634:0:0:0:0:
448,192,262520,128,0,262634:0:0:0:0:
64,192,262634,128,0,262748:0:0:0:0:
192,192,262748,128,0,262975:0:0:0:0:
448,192,262748,128,0,263089:0:0:0:0:
320,192,262975,5,0,0:0:0:0:
64,192,263032,128,0,263145:0:0:0:0:
320,192,263089,128,0,263430:0:0:0:0:
192,192,263202,128,0,263316:0:0:0:0:
448,192,263202,128,0,263543:0:0:0:0:
64,192,263316,128,0,263543:0:0:0:0:
192,192,263430,128,0,263543:0:0:0:0:
320,192,263543,128,0,263657:0:0:0:0:
448,192,263657,128,0,263884:0:0:0:0:
64,192,263657,128,0,263733:0:0:0:0:
192,192,263770,1,0,0:0:0:0:
64,192,263808,128,0,264111:0:0:0:0:
192,192,263884,128,0,263998:0:0:0:0:
320,192,263998,1,0,0:0:0:0:
448,192,263998,128,0,264168:0:0:0:0:
192,192,264111,128,0,264197:0:0:0:0:
320,192,264168,1,0,0:0:0:0:
64,192,264225,1,0,0:0:0:0:
448,192,264282,128,0,264395:0:0:0:0:
320,192,264282,1,0,0:0:0:0:
64,192,264339,1,0,0:0:0:0:
192,192,264395,128,0,264481:0:0:0:0:
448,192,264452,128,0,264537:0:0:0:0:
320,192,264509,1,0,0:0:0:0:
192,192,264566,1,0,0:0:0:0:
320,192,264623,1,0,0:0:0:0:
64,192,264667,1,0,0:0:0:0:
192,192,264717,1,0,0:0:0:0:
448,192,264768,1,0,0:0:0:0:
320,192,264818,1,0,0:0:0:0:
192,192,264869,1,0,0:0:0:0:
448,192,264919,1,0,0:0:0:0:
320,192,264970,1,0,0:0:0:0:
320,192,265172,1,0,0:0:0:0:
192,192,265222,1,0,0:0:0:0:
448,192,265273,128,0,265374:0:0:0:0:
192,192,265323,1,0,0:0:0:0:
320,192,265374,1,0,0:0:0:0:
64,192,265424,128,0,265525:0:0:0:0:
320,192,265475,128,0,265589:0:0:0:0:
448,192,265475,128,0,265589:0:0:0:0:
64,192,265589,1,0,0:0:0:0:
448,192,265645,128,0,265702:0:0:0:0:
192,192,265702,1,0,0:0:0:0:
320,192,265759,1,0,0:0:0:0:
192,192,265816,128,0,265892:0:0:0:0:
448,192,265930,128,0,266005:0:0:0:0:
320,192,265930,128,0,266005:0:0:0:0:
448,192,266081,128,0,266157:0:0:0:0:
320,192,266081,128,0,266157:0:0:0:0:
448,192,266233,128,0,266308:0:0:0:0:
320,192,266233,128,0,266308:0:0:0:0:
64,192,266384,128,0,266763:0:0:0:0:
320,192,266384,128,0,266687:0:0:0:0:
448,192,266384,128,0,266536:0:0:0:0:
192,192,266384,128,0,266460:0:0:0:0:
192,192,266536,128,0,266763:0:0:0:0:
448,192,266687,128,0,266839:0:0:0:0:
320,192,266763,128,0,266839:0:0:0:0:
64,192,266839,128,0,266914:0:0:0:0:
192,192,266839,128,0,266914:0:0:0:0:
320,192,266990,128,0,267066:0:0:0:0:
448,192,266990,128,0,267066:0:0:0:0:
64,192,266990,128,0,267066:0:0:0:0:
192,192,267142,128,0,267217:0:0:0:0:
448,192,267142,128,0,267217:0:0:0:0:
320,192,267142,128,0,267217:0:0:0:0:
192,192,267293,128,0,267596:0:0:0:0:
448,192,267293,128,0,267672:0:0:0:0:
64,192,267293,128,0,267445:0:0:0:0:
320,192,267445,128,0,267672:0:0:0:0:
64,192,267596,128,0,267748:0:0:0:0:
192,192,267672,128,0,267748:0:0:0:0:
448,192,267748,128,0,267975:0:0:0:0:
320,192,267748,128,0,267823:0:0:0:0:
64,192,267899,128,0,268126:0:0:0:0:
320,192,267899,128,0,267975:0:0:0:0:
192,192,268051,128,0,268126:0:0:0:0:
320,192,268051,128,0,268202:0:0:0:0:
192,192,268202,128,0,268581:0:0:0:0:
64,192,268202,128,0,268354:0:0:0:0:
448,192,268202,128,0,268505:0:0:0:0:
320,192,268354,128,0,268657:0:0:0:0:
64,192,268505,128,0,268657:0:0:0:0:
192,192,268657,128,0,268884:0:0:0:0:
448,192,268657,128,0,268733:0:0:0:0:
320,192,268808,128,0,268884:0:0:0:0:
448,192,268808,128,0,268960:0:0:0:0:
64,192,268884,128,0,269036:0:0:0:0:
320,192,268960,128,0,269036:0:0:0:0:
192,192,268960,128,0,269036:0:0:0:0:
448,192,269036,128,0,269111:0:0:0:0:
64,192,269111,128,0,269263:0:0:0:0:
192,192,269111,128,0,269414:0:0:0:0:
320,192,269263,128,0,269717:0:0:0:0:
64,192,269414,128,0,269717:0:0:0:0:
192,192,269566,128,0,270020:0:0:0:0:
448,192,269566,128,0,269642:0:0:0:0:
448,192,269717,128,0,269869:0:0:0:0:
64,192,269869,128,0,270020:0:0:0:0:
320,192,270020,128,0,270248:0:0:0:0:
448,192,270020,128,0,270323:0:0:0:0:
192,192,270172,128,0,270323:0:0:0:0:
64,192,270323,128,0,270475:0:0:0:0:
320,192,270323,128,0,270475:0:0:0:0:
448,192,270475,128,0,270702:0:0:0:0:
192,192,270475,128,0,270551:0:0:0:0:
192,192,270626,128,0,270778:0:0:0:0:
320,192,270702,128,0,270854:0:0:0:0:
192,192,270854,128,0,270930:0:0:0:0:
64,192,270930,128,0,271308:0:0:0:0:
320,192,270930,128,0,271233:0:0:0:0:
448,192,270930,128,0,271081:0:0:0:0:
192,192,271081,128,0,271308:0:0:0:0:
448,192,271233,128,0,271384:0:0:0:0:
320,192,271308,128,0,271384:0:0:0:0:
64,192,271384,128,0,271460:0:0:0:0:
192,192,271384,128,0,271460:0:0:0:0:
448,192,271460,128,0,271536:0:0:0:0:
64,192,271536,128,0,271611:0:0:0:0:
320,192,271536,128,0,271763:0:0:0:0:
64,192,271687,128,0,271839:0:0:0:0:
448,192,271763,128,0,271914:0:0:0:0:
320,192,271839,128,0,271914:0:0:0:0:
192,192,271839,128,0,271990:0:0:0:0:
64,192,271990,128,0,272066:0:0:0:0:
320,192,271990,128,0,272142:0:0:0:0:
192,192,272142,128,0,272293:0:0:0:0:
64,192,272142,128,0,272293:0:0:0:0:
448,192,272293,128,0,272748:0:0:0:0:
320,192,272293,128,0,272672:0:0:0:0:
64,192,272445,128,0,272596:0:0:0:0:
192,192,272596,128,0,272748:0:0:0:0:
64,192,272748,128,0,273202:0:0:0:0:
320,192,272748,128,0,273051:0:0:0:0:
192,192,272899,128,0,273051:0:0:0:0:
448,192,273051,128,0,273505:0:0:0:0:
192,192,273202,128,0,273278:0:0:0:0:
320,192,273202,128,0,273354:0:0:0:0:
192,192,273354,128,0,273505:0:0:0:0:
320,192,273505,128,0,273657:0:0:0:0:
64,192,273657,128,0,273808:0:0:0:0:
192,192,273657,128,0,273960:0:0:0:0:
448,192,273657,128,0,274036:0:0:0:0:
320,192,273808,128,0,274036:0:0:0:0:
64,192,273960,128,0,274111:0:0:0:0:
192,192,274036,128,0,274111:0:0:0:0:
320,192,274111,128,0,274187:0:0:0:0:
448,192,274111,128,0,274187:0:0:0:0:
448,192,274263,128,0,274339:0:0:0:0:
64,192,274263,128,0,274339:0:0:0:0:
192,192,274263,128,0,274339:0:0:0:0:
192,192,274414,128,0,274490:0:0:0:0:
64,192,274414,128,0,274490:0:0:0:0:
320,192,274414,128,0,274490:0:0:0:0:
448,192,274566,128,0,274717:0:0:0:0:
64,192,274566,128,0,274945:0:0:0:0:
320,192,274566,128,0,274869:0:0:0:0:
192,192,274717,128,0,274945:0:0:0:0:
448,192,274869,128,0,275020:0:0:0:0:
320,192,274945,128,0,275020:0:0:0:0:
192,192,275020,128,0,275096:0:0:0:0:
64,192,275020,128,0,275248:0:0:0:0:
192,192,275172,128,0,275248:0:0:0:0:
448,192,275172,128,0,275399:0:0:0:0:
192,192,275323,128,0,275475:0:0:0:0:
320,192,275323,128,0,275399:0:0:0:0:
64,192,275475,128,0,275778:0:0:0:0:
448,192,275475,128,0,275626:0:0:0:0:
320,192,275475,128,0,275854:0:0:0:0:
192,192,275626,128,0,275930:0:0:0:0:
448,192,275778,128,0,275930:0:0:0:0:
320,192,275930,128,0,276157:0:0:0:0:
64,192,275930,128,0,276005:0:0:0:0:
64,192,276081,128,0,276233:0:0:0:0:
192,192,276081,128,0,276157:0:0:0:0:
448,192,276157,128,0,276308:0:0:0:0:
320,192,276233,128,0,276308:0:0:0:0:
192,192,276233,128,0,276308:0:0:0:0:
64,192,276308,128,0,276384:0:0:0:0:
320,192,276384,128,0,276687:0:0:0:0:
448,192,276384,128,0,276536:0:0:0:0:
192,192,276536,128,0,276990:0:0:0:0:
448,192,276687,128,0,276990:0:0:0:0:
64,192,276839,128,0,276914:0:0:0:0:
320,192,276839,128,0,277293:0:0:0:0:
64,192,276990,128,0,277142:0:0:0:0:
448,192,277142,128,0,277293:0:0:0:0:
64,192,277293,128,0,277596:0:0:0:0:
192,192,277293,128,0,277520:0:0:0:0:
320,192,277445,128,0,277596:0:0:0:0:
192,192,277596,128,0,277748:0:0:0:0:
448,192,277596,128,0,277748:0:0:0:0:
320,192,277748,128,0,277823:0:0:0:0:
64,192,277748,128,0,277975:0:0:0:0:
320,192,277899,128,0,278051:0:0:0:0:
192,192,277975,128,0,278126:0:0:0:0:
320,192,278126,128,0,278202:0:0:0:0:
64,192,278202,128,0,278354:0:0:0:0:
192,192,278202,128,0,278505:0:0:0:0:
448,192,278202,128,0,278581:0:0:0:0:
320,192,278354,128,0,278581:0:0:0:0:
64,192,278505,128,0,278657:0:0:0:0:
192,192,278581,128,0,278657:0:0:0:0:
320,192,278657,128,0,278733:0:0:0:0:
448,192,278657,128,0,278733:0:0:0:0:
64,192,278733,128,0,278808:0:0:0:0:
192,192,278808,128,0,279036:0:0:0:0:
448,192,278808,128,0,278884:0:0:0:0:
448,192,278960,128,0,279111:0:0:0:0:
64,192,279036,128,0,279187:0:0:0:0:
320,192,279111,128,0,279339:0:0:0:0:
192,192,279111,128,0,279187:0:0:0:0:
448,192,279263,128,0,279339:0:0:0:0:
192,192,279263,128,0,279414:0:0:0:0:
64,192,279339,128,0,279414:0:0:0:0:
320,192,279414,128,0,279490:0:0:0:0:
192,192,279490,128,0,279566:0:0:0:0:
448,192,279566,128,0,279717:0:0:0:0:
64,192,279566,128,0,279717:0:0:0:0:
320,192,279717,128,0,279869:0:0:0:0:
192,192,279717,128,0,279945:0:0:0:0:
448,192,279869,128,0,280020:0:0:0:0:
64,192,279869,128,0,279945:0:0:0:0:
320,192,279945,128,0,280020:0:0:0:0:
64,192,280020,128,0,280475:0:0:0:0:
192,192,280020,128,0,280323:0:0:0:0:
320,192,280323,128,0,280930:0:0:0:0:
448,192,280475,128,0,280626:0:0:0:0:
192,192,280475,128,0,280778:0:0:0:0:
64,192,280626,128,0,280778:0:0:0:0:
448,192,280778,128,0,280930:0:0:0:0:
64,192,280930,128,0,281233:0:0:0:0:
192,192,280930,128,0,281005:0:0:0:0:
448,192,281081,128,0,281157:0:0:0:0:
192,192,281081,128,0,281233:0:0:0:0:
448,192,281233,128,0,281384:0:0:0:0:
192,192,281308,128,0,281384:0:0:0:0:
320,192,281384,128,0,281536:0:0:0:0:
64,192,281384,128,0,281536:0:0:0:0:
448,192,281536,128,0,281687:0:0:0:0:
192,192,281536,128,0,281763:0:0:0:0:
320,192,281687,128,0,281839:0:0:0:0:
64,192,281763,128,0,281914:0:0:0:0:
448,192,281839,128,0,282142:0:0:0:0:
192,192,281839,128,0,281914:0:0:0:0:
320,192,281990,128,0,282066:0:0:0:0:
192,192,281990,128,0,282142:0:0:0:0:
320,192,282142,128,0,282293:0:0:0:0:
192,192,282217,128,0,282293:0:0:0:0:
64,192,282293,128,0,282445:0:0:0:0:
448,192,282293,128,0,282445:0:0:0:0:
192,192,282445,128,0,282596:0:0:0:0:
320,192,282445,128,0,282672:0:0:0:0:
64,192,282596,128,0,282748:0:0:0:0:
448,192,282672,128,0,282823:0:0:0:0:
320,192,282748,128,0,282823:0:0:0:0:
192,192,282748,128,0,283051:0:0:0:0:
64,192,282899,128,0,282975:0:0:0:0:
320,192,282899,128,0,283051:0:0:0:0:
64,192,283051,128,0,283202:0:0:0:0:
320,192,283126,128,0,283202:0:0:0:0:
448,192,283202,128,0,283354:0:0:0:0:
192,192,283202,128,0,283354:0:0:0:0:
320,192,283354,128,0,283581:0:0:0:0:
64,192,283354,128,0,283505:0:0:0:0:
192,192,283505,128,0,283657:0:0:0:0:
448,192,283581,128,0,283733:0:0:0:0:
64,192,283657,128,0,283808:0:0:0:0:
320,192,283657,128,0,283960:0:0:0:0:
192,192,283808,128,0,284263:0:0:0:0:
448,192,283960,128,0,284263:0:0:0:0:
64,192,284111,128,0,284187:0:0:0:0:
320,192,284111,128,0,284490:0:0:0:0:
64,192,284263,128,0,284414:0:0:0:0:
448,192,284414,128,0,284566:0:0:0:0:
64,192,284490,128,0,284642:0:0:0:0:
192,192,284566,128,0,284642:0:0:0:0:
320,192,284566,128,0,284869:0:0:0:0:
192,192,284717,128,0,284869:0:0:0:0:
448,192,284717,128,0,284793:0:0:0:0:
448,192,284869,128,0,285020:0:0:0:0:
192,192,284945,128,0,285020:0:0:0:0:
320,192,285020,128,0,285172:0:0:0:0:
64,192,285020,128,0,285172:0:0:0:0:
448,192,285172,128,0,285323:0:0:0:0:
192,192,285172,128,0,285399:0:0:0:0:
320,192,285323,128,0,285475:0:0:0:0:
64,192,285399,128,0,285551:0:0:0:0:
448,192,285475,128,0,285778:0:0:0:0:
192,192,285475,128,0,285551:0:0:0:0:
320,192,285626,128,0,285702:0:0:0:0:
192,192,285626,128,0,285778:0:0:0:0:
320,192,285778,128,0,285930:0:0:0:0:
192,192,285854,128,0,285930:0:0:0:0:
64,192,285930,128,0,286081:0:0:0:0:
448,192,285930,128,0,286081:0:0:0:0:
192,192,286081,128,0,286233:0:0:0:0:
320,192,286081,128,0,286308:0:0:0:0:
64,192,286233,128,0,286384:0:0:0:0:
448,192,286308,128,0,286460:0:0:0:0:
320,192,286384,128,0,286460:0:0:0:0:
192,192,286384,128,0,286687:0:0:0:0:
64,192,286536,128,0,286611:0:0:0:0:
320,192,286536,128,0,286687:0:0:0:0:
64,192,286687,128,0,286839:0:0:0:0:
320,192,286763,128,0,286839:0:0:0:0:
448,192,286839,128,0,286990:0:0:0:0:
192,192,286839,128,0,286990:0:0:0:0:
320,192,286990,128,0,287217:0:0:0:0:
64,192,286990,128,0,287142:0:0:0:0:
192,192,287142,128,0,287293:0:0:0:0:
448,192,287217,128,0,287369:0:0:0:0:
320,192,287293,128,0,287596:0:0:0:0:
64,192,287293,128,0,287748:0:0:0:0:
192,192,287445,128,0,287596:0:0:0:0:
448,192,287596,128,0,288051:0:0:0:0:
192,192,287748,128,0,287823:0:0:0:0:
320,192,287748,128,0,287899:0:0:0:0:
192,192,287899,128,0,288051:0:0:0:0:
320,192,288051,128,0,288202:0:0:0:0:
64,192,288126,128,0,288278:0:0:0:0:
448,192,288202,128,0,288505:0:0:0:0:
192,192,288202,128,0,288278:0:0:0:0:
320,192,288354,128,0,288430:0:0:0:0:
192,192,288354,128,0,288505:0:0:0:0:
320,192,288505,128,0,288657:0:0:0:0:
192,192,288581,128,0,288657:0:0:0:0:
448,192,288657,128,0,288808:0:0:0:0:
64,192,288657,128,0,288808:0:0:0:0:
320,192,288808,128,0,289036:0:0:0:0:
192,192,288808,128,0,288960:0:0:0:0:
64,192,288960,128,0,289111:0:0:0:0:
448,192,289036,128,0,289187:0:0:0:0:
192,192,289111,128,0,289414:0:0:0:0:
320,192,289111,128,0,289187:0:0:0:0:
320,192,289263,128,0,289414:0:0:0:0:
64,192,289263,128,0,289339:0:0:0:0:
64,192,289414,128,0,289566:0:0:0:0:
320,192,289490,128,0,289566:0:0:0:0:
192,192,289566,128,0,289717:0:0:0:0:
448,192,289566,128,0,289717:0:0:0:0:
320,192,289717,128,0,289945:0:0:0:0:
64,192,289717,128,0,289869:0:0:0:0:
192,192,289869,128,0,290020:0:0:0:0:
448,192,289945,128,0,290096:0:0:0:0:
320,192,290020,128,0,290096:0:0:0:0:
64,192,290020,128,0,290323:0:0:0:0:
448,192,290172,128,0,290323:0:0:0:0:
192,192,290172,128,0,290248:0:0:0:0:
192,192,290323,128,0,290475:0:0:0:0:
448,192,290399,128,0,290475:0:0:0:0:
320,192,290475,128,0,290626:0:0:0:0:
64,192,290475,128,0,290626:0:0:0:0:
192,192,290626,128,0,290854:0:0:0:0:
448,192,290626,128,0,290778:0:0:0:0:
320,192,290778,128,0,290930:0:0:0:0:
64,192,290854,128,0,291005:0:0:0:0:
448,192,290930,128,0,291081:0:0:0:0:
192,192,290930,128,0,291233:0:0:0:0:
320,192,291081,128,0,291536:0:0:0:0:
64,192,291233,128,0,291536:0:0:0:0:
448,192,291384,128,0,291460:0:0:0:0:
192,192,291384,128,0,291763:0:0:0:0:
448,192,291536,128,0,291687:0:0:0:0:
64,192,291687,128,0,291839:0:0:0:0:
448,192,291763,128,0,291914:0:0:0:0:
320,192,291839,128,0,291914:0:0:0:0:
192,192,291839,128,0,292142:0:0:0:0:
320,192,291990,128,0,292142:0:0:0:0:
64,192,292142,128,0,292293:0:0:0:0:
320,192,292217,128,0,292293:0:0:0:0:
192,192,292293,128,0,292445:0:0:0:0:
448,192,292293,128,0,292445:0:0:0:0:
320,192,292445,128,0,292672:0:0:0:0:
64,192,292445,128,0,292596:0:0:0:0:
192,192,292596,128,0,292748:0:0:0:0:
448,192,292672,128,0,292823:0:0:0:0:
320,192,292748,128,0,292823:0:0:0:0:
64,192,292748,128,0,293051:0:0:0:0:
320,192,292899,128,0,293051:0:0:0:0:
192,192,293051,128,0,293202:0:0:0:0:
320,192,293126,128,0,293202:0:0:0:0:
448,192,293202,128,0,293354:0:0:0:0:
64,192,293202,128,0,293354:0:0:0:0:
320,192,293354,128,0,293505:0:0:0:0:
192,192,293354,128,0,293581:0:0:0:0:
448,192,293505,128,0,293657:0:0:0:0:
64,192,293581,128,0,293733:0:0:0:0:
192,192,293657,128,0,293733:0:0:0:0:
320,192,293657,128,0,293884:0:0:0:0:
192,192,293808,128,0,293884:0:0:0:0:
64,192,293884,128,0,294036:0:0:0:0:
192,192,293960,1,0,0:0:0:0:
320,192,294111,128,0,294263:0:0:0:0:
64,192,294111,128,0,294187:0:0:0:0:
192,192,294263,128,0,294414:0:0:0:0:
64,192,294263,128,0,294490:0:0:0:0:
448,192,294414,128,0,294566:0:0:0:0:
192,192,294490,128,0,294642:0:0:0:0:
320,192,294566,128,0,294793:0:0:0:0:
64,192,294566,128,0,294642:0:0:0:0:
192,192,294717,128,0,294869:0:0:0:0:
448,192,294793,128,0,295096:0:0:0:0:
64,192,294869,128,0,295020:0:0:0:0:
320,192,294869,128,0,294945:0:0:0:0:
320,192,295020,128,0,295248:0:0:0:0:
192,192,295020,128,0,295096:0:0:0:0:
448,192,295172,128,0,295248:0:0:0:0:
192,192,295172,128,0,295399:0:0:0:0:
448,192,295323,128,0,295475:0:0:0:0:
320,192,295323,128,0,295399:0:0:0:0:
320,192,295475,128,0,295551:0:0:0:0:
192,192,295475,128,0,295626:0:0:0:0:
64,192,295475,128,0,295702:0:0:0:0:
448,192,295551,128,0,295626:0:0:0:0:
320,192,295626,128,0,295854:0:0:0:0:
192,192,295702,128,0,295778:0:0:0:0:
64,192,295778,128,0,295854:0:0:0:0:
192,192,295854,128,0,295930:0:0:0:0:
64,192,295930,128,0,296233:0:0:0:0:
320,192,295930,128,0,296005:0:0:0:0:
320,192,296081,128,0,296308:0:0:0:0:
192,192,296081,128,0,296157:0:0:0:0:
448,192,296233,128,0,296308:0:0:0:0:
192,192,296233,128,0,296384:0:0:0:0:
448,192,296384,128,0,296611:0:0:0:0:
320,192,296384,128,0,296536:0:0:0:0:
64,192,296384,128,0,296460:0:0:0:0:
192,192,296460,128,0,296611:0:0:0:0:
64,192,296536,128,0,296611:0:0:0:0:
320,192,296611,128,0,296763:0:0:0:0:
64,192,296687,128,0,296763:0:0:0:0:
192,192,296687,128,0,296839:0:0:0:0:
448,192,296839,128,0,296914:0:0:0:0:
320,192,296839,128,0,296914:0:0:0:0:
64,192,296839,128,0,297066:0:0:0:0:
192,192,296914,128,0,296990:0:0:0:0:
448,192,296990,1,0,0:0:0:0:
320,192,296990,128,0,297217:0:0:0:0:
192,192,297066,1,0,0:0:0:0:
448,192,297142,1,0,0:0:0:0:
64,192,297142,128,0,297293:0:0:0:0:
192,192,297217,128,0,297520:0:0:0:0:
448,192,297293,128,0,297520:0:0:0:0:
320,192,297293,128,0,297369:0:0:0:0:
320,192,297445,128,0,297672:0:0:0:0:
448,192,297596,128,0,297748:0:0:0:0:
192,192,297596,128,0,297672:0:0:0:0:
192,192,297748,128,0,297975:0:0:0:0:
320,192,297748,128,0,297823:0:0:0:0:
448,192,297899,128,0,297975:0:0:0:0:
320,192,297899,128,0,298126:0:0:0:0:
448,192,298051,128,0,298278:0:0:0:0:
64,192,298051,128,0,298126:0:0:0:0:
192,192,298202,128,0,298278:0:0:0:0:
64,192,298202,128,0,298430:0:0:0:0:
192,192,298354,128,0,298581:0:0:0:0:
448,192,298505,128,0,298581:0:0:0:0:
64,192,298505,128,0,298733:0:0:0:0:
448,192,298657,128,0,298884:0:0:0:0:
320,192,298657,128,0,298733:0:0:0:0:
64,192,298808,128,0,298960:0:0:0:0:
320,192,298808,1,0,0:0:0:0:
192,192,298884,1,0,0:0:0:0:
320,192,298960,128,0,299111:0:0:0:0:
448,192,298960,1,0,0:0:0:0:
64,192,299036,128,0,299187:0:0:0:0:
448,192,299111,128,0,299339:0:0:0:0:
192,192,299111,128,0,299187:0:0:0:0:
192,192,299263,128,0,299490:0:0:0:0:
448,192,299414,128,0,299642:0:0:0:0:
320,192,299414,128,0,299490:0:0:0:0:
320,192,299566,128,0,299793:0:0:0:0:
64,192,299566,128,0,299642:0:0:0:0:
448,192,299717,128,0,299793:0:0:0:0:
64,192,299717,128,0,299945:0:0:0:0:
192,192,299869,128,0,299945:0:0:0:0:
448,192,299869,128,0,300096:0:0:0:0:
320,192,300020,128,0,300172:0:0:0:0:
192,192,300020,128,0,300096:0:0:0:0:
64,192,300096,128,0,300172:0:0:0:0:
192,192,300172,128,0,300323:0:0:0:0:
320,192,300248,128,0,300323:0:0:0:0:
448,192,300323,128,0,300551:0:0:0:0:
64,192,300323,128,0,300399:0:0:0:0:
320,192,300399,128,0,300475:0:0:0:0:
192,192,300475,128,0,300551:0:0:0:0:
64,192,300475,128,0,300626:0:0:0:0:
320,192,300551,128,0,300702:0:0:0:0:
448,192,300626,1,0,0:0:0:0:
192,192,300626,128,0,300854:0:0:0:0:
64,192,300702,1,0,0:0:0:0:
320,192,300778,128,0,300930:0:0:0:0:
448,192,300778,1,0,0:0:0:0:
64,192,300854,128,0,301157:0:0:0:0:
448,192,300930,128,0,301157:0:0:0:0:
192,192,300930,128,0,301005:0:0:0:0:
192,192,301081,128,0,301308:0:0:0:0:
64,192,301233,128,0,301308:0:0:0:0:
448,192,301233,128,0,301384:0:0:0:0:
192,192,301384,128,0,301460:0:0:0:0:
64,192,301384,128,0,301611:0:0:0:0:
320,192,301536,128,0,301611:0:0:0:0:
192,192,301536,128,0,301763:0:0:0:0:
64,192,301687,128,0,301763:0:0:0:0:
320,192,301687,128,0,301914:0:0:0:0:
192,192,301839,128,0,301990:0:0:0:0:
64,192,301839,128,0,301990:0:0:0:0:
448,192,301914,128,0,302066:0:0:0:0:
320,192,301990,128,0,302142:0:0:0:0:
192,192,302066,128,0,302217:0:0:0:0:
64,192,302142,128,0,302217:0:0:0:0:
448,192,302142,128,0,302293:0:0:0:0:
320,192,302217,128,0,302293:0:0:0:0:
64,192,302293,128,0,302369:0:0:0:0:
192,192,302293,128,0,302445:0:0:0:0:
320,192,302369,128,0,302445:0:0:0:0:
448,192,302445,128,0,302520:0:0:0:0:
64,192,302445,128,0,302596:0:0:0:0:
192,192,302520,128,0,302672:0:0:0:0:
448,192,302596,128,0,302748:0:0:0:0:
320,192,302672,128,0,302823:0:0:0:0:
192,192,302748,128,0,302975:0:0:0:0:
64,192,302748,128,0,302823:0:0:0:0:
448,192,302823,128,0,302899:0:0:0:0:
320,192,302899,128,0,303051:0:0:0:0:
448,192,302975,128,0,303202:0:0:0:0:
192,192,303051,128,0,303202:0:0:0:0:
64,192,303051,128,0,303126:0:0:0:0:
320,192,303202,128,0,303278:0:0:0:0:
64,192,303202,128,0,303430:0:0:0:0:
192,192,303354,128,0,303430:0:0:0:0:
320,192,303354,128,0,303581:0:0:0:0:
448,192,303505,128,0,303581:0:0:0:0:
64,192,303505,128,0,303657:0:0:0:0:
448,192,303657,128,0,303884:0:0:0:0:
320,192,303657,128,0,303808:0:0:0:0:
192,192,303657,128,0,303733:0:0:0:0:
64,192,303733,128,0,303884:0:0:0:0:
192,192,303808,128,0,303884:0:0:0:0:
320,192,303884,128,0,304036:0:0:0:0:
64,192,303960,128,0,304111:0:0:0:0:
192,192,303960,128,0,304036:0:0:0:0:
448,192,304111,128,0,304187:0:0:0:0:
320,192,304111,128,0,304187:0:0:0:0:
192,192,304111,128,0,304339:0:0:0:0:
64,192,304187,128,0,304263:0:0:0:0:
448,192,304263,128,0,304490:0:0:0:0:
320,192,304263,1,0,0:0:0:0:
64,192,304339,1,0,0:0:0:0:
192,192,304414,128,0,304566:0:0:0:0:
320,192,304414,1,0,0:0:0:0:
64,192,304490,128,0,304793:0:0:0:0:
448,192,304566,128,0,304793:0:0:0:0:
320,192,304566,128,0,304642:0:0:0:0:
320,192,304717,128,0,304945:0:0:0:0:
64,192,304869,128,0,305020:0:0:0:0:
448,192,304869,128,0,304945:0:0:0:0:
320,192,305020,128,0,305248:0:0:0:0:
192,192,305020,128,0,305096:0:0:0:0:
64,192,305172,128,0,305248:0:0:0:0:
192,192,305172,128,0,305399:0:0:0:0:
448,192,305323,128,0,305399:0:0:0:0:
64,192,305323,128,0,305551:0:0:0:0:
320,192,305475,128,0,305551:0:0:0:0:
448,192,305475,128,0,305702:0:0:0:0:
320,192,305626,128,0,305854:0:0:0:0:
192,192,305778,128,0,305854:0:0:0:0:
448,192,305778,128,0,306005:0:0:0:0:
64,192,305930,128,0,306005:0:0:0:0:
192,192,305930,128,0,306157:0:0:0:0:
448,192,306081,128,0,306233:0:0:0:0:
64,192,306081,1,0,0:0:0:0:
320,192,306157,1,0,0:0:0:0:
192,192,306233,128,0,306384:0:0:0:0:
64,192,306233,1,0,0:0:0:0:
320,192,306308,128,0,306460:0:0:0:0:
64,192,306384,128,0,306611:0:0:0:0:
448,192,306384,128,0,306460:0:0:0:0:
320,192,306536,128,0,306763:0:0:0:0:
64,192,306687,128,0,306763:0:0:0:0:
192,192,306687,128,0,306914:0:0:0:0:
448,192,306839,128,0,306914:0:0:0:0:
64,192,306839,128,0,307066:0:0:0:0:
192,192,306990,128,0,307066:0:0:0:0:
448,192,306990,128,0,307217:0:0:0:0:
320,192,307142,128,0,307217:0:0:0:0:
192,192,307142,128,0,307369:0:0:0:0:
64,192,307293,128,0,307445:0:0:0:0:
320,192,307293,128,0,307369:0:0:0:0:
448,192,307369,128,0,307445:0:0:0:0:
192,192,307445,128,0,307596:0:0:0:0:
320,192,307520,128,0,307596:0:0:0:0:
448,192,307596,128,0,307823:0:0:0:0:
64,192,307596,128,0,307672:0:0:0:0:
192,192,307672,128,0,307748:0:0:0:0:
320,192,307748,128,0,307823:0:0:0:0:
64,192,307748,128,0,307899:0:0:0:0:
192,192,307823,128,0,307975:0:0:0:0:
448,192,307899,128,0,308126:0:0:0:0:
320,192,307899,1,0,0:0:0:0:
64,192,307975,1,0,0:0:0:0:
320,192,308051,1,0,0:0:0:0:
192,192,308051,128,0,308202:0:0:0:0:
64,192,308126,128,0,308430:0:0:0:0:
448,192,308202,128,0,308278:0:0:0:0:
320,192,308202,128,0,308430:0:0:0:0:
448,192,308354,128,0,308581:0:0:0:0:
64,192,308505,128,0,308581:0:0:0:0:
320,192,308505,128,0,308657:0:0:0:0:
192,192,308657,128,0,308733:0:0:0:0:
64,192,308657,128,0,308884:0:0:0:0:
320,192,308808,128,0,308884:0:0:0:0:
192,192,308808,128,0,309036:0:0:0:0:
448,192,308960,128,0,309036:0:0:0:0:
320,192,308960,128,0,309187:0:0:0:0:
64,192,309111,128,0,309263:0:0:0:0:
448,192,309111,128,0,309263:0:0:0:0:
192,192,309187,128,0,309339:0:0:0:0:
320,192,309263,128,0,309414:0:0:0:0:
64,192,309339,128,0,309490:0:0:0:0:
448,192,309414,128,0,309566:0:0:0:0:
192,192,309414,128,0,309490:0:0:0:0:
320,192,309490,128,0,309566:0:0:0:0:
192,192,309566,128,0,309717:0:0:0:0:
64,192,309566,128,0,309717:0:0:0:0:
448,192,309642,128,0,309717:0:0:0:0:
320,192,309717,128,0,309869:0:0:0:0:
64,192,309793,128,0,309869:0:0:0:0:
448,192,309793,128,0,309945:0:0:0:0:
192,192,309869,128,0,310020:0:0:0:0:
320,192,309945,128,0,310096:0:0:0:0:
448,192,310020,128,0,310399:0:0:0:0:
64,192,310020,128,0,310096:0:0:0:0:
192,192,310096,128,0,310172:0:0:0:0:
320,192,310172,128,0,310248:0:0:0:0:
192,192,310248,128,0,310399:0:0:0:0:
64,192,310323,128,0,310399:0:0:0:0:
320,192,310323,128,0,310399:0:0:0:0:
192,192,310475,128,0,310551:0:0:0:0:
320,192,310475,128,0,310778:0:0:0:0:
448,192,310475,128,0,310626:0:0:0:0:
192,192,310626,128,0,310854:0:0:0:0:
448,192,310778,128,0,310854:0:0:0:0:
64,192,310778,128,0,310854:0:0:0:0:
320,192,310854,128,0,310930:0:0:0:0:
192,192,310930,128,0,311005:0:0:0:0:
64,192,310930,128,0,311081:0:0:0:0:
448,192,310930,128,0,311157:0:0:0:0:
320,192,311005,128,0,311157:0:0:0:0:
192,192,311081,128,0,311157:0:0:0:0:
64,192,311157,128,0,311308:0:0:0:0:
320,192,311233,128,0,311384:0:0:0:0:
192,192,311233,128,0,311308:0:0:0:0:
448,192,311384,128,0,311460:0:0:0:0:
64,192,311384,128,0,311460:0:0:0:0:
192,192,311384,128,0,311611:0:0:0:0:
320,192,311460,128,0,311536:0:0:0:0:
64,192,311536,128,0,311611:0:0:0:0:
448,192,311536,128,0,311763:0:0:0:0:
320,192,311611,128,0,311687:0:0:0:0:
192,192,311687,128,0,311763:0:0:0:0:
64,192,311687,128,0,311839:0:0:0:0:
320,192,311763,128,0,311990:0:0:0:0:
192,192,311839,1,0,0:0:0:0:
448,192,311839,128,0,312142:0:0:0:0:
64,192,311990,128,0,312066:0:0:0:0:
192,192,311990,128,0,312066:0:0:0:0:
320,192,312066,1,0,0:0:0:0:
192,192,312142,1,0,0:0:0:0:
64,192,312142,128,0,312217:0:0:0:0:
320,192,312293,128,0,312369:0:0:0:0:
64,192,312293,128,0,312445:0:0:0:0:
192,192,312293,1,0,0:0:0:0:
448,192,312445,128,0,312520:0:0:0:0:
192,192,312445,128,0,312596:0:0:0:0:
320,192,312596,128,0,312748:0:0:0:0:
64,192,312596,128,0,312672:0:0:0:0:
448,192,312748,128,0,312823:0:0:0:0:
64,192,312748,128,0,313051:0:0:0:0:
192,192,312748,1,0,0:0:0:0:
448,192,312899,128,0,313051:0:0:0:0:
320,192,312899,128,0,312975:0:0:0:0:
192,192,313051,128,0,313126:0:0:0:0:
448,192,313126,128,0,313202:0:0:0:0:
64,192,313202,128,0,313278:0:0:0:0:
192,192,313202,1,0,0:0:0:0:
192,192,313354,128,0,313430:0:0:0:0:
64,192,313354,1,0,0:0:0:0:
320,192,313505,128,0,313581:0:0:0:0:
64,192,313505,128,0,313657:0:0:0:0:
192,192,313581,1,0,0:0:0:0:
320,192,313657,1,0,0:0:0:0:
448,192,313657,1,0,0:0:0:0:
192,192,313707,128,0,313782:0:0:0:0:
320,192,313758,1,0,0:0:0:0:
448,192,313808,128,0,313884:0:0:0:0:
192,192,313859,1,0,0:0:0:0:
64,192,313909,1,0,0:0:0:0:
448,192,313960,128,0,314036:0:0:0:0:
320,192,313960,128,0,314036:0:0:0:0:
64,192,314111,128,0,314263:0:0:0:0:
192,192,314111,128,0,314339:0:0:0:0:
320,192,314111,128,0,314187:0:0:0:0:
320,192,314263,128,0,314414:0:0:0:0:
64,192,314339,128,0,314490:0:0:0:0:
448,192,314414,128,0,314490:0:0:0:0:
192,192,314414,128,0,314490:0:0:0:0:
320,192,314490,128,0,314566:0:0:0:0:
192,192,314566,128,0,314642:0:0:0:0:
64,192,314566,128,0,314717:0:0:0:0:
320,192,314642,128,0,314717:0:0:0:0:
192,192,314717,128,0,314869:0:0:0:0:
320,192,314793,128,0,314869:0:0:0:0:
448,192,314869,128,0,314945:0:0:0:0:
64,192,314869,128,0,315096:0:0:0:0:
192,192,314945,128,0,315020:0:0:0:0:
320,192,315020,128,0,315096:0:0:0:0:
448,192,315020,128,0,315172:0:0:0:0:
192,192,315096,128,0,315248:0:0:0:0:
64,192,315172,128,0,315248:0:0:0:0:
320,192,315172,128,0,315399:0:0:0:0:
448,192,315248,128,0,315323:0:0:0:0:
192,192,315323,128,0,315399:0:0:0:0:
64,192,315323,128,0,315475:0:0:0:0:
448,192,315399,128,0,315626:0:0:0:0:
192,192,315475,1,0,0:0:0:0:
320,192,315475,128,0,315778:0:0:0:0:
192,192,315626,128,0,315702:0:0:0:0:
64,192,315626,128,0,315702:0:0:0:0:
448,192,315702,1,0,0:0:0:0:
64,192,315778,1,0,0:0:0:0:
192,192,315778,128,0,315854:0:0:0:0:
64,192,315930,128,0,316005:0:0:0:0:
448,192,315930,128,0,316081:0:0:0:0:
320,192,315930,1,0,0:0:0:0:
192,192,316081,1,0,0:0:0:0:
320,192,316081,128,0,316233:0:0:0:0:
448,192,316233,128,0,316308:0:0:0:0:
64,192,316233,128,0,316384:0:0:0:0:
320,192,316384,128,0,316536:0:0:0:0:
448,192,316384,128,0,316536:0:0:0:0:
64,192,316460,128,0,316611:0:0:0:0:
192,192,316536,128,0,316687:0:0:0:0:
320,192,316611,128,0,316763:0:0:0:0:
64,192,316687,128,0,316839:0:0:0:0:
448,192,316687,128,0,316763:0:0:0:0:
192,192,316763,128,0,316839:0:0:0:0:
320,192,316839,128,0,316914:0:0:0:0:
448,192,316839,128,0,316990:0:0:0:0:
192,192,316914,128,0,316990:0:0:0:0:
64,192,316990,128,0,317066:0:0:0:0:
320,192,316990,128,0,317142:0:0:0:0:
192,192,317066,128,0,317217:0:0:0:0:
448,192,317142,128,0,317293:0:0:0:0:
320,192,317217,128,0,317369:0:0:0:0:
192,192,317293,128,0,317369:0:0:0:0:
64,192,317293,128,0,317520:0:0:0:0:
448,192,317369,128,0,317445:0:0:0:0:
320,192,317445,128,0,317596:0:0:0:0:
192,192,317520,128,0,317672:0:0:0:0:
448,192,317596,128,0,317672:0:0:0:0:
64,192,317596,128,0,317672:0:0:0:0:
192,192,317748,128,0,317823:0:0:0:0:
320,192,317748,128,0,318051:0:0:0:0:
448,192,317748,128,0,317899:0:0:0:0:
192,192,317899,128,0,318126:0:0:0:0:
448,192,318051,128,0,318126:0:0:0:0:
64,192,318051,128,0,318126:0:0:0:0:
320,192,318126,128,0,318202:0:0:0:0:
448,192,318202,128,0,318430:0:0:0:0:
192,192,318202,128,0,318354:0:0:0:0:
64,192,318202,128,0,318278:0:0:0:0:
320,192,318278,128,0,318430:0:0:0:0:
64,192,318354,128,0,318505:0:0:0:0:
192,192,318430,128,0,318581:0:0:0:0:
448,192,318505,128,0,318657:0:0:0:0:
320,192,318505,128,0,318581:0:0:0:0:
320,192,318657,128,0,318733:0:0:0:0:
64,192,318657,128,0,318733:0:0:0:0:
192,192,318657,128,0,318884:0:0:0:0:
448,192,318733,128,0,318808:0:0:0:0:
64,192,318808,128,0,318884:0:0:0:0:
320,192,318808,128,0,319036:0:0:0:0:
448,192,318884,128,0,318960:0:0:0:0:
192,192,318960,128,0,319036:0:0:0:0:
64,192,318960,128,0,319111:0:0:0:0:
448,192,319036,128,0,319263:0:0:0:0:
192,192,319111,1,0,0:0:0:0:
320,192,319111,128,0,319414:0:0:0:0:
192,192,319263,128,0,319339:0:0:0:0:
64,192,319263,128,0,319339:0:0:0:0:
448,192,319339,1,0,0:0:0:0:
64,192,319414,1,0,0:0:0:0:
192,192,319414,128,0,319490:0:0:0:0:
64,192,319566,128,0,319642:0:0:0:0:
320,192,319566,128,0,319717:0:0:0:0:
448,192,319566,1,0,0:0:0:0:
192,192,319717,128,0,319793:0:0:0:0:
448,192,319717,128,0,319869:0:0:0:0:
320,192,319869,128,0,320020:0:0:0:0:
64,192,319869,128,0,319945:0:0:0:0:
192,192,320020,1,0,0:0:0:0:
448,192,320020,128,0,320096:0:0:0:0:
64,192,320020,128,0,320323:0:0:0:0:
320,192,320172,128,0,320248:0:0:0:0:
192,192,320172,128,0,320323:0:0:0:0:
320,192,320323,128,0,320399:0:0:0:0:
64,192,320399,128,0,320475:0:0:0:0:
448,192,320475,128,0,320551:0:0:0:0:
320,192,320475,1,0,0:0:0:0:
320,192,320626,128,0,320702:0:0:0:0:
448,192,320626,1,0,0:0:0:0:
192,192,320778,128,0,320854:0:0:0:0:
448,192,320778,128,0,320930:0:0:0:0:
320,192,320854,1,0,0:0:0:0:
192,192,320930,1,0,0:0:0:0:
64,192,320930,1,0,0:0:0:0:
320,192,320980,128,0,321056:0:0:0:0:
448,192,321031,1,0,0:0:0:0:
192,192,321081,128,0,321157:0:0:0:0:
64,192,321132,1,0,0:0:0:0:
448,192,321182,1,0,0:0:0:0:
192,192,321233,128,0,321308:0:0:0:0:
320,192,321233,128,0,321308:0:0:0:0:
192,192,321384,128,0,321460:0:0:0:0:
320,192,321384,128,0,321611:0:0:0:0:
448,192,321384,128,0,321536:0:0:0:0:
192,192,321536,128,0,321687:0:0:0:0:
448,192,321611,128,0,321763:0:0:0:0:
320,192,321687,128,0,321763:0:0:0:0:
64,192,321687,128,0,321763:0:0:0:0:
192,192,321763,128,0,321839:0:0:0:0:
448,192,321839,128,0,321914:0:0:0:0:
320,192,321839,128,0,321990:0:0:0:0:
192,192,321914,128,0,321990:0:0:0:0:
448,192,321990,128,0,322142:0:0:0:0:
320,192,322066,128,0,322142:0:0:0:0:
64,192,322142,128,0,322217:0:0:0:0:
192,192,322142,128,0,322369:0:0:0:0:
320,192,322217,128,0,322293:0:0:0:0:
64,192,322293,128,0,322369:0:0:0:0:
448,192,322293,128,0,322445:0:0:0:0:
320,192,322369,128,0,322520:0:0:0:0:
192,192,322445,128,0,322520:0:0:0:0:
64,192,322445,128,0,322672:0:0:0:0:
448,192,322520,128,0,322596:0:0:0:0:
192,192,322596,128,0,322672:0:0:0:0:
320,192,322596,128,0,322748:0:0:0:0:
448,192,322672,128,0,322899:0:0:0:0:
64,192,322748,128,0,323051:0:0:0:0:
192,192,322748,1,0,0:0:0:0:
320,192,322899,128,0,322975:0:0:0:0:
192,192,322899,128,0,322975:0:0:0:0:
448,192,322975,1,0,0:0:0:0:
320,192,323051,1,0,0:0:0:0:
192,192,323051,128,0,323126:0:0:0:0:
448,192,323202,128,0,323278:0:0:0:0:
64,192,323202,128,0,323430:0:0:0:0:
192,192,323202,1,0,0:0:0:0:
320,192,323354,128,0,323430:0:0:0:0:
448,192,323354,128,0,323581:0:0:0:0:
64,192,323505,128,0,323581:0:0:0:0:
192,192,323505,128,0,323657:0:0:0:0:
64,192,323657,128,0,323884:0:0:0:0:
448,192,323657,128,0,323808:0:0:0:0:
192,192,323733,128,0,323884:0:0:0:0:
320,192,323808,128,0,323960:0:0:0:0:
448,192,323884,128,0,324111:0:0:0:0:
192,192,323960,128,0,324036:0:0:0:0:
64,192,323960,128,0,324036:0:0:0:0:
320,192,324036,128,0,324187:0:0:0:0:
64,192,324111,128,0,324263:0:0:0:0:
192,192,324111,128,0,324187:0:0:0:0:
448,192,324187,128,0,324339:0:0:0:0:
192,192,324263,128,0,324414:0:0:0:0:
320,192,324263,128,0,324339:0:0:0:0:
64,192,324339,128,0,324490:0:0:0:0:
448,192,324414,128,0,324490:0:0:0:0:
320,192,324414,128,0,324490:0:0:0:0:
192,192,324490,128,0,324717:0:0:0:0:
320,192,324566,128,0,324869:0:0:0:0:
448,192,324566,128,0,325020:0:0:0:0:
64,192,324566,128,0,324945:0:0:0:0:
320,192,325020,1,0,0:0:0:0:
64,192,325020,1,0,0:0:0:0:
192,192,325172,128,0,325323:0:0:0:0:
448,192,325248,1,0,0:0:0:0:
320,192,325323,128,0,325399:0:0:0:0:
192,192,325475,1,0,0:0:0:0:
64,192,325475,1,0,0:0:0:0:
320,192,325702,128,0,325778:0:0:0:0:
64,192,325930,1,0,0:0:0:0:
448,192,325930,1,0,0:0:0:0:
192,192,326157,128,0,326233:0:0:0:0:
448,192,326384,1,0,0:0:0:0:
320,192,326384,1,0,0:0:0:0:
320,192,326611,1,0,0:0:0:0:
64,192,326839,1,0,0:0:0:0:
192,192,326839,1,0,0:0:0:0:
192,192,327066,128,0,327142:0:0:0:0:
320,192,327293,1,0,0:0:0:0:
64,192,327520,128,0,327596:0:0:0:0:
448,192,327748,1,0,0:0:0:0:
192,192,327748,1,0,0:0:0:0:
192,192,327975,1,0,0:0:0:0:
448,192,328202,1,0,0:0:0:0:
320,192,328202,1,0,0:0:0:0:
192,192,328505,1,0,0:0:0:0:
64,192,328657,1,0,0:0:0:0:
320,192,328657,1,0,0:0:0:0:
192,192,328808,128,0,328960:0:0:0:0:
64,192,328884,1,0,0:0:0:0:
448,192,328960,128,0,329036:0:0:0:0:
192,192,329111,1,0,0:0:0:0:
320,192,329111,1,0,0:0:0:0:
64,192,329339,128,0,329414:0:0:0:0:
192,192,329566,1,0,0:0:0:0:
448,192,329566,1,0,0:0:0:0:
448,192,329793,128,0,329869:0:0:0:0:
320,192,330020,1,0,0:0:0:0:
64,192,330077,1,0,0:0:0:0:
320,192,330134,1,0,0:0:0:0:
64,192,330191,1,0,0:0:0:0:
192,192,330475,128,0,330532:0:0:0:0:
448,192,330475,1,0,0:0:0:0:
448,192,330702,128,0,330759:0:0:0:0:
64,192,330930,128,0,331005:0:0:0:0:
320,192,331157,128,0,331233:0:0:0:0:
64,192,331384,128,0,331460:0:0:0:0:
64,192,331611,1,0,0:0:0:0:
448,192,331839,1,0,0:0:0:0:
192,192,331839,1,0,0:0:0:0:
64,192,332142,1,0,0:0:0:0:
448,192,332293,1,0,0:0:0:0:
320,192,332293,1,0,0:0:0:0:
192,192,332445,128,0,332596:0:0:0:0:
64,192,332520,1,0,0:0:0:0:
448,192,332596,128,0,332672:0:0:0:0:
320,192,332748,1,0,0:0:0:0:
192,192,332748,1,0,0:0:0:0:
192,192,332975,128,0,333051:0:0:0:0:
448,192,333202,1,0,0:0:0:0:
64,192,333202,1,0,0:0:0:0:
320,192,333430,128,0,333505:0:0:0:0:
64,192,333657,1,0,0:0:0:0:
192,192,333884,1,0,0:0:0:0:
448,192,334111,1,0,0:0:0:0:
320,192,334111,1,0,0:0:0:0:
320,192,334339,128,0,334414:0:0:0:0:
192,192,334566,1,0,0:0:0:0:
448,192,334793,128,0,334869:0:0:0:0:
64,192,335020,1,0,0:0:0:0:
320,192,335020,1,0,0:0:0:0:
320,192,335248,1,0,0:0:0:0:
64,192,335475,1,0,0:0:0:0:
192,192,335475,1,0,0:0:0:0:
448,192,335778,128,0,335854:0:0:0:0:
64,192,335930,1,0,0:0:0:0:
320,192,335930,1,0,0:0:0:0:
192,192,336081,128,0,336233:0:0:0:0:
448,192,336157,1,0,0:0:0:0:
320,192,336233,128,0,336308:0:0:0:0:
64,192,336384,1,0,0:0:0:0:
192,192,336384,1,0,0:0:0:0:
320,192,336611,128,0,336687:0:0:0:0:
64,192,336839,1,0,0:0:0:0:
448,192,336839,1,0,0:0:0:0:
64,192,337066,128,0,337142:0:0:0:0:
320,192,337293,1,0,0:0:0:0:
192,192,337293,1,0,0:0:0:0:
448,192,337520,1,0,0:0:0:0:
64,192,337748,1,0,0:0:0:0:
320,192,337748,1,0,0:0:0:0:
192,192,337975,1,0,0:0:0:0:
448,192,338202,1,0,0:0:0:0:
192,192,338430,1,0,0:0:0:0:
64,192,338657,1,0,0:0:0:0:
448,192,338657,1,0,0:0:0:0:
320,192,338733,128,0,338808:0:0:0:0:
192,192,338827,128,0,338884:0:0:0:0:
448,192,338884,128,0,338960:0:0:0:0:
64,192,338884,1,0,0:0:0:0:
192,192,338941,128,0,339026:0:0:0:0:
320,192,338998,128,0,339111:0:0:0:0:
64,192,339111,128,0,339793:0:0:0:0:
448,192,339111,1,0,0:0:0:0:
448,192,339566,1,0,0:0:0:0:
192,192,339566,1,0,0:0:0:0:
320,192,339793,128,0,340248:0:0:0:0:
448,192,339793,1,0,0:0:0:0:
64,192,340020,1,0,0:0:0:0:
192,192,340020,1,0,0:0:0:0:
448,192,340475,1,0,0:0:0:0:
64,192,340475,1,0,0:0:0:0:
448,192,340930,1,0,0:0:0:0:
320,192,340930,1,0,0:0:0:0:
64,192,341384,1,0,0:0:0:0:
320,192,341384,1,0,0:0:0:0:
320,192,341839,1,0,0:0:0:0:
192,192,341839,1,0,0:0:0:0:
448,192,342293,1,0,0:0:0:0:
192,192,342293,1,0,0:0:0:0:
448,192,342748,128,0,343202:0:0:0:0:
64,192,342748,1,0,0:0:0:0:
64,192,343202,1,0,0:0:0:0:
320,192,343202,1,0,0:0:0:0:
192,192,343430,128,0,343884:0:0:0:0:
64,192,343430,1,0,0:0:0:0:
448,192,343657,1,0,0:0:0:0:
320,192,343657,1,0,0:0:0:0:
64,192,344111,1,0,0:0:0:0:
448,192,344111,1,0,0:0:0:0:
192,192,344566,1,0,0:0:0:0:
64,192,344566,1,0,0:0:0:0:
192,192,345020,1,0,0:0:0:0:
448,192,345020,1,0,0:0:0:0:
320,192,345475,1,0,0:0:0:0:
192,192,345475,1,0,0:0:0:0:
320,192,345930,1,0,0:0:0:0:
64,192,345930,1,0,0:0:0:0:
448,192,346384,1,0,0:0:0:0:
64,192,346384,128,0,346839:0:0:0:0:
192,192,346839,1,0,0:0:0:0:
448,192,346839,1,0,0:0:0:0:
448,192,347066,1,0,0:0:0:0:
320,192,347066,128,0,347520:0:0:0:0:
192,192,347293,1,0,0:0:0:0:
64,192,347293,1,0,0:0:0:0:
64,192,347748,1,0,0:0:0:0:
448,192,347748,1,0,0:0:0:0:
448,192,348202,1,0,0:0:0:0:
320,192,348202,1,0,0:0:0:0:
64,192,348657,1,0,0:0:0:0:
320,192,348657,1,0,0:0:0:0:
320,192,349111,1,0,0:0:0:0:
192,192,349111,1,0,0:0:0:0:
448,192,349566,1,0,0:0:0:0:
192,192,349566,1,0,0:0:0:0:
448,192,350020,128,0,350475:0:0:0:0:
64,192,350020,1,0,0:0:0:0:
320,192,350475,128,0,350551:0:0:0:0:
64,192,350475,1,0,0:0:0:0:
64,192,350702,128,0,350778:0:0:0:0:
192,192,350702,128,0,351157:0:0:0:0:
448,192,350930,1,0,0:0:0:0:
320,192,350930,1,0,0:0:0:0:
64,192,351384,1,0,0:0:0:0:
448,192,351384,1,0,0:0:0:0:
192,192,351839,128,0,353467:0:0:0:0:
320,192,352293,1,0,0:0:0:0:
64,192,352293,128,0,353089:0:0:0:0:
320,192,352748,128,0,353505:0:0:0:0:
64,192,353202,128,0,353430:0:0:0:0:
448,192,353202,128,0,353543:0:0:0:0:
64,192,353543,1,0,0:0:0:0:
192,192,353581,1,0,0:0:0:0:
320,192,353619,1,0,0:0:0:0:
448,192,353657,1,0,0:0:0:0:
