osu file format v14

[General]
AudioFilename: audio.mp3
AudioLeadIn: 0
PreviewTime: 59425
Countdown: 0
SampleSet: Soft
StackLeniency: 0.3
Mode: 0
LetterboxInBreaks: 0
WidescreenStoryboard: 0

[Editor]
Bookmarks: 27066,48639,70212,91785,102571,116055,159201,180774,191560,202347,223920,245493,267066,288639,310212,331785,342571,358751,380324,401897,423470,446222
DistanceSpacing: 0.6
BeatDivisor: 4
GridSize: 8
TimelineZoom: 2.5

[Metadata]
Title:Aviator in the Soul
TitleUnicode:Aviator in the Soul
Artist:Taishi
ArtistUnicode:泰志
Creator:-Tochi
Version:Endurance
Source:
Tags:IA イア Allium Project & Compllege Human Beings Were Led to This Light DnB Drum and Bass Drumstep Neurofunk Vocaloid Lia Accel World
BeatmapID:1429225
BeatmapSetID:675666

[Difficulty]
HPDrainRate:6
CircleSize:4
OverallDifficulty:8.5
ApproachRate:9.3
SliderMultiplier:2
SliderTickRate:2

[Events]
//Background and Video events
0,0,"bg.jpg",0,0
//Break Periods
2,167291,180099
2,272659,277298
//Storyboard Layer 0 (Background)
//Storyboard Layer 1 (Fail)
//Storyboard Layer 2 (Pass)
//Storyboard Layer 3 (Foreground)
//Storyboard Sound Samples

[TimingPoints]
100,337.078651685393,4,2,2,30,1,0
25043,-125,4,2,2,30,0,0
25633,-125,4,2,2,5,0,0
25717,-125,4,2,1,30,0,0
27066,-125,4,2,2,50,0,0
48639,-100,4,2,1,80,0,1
49987,-83.3333333333333,4,2,1,80,0,0
50661,-100,4,2,1,80,0,0
51335,-83.3333333333333,4,2,1,80,0,0
52347,-100,4,2,1,80,0,0
52684,-71.4285714285714,4,2,1,80,0,0
52852,-83.3333333333333,4,2,1,80,0,0
53189,-100,4,2,1,80,0,0
55380,-83.3333333333333,4,2,1,80,0,0
55886,-100,4,2,1,80,0,0
56729,-83.3333333333333,4,2,1,80,0,0
58077,-100,4,2,1,80,0,0
58414,-71.4285714285714,4,2,1,80,0,0
58498,-71.4285714285714,4,2,1,20,0,0
58583,-71.4285714285714,4,2,1,80,0,0
58667,-71.4285714285714,4,2,1,20,0,0
58751,-71.4285714285714,4,2,1,80,0,0
58835,-71.4285714285714,4,2,1,30,0,0
59088,-71.4285714285714,4,2,1,80,0,0
59173,-71.4285714285714,4,2,1,30,0,0
59425,-100,4,2,1,80,0,1
60774,-83.3333333333333,4,2,1,80,0,0
61448,-100,4,2,1,80,0,0
62122,-83.3333333333333,4,2,1,80,0,0
63133,-100,4,2,1,80,0,0
63470,-71.4285714285714,4,2,1,80,0,0
63639,-83.3333333333333,4,2,1,80,0,0
63976,-100,4,2,1,80,0,0
64144,-142.857142857143,4,2,1,80,0,0
64819,-100,4,2,1,80,0,0
66167,-83.3333333333333,4,2,1,80,0,0
66673,-100,4,2,1,80,0,0
67515,-83.3333333333333,4,2,1,80,0,0
68864,-100,4,2,1,80,0,0
69201,-71.4285714285714,4,2,1,80,0,0
69285,-71.4285714285714,4,2,1,20,0,0
69369,-71.4285714285714,4,2,1,80,0,0
69453,-71.4285714285714,4,2,1,20,0,0
69538,-71.4285714285714,4,2,1,80,0,0
69622,-71.4285714285714,4,2,1,30,0,0
69875,-71.4285714285714,4,2,1,80,0,0
69959,-71.4285714285714,4,2,1,30,0,0
70212,-125,4,2,1,80,0,1
70549,-125,4,2,3,60,0,1
71560,-100,4,2,3,60,0,0
72066,-125,4,2,3,60,0,0
72571,-71.4285714285714,4,2,3,60,0,0
72908,-125,4,2,3,60,0,0
73414,-100,4,2,3,60,0,0
74257,-125,4,2,3,60,0,0
74931,-100,4,2,3,60,0,0
75268,-125,4,2,3,60,0,0
75605,-76.9230769230769,4,2,3,60,0,0
75942,-125,4,2,3,60,0,0
76111,-100,4,2,3,60,0,0
76616,-125,4,2,3,60,0,0
76953,-100,4,2,3,60,0,0
78302,-125,4,2,3,60,0,0
79313,-100,4,2,3,60,0,0
80156,-125,4,2,3,60,0,0
80998,-100,4,2,1,60,0,0
81335,-100,4,2,3,60,0,0
81673,-125,4,2,3,60,0,0
82010,-100,4,2,3,60,0,0
82347,-125,4,2,3,60,0,0
83189,-83.3333333333333,4,2,3,60,0,0
83358,-83.3333333333333,4,2,3,60,0,0
83695,-125,4,2,3,60,0,0
84201,-100,4,2,3,60,0,0
85043,-125,4,2,3,60,0,0
85717,-100,4,2,3,60,0,0
86055,-125,4,2,3,60,0,0
86392,-76.9230769230769,4,2,3,60,0,0
86729,-125,4,2,3,60,0,0
86897,-100,4,2,3,60,0,0
87403,-125,4,2,3,60,0,0
87908,-100,4,2,3,60,0,0
88751,-76.9230769230769,4,2,3,60,0,0
89088,-125,4,2,3,60,0,0
89594,-100,4,2,3,60,0,0
90774,-125,4,2,3,60,0,0
91448,-100,4,2,3,60,0,0
91785,-125,4,2,1,60,0,0
91953,-125,4,2,3,60,0,0
96841,-100,4,2,3,60,0,0
97178,-125,4,2,3,60,0,0
99875,-100,4,2,3,60,0,0
100380,-125,4,2,3,60,0,0
102571,-153.846153846154,4,2,3,60,0,0
107291,-125,4,2,3,60,0,0
107796,-100,4,2,3,60,0,0
107965,-125,4,2,1,60,0,0
110661,-100,4,2,3,60,0,0
111167,-125,4,2,3,60,0,0
113021,-83.3333333333333,4,2,3,60,0,0
113274,-83.3333333333333,4,2,3,5,0,0
113358,-100,4,2,2,20,0,0
115128,-142.857142857143,4,2,2,20,0,0
116055,-100,4,2,1,80,0,1
120437,-125,4,2,1,80,0,1
120689,-125,4,2,1,20,0,1
120774,-100,4,2,1,80,0,1
121448,-100,4,2,1,80,0,0
124144,-83.3333333333333,4,2,1,80,0,0
124903,-83.3333333333333,4,2,1,60,0,0
124987,-83.3333333333333,4,2,1,80,0,0
125493,-100,4,2,1,80,0,0
126420,-100,4,2,1,60,0,0
126504,-125,4,2,1,80,0,0
126841,-100,4,2,1,80,0,1
131223,-125,4,2,1,80,0,1
131476,-125,4,2,1,20,0,1
131560,-83.3333333333333,4,2,1,80,0,1
131813,-83.3333333333333,4,2,1,20,0,1
131897,-83.3333333333333,4,2,1,80,0,1
132234,-100,4,2,1,80,0,0
134931,-83.3333333333333,4,2,1,80,0,0
135689,-83.3333333333333,4,2,1,60,0,0
135774,-83.3333333333333,4,2,1,80,0,0
136279,-100,4,2,1,80,0,0
137206,-100,4,2,1,60,0,0
137291,-125,4,2,1,80,0,0
137628,-100,4,2,1,80,0,1
142010,-125,4,2,1,80,0,1
142262,-125,4,2,1,20,0,1
142347,-100,4,2,1,80,0,1
143021,-100,4,2,1,80,0,0
145717,-83.3333333333333,4,2,1,80,0,0
147066,-100,4,2,1,80,0,0
147993,-100,4,2,1,60,0,0
148077,-125,4,2,1,80,0,0
148414,-100,4,2,1,80,0,1
152796,-125,4,2,1,80,0,1
153049,-125,4,2,1,20,0,1
153133,-90.9090909090909,4,2,1,80,0,1
153386,-90.9090909090909,4,2,1,20,0,1
153470,-111.111111111111,4,2,1,80,0,1
153807,-125,4,2,1,80,0,0
158569,-125,4,2,1,40,0,0
158695,-125,4,2,1,80,0,0
158864,-71.4285714285714,4,2,1,80,0,0
158948,-71.4285714285714,4,2,1,30,0,0
159032,-71.4285714285714,4,2,1,80,0,0
159116,-71.4285714285714,4,2,1,30,0,0
180774,-166.666666666667,4,2,3,30,0,0
191560,-125,4,2,1,40,0,0
200998,-200,4,2,3,40,0,0
202262,-200,4,2,3,5,0,0
202347,-125,4,2,3,60,0,0
202684,-100,4,2,3,60,0,0
203358,-125,4,2,3,60,0,0
206223,-111.111111111111,4,2,3,60,0,0
206729,-125,4,2,3,60,0,0
207740,-100,4,2,3,60,0,0
208920,-125,4,2,3,60,0,0
209762,-100,4,2,3,60,0,0
210099,-125,4,2,3,60,0,0
210437,-100,4,2,3,60,0,0
210942,-125,4,2,3,60,0,0
211195,-125,4,2,3,40,0,0
211279,-100,4,2,3,60,0,0
211785,-100,4,2,3,60,0,0
212291,-125,4,2,3,60,0,0
213133,-125,4,2,1,60,0,0
213302,-125,4,2,3,60,0,0
214144,-100,4,2,3,60,0,0
214482,-125,4,2,3,60,0,0
214987,-100,4,2,3,60,0,0
215830,-125,4,2,3,60,0,0
217178,-100,4,2,3,60,0,0
217515,-125,4,2,3,60,0,0
218189,-100,4,2,3,60,0,0
218526,-125,4,2,1,40,0,0
221223,-100,4,2,1,40,0,0
222571,-125,4,2,1,40,0,0
223920,-142.857142857143,4,2,1,80,0,0
224173,-142.857142857143,4,2,1,20,0,0
224257,-100,4,2,1,80,0,1
229313,-100,4,2,1,80,0,0
234285,-100,4,2,1,60,0,0
234369,-125,4,2,1,80,0,0
234706,-100,4,2,1,80,0,1
239425,-83.3333333333333,4,2,1,80,0,1
239678,-83.3333333333333,4,2,1,20,0,1
239762,-83.3333333333333,4,2,1,80,0,1
240099,-100,4,2,1,80,0,0
245493,-125,4,2,1,80,0,0
245577,-142.857142857143,4,2,1,60,0,0
272459,-142.857142857143,4,2,1,20,0,0
286953,-142.857142857143,4,2,1,10,0,0
287291,-142.857142857143,4,2,1,40,0,0
288302,-83.3333333333334,4,2,1,40,0,0
288555,-83.3333333333334,4,2,1,5,0,0
288639,-83.3333333333333,4,2,1,60,0,0
292515,-142.857142857143,4,2,1,60,0,0
293526,-142.857142857143,4,2,1,40,0,0
293695,-100,4,2,1,60,0,0
294032,-200,4,2,1,60,0,0
296392,-200,4,2,1,40,0,0
298414,-100,4,2,1,60,0,0
298667,-100,4,2,1,5,0,0
298751,-100,4,2,1,60,0,0
299004,-100,4,2,1,5,0,0
299088,-100,4,2,1,60,0,0
299341,-100,4,2,1,5,0,0
299425,-83.3333333333333,4,2,1,60,0,0
303302,-142.857142857143,4,2,1,60,0,0
304144,-142.857142857143,4,2,1,30,0,0
304482,-142.857142857143,4,2,1,60,0,0
304819,-83.3333333333334,4,2,1,60,0,0
305830,-166.666666666667,4,2,1,60,0,0
308864,-166.666666666667,4,2,1,40,0,0
309538,-111.111111111111,4,2,1,60,0,0
310212,-83.3333333333333,4,2,1,60,0,0
311055,-100,4,2,1,60,0,0
311560,-83.3333333333333,4,2,1,60,0,0
314257,-142.857142857143,4,2,1,60,0,0
315605,-200,4,2,1,60,0,0
317965,-200,4,2,1,40,0,0
318302,-142.857142857143,4,2,1,40,0,0
319987,-100,4,2,1,40,0,0
326307,-100,4,2,1,20,0,0
326392,-125,4,2,1,40,0,0
332122,-125,4,2,2,50,0,0
342571,-125,4,2,1,60,0,0
352684,-83.3333333333333,4,2,1,60,0,0
353358,674.157303370787,4,2,1,60,1,0
353358,-109.289617486339,4,2,1,60,0,0
358582,-109.289617486339,4,2,1,20,0,0
358751,337.078651685393,4,2,1,80,1,1
358751,-71.4285714285714,4,2,1,80,0,1
359088,-83.3333333333333,4,2,1,80,0,1
359425,-90.9090909090909,4,2,1,80,0,1
359762,-71.4285714285714,4,2,1,80,0,1
360436,-90.9090909090909,4,2,1,80,0,1
360773,-71.4285714285714,4,2,1,80,0,1
361447,-71.4285714285714,4,2,1,80,0,0
361700,-71.4285714285714,4,2,1,40,0,0
361784,-71.4285714285714,4,2,1,80,0,0
362458,-90.9090909090909,4,2,1,80,0,0
363470,-71.4285714285714,4,2,1,80,0,0
363807,-71.4285714285714,4,2,1,80,0,0
364144,-90.9090909090909,4,2,1,80,0,0
364397,-90.9090909090909,4,2,1,40,0,0
364481,-90.9090909090909,4,2,1,80,0,0
365155,-71.4285714285714,4,2,1,80,0,0
365492,-90.9090909090909,4,2,1,80,0,0
366840,-76.9230769230769,4,2,1,80,0,0
367683,-71.4285714285714,4,2,1,80,0,0
368020,-90.9090909090909,4,2,1,80,0,0
369537,-71.4285714285714,4,2,1,80,0,1
369874,-83.3333333333333,4,2,1,80,0,1
370211,-90.9090909090909,4,2,1,80,0,1
370548,-71.4285714285714,4,2,1,80,0,1
371222,-83.3333333333333,4,2,1,80,0,1
371559,-71.4285714285714,4,2,1,80,0,1
372234,-71.4285714285714,4,2,1,80,0,0
372486,-71.4285714285714,4,2,1,40,0,0
372571,-71.4285714285714,4,2,1,80,0,0
373245,-90.9090909090909,4,2,1,80,0,0
373582,-83.3333333333333,4,2,1,80,0,0
373919,-66.6666666666667,4,2,1,80,0,0
374593,-71.4285714285714,4,2,1,80,0,0
374930,-100,4,2,1,80,0,0
375267,-83.3333333333333,4,2,1,80,0,0
375942,-71.4285714285714,4,2,1,80,0,0
376279,-90.9090909090909,4,2,1,80,0,0
377627,-76.9230769230769,4,2,1,80,0,0
378975,-71.4285714285714,4,2,1,80,0,0
379312,-62.5,4,2,1,80,0,0
380324,-83.3333333333333,4,2,1,80,0,1
381672,-83.3333333333333,4,2,1,80,0,0
387318,-83.3333333333333,4,2,1,40,0,0
387402,-83.3333333333333,4,2,1,80,0,0
390352,-71.4285714285714,4,2,1,40,0,0
390436,-100,4,2,1,80,0,0
390689,-100,4,2,1,40,0,0
390773,-100,4,2,1,80,0,0
391110,-83.3333333333333,4,2,1,80,0,1
392458,-83.3333333333333,4,2,1,80,0,0
395745,-83.3333333333333,4,2,1,40,0,0
395829,-83.3333333333333,4,2,1,80,0,0
401897,-100,4,2,1,80,0,1
406279,-125,4,2,1,80,0,1
406531,-125,4,2,1,20,0,1
406616,-125,4,2,1,80,0,1
407290,-100,4,2,1,80,0,0
408975,-100,4,2,11,80,0,0
409144,-100,4,2,1,80,0,0
409986,-83.3333333333333,4,2,1,80,0,0
410998,-100,4,2,1,80,0,0
412683,-100,4,2,1,80,0,1
417065,-125,4,2,1,80,0,1
417318,-125,4,2,1,20,0,1
417402,-83.3333333333333,4,2,1,80,0,1
417655,-83.3333333333333,4,2,1,20,0,1
417739,-83.3333333333333,4,2,1,80,0,1
418076,-100,4,2,1,80,0,0
420773,-83.3333333333333,4,2,1,80,0,0
421616,-100,4,2,1,80,0,0
423470,-125,4,2,2,60,0,0
442346,-125,4,2,2,50,0,0
444200,-125,4,2,2,35,0,0
445211,-142.857142857143,4,3,1,30,0,0

[Colours]
Combo1 : 197,124,166
Combo2 : 211,146,146
Combo3 : 227,221,221
Combo4 : 169,136,208

[HitObjects]
109,115,25043,6,0,P|69:226|186:216,1,280
194,131,25717,6,0,P|203:108|223:91,2,40,2|2|2,0:0|0:0|0:0,0:0:0:0:
281,267,26055,1,2,0:0:0:0:
101,249,26223,1,2,0:0:0:0:
101,249,26307,1,2,0:0:0:0:
101,249,26392,2,0,P|103:267|95:291,2,40,2|2|2,0:0|0:0|0:0,0:0:0:0:
64,152,26729,1,2,0:0:0:0:
186,267,26897,2,0,P|185:288|179:310,1,40,2|0,0:0|0:0,0:0:0:0:
115,374,27066,5,4,1:0:0:0:
191,351,27234,1,0,0:0:0:0:
266,378,27403,1,2,0:0:0:0:
343,359,27571,1,2,0:0:0:0:
281,267,27740,2,0,P|271:213|290:150,1,120,2|0,0:0|0:0,0:0:0:0:
289,151,28077,2,0,L|377:163,1,80,2|0,0:0|0:0,0:0:0:0:
180,34,28414,5,2,1:2:0:0:
200,111,28583,1,0,0:0:0:0:
157,178,28751,2,0,P|143:218|145:262,1,80,2|0,0:0|0:0,0:0:0:0:
246,310,29088,2,0,P|246:270|233:233,1,80,2|0,0:0|1:0,0:0:0:0:
80,149,29425,1,2,0:0:0:0:
72,171,29510,1,0,0:0:0:0:
66,195,29594,1,0,0:0:0:0:
64,218,29678,1,0,0:0:0:0:
64,242,29762,5,2,1:3:0:0:
141,223,29931,1,0,0:0:0:0:
217,245,30099,1,0,0:0:0:0:
248,318,30268,1,0,0:0:0:0:
205,164,30437,2,0,P|208:141|218:121,2,40,2|2|2,0:0|0:0|1:2,0:0:0:0:
120,306,30774,2,0,P|127:324|129:344,2,40,2|2|2,0:0|0:0|0:0,0:0:0:0:
29,211,31111,6,0,P|13:140|47:49,1,160,2|0,1:2|0:0,0:0:0:0:
120,112,31616,1,0,0:0:0:0:
260,97,31785,2,0,B|186:67|186:67|120:112,1,160,2|0,0:0|0:0,0:0:0:0:
195,253,32291,2,0,L|194:174,1,80,0|2,0:0|1:3,0:0:0:0:
40,188,32628,5,0,0:0:0:0:
118,199,32796,1,2,0:0:0:0:
194,174,32965,1,2,0:0:0:0:
268,201,33133,1,2,0:0:0:0:
197,305,33302,1,0,1:0:0:0:
197,305,33386,1,0,0:0:0:0:
197,305,33470,2,0,P|177:311|150:307,2,40,2|2|2,0:0|0:0|0:0,0:0:0:0:
343,239,33807,6,0,B|353:200|353:200|340:162,1,80,2|2,1:2|0:0,0:0:0:0:
312,146,34060,1,2,0:0:0:0:
312,146,34144,2,0,L|232:153,1,80,2|0,0:0|0:0,0:0:0:0:
106,135,34482,2,0,P|87:127|73:105,2,40,2|2|2,0:0|0:0|1:2,0:0:0:0:
219,228,34819,1,2,0:0:0:0:
230,253,34903,1,2,0:0:0:0:
234,280,34987,1,0,0:0:0:0:
228,308,35071,1,0,0:0:0:0:
213,331,35156,6,0,P|261:286|340:332,1,160,2|2,1:3|0:0,0:0:0:0:
152,378,35661,2,0,P|137:342|148:290,1,80,2|0,0:0|0:0,0:0:0:0:
236,180,35998,1,2,1:2:0:0:
236,180,36083,1,2,0:0:0:0:
236,180,36167,1,2,0:0:0:0:
306,291,36335,2,0,L|315:242,1,40,0|0,0:0|0:0,0:0:0:0:
245,155,36504,5,2,1:2:0:0:
167,134,36673,1,2,0:0:0:0:
100,177,36841,1,2,0:0:0:0:
100,177,36925,1,0,0:0:0:0:
100,177,37010,1,0,0:0:0:0:
327,251,37178,5,2,0:0:0:0:
249,272,37347,1,2,1:2:0:0:
182,229,37515,1,2,0:0:0:0:
182,229,37599,1,2,0:0:0:0:
182,229,37684,1,2,0:0:0:0:
390,194,37852,5,2,1:3:0:0:
361,269,38021,1,0,0:0:0:0:
425,315,38189,1,2,0:0:0:0:
456,241,38358,1,2,0:0:0:0:
310,207,38526,2,0,L|185:225,1,120,2|0,0:0|0:0,0:0:0:0:
191,224,38864,2,0,L|201:138,1,80,2|0,0:0|0:0,0:0:0:0:
448,209,39201,5,2,1:2:0:0:
448,209,39369,1,0,0:0:0:0:
425,315,39538,2,0,P|389:296|337:293,1,80,2|0,0:0|0:0,0:0:0:0:
191,303,39875,2,0,P|232:292|261:260,1,80,2|0,0:0|1:0,0:0:0:0:
358,171,40212,1,2,0:0:0:0:
342,198,40296,1,0,0:0:0:0:
335,230,40380,1,0,0:0:0:0:
338,261,40465,1,0,0:0:0:0:
350,291,40549,5,2,1:3:0:0:
410,239,40717,1,0,0:0:0:0:
399,159,40886,1,2,0:0:0:0:
327,122,41055,1,2,0:0:0:0:
253,232,41223,1,2,0:0:0:0:
253,232,41307,1,0,0:0:0:0:
253,232,41392,1,0,1:0:0:0:
211,153,41560,1,2,0:0:0:0:
339,208,41729,2,0,L|288:221,1,40,2|0,0:0|0:0,0:0:0:0:
238,315,41897,6,0,B|196:309|174:267|174:267|94:303,1,160,2|0,1:2|0:0,0:0:0:0:
253,232,42403,1,2,0:0:0:0:
104,298,42571,2,0,L|95:214,1,80,2|0,0:0|1:0,0:0:0:0:
244,152,42908,2,0,L|253:232,1,80,2|0,0:0|0:0,0:0:0:0:
380,332,43246,6,0,P|418:261|397:180,1,160,2|0,1:3|0:0,0:0:0:0:
235,288,43751,1,2,0:0:0:0:
182,217,43920,2,0,P|165:140|203:71,1,160,2|2,0:0|0:0,0:0:0:0:
203,71,44425,1,0,0:0:0:0:
327,178,44594,6,0,P|327:207|315:233,2,40,2|2|2,1:3|0:0|0:0,0:0:0:0:
235,60,44931,1,0,0:0:0:0:
397,115,45099,1,2,1:3:0:0:
327,178,45268,2,0,P|295:249|316:325,1,160,2|0,0:0|0:0,0:0:0:0:
395,317,45774,2,0,L|316:324,1,80,2|2,0:0|1:3,0:0:0:0:
203,245,46279,5,2,0:0:0:0:
315,324,46448,2,0,L|394:317,1,80,2|2,1:3|0:0,0:0:0:0:
388,223,46785,2,0,L|308:229,1,80,2|2,1:3|0:0,0:0:0:0:
155,126,47122,1,2,1:3:0:0:
132,220,47291,5,0,1:3:0:0:
179,36,47459,1,0,1:3:0:0:
308,229,47628,5,0,1:3:0:0:
138,118,47796,1,0,1:3:0:0:
361,91,47965,1,0,1:0:0:0:
361,91,48049,1,0,1:0:0:0:
361,91,48133,2,0,L|368:138,1,40,0|0,1:0|1:0,0:0:0:0:
388,223,48302,2,0,L|308:229,1,80,0|0,1:0|0:0,0:0:0:0:
87,366,48639,6,0,B|63:318|63:318|87:270|87:270|103:227|79:174,1,200,4|8,1:2|0:0,0:0:0:0:
81,179,49144,1,0,0:0:0:0:
175,318,49313,2,0,L|274:312,1,100,0|0,0:0|1:0,0:0:0:0:
402,269,49650,1,8,0:0:0:0:
402,269,49734,1,0,0:0:0:0:
402,269,49819,1,0,0:0:0:0:
188,190,49987,6,0,B|126:171|129:111|129:111|209:139|274:118,1,239.999992675781,0|8,1:0|0:0,0:0:0:0:
347,94,50408,1,0,0:0:0:0:
358,89,50493,1,0,0:0:0:0:
278,302,50661,2,0,B|289:254|289:254|273:206,1,100,0|0,0:0|1:0,0:0:0:0:
131,112,50998,2,0,P|114:158|126:206,1,100,8|0,0:0|0:0,0:0:0:0:
278,302,51335,6,0,B|315:270|315:270|360:288|360:288|402:267|402:267|448:296|503:291,1,239.999992675781,0|8,1:0|0:0,0:0:0:0:
472,193,51841,1,0,0:0:0:0:
222,355,52010,1,0,0:0:0:0:
205,330,52094,1,0,0:0:0:0:
201,300,52178,1,0,1:0:0:0:
298,174,52347,2,0,L|349:182,2,50,8|0|0,0:0|0:0|0:0,0:0:0:0:
102,259,52684,6,0,P|87:227|94:188,1,69.9999978637696,0|0,1:0|0:0,0:0:0:0:
176,94,52852,2,0,P|210:144|191:211,1,119.999996337891,0|8,1:0|0:0,0:0:0:0:
72,359,53189,6,0,P|35:270|91:193,1,200,0|0,1:0|1:0,0:0:0:0:
98,199,53611,1,0,1:0:0:0:
105,205,53695,2,0,L|165:204,3,50,8|0|0|0,0:0|0:0|0:0|0:0,0:0:0:0:
201,306,54032,6,0,P|253:268|339:289,1,150,0|0,1:0|0:0,0:0:0:0:
416,323,54369,2,0,L|406:215,1,100,8|0,0:0|0:0,0:0:0:0:
254,138,54706,2,0,L|263:237,1,100,0|0,0:0|1:0,0:0:0:0:
263,237,54959,1,0,0:0:0:0:
263,237,55043,1,8,0:0:0:0:
120,254,55212,1,0,0:0:0:0:
359,292,55380,6,0,B|394:285|419:259|419:259|373:260|329:213|329:213|270:244,1,239.999992675781,0|8,1:0|0:0,0:0:0:0:
154,150,55886,1,0,0:0:0:0:
154,150,55970,1,0,0:0:0:0:
154,150,56055,1,0,0:0:0:0:
233,324,56223,1,0,1:0:0:0:
151,243,56392,2,0,P|137:196|154:150,1,100,8|0,0:0|0:0,0:0:0:0:
43,190,56729,6,0,L|222:201,1,179.999994506836,0|0,1:0|0:0,0:0:0:0:
312,185,57066,2,0,B|399:167|399:167|383:194,1,119.999996337891,8|0,0:0|0:0,0:0:0:0:
233,324,57403,1,0,0:0:0:0:
206,80,57571,1,0,1:0:0:0:
138,188,57740,1,8,0:0:0:0:
177,202,57824,1,0,0:0:0:0:
218,204,57908,1,0,0:0:0:0:
259,193,57993,1,0,0:0:0:0:
293,170,58077,6,0,L|288:226,1,50,0|0,1:0|0:0,0:0:0:0:
317,295,58246,2,0,L|321:245,1,50,0|0,1:0|0:0,0:0:0:0:
208,54,58414,6,0,B|223:102|223:102|216:125,1,69.9999978637696,8|0,0:0|0:0,0:0:0:0:
143,290,58583,2,0,B|128:242|128:242|135:219,1,69.9999978637696,8|0,0:0|0:0,0:0:0:0:
310,78,58751,5,0,1:0:0:0:
350,66,58835,1,2,0:0:0:0:
392,67,58920,1,2,0:0:0:0:
432,80,59004,1,2,0:0:0:0:
468,183,59088,5,0,1:0:0:0:
426,198,59173,1,2,0:0:0:0:
381,203,59257,1,2,0:0:0:0:
337,194,59341,1,2,0:0:0:0:
256,149,59425,6,0,B|178:109|128:181|128:181|184:205,1,200,4|8,1:2|0:0,0:0:0:0:
352,306,59931,2,0,B|266:259|266:259|232:307|173:306,1,200,0|0,0:0|1:0,0:0:0:0:
30,265,60437,1,8,0:0:0:0:
30,265,60521,1,0,0:0:0:0:
30,265,60605,1,0,0:0:0:0:
267,364,60774,6,0,B|336:302|260:202|260:202|215:255,1,239.999992675781,0|8,1:0|0:0,0:0:0:0:
215,256,61195,1,0,0:0:0:0:
208,266,61279,1,0,0:0:0:0:
58,356,61448,2,0,L|49:257,1,100,0|0,0:0|1:0,0:0:0:0:
144,100,61785,2,0,B|158:150|158:150|137:193,1,100,8|0,0:0|0:0,0:0:0:0:
58,356,62122,6,0,P|29:279|146:195,1,239.999992675781,0|8,1:0|0:0,0:0:0:0:
208,266,62628,1,0,0:0:0:0:
307,172,62796,1,0,0:0:0:0:
304,142,62880,1,0,0:0:0:0:
300,111,62965,1,0,1:0:0:0:
137,193,63133,2,0,P|109:191|81:175,2,50,8|0|0,0:0|0:0|0:0,0:0:0:0:
283,47,63470,6,0,P|301:76|300:111,1,69.9999978637696,0|0,1:0|0:0,0:0:0:0:
243,197,63639,2,0,P|191:171|137:193,1,119.999996337891,0|8,1:0|0:0,0:0:0:0:
62,296,63976,2,0,L|56:328,2,33.3333333333333,0|0|0,1:0|1:0|1:0,0:0:0:0:
18,216,64144,6,0,B|3:172|36:116|36:116|64:144,1,139.999995727539,0|2,1:0|0:0,0:0:0:0:
267,190,64650,1,8,0:0:0:0:
137,192,64819,6,0,B|202:154|202:154|268:191,1,150,0|0,1:0|0:0,0:0:0:0:
303,280,65156,2,0,L|203:274,1,100,8|0,0:0|0:0,0:0:0:0:
37,192,65493,2,0,L|137:192,1,100,0|0,0:0|1:0,0:0:0:0:
137,192,65746,1,0,0:0:0:0:
137,192,65830,1,8,0:0:0:0:
267,190,65998,1,0,0:0:0:0:
322,327,66167,6,0,B|277:353|213:305|213:305|157:289|149:369|213:369|213:337,1,239.999992675781,0|8,1:0|0:0,0:0:0:0:
294,242,66673,1,0,0:0:0:0:
294,242,66757,1,0,0:0:0:0:
294,242,66841,1,0,0:0:0:0:
76,326,67010,1,0,1:0:0:0:
136,236,67178,2,0,P|150:184|131:130,1,100,8|0,0:0|0:0,0:0:0:0:
52,187,67515,6,0,L|236:197,1,179.999994506836,0|0,1:0|0:0,0:0:0:0:
231,196,67852,1,8,0:0:0:0:
76,326,68021,1,0,0:0:0:0:
111,327,68105,1,0,0:0:0:0:
147,329,68189,1,0,0:0:0:0:
255,272,68358,1,0,1:0:0:0:
76,326,68526,5,8,0:0:0:0:
40,293,68611,1,0,0:0:0:0:
25,249,68695,1,0,0:0:0:0:
32,202,68779,1,0,0:0:0:0:
61,164,68864,6,0,L|121:162,1,50,0|0,1:0|0:0,0:0:0:0:
198,229,69032,2,0,L|257:226,1,50,0|0,1:0|0:0,0:0:0:0:
382,157,69201,6,0,B|336:149|336:149|312:159,1,69.9999978637696,8|0,0:0|0:0,0:0:0:0:
288,309,69369,2,0,B|242:317|242:317|218:307,1,69.9999978637696,8|0,0:0|0:0,0:0:0:0:
121,191,69538,5,0,1:0:0:0:
103,153,69622,1,2,0:0:0:0:
104,111,69706,1,2,0:0:0:0:
123,74,69791,1,2,0:0:0:0:
234,69,69875,5,0,1:0:0:0:
265,100,69959,1,2,0:0:0:0:
276,145,70043,1,2,0:0:0:0:
264,189,70128,1,2,0:0:0:0:
181,247,70212,6,0,B|75:225|75:225|114:282,1,160,4|10,1:2|0:0,0:0:0:0:
164,349,70717,1,2,0:0:0:0:
152,136,70886,1,0,0:0:0:0:
266,255,71055,1,0,1:0:0:0:
266,255,71139,1,0,0:0:0:0:
266,255,71223,1,8,0:0:0:0:
69,267,71392,1,0,0:0:0:0:
266,255,71560,6,0,P|290:160|209:91,1,200,0|8,1:0|0:0,0:0:0:0:
83,177,72066,2,0,P|66:181|44:177,2,40,2|2|0,0:0|0:0|0:0,0:0:0:0:
210,68,72403,1,0,1:0:0:0:
210,68,72487,1,0,0:0:0:0:
210,68,72571,6,0,B|304:101|267:184|267:184|234:165|186:169,1,209.999993591309,8|0,1:2|0:0,0:0:0:0:
98,202,72908,6,0,P|55:138|93:73,1,160,0|8,1:0|0:0,0:0:0:0:
234,24,73414,2,0,B|285:47|278:121|278:121|232:129|211:168,1,200,2|0,0:0|1:0,0:0:0:0:
293,299,73920,2,0,P|305:251|286:207,1,100,8|0,0:0|0:0,0:0:0:0:
210,168,74173,1,0,0:0:0:0:
210,168,74257,6,0,B|162:168|162:168|114:208|114:208|58:208,1,160,0|8,1:0|0:0,0:0:0:0:
46,210,74678,2,0,L|42:158,1,40,0|2,0:0|0:0,0:0:0:0:
265,117,74931,2,0,P|284:165|271:211,1,100,0|0,0:0|1:0,0:0:0:0:
138,335,75268,2,0,P|122:279|151:219,1,120,8|0,1:2|1:0,0:0:0:0:
145,224,75605,6,0,L|348:241,1,194.999991073609,0|0,1:0|0:0,0:0:0:0:
406,292,75942,2,0,L|445:324,1,40,8|0,0:0|0:0,0:0:0:0:
333,156,76111,2,0,L|341:51,1,100,2|0,0:0|0:0,0:0:0:0:
340,56,76364,1,0,0:0:0:0:
340,56,76448,1,0,1:0:0:0:
213,185,76616,2,0,L|179:101,1,80,8|0,0:0|0:0,0:0:0:0:
340,56,76953,6,0,L|324:255,1,200,0|8,1:0|0:0,0:0:0:0:
213,185,77459,1,2,0:0:0:0:
213,185,77543,1,2,0:0:0:0:
213,185,77628,1,0,0:0:0:0:
450,217,77796,1,0,1:0:0:0:
330,271,77965,1,8,0:0:0:0:
343,141,78133,1,0,0:0:0:0:
158,242,78302,6,0,P|134:175|192:109,1,160,0|8,1:0|0:0,0:0:0:0:
185,111,78807,1,2,0:0:0:0:
343,141,78976,2,0,L|392:150,2,40,0|0|0,0:0|0:0|1:0,0:0:0:0:
185,111,79313,2,0,L|132:101,2,50,8|0|0,0:0|0:0|0:0,0:0:0:0:
251,262,79650,6,0,B|322:211|322:211|432:235,1,200,0|8,1:0|0:0,0:0:0:0:
301,333,80156,2,0,P|357:371|360:298,1,160,2|0,0:0|1:0,0:0:0:0:
362,299,80577,1,0,0:0:0:0:
355,294,80661,1,8,0:0:0:0:
218,383,80830,1,0,0:0:0:0:
58,347,80998,6,0,P|149:317|218:383,1,200,4|8,1:2|0:0,0:0:0:0:
341,326,81504,1,2,0:0:0:0:
341,326,81588,1,2,0:0:0:0:
341,326,81673,6,0,P|343:280|321:239,1,80,0|0,0:0|1:0,0:0:0:0:
210,154,82010,2,0,P|186:200|199:255,1,100,8|0,0:0|0:0,0:0:0:0:
243,316,82262,1,0,0:0:0:0:
250,325,82347,6,0,B|328:304|328:304|402:342,1,160,0|8,1:0|0:0,0:0:0:0:
489,280,82852,2,0,P|497:258|498:229,2,40,2|2|0,0:0|0:0|0:0,0:0:0:0:
307,198,83189,2,0,P|299:166|311:132,1,59.9999981689454,0|0,1:0|0:0,0:0:0:0:
385,69,83358,6,0,B|444:79|456:139|456:139|421:163|426:215,1,179.999994506836,8|0,1:2|0:0,0:0:0:0:
379,282,83695,6,0,P|308:249|229:276,1,160,0|8,1:0|0:0,0:0:0:0:
82,342,84201,2,0,B|108:313|161:324|161:324|127:267|163:215,1,200,2|0,0:0|1:0,0:0:0:0:
49,140,84706,2,0,L|57:239,1,100,8|0,0:0|0:0,0:0:0:0:
130,284,84959,1,0,0:0:0:0:
130,284,85043,6,0,B|205:255|205:255|274:300,1,160,0|8,1:0|0:0,0:0:0:0:
281,317,85465,2,0,L|325:309,1,40,0|2,0:0|0:0,0:0:0:0:
448,215,85717,2,0,P|390:222|352:200,1,100,0|0,0:0|1:0,0:0:0:0:
248,56,86055,2,0,L|234:182,1,120,8|0,0:0|0:0,0:0:0:0:
234,175,86392,6,0,P|310:147|419:189,1,194.999991073609,0|0,1:0|0:0,0:0:0:0:
477,130,86729,2,0,L|511:102,1,40,8|0,0:0|0:0,0:0:0:0:
377,260,86897,2,0,L|385:368,1,100,2|0,0:0|0:0,0:0:0:0:
384,359,87150,1,0,0:0:0:0:
384,359,87234,1,0,1:0:0:0:
262,294,87403,1,8,0:0:0:0:
267,373,87571,2,0,L|261:293,1,80,0|0,0:0|1:0,0:0:0:0:
118,196,87908,6,0,L|125:295,1,100,2|8,0:0|0:0,0:0:0:0:
253,206,88246,1,2,0:0:0:0:
253,206,88330,1,2,0:0:0:0:
253,206,88414,1,0,0:0:0:0:
371,310,88583,2,0,L|377:260,1,50,0|0,1:0|0:0,0:0:0:0:
398,122,88751,6,0,B|471:154|450:228|450:228|415:221|386:229,1,194.999991073609,8|0,1:2|0:0,0:0:0:0:
283,285,89088,6,0,L|123:268,1,160,0|8,1:0|0:0,0:0:0:0:
51,132,89594,2,0,B|183:146|183:146|248:115,1,200,2|0,0:0|1:0,0:0:0:0:
166,38,90099,1,8,0:0:0:0:
249,212,90268,2,0,P|259:163|243:116,1,100,0|0,0:0|1:0,0:0:0:0:
51,132,90605,5,0,0:0:0:0:
51,132,90689,1,0,0:0:0:0:
51,132,90774,2,0,P|48:92|65:57,1,80,8|2,0:0|0:0,0:0:0:0:
336,92,91111,1,0,0:0:0:0:
234,134,91279,2,0,L|197:149,1,40,0|0,1:0|0:0,0:0:0:0:
166,170,91448,2,0,P|132:242|163:302,1,150,8|0,1:2|0:0,0:0:0:0:
186,315,91785,5,4,1:2:0:0:
265,277,91953,1,0,0:0:0:0:
344,315,92122,1,8,0:0:0:0:
423,277,92291,1,2,0:0:0:0:
342,155,92459,2,0,L|346:240,1,80,0|0,0:0|1:0,0:0:0:0:
279,357,92796,1,8,0:0:0:0:
174,248,92965,5,0,0:0:0:0:
181,257,93049,1,0,0:0:0:0:
183,268,93133,1,0,1:0:0:0:
90,358,93302,1,0,0:0:0:0:
92,347,93386,1,0,0:0:0:0:
99,338,93470,1,8,0:0:0:0:
106,193,93639,2,0,P|131:267|99:338,1,160,2|0,0:0|1:0,0:0:0:0:
10,283,94144,1,8,0:0:0:0:
10,283,94313,1,0,0:0:0:0:
208,341,94482,5,0,1:0:0:0:
234,257,94650,1,0,0:0:0:0:
163,218,94819,1,8,0:0:0:0:
137,134,94987,1,2,0:0:0:0:
234,11,95156,1,0,0:0:0:0:
208,95,95324,1,0,1:0:0:0:
148,29,95493,1,8,0:0:0:0:
294,75,95661,5,0,0:0:0:0:
305,79,95746,1,0,0:0:0:0:
315,83,95830,1,0,1:0:0:0:
137,134,95998,1,0,0:0:0:0:
126,138,96083,1,0,0:0:0:0:
116,142,96167,2,0,L|202:151,1,80,8|2,0:0|0:0,0:0:0:0:
294,75,96504,1,0,0:0:0:0:
273,244,96673,1,0,1:0:0:0:
448,190,96841,2,0,P|389:147|320:171,1,150,8|0,0:0|0:0,0:0:0:0:
273,244,97178,6,0,L|357:254,1,80,0|0,1:0|0:0,0:0:0:0:
373,65,97515,2,0,L|294:75,1,80,8|2,0:0|0:0,0:0:0:0:
294,75,97768,1,2,0:0:0:0:
294,75,97852,1,0,0:0:0:0:
224,177,98021,1,0,1:0:0:0:
137,163,98189,1,8,0:0:0:0:
66,71,98358,2,0,L|21:76,2,40,0|0|0,0:0|0:0|1:0,0:0:0:0:
137,163,98695,5,0,0:0:0:0:
294,75,98864,1,8,0:0:0:0:
245,170,99032,1,2,0:0:0:0:
245,170,99116,1,2,0:0:0:0:
245,170,99201,2,0,B|234:209|234:209|251:252,1,80,0|0,0:0|1:0,0:0:0:0:
344,328,99538,2,0,B|367:269|367:269|351:214,1,120,8|0,0:0|0:0,0:0:0:0:
283,155,99875,6,0,B|220:184|163:171|163:171|204:184|223:224,1,200,0|8,1:0|0:0,0:0:0:0:
142,345,100380,2,0,L|132:266,1,80,2|0,0:0|0:0,0:0:0:0:
132,266,100633,1,0,0:0:0:0:
132,266,100717,1,0,1:0:0:0:
297,235,100886,2,0,L|307:155,1,80,8|0,0:0|0:0,0:0:0:0:
211,47,101223,5,0,1:0:0:0:
211,47,101307,1,0,0:0:0:0:
211,47,101392,1,0,0:0:0:0:
168,155,101560,1,8,0:0:0:0:
76,54,101729,2,0,P|69:26|75:1,2,40,2|2|0,0:0|0:0|0:0,0:0:0:0:
168,155,102066,1,0,0:0:0:0:
45,218,102234,1,8,0:0:0:0:
45,218,102319,1,2,0:0:0:0:
45,218,102403,1,2,0:0:0:0:
45,218,102487,1,2,0:0:0:0:
45,218,102571,6,0,P|111:227|76:330,1,194.999991073609,4|2,1:0|0:0,0:0:0:0:
78,334,103246,2,0,B|133:328|133:328|150:334|150:334|206:328,1,129.999994049073,0|2,0:0|0:0,0:0:0:0:
219,327,103751,1,0,0:0:0:0:
300,224,103920,6,0,L|294:187,2,32.4999985122681,0|2|2,0:0|0:0|0:0,0:0:0:0:
370,299,104257,1,0,0:0:0:0:
370,299,104425,1,0,0:0:0:0:
218,246,104594,2,0,L|207:178,1,64.9999970245363,2|0,0:0|0:0,0:0:0:0:
207,181,104847,1,0,0:0:0:0:
207,181,104931,1,0,0:0:0:0:
300,224,105099,1,0,0:0:0:0:
127,257,105268,5,2,0:0:0:0:
96,185,105437,1,2,0:0:0:0:
145,125,105605,1,0,0:0:0:0:
145,46,105774,2,0,L|67:50,1,64.9999970245363,0|2,0:0|0:0,0:0:0:0:
80,49,106026,1,2,0:0:0:0:
80,49,106111,1,0,0:0:0:0:
227,93,106279,2,0,L|230:125,1,32.4999985122681
257,207,106448,6,0,P|224:210|193:202,1,64.9999970245363,2|0,0:0|0:0,0:0:0:0:
110,145,106785,1,2,0:0:0:0:
188,219,106953,2,0,P|219:226|251:223,1,64.9999970245363,2|0,0:0|0:0,0:0:0:0:
359,258,107291,6,0,P|370:220|359:181,1,80,2|0,0:0|0:0,0:0:0:0:
359,181,107543,1,0,0:0:0:0:
359,181,107628,1,2,0:0:0:0:
199,129,107796,6,0,P|175:171|188:219,1,100,2|4,0:0|1:2,0:0:0:0:
325,98,108302,1,2,0:0:0:0:
367,189,108470,2,0,P|378:265|337:341,1,160,2|0,0:0|0:0,0:0:0:0:
263,331,108976,2,0,L|342:336,1,80,2|2,0:0|0:0,0:0:0:0:
463,233,109313,5,2,1:0:0:0:
287,183,109650,2,0,L|366:188,1,80,2|2,0:0|1:0,0:0:0:0:
473,101,109987,2,0,B|368:93|368:93|320:64,1,160,2|2,0:0|0:0,0:0:0:0:
321,64,110493,1,2,0:0:0:0:
196,91,110661,6,0,P|159:160|252:211,1,200,2|2,1:0|0:0,0:0:0:0:
379,198,111167,2,0,B|308:163|308:163|245:213,1,160,2|2,1:0|1:2,0:0:0:0:
245,213,111588,1,2,1:2:0:0:
245,213,111673,1,2,1:0:0:0:
196,91,111841,1,6,1:3:0:0:
327,264,112010,5,0,1:0:0:0:
398,158,112178,1,0,1:0:0:0:
333,47,112347,1,0,1:0:0:0:
205,59,112515,1,0,1:0:0:0:
279,154,112684,1,4,1:3:0:0:
321,174,112768,1,4,1:3:0:0:
368,168,112852,1,4,1:3:0:0:
406,139,112936,1,4,1:3:0:0:
422,94,113021,6,0,L|435:282,1,179.999994506836,4|0,1:3|0:0,0:0:0:0:
434,273,113358,6,0,L|333:265,1,100,8|2,3:0|0:0,0:0:0:0:
326,270,113611,1,2,0:0:0:0:
317,275,113695,1,12,3:0:0:0:
203,358,113864,2,0,L|192:307,1,50,8|8,0:0|0:3,0:0:0:0:
115,276,114032,2,0,P|163:230|247:244,1,150,6|8,1:3|3:0,0:0:0:0:
248,246,114369,1,12,3:0:0:0:
51,320,114538,2,0,P|40:296|41:256,1,50,8|0,0:3|0:0,0:0:0:0:
75,163,114706,5,8,0:3:0:0:
75,163,114791,1,8,0:3:0:0:
75,163,114875,2,0,B|113:168|113:168|173:145,1,100,8|2,0:3|0:0,0:0:0:0:
248,246,115128,6,0,B|197:220|197:220|153:239,1,104.999996795654,8|10,0:3|1:2,0:0:0:0:
192,313,115549,1,0,1:0:0:0:
75,163,115886,5,2,1:3:0:0:
192,313,116055,6,0,P|286:322|332:230,1,200,4|8,1:0|0:0,0:0:0:0:
281,132,116560,2,0,B|245:126|225:100|225:100|177:156|89:132,1,200,2|0,0:0|1:0,0:0:0:0:
300,37,117066,2,0,L|400:44,1,100,8|0,0:0|0:0,0:0:0:0:
227,213,117403,5,0,1:0:0:0:
103,135,117571,2,0,P|95:87|120:45,1,100,0|8,1:0|0:0,0:0:0:0:
300,37,117908,1,2,0:0:0:0:
307,226,118077,1,0,0:0:0:0:
199,119,118246,1,0,1:0:0:0:
394,138,118414,1,8,0:0:0:0:
345,310,118583,1,0,0:0:0:0:
345,310,118667,1,0,0:0:0:0:
344,309,118751,6,0,P|259:263|165:290,1,200,0|8,1:0|0:0,0:0:0:0:
92,340,119257,2,0,P|76:285|103:227,1,100,2|0,0:0|0:0,0:0:0:0:
199,119,119594,1,0,1:0:0:0:
165,290,119762,2,0,B|250:275|250:275|287:306|287:306|351:294,1,200,8|0,0:0|1:0,0:0:0:0:
223,372,120268,5,2,0:0:0:0:
267,252,120437,2,0,P|268:186|233:122,1,120,8|0,0:0|0:0,0:0:0:0:
173,136,120774,5,0,0:0:0:0:
348,78,120942,1,0,1:0:0:0:
357,95,121026,1,0,1:0:0:0:
361,114,121111,1,8,1:2:0:0:
267,252,121279,1,0,0:0:0:0:
416,358,121448,6,0,B|418:301|376:270|376:270|372:229|406:204|406:204|405:222|396:242,1,200,0|8,1:0|0:0,0:0:0:0:
327,345,121869,2,0,P|300:337|269:338,1,50,2|2,0:0|0:0,0:0:0:0:
139,230,122122,2,0,P|195:234|244:213,1,100,0|0,0:0|1:0,0:0:0:0:
235,218,122375,1,0,0:0:0:0:
235,218,122459,1,8,0:0:0:0:
331,126,122628,1,0,0:0:0:0:
278,336,122796,5,0,1:0:0:0:
244,228,122965,2,0,L|215:115,1,100,0|8,0:0|0:0,0:0:0:0:
393,33,123302,2,0,L|370:109,1,50,2|2,0:0|0:0,0:0:0:0:
351,163,123470,2,0,L|325:263,1,100,0|0,0:0|1:0,0:0:0:0:
219,131,123807,1,8,0:0:0:0:
326,259,123976,1,0,0:0:0:0:
466,158,124144,6,0,B|395:183|367:74|295:92|266:163|336:192|351:163,1,239.999992675781,0|8,1:0|0:0,0:0:0:0:
453,83,124566,1,2,0:0:0:0:
453,83,124650,2,0,P|392:133|419:221,1,179.999994506836,2|0,0:0|0:0,0:0:0:0:
417,220,124987,1,0,1:0:0:0:
219,131,125156,1,8,0:0:0:0:
309,208,125324,1,0,0:0:0:0:
261,291,125493,5,0,1:0:0:0:
309,114,125661,1,0,0:0:0:0:
401,247,125830,2,0,L|351:238,2,50,8|2|2,0:0|0:0|0:0,0:0:0:0:
121,215,126167,2,0,L|288:202,1,150,0|0,1:0|0:0,0:0:0:0:
351,238,126504,2,0,L|435:251,1,80,0|8,1:0|0:0,0:0:0:0:
160,127,126841,6,0,B|309:115|309:115|257:81,1,200,4|8,1:2|0:0,0:0:0:0:
96,63,127347,2,0,B|44:122|80:194|80:194|111:199|133:230,1,200,2|0,0:0|1:0,0:0:0:0:
253,250,127852,2,0,P|301:237|351:238,1,100,8|0,0:0|0:0,0:0:0:0:
437,167,128189,5,0,1:0:0:0:
206,312,128358,2,0,P|177:270|186:213,1,100,0|8,1:0|0:0,0:0:0:0:
273,107,128695,1,2,0:0:0:0:
253,250,128864,1,0,0:0:0:0:
160,127,129032,1,0,1:0:0:0:
370,158,129201,1,8,0:0:0:0:
333,284,129369,1,0,0:0:0:0:
333,284,129453,1,0,0:0:0:0:
333,284,129538,6,0,P|271:213|295:106,1,200,0|8,1:0|0:0,0:0:0:0:
363,62,130043,2,0,P|378:109|369:158,1,100,2|0,0:0|0:0,0:0:0:0:
211,279,130380,1,0,1:0:0:0:
333,284,130549,2,0,B|396:287|396:287|442:337|442:337|514:341,1,200,8|0,0:0|1:0,0:0:0:0:
485,249,131055,5,2,0:0:0:0:
359,365,131223,2,0,B|310:377|276:346|276:346|261:360|225:361,1,120,8|0,0:0|0:0,0:0:0:0:
333,284,131560,6,0,P|349:205|312:106,1,179.999994506836,0|0,1:0|0:0,0:0:0:0:
248,48,131897,2,0,P|223:103|240:169,1,119.999996337891,8|8,1:2|1:2,0:0:0:0:
240,169,132150,1,0,0:0:0:0:
245,177,132234,1,0,1:0:0:0:
432,80,132571,5,8,0:0:0:0:
472,164,132740,2,0,P|424:173|371:149,1,100,2|0,0:0|0:0,0:0:0:0:
248,48,133077,1,0,1:0:0:0:
102,143,133246,2,0,B|150:148|176:108|176:108|219:156|284:134,1,200,8|0,0:0|1:0,0:0:0:0:
248,48,133751,5,0,0:0:0:0:
181,210,133920,1,8,0:0:0:0:
167,88,134088,1,2,0:0:0:0:
279,229,134257,1,0,0:0:0:0:
357,140,134425,1,0,1:0:0:0:
356,124,134510,1,0,1:0:0:0:
352,109,134594,1,8,1:2:0:0:
425,272,134762,1,0,0:0:0:0:
278,135,134931,6,0,B|214:106|157:142|157:142|217:168|228:226,1,239.999992675781,0|8,1:0|0:0,0:0:0:0:
196,308,135352,1,2,0:0:0:0:
196,308,135437,2,0,P|110:301|134:230,1,179.999994506836,2|0,0:0|0:0,0:0:0:0:
128,233,135774,1,0,1:0:0:0:
311,210,135942,1,8,0:0:0:0:
188,153,136111,1,0,0:0:0:0:
226,325,136279,5,0,1:0:0:0:
317,129,136448,1,0,1:0:0:0:
128,233,136616,2,0,L|69:227,2,50,8|2|2,0:0|0:0|1:2,0:0:0:0:
349,249,136953,2,0,B|276:219|276:219|209:251,1,150,0|0,1:0|0:0,0:0:0:0:
123,279,137291,2,0,B|160:262|160:262|199:270,1,80,8|0,1:2|0:0,0:0:0:0:
353,282,137628,6,0,P|377:198|329:99,1,200,4|8,1:2|0:0,0:0:0:0:
159,66,138133,2,0,B|119:130|199:178|199:178|239:130,1,200,2|0,0:0|1:0,0:0:0:0:
384,39,138639,2,0,P|409:75|408:143,1,100,8|0,0:0|0:0,0:0:0:0:
343,243,138976,5,0,1:0:0:0:
239,129,139144,2,0,L|118:138,1,100,0|8,1:0|0:0,0:0:0:0:
101,271,139482,1,2,0:0:0:0:
241,218,139650,1,0,0:0:0:0:
165,49,139819,1,0,1:0:0:0:
98,149,139987,1,8,0:0:0:0:
321,195,140156,1,0,0:0:0:0:
321,195,140240,1,0,0:0:0:0:
321,195,140324,6,0,P|348:117|290:13,1,200,0|8,1:0|0:0,0:0:0:0:
439,103,140830,2,0,B|448:152|448:152|425:196,1,100,2|0,0:0|0:0,0:0:0:0:
340,283,141167,1,0,1:0:0:0:
157,155,141335,2,0,B|275:114|275:114|346:139,1,200,8|0,0:0|1:0,0:0:0:0:
273,223,141841,5,2,0:0:0:0:
149,187,142010,2,0,P|126:134|143:76,1,120,8|0,0:0|0:0,0:0:0:0:
214,49,142347,5,0,0:0:0:0:
51,169,142515,1,0,1:0:0:0:
36,173,142599,1,0,1:0:0:0:
20,172,142684,1,8,1:2:0:0:
53,60,142852,1,0,0:0:0:0:
215,128,143021,6,0,B|207:188|207:188|156:248|156:248|172:306,1,200,0|8,1:0|0:0,0:0:0:0:
254,273,143442,2,0,P|281:264|308:268,1,50,2|2,0:0|0:0,0:0:0:0:
126,152,143695,2,0,P|75:143|25:168,1,100,0|0,0:0|1:0,0:0:0:0:
25,169,143948,1,0,0:0:0:0:
19,177,144032,1,8,0:0:0:0:
126,286,144201,1,0,0:0:0:0:
209,83,144369,5,0,1:0:0:0:
225,181,144538,2,0,L|209:83,1,100,0|8,0:0|0:0,0:0:0:0:
56,15,144875,2,0,L|49:71,1,50,2|2,0:0|0:0,0:0:0:0:
22,145,145043,2,0,B|15:195|15:195|42:239,1,100,0|0,0:0|1:0,0:0:0:0:
155,315,145380,1,8,0:0:0:0:
132,176,145549,1,0,0:0:0:0:
291,83,145717,6,0,B|307:121|307:121|285:152|285:152|302:195|302:195|282:256|282:256|269:231|244:217,1,239.999992675781,0|8,1:0|0:0,0:0:0:0:
209,293,146139,1,2,0:0:0:0:
209,293,146223,2,0,P|288:256|366:319,1,179.999994506836,2|0,0:0|0:0,0:0:0:0:
359,302,146560,1,0,1:0:0:0:
380,161,146729,1,8,0:0:0:0:
281,348,146897,1,0,0:0:0:0:
166,223,147066,5,0,1:0:0:0:
326,228,147234,1,0,0:0:0:0:
239,105,147403,2,0,L|247:154,2,50,8|2|2,0:0|0:0|0:0,0:0:0:0:
374,286,147740,2,0,P|308:300|252:239,1,150,0|0,1:0|0:0,0:0:0:0:
247,154,148077,2,0,L|257:71,1,80,0|8,1:0|0:0,0:0:0:0:
69,198,148414,6,0,B|58:247|99:290|99:290|155:269|166:223,1,200,4|8,1:2|0:0,0:0:0:0:
190,36,148920,2,0,B|188:96|142:145|142:145|181:135|217:158,1,200,2|0,0:0|1:0,0:0:0:0:
365,97,149425,2,0,B|318:78|318:78|271:91,1,100,8|0,0:0|0:0,0:0:0:0:
165,223,149762,5,0,1:0:0:0:
352,242,149931,2,0,B|304:261|304:261|256:248,1,100,0|8,1:0|0:0,0:0:0:0:
106,143,150268,1,2,0:0:0:0:
297,165,150437,1,0,0:0:0:0:
199,304,150605,1,0,1:0:0:0:
199,181,150774,1,8,0:0:0:0:
379,241,150942,1,0,0:0:0:0:
379,241,151026,1,0,0:0:0:0:
379,241,151111,6,0,P|403:172|339:69,1,200,0|8,1:0|0:0,0:0:0:0:
202,44,151616,2,0,B|180:88|180:88|193:139,1,100,2|0,0:0|0:0,0:0:0:0:
278,247,151953,1,0,1:0:0:0:
117,286,152122,2,0,B|184:290|184:290|229:341|229:341|293:346,1,200,8|0,0:0|1:0,0:0:0:0:
278,247,152628,5,2,0:0:0:0:
49,338,152796,2,0,P|31:281|54:227,1,120,8|0,0:0|0:0,0:0:0:0:
127,183,153133,6,0,B|180:201|233:174|233:174|250:188|287:195,1,165.000005035401,0|0,1:0|0:0,0:0:0:0:
356,245,153470,2,0,P|372:194|361:150,1,89.9999972534181,0|8,1:0|1:2,0:0:0:0:
358,147,153723,1,0,1:0:0:0:
349,134,153807,6,0,P|332:89|341:49,1,80,0|0,1:0|0:0,0:0:0:0:
221,250,154144,2,0,P|237:214|234:175,1,80,0|2,1:0|0:0,0:0:0:0:
117,74,154482,2,0,L|125:156,1,80,0|0,1:0|0:0,0:0:0:0:
142,322,154819,2,0,L|134:242,1,80,0|2,1:0|0:0,0:0:0:0:
256,147,155156,5,0,1:0:0:0:
256,147,155324,1,0,0:0:0:0:
257,277,155493,1,0,1:0:0:0:
133,211,155661,1,2,0:0:0:0:
287,174,155830,2,0,L|327:169,2,40,0|2|2,1:0|0:0|0:0,0:0:0:0:
133,211,156167,2,0,P|122:173|138:122,1,80,0|0,1:0|0:0,0:0:0:0:
219,58,156504,5,0,1:2:0:0:
198,171,156673,1,0,1:0:0:0:
320,59,156841,5,0,1:0:0:0:
261,216,157010,1,0,1:0:0:0:
421,60,157178,5,0,1:0:0:0:
324,261,157347,1,0,1:0:0:0:
130,134,157515,5,0,1:0:0:0:
231,337,157684,1,0,1:0:0:0:
288,104,157852,5,8,1:3:0:0:
322,66,157936,1,8,1:3:0:0:
371,50,158020,1,8,1:3:0:0:
421,60,158104,1,8,1:3:0:0:
460,93,158189,1,8,1:3:0:0:
478,142,158273,1,8,1:3:0:0:
469,193,158357,1,8,1:3:0:0:
436,232,158441,1,8,1:3:0:0:
388,251,158526,6,0,L|354:245,1,20,8|8,1:3|1:3,0:0:0:0:
203,200,158695,1,8,3:0:0:0:
396,354,158864,6,0,P|390:311|360:276,1,69.9999978637696,0|8,1:0|1:3,0:0:0:0:
469,193,159032,2,0,P|428:176|383:185,1,69.9999978637696,0|8,1:0|1:3,0:0:0:0:
371,50,159201,5,4,1:0:0:0:
256,192,159285,12,0,161897,1:0:0:0:
256,192,161982,12,0,164594,1:0:0:0:
103,279,180774,6,0,P|168:251|212:271,1,119.999996337891,0|0,1:0|0:0,0:0:0:0:
209,269,181279,1,2,0:0:0:0:
268,329,181448,2,0,L|333:322,1,59.9999981689454,0|0,0:0|0:0,0:0:0:0:
380,257,181785,2,0,L|373:192,1,59.9999981689454,2|0,0:0|0:0,0:0:0:0:
292,133,182122,6,0,B|235:152|235:152|173:137,1,119.999996337891,2|0,0:0|0:0,0:0:0:0:
102,178,182628,2,0,P|93:120|123:70,1,119.999996337891,2|0,0:0|0:0,0:0:0:0:
202,41,183133,1,0,0:0:0:0:
202,41,183302,1,2,0:0:0:0:
292,133,183470,6,0,B|300:171|300:171|284:208|284:208|293:247,1,119.999996337891,2|0,1:2|0:0,0:0:0:0:
258,324,183976,2,0,P|204:346|143:322,1,119.999996337891,2|0,0:0|0:0,0:0:0:0:
98,258,184482,1,2,0:0:0:0:
140,185,184650,1,0,0:0:0:0:
140,185,184734,1,0,0:0:0:0:
140,185,184819,6,0,L|259:195,1,119.999996337891,2|0,0:0|0:0,0:0:0:0:
298,294,185324,1,2,0:0:0:0:
298,294,185493,2,0,L|238:289,1,59.9999981689454,2|0,0:0|0:0,0:0:0:0:
138,298,185830,2,0,L|79:303,1,59.9999981689454,2|0,0:0|0:0,0:0:0:0:
183,204,186167,6,0,L|177:75,1,119.999996337891,2|0,1:2|0:0,0:0:0:0:
177,84,186673,1,2,0:0:0:0:
265,106,186841,2,0,L|268:172,1,59.9999981689454,0|0,0:0|0:0,0:0:0:0:
348,231,187178,2,0,L|350:171,1,59.9999981689454,2|0,0:0|0:0,0:0:0:0:
441,80,187515,6,0,P|472:131|463:190,1,119.999996337891,2|0,0:0|0:0,0:0:0:0:
405,248,188021,2,0,B|348:230|348:230|285:254,1,119.999996337891,2|0,0:0|0:0,0:0:0:0:
215,286,188526,1,2,0:0:0:0:
220,187,188695,1,2,0:0:0:0:
220,178,188779,1,2,0:0:0:0:
220,168,188864,6,0,L|94:180,1,119.999996337891,2|0,1:2|0:0,0:0:0:0:
100,179,189369,1,2,0:0:0:0:
290,126,189538,2,0,P|302:158|301:188,1,59.9999981689454,0|0,0:0|0:0,0:0:0:0:
235,302,189875,2,0,P|235:272|246:244,1,59.9999981689454,2|0,0:0|0:0,0:0:0:0:
374,125,190212,5,2,0:0:0:0:
301,183,190380,2,0,P|249:201|186:162,1,119.999996337891,2|0,0:0|0:0,0:0:0:0:
117,106,190886,2,0,B|149:78|149:78|236:83,1,119.999996337891,2|2,0:0|0:0,0:0:0:0:
194,173,191392,1,0,0:0:0:0:
194,173,191476,1,0,0:0:0:0:
194,173,191560,6,0,L|276:179,1,80,0|0,1:2|0:0,0:0:0:0:
346,258,191897,2,0,P|380:187|358:112,1,160,8|2,0:0|0:2,0:0:0:0:
273,178,192403,1,0,1:0:0:0:
455,222,192571,1,8,0:0:0:0:
364,303,192740,1,0,0:0:0:0:
364,303,192824,1,0,0:0:0:0:
364,303,192908,6,0,B|324:291|324:291|283:302,1,80,2|0,1:2|0:0,0:0:0:0:
178,263,193246,1,10,0:0:0:0:
180,339,193414,2,0,B|168:299|168:299|179:258,1,80,2|0,0:0|0:0,0:0:0:0:
273,178,193751,1,2,1:0:0:0:
264,301,193920,1,10,0:0:0:0:
89,256,194088,1,2,0:0:0:0:
89,256,194173,1,2,0:0:0:0:
89,256,194257,6,0,P|72:185|115:109,1,160,2|8,1:2|0:0,0:0:0:0:
207,130,194762,2,0,P|256:131|292:111,1,80,2|0,0:0|0:0,0:0:0:0:
283,118,195015,1,0,0:0:0:0:
283,118,195099,1,0,1:0:0:0:
124,187,195268,2,0,P|109:150|110:110,1,80,8|2,0:0|0:0,0:0:0:0:
281,16,195605,6,0,P|315:88|288:165,1,160,2|8,1:2|0:0,0:0:0:0:
228,223,196111,2,0,P|194:295|221:372,1,160,2|0,0:0|1:0,0:0:0:0:
310,318,196616,1,8,0:0:0:0:
266,202,196785,1,2,0:0:0:0:
266,202,196869,1,2,0:0:0:0:
266,202,196953,6,0,B|205:180|205:180|112:210,1,160,2|8,1:2|0:0,0:0:0:0:
57,148,197459,1,0,0:0:0:0:
128,292,197628,1,2,0:0:0:0:
155,196,197796,1,2,1:2:0:0:
243,314,197965,1,10,0:0:0:0:
71,227,198133,2,0,L|80:276,1,40,2|0,0:0|0:0,0:0:0:0:
88,309,198302,5,2,1:2:0:0:
250,274,198470,2,0,L|241:323,1,40,2|0,0:0|0:0,0:0:0:0:
233,356,198639,1,10,0:0:0:0:
170,212,198807,1,0,0:0:0:0:
341,277,198976,2,0,L|324:366,1,80,2|0,0:0|1:0,0:0:0:0:
254,192,199313,2,0,L|239:113,1,80,10|0,0:0|0:0,0:0:0:0:
419,209,199650,6,0,P|383:269|300:258,1,160,2|8,1:2|0:0,0:0:0:0:
330,164,200156,1,2,0:0:0:0:
330,164,200324,1,0,0:0:0:0:
281,278,200493,1,0,1:0:0:0:
239,113,200661,1,10,0:0:0:0:
239,113,200746,1,2,0:0:0:0:
239,113,200830,1,2,0:0:0:0:
161,191,200998,6,0,B|129:239|161:287|161:287|209:239|281:279|281:279|273:367|185:359,1,375,0|0,1:0|0:0,0:0:0:0:
110,346,202347,6,0,P|65:340|27:362,1,80,4|0,1:2|0:0,0:0:0:0:
95,217,202684,2,0,P|189:189|279:226,1,200,8|2,0:0|0:0,0:0:0:0:
267,327,203189,1,2,1:2:0:0:
369,205,203358,2,0,P|377:164|364:123,1,80,8|0,0:0|0:0,0:0:0:0:
222,32,203695,6,0,P|179:93|198:175,1,160,2|8,1:2|0:0,0:0:0:0:
298,249,204201,1,0,0:0:0:0:
274,115,204369,1,2,0:0:0:0:
202,204,204538,1,2,1:2:0:0:
198,219,204622,1,0,1:0:0:0:
198,234,204706,1,8,1:2:0:0:
359,115,204875,1,0,0:0:0:0:
359,100,204959,1,0,0:0:0:0:
355,85,205043,5,2,1:2:0:0:
280,157,205212,1,0,0:0:0:0:
347,236,205380,1,8,0:0:0:0:
296,327,205549,1,0,0:0:0:0:
416,271,205717,2,0,P|423:232|412:195,1,80,2|2,0:0|1:2,0:0:0:0:
273,82,206055,1,8,0:0:0:0:
245,208,206223,6,0,L|223:296,1,89.9999972534181,0|2,0:0|1:2,0:0:0:0:
125,129,206560,1,0,0:0:0:0:
273,82,206729,2,0,L|353:57,1,80,8|0,0:0|0:0,0:0:0:0:
183,11,207066,1,2,0:0:0:0:
349,58,207234,1,2,1:2:0:0:
230,157,207403,1,8,0:0:0:0:
343,228,207571,1,0,0:0:0:0:
343,228,207656,1,0,0:0:0:0:
343,228,207740,6,0,P|401:164|355:56,1,200,2|8,1:2|0:0,0:0:0:0:
264,28,208246,1,0,0:0:0:0:
231,173,208414,1,2,0:0:0:0:
72,102,208583,2,0,L|171:107,1,100,2|8,1:2|0:0,0:0:0:0:
343,228,208920,2,0,L|298:236,1,40,0|0,0:0|0:0,0:0:0:0:
231,284,209088,6,0,P|216:248|226:193,1,80,2|0,1:2|0:0,0:0:0:0:
417,194,209425,2,0,P|424:232|413:270,1,80,8|0,0:0|0:0,0:0:0:0:
331,358,209762,2,0,L|322:256,1,100,2|2,0:0|1:2,0:0:0:0:
228,112,210099,2,0,L|220:192,1,80,8|0,0:0|0:0,0:0:0:0:
185,263,210352,1,0,0:0:0:0:
185,263,210437,6,0,P|271:223|371:258,1,200,2|8,1:2|0:0,0:0:0:0:
132,322,210942,2,0,P|103:273|141:192,1,120,0|0,0:0|0:0,0:0:0:0:
166,151,211279,2,0,B|204:159|204:159|226:149|262:142,1,100,2|8,1:2|0:0,0:0:0:0:
405,255,211616,1,0,0:0:0:0:
405,255,211701,1,0,0:0:0:0:
405,255,211785,6,0,P|370:186|429:82,1,200,2|8,1:2|0:0,0:0:0:0:
505,193,212291,2,0,L|488:359,1,160,0|2,0:0|1:2,0:0:0:0:
278,298,212796,1,8,0:0:0:0:
405,255,212965,1,2,0:0:0:0:
405,255,213049,1,2,0:0:0:0:
405,255,213133,5,6,1:2:0:0:
359,179,213302,1,0,0:0:0:0:
421,117,213470,1,8,0:0:0:0:
370,44,213639,1,0,0:0:0:0:
253,140,213807,1,2,0:0:0:0:
249,159,213892,1,0,0:0:0:0:
251,178,213976,1,2,1:2:0:0:
395,302,214144,2,0,P|411:265|400:202,1,100,8|0,0:0|0:0,0:0:0:0:
346,141,214397,1,0,0:0:0:0:
346,141,214482,6,0,B|295:138|295:138|248:174|248:174|198:171,1,160,2|8,1:2|0:0,0:0:0:0:
87,122,214987,2,0,B|36:182|74:268|74:268|108:231,1,200,0|2,0:0|1:2,0:0:0:0:
198,171,215493,1,8,0:0:0:0:
251,294,215661,1,0,0:0:0:0:
342,133,215830,5,2,1:2:0:0:
440,239,215998,2,0,P|449:200|440:161,1,80,0|8,0:0|0:0,0:0:0:0:
310,61,216335,1,0,0:0:0:0:
310,61,216420,1,0,0:0:0:0:
310,61,216504,1,2,0:0:0:0:
365,200,216673,1,2,1:2:0:0:
255,145,216841,1,8,0:0:0:0:
445,79,217010,1,2,0:0:0:0:
445,79,217178,6,0,L|438:136,2,50,2|2|2,1:2|0:0|0:0,0:0:0:0:
301,8,217515,2,0,L|312:101,1,80,8|0,0:0|0:0,0:0:0:0:
196,229,217852,1,2,0:0:0:0:
211,38,218021,1,2,1:2:0:0:
211,38,218105,1,0,1:0:0:0:
211,38,218189,2,0,L|224:142,1,100,8|0,1:2|0:0,0:0:0:0:
428,172,218526,6,0,B|406:213|406:266|406:266|426:293|431:330,1,160,6|0,1:2|0:0,0:0:0:0:
308,279,219032,2,0,B|269:262|229:267|229:267|182:296|182:296|198:315,1,160,2|0,0:0|0:0,0:0:0:0:
205,322,219453,1,0,0:0:0:0:
213,330,219538,1,0,0:0:0:0:
245,230,219706,1,2,0:0:0:0:
379,353,219875,6,0,P|409:297|366:195,1,160,2|0,0:0|0:0,0:0:0:0:
278,183,220380,2,0,B|229:181|166:200|166:200|200:151,1,160,2|0,0:0|0:0,0:0:0:0:
235,75,220886,1,2,0:0:0:0:
243,280,221055,1,2,0:0:0:0:
90,135,221223,6,0,P|29:197|101:271,1,200,6|0,1:2|0:0,0:0:0:0:
231,186,221729,2,0,P|304:214|230:262,1,200,2|2,1:2|0:0,0:0:0:0:
227,259,222150,1,2,0:0:0:0:
218,253,222234,1,2,0:0:0:0:
90,135,222403,1,2,1:2:0:0:
147,292,222571,6,0,P|147:309|143:333,2,40,2|0|2,1:2|0:0|1:2,0:0:0:0:
221,157,222908,1,2,1:2:0:0:
215,144,222993,1,2,0:0:0:0:
212,130,223077,1,2,0:0:0:0:
354,250,223246,5,8,1:2:0:0:
296,111,223414,1,2,0:0:0:0:
213,291,223583,1,8,1:2:0:0:
137,70,223751,1,2,0:0:0:0:
29,205,223920,6,0,L|133:219,1,104.999996795654,4|0,1:2|0:0,0:0:0:0:
199,276,224257,1,8,1:2:0:0:
272,147,224425,2,0,B|296:110|296:110|307:271,1,200,2|0,0:0|1:0,0:0:0:0:
192,370,224931,2,0,B|179:324|179:324|199:276,1,100,8|0,0:0|0:0,0:0:0:0:
272,147,225268,5,0,1:0:0:0:
365,323,225437,2,0,L|254:329,1,100,0|8,1:0|0:0,0:0:0:0:
133,219,225774,1,2,0:0:0:0:
312,240,225942,1,0,0:0:0:0:
158,353,226111,1,0,1:0:0:0:
112,138,226279,1,8,0:0:0:0:
217,264,226448,1,0,0:0:0:0:
217,264,226532,1,0,0:0:0:0:
217,264,226616,6,0,P|314:238|410:280,1,200,0|8,1:0|0:0,0:0:0:0:
485,198,227122,2,0,P|493:152|469:97,1,100,2|0,0:0|0:0,0:0:0:0:
362,36,227459,1,0,1:0:0:0:
269,158,227628,2,0,B|221:230|293:286|293:286|317:238,1,200,8|0,0:0|1:0,0:0:0:0:
394,160,228133,5,2,0:0:0:0:
192,145,228302,2,0,P|177:192|179:242,1,100,8|0,0:0|0:0,0:0:0:0:
386,295,228639,1,0,0:0:0:0:
285,377,228807,1,0,1:0:0:0:
285,377,228892,1,0,1:0:0:0:
285,377,228976,1,8,1:2:0:0:
207,272,229144,1,0,0:0:0:0:
70,356,229313,6,0,P|15:278|55:192,1,200,0|8,1:0|0:0,0:0:0:0:
137,224,229734,2,0,P|163:221|187:208,1,50,2|2,0:0|0:0,0:0:0:0:
183,68,229987,1,0,0:0:0:0:
0,136,230156,2,0,L|61:141,1,50,0|0,1:0|0:0,0:0:0:0:
137,149,230324,2,0,B|202:153|202:153|258:117|258:117|325:121,1,200,8|0,0:0|1:0,0:0:0:0:
289,235,230830,5,0,0:0:0:0:
172,36,230998,1,8,0:0:0:0:
90,209,231167,2,0,P|112:222|137:224,1,50,2|2,0:0|0:0,0:0:0:0:
243,162,231335,2,0,P|293:150|347:172,1,100,0|0,0:0|1:0,0:0:0:0:
427,306,231673,1,8,0:0:0:0:
289,235,231841,1,0,0:0:0:0:
404,103,232010,6,0,B|414:158|463:183|463:183|411:188|387:243,1,200,0|8,1:0|0:0,0:0:0:0:
507,88,232515,1,2,0:0:0:0:
478,280,232684,2,0,B|436:254|436:254|374:264,1,100,0|0,0:0|1:0,0:0:0:0:
245,295,233021,1,8,0:0:0:0:
390,171,233189,6,0,B|340:179|340:179|298:153,1,100,0|0,0:0|1:0,0:0:0:0:
181,86,233526,1,0,0:0:0:0:
97,243,233695,2,0,P|120:248|146:245,2,50,8|2|2,0:0|0:0|0:0,0:0:0:0:
357,251,234032,2,0,P|309:203|228:212,1,150,0|0,1:0|0:0,0:0:0:0:
146,244,234369,2,0,P|107:251|63:233,1,80,0|8,1:0|0:0,0:0:0:0:
290,83,234706,6,0,L|276:299,1,200,4|8,1:2|0:0,0:0:0:0:
110,368,235212,2,0,B|144:323|197:320|197:320|224:368|288:373,1,200,2|0,0:0|1:0,0:0:0:0:
367,358,235633,1,0,0:0:0:0:
367,358,235717,2,0,B|319:347|319:347|275:371,1,100,8|0,0:0|0:0,0:0:0:0:
186,231,236055,5,0,1:0:0:0:
329,84,236223,2,0,L|322:183,1,100,0|8,1:0|0:0,0:0:0:0:
433,294,236560,1,2,0:0:0:0:
412,139,236729,1,0,0:0:0:0:
305,271,236897,1,0,1:0:0:0:
497,248,237066,1,8,0:0:0:0:
361,77,237234,1,0,0:0:0:0:
361,77,237319,1,0,0:0:0:0:
361,77,237403,6,0,P|317:169|344:264,1,200,0|8,1:0|0:0,0:0:0:0:
408,331,237908,2,0,P|433:290|433:229,1,100,2|0,0:0|0:0,0:0:0:0:
248,90,238246,1,0,1:0:0:0:
157,219,238414,2,0,B|229:219|229:219|269:259|269:259|341:259,1,200,8|0,0:0|1:0,0:0:0:0:
309,159,238920,5,2,0:0:0:0:
189,313,239088,1,8,0:0:0:0:
97,167,239257,2,0,P|84:190|80:222,1,50,0|0,0:0|0:0,0:0:0:0:
62,318,239425,6,0,P|141:282|219:320,1,179.999994506836,0|0,1:0|0:0,0:0:0:0:
284,384,239762,2,0,P|310:334|300:272,1,119.999996337891,8|8,1:2|1:2,0:0:0:0:
293,265,240015,1,0,0:0:0:0:
285,258,240099,1,0,1:0:0:0:
77,58,240437,5,8,0:0:0:0:
49,155,240605,2,0,P|105:155|142:134,1,100,2|0,0:0|0:0,0:0:0:0:
251,5,240942,1,0,1:0:0:0:
321,85,241111,2,0,P|343:178|286:269,1,200,8|0,0:0|1:0,0:0:0:0:
180,300,241616,6,0,B|135:277|135:277|86:287,1,100,0|8,0:0|0:0,0:0:0:0:
19,177,241953,1,2,0:0:0:0:
125,366,242122,1,0,0:0:0:0:
117,186,242291,1,0,1:0:0:0:
5,313,242459,1,8,1:2:0:0:
212,280,242628,1,0,0:0:0:0:
51,142,242796,6,0,P|38:196|61:244,1,100,0|0,1:0|0:0,0:0:0:0:
197,318,243133,1,8,0:0:0:0:
207,300,243217,1,2,0:0:0:0:
212,280,243302,1,2,0:0:0:0:
167,152,243470,1,0,0:0:0:0:
102,319,243639,1,0,1:0:0:0:
39,197,243807,2,0,B|22:150|22:150|47:95,1,100,8|0,0:0|0:0,0:0:0:0:
272,194,244144,5,0,1:0:0:0:
116,154,244313,1,0,1:0:0:0:
253,292,244482,2,0,L|272:194,1,100,8|2,0:0|1:2,0:0:0:0:
148,53,244819,2,0,P|166:97|167:152,1,100,0|0,1:0|0:0,0:0:0:0:
167,149,245071,1,0,0:0:0:0:
167,149,245156,1,8,1:2:0:0:
93,276,245324,1,0,0:0:0:0:
239,318,245493,6,0,B|183:314|183:314|145:279|145:279|93:276,1,160,6|0,1:2|0:0,0:0:0:0:
224,217,245998,1,2,1:2:0:0:
237,215,246504,1,0,1:0:0:0:
268,300,246673,1,0,0:0:0:0:
145,225,246841,5,2,0:0:0:0:
176,140,247010,2,0,L|201:68,1,69.9999978637696,0|0,1:0|0:0,0:0:0:0:
51,211,247347,1,2,0:0:0:0:
82,296,247516,2,0,P|143:262|214:285,1,139.999995727539,0|0,1:0|0:0,0:0:0:0:
153,351,248021,1,0,1:0:0:0:
135,176,248189,6,0,B|122:76|122:76|160:109,1,139.999995727539,2|2,1:2|0:0,0:0:0:0:
236,156,248695,2,0,B|298:121|298:121|372:145,1,139.999995727539,2|2,1:2|0:0,0:0:0:0:
309,234,249201,2,0,P|238:243|159:238,1,139.999995727539,2|0,1:2|0:0,0:0:0:0:
80,226,249706,5,0,1:0:0:0:
68,230,250043,1,0,0:0:0:0:
100,316,250212,2,0,P|131:312|174:322,1,69.9999978637696,2|2,1:2|0:0,0:0:0:0:
266,226,250549,2,0,P|231:233|197:229,1,69.9999978637696,2|2,1:2|0:0,0:0:0:0:
94,147,250886,6,0,L|107:1,1,139.999995727539,2|0,1:2|0:0,0:0:0:0:
243,11,251392,2,0,L|230:150,1,139.999995727539,2|0,1:2|0:0,0:0:0:0:
230,150,251897,1,0,1:0:0:0:
357,147,252066,1,0,0:0:0:0:
360,272,252403,6,0,P|332:207|362:141,1,139.999995727539,0|0,1:0|0:0,0:0:0:0:
450,213,252908,2,0,L|446:286,1,69.9999978637696,2|2,1:2|0:0,0:0:0:0:
340,359,253246,2,0,L|336:289,1,69.9999978637696,2|2,1:2|0:0,0:0:0:0:
206,334,253583,6,0,B|152:318|152:318|61:342,1,139.999995727539,2|0,1:2|0:0,0:0:0:0:
209,237,254088,1,0,1:0:0:0:
114,236,254257,2,0,L|38:256,1,69.9999978637696,0|0,0:0|0:0,0:0:0:0:
214,141,254594,6,0,L|352:177,1,139.999995727539,2|0,0:0|0:0,0:0:0:0:
397,254,255099,1,0,1:0:0:0:
397,254,255268,2,0,L|468:246,1,69.9999978637696,2|0,0:0|0:0,0:0:0:0:
354,343,255605,2,0,L|283:335,1,69.9999978637696,2|0,1:2|0:0,0:0:0:0:
392,225,255942,2,0,L|463:217,1,69.9999978637696,2|0,1:2|0:0,0:0:0:0:
295,111,256279,6,0,P|256:166|291:234,1,139.999995727539,6|0,1:2|0:0,0:0:0:0:
392,225,256785,1,2,1:2:0:0:
392,225,257291,1,0,1:0:0:0:
304,247,257459,1,0,0:0:0:0:
367,143,257628,5,2,0:0:0:0:
455,165,257796,2,0,L|448:78,1,69.9999978637696,0|0,1:0|0:0,0:0:0:0:
309,34,258133,5,2,0:0:0:0:
309,34,258302,2,0,P|266:91|295:150,1,139.999995727539,0|0,1:0|0:0,0:0:0:0:
368,195,258807,1,0,1:0:0:0:
280,277,258976,6,0,B|176:273|176:273|207:243,1,139.999995727539,2|2,1:2|0:0,0:0:0:0:
334,217,259482,2,0,P|361:275|329:341,1,139.999995727539,2|2,1:2|0:0,0:0:0:0:
245,372,259987,2,0,B|195:383|159:340|101:359,1,139.999995727539,2|0,1:2|0:0,0:0:0:0:
17,371,260493,5,0,1:0:0:0:
26,363,260830,1,0,0:0:0:0:
67,282,260998,2,0,P|75:246|71:213,1,69.9999978637696,2|2,1:2|0:0,0:0:0:0:
174,267,261335,2,0,P|170:301|178:335,1,69.9999978637696,2|2,1:2|0:0,0:0:0:0:
274,294,261673,6,0,P|341:269|408:301,2,139.999995727539,2|2|2,1:2|0:0|0:0,0:0:0:0:
274,294,262515,1,0,0:0:0:0:
193,349,262684,1,2,1:2:0:0:
193,349,262852,2,0,P|172:307|197:216,1,139.999995727539,2|0,0:0|1:0,0:0:0:0:
272,175,263358,1,0,0:0:0:0:
60,46,263695,6,0,B|80:76|80:76|75:117,1,69.9999978637696,2|2,1:2|0:0,0:0:0:0:
144,210,264032,2,0,B|139:176|139:176|159:146,1,69.9999978637696,2|2,1:2|0:0,0:0:0:0:
227,84,264369,2,0,B|266:93|299:77|299:77|274:108|274:148,1,139.999995727539,2|0,1:2|0:0,0:0:0:0:
365,146,264875,1,0,1:0:0:0:
286,228,265043,2,0,P|274:194|273:157,1,69.9999978637696,2|0,0:0|0:0,0:0:0:0:
456,130,265380,2,0,P|454:164|442:197,1,69.9999978637696,2|2,0:0|0:0,0:0:0:0:
191,355,265886,6,0,P|165:293|197:220,1,139.999995727539,2|0,1:2|0:0,0:0:0:0:
379,262,266392,1,0,1:2:0:0:
262,290,266560,1,2,0:0:0:0:
202,200,266729,1,0,1:2:0:0:
85,172,266897,1,2,0:0:0:0:
9,278,267066,5,4,1:0:0:0:
256,192,267150,12,0,272459,1:0:0:0:
27,283,277852,5,4,1:0:0:0:
256,192,277937,12,0,283246,1:0:0:0:
256,192,283330,12,0,286953,0:0:0:0:
188,344,287291,6,0,B|220:357|220:357|256:350,1,69.9999978637696,2|0,1:2|1:0,1:2:0:0:
357,231,287628,5,8,1:2:0:0:
226,263,287796,1,0,1:0:0:0:
384,225,287965,5,12,1:0:0:0:
236,178,288133,1,0,1:0:0:0:
447,285,288302,6,0,P|479:202|457:117,1,179.999994506836,12|0,1:2|0:0,0:0:0:0:
394,64,288639,6,0,B|368:65|368:65|354:57|354:57|323:80|323:80|307:70|307:70|283:73,1,119.999996337891,4|0,1:0|0:0,0:0:0:0:
226,263,288976,1,2,1:2:0:0:
226,263,289144,2,0,B|190:246|190:246|143:266|143:266|106:251,1,119.999996337891,2|0,1:2|0:0,0:0:0:0:
22,196,289482,2,0,P|138:185|225:262,1,239.999992675781,2|0,1:2|0:0,0:0:0:0:
131,330,289987,6,0,B|40:314|40:314|63:299,1,119.999996337891,0|2,1:0|3:0,0:0:0:0:
225,262,290324,1,0,1:0:0:0:
225,262,290493,2,0,B|316:278|316:278|293:294,1,119.999996337891,2|0,1:2|3:0,0:0:0:0:
396,155,290830,5,0,1:0:0:0:
396,155,290998,2,0,B|394:195|370:212|370:212|391:227|400:258,1,119.999996337891,2|0,1:2|3:0,0:0:0:0:
313,147,291335,5,0,1:0:0:0:
313,147,291504,2,0,B|256:124|256:124|203:149,1,119.999996337891,2|0,1:2|3:0,0:0:0:0:
183,295,291841,5,0,1:0:0:0:
183,295,292010,2,0,B|240:318|240:318|292:292,1,119.999996337891,2|0,1:2|3:0,0:0:0:0:
388,194,292347,5,0,1:0:0:0:
388,194,292516,2,0,B|343:148|364:74|364:74|298:40|241:81|241:81|262:149|228:188|228:188|198:140,1,419.999987182618,2|2,1:2|0:0,0:0:0:0:
135,303,293695,1,2,1:2:0:0:
109,279,293779,1,2,1:2:0:0:
94,248,293863,1,2,1:2:0:0:
92,213,293947,1,2,1:2:0:0:
104,181,294032,6,0,B|160:165|160:165|216:213|232:301|232:301|256:181|296:117|296:117|328:165|343:243|343:243|400:191|400:191|425:220|488:219,1,700,2|2,1:2|1:2,0:0:0:0:
340,262,298414,6,0,P|289:212|209:232,1,150,2|0,1:2|0:0,0:0:0:0:
217,224,298751,2,0,P|268:274|348:254,1,150,2|0,1:2|0:0,0:0:0:0:
339,261,299088,2,0,P|370:197|327:127,1,150,2|0,1:2|0:0,0:0:0:0:
264,96,299425,6,0,B|228:88|228:88|205:108|170:113|170:113|181:95,1,119.999996337891,0|2,1:0|0:0,0:0:0:0:
343,48,299762,1,2,1:2:0:0:
405,190,299931,2,0,B|372:190|350:174|350:174|330:196|295:198,1,119.999996337891,2|0,1:2|0:0,0:0:0:0:
193,143,300268,2,0,P|289:76|402:106,1,239.999992675781,2|0,1:2|0:0,0:0:0:0:
469,254,300774,6,0,P|417:281|360:268,1,119.999996337891,0|0,1:0|3:0,0:0:0:0:
148,218,301110,1,0,1:0:0:0:
148,218,301279,2,0,P|199:191|256:203,1,119.999996337891,2|0,1:2|3:0,0:0:0:0:
295,350,301616,5,0,1:0:0:0:
295,350,301785,2,0,B|278:321|284:292|284:292|256:302|227:289,1,119.999996337891,2|0,1:2|3:0,0:0:0:0:
471,346,302122,5,0,1:0:0:0:
471,346,302291,2,0,B|437:300|437:300|375:308,1,119.999996337891,2|0,1:2|3:0,0:0:0:0:
317,167,302628,5,0,1:0:0:0:
317,167,302796,2,0,B|351:213|351:213|413:205,1,119.999996337891,2|0,1:2|3:0,0:0:0:0:
260,82,303132,5,0,1:0:0:0:
260,82,303302,2,0,B|204:132|200:214|266:263|266:263|206:215|134:235,1,349.999989318848,2|2,1:2|0:0,0:0:0:0:
317,167,304482,1,2,1:2:0:0:
351,172,304566,1,2,1:2:0:0:
386,177,304650,1,2,1:2:0:0:
420,182,304734,1,2,1:2:0:0:
455,187,304819,6,0,B|479:244|479:244|450:297,1,119.999996337891,0|2,1:2|0:0,0:0:0:0:
247,307,305156,2,0,B|219:255|219:255|243:198,1,119.999996337891,2|2,1:2|0:0,0:0:0:0:
346,93,305493,2,0,L|348:214,1,119.999996337891,2|2,1:2|0:0,0:0:0:0:
294,370,305830,6,0,P|193:250|192:363,1,359.999989013672,2|2,1:2|1:2,0:0:0:0:
247,307,307010,1,2,1:2:0:0:
186,239,307178,1,2,1:2:0:0:
175,161,307347,1,2,1:2:0:0:
216,95,307515,6,0,B|301:61|399:121|399:121|370:170|379:228|379:228|324:180|274:166|207:198,1,479.999985351563,2|2,1:2|1:2,0:0:0:0:
216,193,309538,2,0,L|211:249,1,44.999998626709,2|2,1:2|0:0,0:0:0:0:
298,194,309706,2,0,L|302:250,1,44.999998626709,2|2,1:2|0:0,0:0:0:0:
378,180,309875,2,0,L|392:234,1,44.999998626709,2|2,1:2|0:0,0:0:0:0:
454,152,310043,1,2,1:2:0:0:
454,152,310128,1,2,0:0:0:0:
454,152,310212,6,0,B|486:237|486:237|475:269,1,119.999996337891,4|0,1:2|0:0,0:0:0:0:
421,351,310549,1,2,1:2:0:0:
388,272,310717,1,2,1:2:0:0:
327,331,310886,1,0,0:0:0:0:
274,250,311055,6,0,B|248:202|261:148|304:131|304:131|323:199,1,200,0|0,1:2|0:0,0:0:0:0:
214,323,311560,6,0,P|269:344|327:331,1,119.999996337891,2|0,1:2|3:0,0:0:0:0:
414,109,311897,1,0,1:0:0:0:
476,199,312066,2,0,P|488:252|457:314,1,119.999996337891,2|0,1:2|3:0,0:0:0:0:
274,250,312403,5,0,1:0:0:0:
394,247,312571,2,0,L|268:251,1,119.999996337891,2|0,1:2|3:0,0:0:0:0:
160,347,312908,5,0,1:0:0:0:
280,351,313077,2,0,L|154:347,1,119.999996337891,2|0,1:2|3:0,0:0:0:0:
43,193,313414,5,0,1:0:0:0:
139,175,313583,2,0,B|180:165|180:165|220:184|220:184|259:176,1,119.999996337891,2|0,1:2|3:0,0:0:0:0:
23,197,313920,1,0,1:0:0:0:
0,293,314088,1,2,1:2:0:0:
87,341,314257,6,0,P|141:252|83:94,1,279.999991455078,2|2,1:2|1:2,0:0:0:0:
85,96,315268,1,2,1:2:0:0:
125,115,315352,1,2,1:2:0:0:
170,122,315437,1,2,1:2:0:0:
215,121,315521,1,2,1:2:0:0:
258,109,315605,6,0,B|225:156|229:197|229:197|267:239|313:243|313:243|312:302|279:358|279:358|195:271|101:298|101:298|141:208|99:171|99:171|75:233,1,700,2|2,1:2|1:2,0:0:0:0:
315,165,318302,5,0,1:0:0:0:
369,247,318470,2,0,L|300:257,1,69.9999978637696,2|2,1:0|1:0,0:0:0:0:
170,158,318807,1,0,0:0:0:0:
127,239,318976,2,0,L|135:308,1,69.9999978637696,2|0,1:0|1:0,0:0:0:0:
273,342,319313,1,2,1:0:0:0:
300,257,319482,2,0,B|305:222|305:222|286:180,1,69.9999978637696,2|0,1:0|1:0,0:0:0:0:
70,169,319987,6,0,L|178:156,1,100,0|0,1:0|0:0,0:0:0:0:
199,183,320240,1,0,0:0:0:0:
199,183,320324,2,0,L|299:195,1,100,0|0,1:0|1:0,0:0:0:0:
337,203,320577,1,0,0:0:0:0:
337,203,320661,1,0,1:0:0:0:
408,108,320830,1,0,0:0:0:0:
382,302,320998,6,0,L|282:290,1,100,0|0,1:0|0:0,0:0:0:0:
153,324,321335,1,2,1:2:0:0:
282,290,321504,2,0,B|291:240|291:240|257:185,1,100,2|0,1:2|0:0,0:0:0:0:
146,83,321841,2,0,B|78:163|78:163|123:262,1,200,2|0,1:2|0:0,0:0:0:0:
283,185,322347,6,0,L|184:178,1,100,2|0,1:2|3:0,0:0:0:0:
184,178,322684,1,0,1:0:0:0:
345,135,322852,2,0,P|363:190|351:229,1,100,2|0,1:2|3:0,0:0:0:0:
167,300,323189,5,0,1:0:0:0:
110,213,323358,2,0,P|103:164|125:120,1,100,2|0,1:2|3:0,0:0:0:0:
283,185,323695,5,0,1:0:0:0:
383,174,323864,2,0,L|482:164,1,100,2|0,1:2|3:0,0:0:0:0:
366,321,324201,5,0,1:0:0:0:
266,310,324370,2,0,L|167:300,1,100,2|0,1:2|3:0,0:0:0:0:
365,91,324706,1,0,1:0:0:0:
365,91,324875,1,2,1:2:0:0:
278,228,325043,5,2,1:2:0:0:
238,223,325127,1,2,1:2:0:0:
198,219,325211,1,2,1:2:0:0:
158,215,325295,1,2,1:2:0:0:
118,211,325380,2,0,B|108:82|108:82|68:152,1,200,2|0,1:2|1:0,0:0:0:0:
73,142,325886,1,2,1:2:0:0:
222,129,326055,2,0,L|374:115,1,150,2|0,0:0|0:0,0:0:0:0:
447,150,326392,6,0,P|487:214|465:290,1,160,0|0,1:0|0:0,0:0:0:0:
372,369,326897,2,0,P|349:294|390:228,1,160,2|0,0:0|1:0,0:0:0:0:
346,133,327403,1,2,1:2:0:0:
269,203,327571,1,2,0:0:0:0:
203,121,327740,2,0,L|211:36,2,80,0|2|2,1:0|0:0|0:0,0:0:0:0:
90,285,328414,5,2,1:2:0:0:
72,182,328583,1,2,1:2:0:0:
203,121,328751,1,2,1:2:0:0:
185,224,328920,1,2,1:2:0:0:
284,290,329088,6,0,L|366:282,1,80,2|2,1:2|0:0,0:0:0:0:
459,169,329425,2,0,P|383:185|318:133,1,160,2|2,1:2|1:2,0:0:0:0:
403,94,329931,1,0,1:0:0:0:
363,282,330099,2,0,B|323:268|323:268|284:275,1,80,2|0,1:2|0:0,0:0:0:0:
127,318,330437,5,0,1:0:0:0:
185,253,330605,2,0,P|200:176|148:117,1,160,2|0,1:2|0:0,0:0:0:0:
19,209,331111,1,2,1:2:0:0:
14,224,331195,1,2,1:2:0:0:
11,239,331279,1,2,1:2:0:0:
8,254,331364,1,2,1:2:0:0:
19,293,331448,5,2,1:2:0:0:
53,281,331532,1,2,1:2:0:0:
88,280,331616,1,2,1:2:0:0:
123,284,331701,1,2,1:2:0:0:
157,294,331785,1,4,1:2:0:0:
310,53,332122,5,2,0:0:0:0:
272,123,332291,1,2,1:2:0:0:
328,192,332459,2,0,P|344:243|320:313,1,120,2|0,1:2|0:0,0:0:0:0:
325,305,332796,2,0,L|410:300,1,80,2|0,1:2|0:0,0:0:0:0:
246,247,333133,5,2,0:0:0:0:
246,247,333302,1,0,1:0:0:0:
187,301,333470,2,0,P|146:302|102:295,1,80,2|0,1:2|0:0,0:0:0:0:
211,169,333807,2,0,B|288:163|335:182|335:182|320:224,1,160,2|2,1:2|0:2,0:0:0:0:
294,291,334313,1,0,1:0:0:0:
101,314,334482,6,0,B|141:291|153:254|153:254|191:289|210:316,1,160,2|0,1:2|0:0,0:0:0:0:
63,228,334987,1,0,1:2:0:0:
63,228,335156,2,0,P|56:147|112:67,1,160,2|2,1:2|0:0,0:0:0:0:
211,169,335661,6,0,P|237:243|214:323,1,160,2|0,1:2|0:0,0:0:0:0:
127,277,336167,1,0,1:2:0:0:
294,353,336504,2,0,P|299:313|287:275,1,80,2|0,1:2|0:0,0:0:0:0:
127,277,336841,2,0,P|116:314|121:354,1,80,0|0,1:2|0:0,0:0:0:0:
209,320,337178,5,2,1:3:0:0:
209,320,337347,2,0,L|206:240,1,80,0|2,0:0|0:0,0:0:0:0:
327,153,337684,1,2,1:2:0:0:
325,233,337852,2,0,L|327:153,1,80,2|0,1:2|0:0,0:0:0:0:
429,279,338189,1,2,0:0:0:0:
429,279,338358,1,2,1:2:0:0:
473,202,338526,6,0,B|483:164|483:164|465:113,1,80,2|2,1:2|0:0,0:0:0:0:
439,114,338779,1,2,0:0:0:0:
439,114,338864,2,0,L|359:121,1,80,2|0,0:0|0:0,0:0:0:0:
325,233,339201,2,0,L|242:225,1,80,2|2,1:2|0:0,0:0:0:0:
114,151,339538,1,2,0:0:0:0:
145,224,339706,1,0,1:0:0:0:
119,300,339875,6,0,P|163:260|280:362,1,240,2|2,1:3|0:0,0:0:0:0:
196,340,340549,2,0,L|27:323,1,160,0|2,1:0|0:0,0:0:0:0:
42,338,341055,1,0,1:0:0:0:
188,322,341223,5,2,0:0:0:0:
141,241,341392,2,0,P|133:170|188:103,1,160,2|0,1:2|0:0,0:0:0:0:
231,194,341897,2,0,L|319:188,1,80,2|2,1:2|1:2,0:0:0:0:
430,216,342234,1,2,0:0:0:0:
432,196,342319,1,2,0:0:0:0:
430,176,342403,1,2,0:0:0:0:
425,157,342487,1,0,0:0:0:0:
417,139,342571,5,4,1:0:0:0:
417,139,343920,5,0,1:0:0:0:
417,139,345268,5,0,1:0:0:0:
417,139,346616,5,0,1:0:0:0:
132,293,347965,5,4,1:2:0:0:
336,253,348302,5,0,1:0:0:0:
132,213,348639,5,0,1:0:0:0:
336,173,348976,5,0,1:0:0:0:
248,356,349313,5,4,1:2:0:0:
61,263,349650,5,0,1:0:0:0:
264,356,349987,5,0,1:2:0:0:
451,263,350324,5,0,1:0:0:0:
256,170,350661,5,4,1:2:0:0:
367,342,350830,1,0,1:0:0:0:
341,145,350998,5,0,1:2:0:0:
288,378,351167,1,0,1:0:0:0:
149,243,351335,5,4,1:2:0:0:
430,296,351504,1,0,1:0:0:0:
384,82,351673,5,0,1:0:0:0:
98,136,351841,1,0,1:0:0:0:
405,220,352010,5,4,1:2:0:0:
372,235,352094,1,0,1:0:0:0:
336,240,352178,1,0,1:0:0:0:
300,234,352262,1,0,1:0:0:0:
265,222,352347,1,0,1:0:0:0:
229,216,352431,1,0,1:0:0:0:
193,216,352515,1,0,1:0:0:0:
159,227,352599,1,0,1:0:0:0:
131,250,352684,6,0,P|125:218|121:183,1,59.9999981689454,4|0,1:2|1:0,0:0:0:0:
250,82,352852,2,0,P|256:113|258:141,1,59.9999981689454,0|0,1:0|1:0,0:0:0:0:
352,287,353021,1,0,1:0:0:0:
372,235,353105,1,0,1:0:0:0:
377,181,353189,1,0,1:0:0:0:
370,126,353274,1,0,1:0:0:0:
321,61,353358,6,0,B|240:72|168:-3|107:78|107:78|168:72|210:87|267:118|286:173|294:226|294:226|267:248|232:264|232:264|92:320|35:241|57:152|113:103|231:130|233:230|225:311|157:364|157:364|62:365|15:304|-1:274|-8:231|-10:187|10:146|48:110,1,1418.24997457209,0|0,1:0|1:0,0:0:0:0:
398,197,358751,6,0,B|376:269|414:335|414:335|391:297|344:295,1,209.999993591309,6|0,1:2|0:0,0:0:0:0:
275,333,359088,2,0,P|243:339|203:346,1,59.9999981689454,10|0,0:1|0:0,0:0:0:0:
115,236,359256,2,0,P|144:231|173:224,1,59.9999981689454,2|0,0:0|0:0,0:0:0:0:
357,120,359425,2,0,B|410:107|410:107|459:133,1,110.000003356934,2|0,0:0|1:0,0:0:0:0:
161,41,359762,6,0,B|93:24|93:24|30:57,1,139.999995727539,10|0,0:1|0:0,0:0:0:0:
75,136,360015,1,0,0:0:0:0:
86,161,360099,6,0,B|134:288|134:288|104:311|102:353,1,209.999993591309,2|0,1:0|0:0,0:0:0:0:
184,352,360436,2,0,L|238:361,1,55.0000016784668,10|0,0:1|0:0,0:0:0:0:
316,218,360604,2,0,L|370:208,1,55.0000016784668,2|0,0:0|0:0,0:0:0:0:
500,341,360773,6,0,P|469:381|406:331,1,139.999995727539,2|0,0:0|1:0,0:0:0:0:
409,298,361026,1,0,0:0:0:0:
409,298,361110,1,10,0:1:0:0:
483,106,361279,1,0,0:0:0:0:
300,306,361447,6,0,B|265:336|265:336|173:355|131:254,1,209.999993591309,2|0,1:0|0:0,0:0:0:0:
181,178,361784,2,0,B|211:172|211:172|217:176|217:176|248:171,1,69.9999978637696,10|0,0:1|0:0,0:0:0:0:
406,207,361953,1,2,0:0:0:0:
418,172,362037,1,0,0:0:0:0:
417,138,362121,1,0,0:0:0:0:
401,109,362205,1,0,0:0:0:0:
374,89,362289,1,2,1:0:0:0:
77,194,362458,2,0,P|61:216|44:244,2,55.0000016784668,10|2|0,0:1|0:0|0:0,0:0:0:0:
310,22,362795,5,0,1:0:0:0:
292,43,362879,1,2,0:0:0:0:
282,68,362963,1,2,0:0:0:0:
280,95,363047,1,0,0:0:0:0:
219,158,363133,5,0,1:0:0:0:
202,137,363217,1,2,0:0:0:0:
194,111,363301,1,2,0:0:0:0:
194,84,363385,1,0,0:0:0:0:
155,59,363470,6,0,B|122:76|122:76|88:68,1,69.9999978637696,0|0,1:0|0:0,0:0:0:0:
65,241,363638,2,0,B|97:233|97:233|130:251,1,69.9999978637696,0|0,1:0|1:0,0:0:0:0:
404,198,363807,1,2,3:2:0:0:
355,173,363891,1,2,3:2:0:0:
302,188,363975,1,2,3:2:0:0:
273,235,364059,1,2,3:2:0:0:
284,288,364144,6,0,B|315:346|315:346|270:317|220:322,1,165.000005035401,2|0,3:2|0:0,0:0:0:0:
189,334,364481,5,4,1:2:0:0:
302,98,364649,1,0,1:0:0:0:
90,287,364818,2,0,P|113:271|129:248,1,55.0000016784668,6|0,0:0|0:0,0:0:0:0:
142,156,364986,2,0,P|125:132|102:117,1,55.0000016784668,0|0,1:0|0:0,0:0:0:0:
156,36,365155,2,0,P|229:67|363:34,1,209.999993591309,8|0,0:1|0:0,0:0:0:0:
512,162,365492,6,0,B|480:130|480:130|401:122|401:122|314:180,1,220.000006713867,6|8,1:2|0:1,0:0:0:0:
189,334,365998,2,0,B|157:359|114:357|114:357|95:318|46:303,1,165.000005035401,2|0,0:0|0:0,0:0:0:0:
18,299,366335,1,0,1:0:0:0:
281,361,366503,1,10,0:1:0:0:
217,162,366672,1,0,0:0:0:0:
18,299,366840,6,0,B|114:281|114:281|78:266,1,129.999994049073,10|0,0:1|1:0,0:0:0:0:
433,99,367177,2,0,B|337:81|337:81|373:66,1,129.999994049073,10|0,0:1|1:0,0:0:0:0:
257,93,367430,1,2,0:0:0:0:
241,104,367515,2,0,P|221:131|218:170,1,64.9999970245363,8|0,1:0|0:0,0:0:0:0:
293,328,367683,2,0,B|380:369|464:326|464:326|428:321,1,209.999993591309,2|0,1:2|0:0,0:0:0:0:
461,242,368020,1,8,1:0:0:0:
443,208,368104,1,2,1:2:0:0:
451,170,368189,5,2,1:2:0:0:
251,32,368357,1,0,1:0:0:0:
259,70,368442,1,2,1:2:0:0:
241,104,368526,1,8,1:0:0:0:
84,268,368694,1,2,1:2:0:0:
0,120,368863,5,6,1:2:0:0:
36,108,368947,1,2,0:0:0:0:
79,110,369031,1,2,0:0:0:0:
119,128,369116,1,2,0:0:0:0:
155,161,369200,1,6,1:2:0:0:
188,196,369284,1,2,0:0:0:0:
241,208,369368,1,10,1:0:0:0:
295,198,369453,1,2,0:0:0:0:
331,155,369537,6,0,B|361:103|342:37|342:37|361:77|407:95,1,209.999993591309,6|0,1:2|0:0,0:0:0:0:
497,114,369874,2,0,P|464:109|429:103,1,59.9999981689454,10|0,0:1|0:0,0:0:0:0:
315,249,370043,2,0,P|344:244|374:239,1,59.9999981689454,2|0,0:0|0:0,0:0:0:0:
496,355,370211,2,0,B|473:375|473:375|394:363,1,110.000003356934,2|0,0:0|1:0,0:0:0:0:
84,268,370548,6,0,B|112:293|112:293|213:279,1,139.999995727539,10|0,0:1|0:0,0:0:0:0:
330,265,370801,1,0,0:0:0:0:
315,249,370885,6,0,P|293:166|369:79,1,209.999993591309,2|0,1:0|0:0,0:0:0:0:
447,116,371222,2,0,P|429:141|402:156,1,59.9999981689454,10|0,0:1|0:0,0:0:0:0:
253,176,371391,2,0,P|222:172|195:157,1,59.9999981689454,2|0,0:0|0:0,0:0:0:0:
85,38,371559,6,0,P|151:15|216:37,1,139.999995727539,2|0,0:0|1:0,0:0:0:0:
243,68,371812,1,0,0:0:0:0:
243,68,371897,1,10,0:1:0:0:
213,279,372065,1,0,0:0:0:0:
330,51,372234,6,0,B|361:17|361:17|453:-4|508:65,1,209.999993591309,2|0,1:0|0:0,0:0:0:0:
512,157,372571,2,0,B|504:214|504:214|493:194,1,69.9999978637696,10|0,0:1|0:0,0:0:0:0:
424,299,372739,1,0,0:0:0:0:
388,321,372823,1,0,0:0:0:0:
347,327,372907,1,0,0:0:0:0:
307,316,372991,1,0,0:0:0:0:
274,288,373076,1,2,1:0:0:0:
194,86,373245,2,0,P|201:61|215:35,2,55.0000016784668,10|2|0,0:1|0:0|0:0,0:0:0:0:
54,280,373582,6,0,L|114:272,1,59.9999981689454,0|2,1:0|0:0,0:0:0:0:
211,261,373751,1,0,0:0:0:0:
222,260,373835,1,0,0:0:0:0:
233,258,373919,2,0,L|307:248,1,75.0000028610231,10|0,0:1|0:0,0:0:0:0:
395,356,374088,5,0,1:0:0:0:
366,353,374172,2,0,L|291:343,1,75.0000028610231,0|0,1:0|0:0,0:0:0:0:
260,167,374340,1,0,1:0:0:0:
290,163,374424,2,0,L|364:153,1,75.0000028610231,0|0,1:0|0:0,0:0:0:0:
504,41,374593,1,2,3:2:0:0:
448,34,374677,1,2,3:2:0:0:
392,27,374761,1,2,3:2:0:0:
337,20,374845,1,2,3:2:0:0:
281,13,374930,6,0,B|251:40|251:40|198:16|198:16|134:38,1,150,2|0,3:2|0:0,0:0:0:0:
121,44,375267,5,4,1:2:0:0:
339,246,375436,1,0,1:0:0:0:
193,109,375604,2,0,B|198:140|198:140|185:166,1,59.9999981689454,6|0,0:0|0:0,0:0:0:0:
105,274,375773,2,0,B|90:300|90:300|93:332,1,59.9999981689454,0|0,1:0|0:0,0:0:0:0:
266,353,375942,2,0,B|289:319|289:319|230:282|171:321|171:321|203:353,1,209.999993591309,8|0,0:1|0:0,0:0:0:0:
355,369,376279,6,0,P|392:274|343:167,1,220.000006713867,6|8,1:2|0:1,0:0:0:0:
69,108,376784,2,0,P|40:180|78:261,1,165.000005035401,2|0,0:0|0:0,0:0:0:0:
101,274,377121,1,0,1:0:0:0:
433,214,377290,2,0,P|455:162|435:110,1,110.000003356934,10|0,0:1|0:0,0:0:0:0:
152,54,377627,6,0,B|170:156|170:156|147:129,1,129.999994049073,10|0,0:1|1:0,0:0:0:0:
371,377,377964,2,0,B|389:275|389:275|366:302,1,129.999994049073,10|0,0:1|1:0,0:0:0:0:
433,214,378217,1,0,1:0:0:0:
416,203,378301,2,0,P|378:198|346:211,1,64.9999970245363,8|0,1:0|0:0,0:0:0:0:
207,348,378470,1,2,1:2:0:0:
337,120,378638,1,0,1:0:0:0:
229,357,378807,1,8,1:0:0:0:
345,37,378975,6,0,P|310:38|278:54,1,69.9999978637696,2|2,1:2|0:0,0:0:0:0:
172,156,379144,2,0,P|160:189|166:224,1,69.9999978637696,0|2,1:0|0:0,0:0:0:0:
251,357,379312,5,8,1:0:0:0:
34,374,379481,1,2,1:2:0:0:
62,158,379649,5,6,1:2:0:0:
90,129,379734,1,2,3:2:0:0:
125,105,379818,1,2,3:2:0:0:
165,83,379902,1,2,3:2:0:0:
208,65,379986,1,2,3:2:0:0:
254,50,380071,1,2,3:2:0:0:
305,42,380155,1,8,3:1:0:0:
357,38,380239,1,2,3:2:0:0:
414,46,380324,6,0,B|475:73|509:121|509:121|494:181|438:226,1,239.999992675781,4|8,1:2|0:0,0:0:0:0:
284,144,380829,2,0,B|325:134|325:134|362:148|362:148|399:138,1,119.999996337891,0|2,0:0|0:0,0:0:0:0:
278,281,381166,2,0,B|236:270|236:270|200:285|200:285|163:274,1,119.999996337891,2|8,1:2|0:0,0:0:0:0:
61,305,381503,1,0,0:0:0:0:
278,192,381672,5,0,1:0:0:0:
278,192,381840,2,0,L|207:174,1,59.9999981689454,0|0,3:0|0:0,0:0:0:0:
135,154,382008,1,8,0:0:0:0:
250,83,382177,5,0,1:0:0:0:
250,83,382346,2,0,L|321:101,1,59.9999981689454,0|0,3:0|0:0,0:0:0:0:
393,121,382514,1,8,0:0:0:0:
406,248,382683,5,0,1:0:0:0:
406,248,382852,2,0,L|335:266,1,59.9999981689454,0|0,3:0|0:0,0:0:0:0:
263,286,383020,1,8,0:0:0:0:
369,353,383189,5,0,1:0:0:0:
369,353,383358,2,0,L|440:335,1,59.9999981689454,0|0,3:0|0:0,0:0:0:0:
512,315,383526,1,8,0:0:0:0:
397,214,383694,5,0,1:0:0:0:
397,214,383863,2,0,L|326:232,1,59.9999981689454,0|0,3:0|0:0,0:0:0:0:
254,252,384031,1,8,0:0:0:0:
99,127,384200,6,0,B|273:110|273:110|210:83,1,239.999992675781,4|2,1:2|1:2,0:0:0:0:
33,184,384706,2,0,P|13:131|36:67,1,119.999996337891,8|0,0:0|0:0,0:0:0:0:
280,117,385043,1,0,0:0:0:0:
143,288,385211,1,0,1:0:0:0:
137,246,385295,1,0,1:0:0:0:
132,203,385380,2,0,L|197:197,1,59.9999981689454,10|2,0:0|0:0,0:0:0:0:
375,220,385548,2,0,L|315:225,1,59.9999981689454,2|2,0:0|0:0,0:0:0:0:
272,131,385717,5,0,0:0:0:0:
272,131,385801,1,0,0:0:0:0:
272,131,385885,1,2,1:2:0:0:
354,311,386054,1,8,0:0:0:0:
266,150,386222,1,0,0:0:0:0:
217,329,386391,5,0,1:0:0:0:
420,191,386559,1,0,1:0:0:0:
216,234,386728,1,10,0:0:0:0:
256,243,386812,1,2,0:0:0:0:
289,269,386896,1,2,0:0:0:0:
307,306,386980,1,2,0:0:0:0:
308,348,387065,6,0,B|179:335|179:335|133:358,1,179.999994506836,0|0,1:0|0:0,0:0:0:0:
217,226,387402,2,0,L|336:238,1,119.999996337891,8|0,0:0|0:0,0:0:0:0:
336,238,387739,1,2,0:0:0:0:
122,254,387908,1,2,1:2:0:0:
353,136,388076,2,0,L|233:123,1,119.999996337891,8|0,0:0|0:0,0:0:0:0:
158,116,388329,1,0,0:0:0:0:
158,116,388413,5,0,1:0:0:0:
296,248,388582,1,0,0:0:0:0:
236,30,388751,1,8,0:0:0:0:
131,197,388919,1,0,0:0:0:0:
172,194,389003,1,0,0:0:0:0:
214,191,389088,5,2,0:0:0:0:
354,182,389256,1,2,1:2:0:0:
281,141,389425,1,10,0:0:0:0:
421,132,389593,1,0,0:0:0:0:
421,132,389677,1,0,0:0:0:0:
421,132,389762,6,0,P|386:198|420:299,1,179.999994506836,0|0,1:0|0:0,0:0:0:0:
415,294,390099,6,0,B|272:274|272:274|293:313,1,179.999994506836,8|0,0:0|0:0,0:0:0:0:
93,249,390436,2,0,B|206:233|206:233|189:263,1,150,4|0,1:2|0:0,0:0:0:0:
276,182,390773,1,4,1:2:0:0:
177,373,390942,1,8,1:2:0:0:
33,169,391110,6,0,L|152:153,1,119.999996337891,4|0,1:2|0:0,0:0:0:0:
374,188,391447,1,8,0:0:0:0:
151,153,391616,2,0,B|251:166|251:166|230:146,1,119.999996337891,2|0,0:0|0:0,0:0:0:0:
241,340,391953,2,0,B|140:326|140:326|162:347,1,119.999996337891,2|8,1:2|0:0,0:0:0:0:
339,282,392290,1,0,0:0:0:0:
107,345,392458,5,4,1:2:0:0:
195,159,392627,2,0,L|203:220,1,59.9999981689454,0|0,3:0|0:0,0:0:0:0:
213,305,392795,1,8,0:0:0:0:
340,163,392964,5,4,1:2:0:0:
154,75,393133,2,0,L|215:67,1,59.9999981689454,0|0,3:0|0:0,0:0:0:0:
300,57,393301,1,8,0:0:0:0:
480,229,393470,5,4,1:2:0:0:
392,43,393639,2,0,L|384:104,1,59.9999981689454,0|0,3:0|0:0,0:0:0:0:
374,189,393807,1,8,0:0:0:0:
180,229,393975,5,4,1:2:0:0:
268,43,394144,2,0,L|276:104,1,59.9999981689454,0|0,3:0|0:0,0:0:0:0:
286,189,394312,1,8,0:0:0:0:
220,335,394481,5,4,1:2:0:0:
34,247,394649,2,0,L|95:239,1,59.9999981689454,0|0,3:0|0:0,0:0:0:0:
180,229,394818,1,8,0:0:0:0:
137,79,394986,5,4,1:2:0:0:
286,162,395155,1,2,0:0:0:0:
286,162,395239,1,2,0:0:0:0:
286,162,395324,2,0,L|359:149,1,59.9999981689454,2|0,1:2|0:0,0:0:0:0:
431,132,395492,6,0,B|469:149|472:196|472:196|423:218|421:276,1,179.999994506836,8|0,0:0|0:0,0:0:0:0:
505,273,395829,1,4,1:2:0:0:
289,237,395998,1,4,1:2:0:0:
505,273,396166,2,0,P|424:264|357:334,1,179.999994506836,10|2,0:0|0:0,0:0:0:0:
287,383,396503,6,0,B|268:317|170:296|132:350|132:350|161:338|200:352,1,239.999992675781,4|8,1:2|0:0,0:0:0:0:
358,329,397009,2,0,B|421:244|330:169|330:169|299:231,1,239.999992675781,0|0,0:0|1:0,0:0:0:0:
206,309,397515,2,0,B|155:281|155:281|95:293,1,119.999996337891,10|2,0:0|0:0,0:0:0:0:
3,159,397852,6,0,B|176:122|176:122|237:155,1,239.999992675781,0|8,1:0|0:0,0:0:0:0:
152,252,398357,1,0,0:0:0:0:
192,29,398526,1,2,0:0:0:0:
248,179,398694,1,2,1:2:0:0:
89,152,398863,1,8,0:0:0:0:
277,83,399031,1,0,0:0:0:0:
353,272,399200,6,0,L|227:259,1,119.999996337891,4|0,1:2|0:0,0:0:0:0:
89,152,399537,2,0,L|208:139,1,119.999996337891,8|0,0:0|0:0,0:0:0:0:
344,32,399874,2,0,B|365:88|365:88|336:148,1,119.999996337891,2|2,0:0|1:2,0:0:0:0:
152,252,400211,2,0,B|125:197|125:197|146:141,1,119.999996337891,8|0,0:0|0:0,0:0:0:0:
209,9,400548,5,0,1:0:0:0:
231,193,400717,1,0,1:0:0:0:
117,33,400885,5,8,1:2:0:0:
152,252,401054,1,0,1:0:0:0:
352,125,401222,6,0,L|279:116,1,59.9999981689454,12|2,1:2|0:0,0:0:0:0:
89,152,401391,2,0,L|162:143,1,59.9999981689454,0|2,1:0|0:0,0:0:0:0:
270,237,401559,1,4,1:2:0:0:
291,201,401643,1,0,1:0:0:0:
299,160,401728,1,2,1:2:0:0:
293,118,401811,1,0,1:0:0:0:
274,82,401897,6,0,B|121:100|121:100|75:86,1,200,0|8,1:0|0:0,0:0:0:0:
218,177,402402,1,2,0:0:0:0:
77,86,402571,2,0,B|55:130|55:130|75:177,1,100,0|0,0:0|1:0,0:0:0:0:
295,220,402908,2,0,B|315:173|315:173|293:129,1,100,8|0,0:0|0:0,0:0:0:0:
206,8,403245,5,0,1:0:0:0:
218,177,403413,1,0,0:0:0:0:
296,53,403582,1,8,0:0:0:0:
144,133,403751,1,2,0:0:0:0:
350,165,403919,5,0,0:0:0:0:
232,258,404088,1,0,1:0:0:0:
202,259,404172,1,0,0:0:0:0:
174,247,404256,1,8,0:0:0:0:
64,136,404425,2,0,P|66:110|81:77,1,50,0|0,0:0|0:0,0:0:0:0:
160,55,404593,6,0,B|228:37|296:89|296:89|236:114,1,200,0|8,1:0|0:0,0:0:0:0:
137,169,405099,1,2,0:0:0:0:
296,89,405267,2,0,P|346:91|400:97,1,100,0|0,0:0|1:0,0:0:0:0:
466,241,405604,2,0,P|416:246|366:248,1,100,8|0,0:0|0:0,0:0:0:0:
216,220,405942,5,0,1:0:0:0:
365,271,406110,1,0,0:0:0:0:
320,89,406279,2,0,P|301:128|304:211,1,120,8|0,0:0|0:0,0:0:0:0:
366,248,406616,5,0,1:0:0:0:
154,179,406784,1,0,1:0:0:0:
168,173,406868,1,0,1:0:0:0:
184,173,406953,1,8,0:0:0:0:
291,248,407121,1,2,0:0:0:0:
82,256,407290,6,0,B|16:185|80:105|80:105|130:98,1,200,4|8,1:2|0:0,0:0:0:0:
198,126,407711,2,0,P|224:126|249:118,1,50,0|2,0:0|0:0,0:0:0:0:
398,137,407964,1,0,0:0:0:0:
241,211,408133,1,0,1:0:0:0:
298,30,408301,5,8,0:0:0:0:
179,46,408470,2,0,L|67:62,1,100,0|0,0:0|1:0,0:0:0:0:
14,236,408807,2,0,B|155:254|155:254|104:209,1,200,0|2,1:0|0:0,0:0:0:0:
80,84,409312,1,0,0:0:0:0:
101,288,409481,1,0,1:0:0:0:
252,144,409649,1,8,0:0:0:0:
233,274,409818,1,0,0:0:0:0:
161,69,409986,6,0,B|186:140|77:168|95:240|166:269|195:199|166:184,1,239.999992675781,0|8,1:0|0:0,0:0:0:0:
252,144,410408,1,0,0:0:0:0:
252,144,410492,2,0,B|296:131|345:157|345:157|308:174,1,119.999996337891,2|0,0:0|0:0,0:0:0:0:
75,81,410829,1,0,1:0:0:0:
295,41,410998,6,0,B|309:112|309:112|284:157|284:157|299:236,1,200,8|0,0:0|1:0,0:0:0:0:
189,95,411503,1,2,0:0:0:0:
404,178,411672,2,0,B|417:129|417:129|404:71,1,100,8|0,0:0|0:0,0:0:0:0:
189,95,412009,5,0,1:0:0:0:
172,125,412093,1,2,0:0:0:0:
165,159,412177,1,2,0:0:0:0:
167,194,412262,1,2,0:0:0:0:
180,227,412346,2,0,L|241:222,1,50,8|2,1:2|0:0,0:0:0:0:
360,311,412515,2,0,L|310:315,1,50,8|2,1:2|1:2,0:0:0:0:
210,375,412683,6,0,P|132:318|41:360,1,200,0|8,1:0|0:0,0:0:0:0:
180,227,413189,1,2,0:0:0:0:
33,132,413357,2,0,L|46:231,1,100,0|0,0:0|1:0,0:0:0:0:
267,292,413694,2,0,L|280:192,1,100,8|0,0:0|0:0,0:0:0:0:
166,46,414031,5,0,1:0:0:0:
168,170,414200,1,0,0:0:0:0:
266,97,414368,1,8,0:0:0:0:
67,133,414537,1,2,0:0:0:0:
338,130,414706,2,0,P|344:81|311:31,1,100,0|0,0:0|1:0,0:0:0:0:
249,15,414958,1,0,1:0:0:0:
249,15,415043,1,8,1:2:0:0:
451,86,415211,1,0,0:0:0:0:
266,97,415380,6,0,B|123:110|123:110|179:140,1,200,0|8,1:0|0:0,0:0:0:0:
355,29,415885,1,2,0:0:0:0:
452,194,416054,2,0,B|409:176|409:176|356:185,1,100,0|0,0:0|1:0,0:0:0:0:
229,298,416391,2,0,B|272:316|272:316|324:306,1,100,8|0,0:0|0:0,0:0:0:0:
358,104,416728,1,0,1:0:0:0:
401,258,416897,5,0,1:0:0:0:
229,195,417065,2,0,B|188:186|152:193|152:193|140:214|119:229,1,120,8|0,0:0|0:0,0:0:0:0:
66,150,417402,6,0,P|154:145|228:194,1,179.999994506836,0|0,1:0|0:0,0:0:0:0:
195,291,417739,2,0,P|144:316|75:304,1,119.999996337891,8|0,1:2|0:0,0:0:0:0:
71,303,417992,1,0,0:0:0:0:
61,295,418076,5,4,1:2:0:0:
281,268,418245,1,0,0:0:0:0:
61,295,418413,2,0,P|40:250|51:202,1,100,8|2,0:0|0:0,0:0:0:0:
161,98,418750,1,0,0:0:0:0:
116,241,418919,1,0,1:0:0:0:
335,190,419088,2,0,L|225:182,1,100,8|0,0:0|0:0,0:0:0:0:
50,202,419425,5,0,1:0:0:0:
240,82,419593,2,0,L|235:182,1,100,0|8,1:0|0:0,0:0:0:0:
312,295,419930,1,2,0:0:0:0:
152,225,420099,1,0,0:0:0:0:
333,152,420267,1,0,1:0:0:0:
336,171,420352,1,0,1:0:0:0:
335,190,420436,1,8,0:0:0:0:
240,82,420604,1,0,0:0:0:0:
174,259,420773,6,0,B|124:296|50:209|1:244|1:244|22:274|50:274,1,239.999992675781,0|8,1:0|0:0,0:0:0:0:
140,187,421194,1,0,0:0:0:0:
140,187,421279,1,2,0:0:0:0:
99,344,421447,1,0,0:0:0:0:
33,154,421616,1,0,1:0:0:0:
199,274,421784,5,8,0:0:0:0:
228,271,421868,1,0,0:0:0:0:
258,269,421952,1,0,0:0:0:0:
288,266,422036,1,0,0:0:0:0:
318,264,422121,5,0,1:0:0:0:
235,83,422290,1,0,1:0:0:0:
383,223,422458,5,8,1:2:0:0:
215,52,422627,1,2,1:2:0:0:
448,182,422795,5,0,1:0:0:0:
406,184,422879,1,0,1:0:0:0:
364,186,422964,1,0,1:0:0:0:
322,188,423047,1,0,3:0:0:0:
280,190,423133,2,0,P|274:161|270:129,1,50,8|0,1:2|0:0,0:0:0:0:
193,13,423301,2,0,P|189:37|184:62,1,50,0|0,3:0|0:0,0:0:0:0:
96,170,423470,6,0,B|102:242|102:242|120:256|120:256|126:322,1,160,4|2,1:0|0:0,0:0:0:0:
126,322,423975,1,2,0:0:0:0:
261,281,424144,2,0,L|385:291,1,120,2|0,0:0|0:0,0:0:0:0:
380,290,424481,2,0,L|370:204,1,80,2|0,0:0|0:0,0:0:0:0:
234,66,424818,5,2,1:2:0:0:
201,138,424986,1,0,0:0:0:0:
225,214,425155,2,0,L|139:207,1,80,2|0,0:0|0:0,0:0:0:0:
316,125,425492,2,0,L|402:118,1,80,2|0,0:0|1:0,0:0:0:0:
498,192,425829,1,2,0:0:0:0:
498,192,425913,1,0,0:0:0:0:
498,192,425998,2,0,L|495:145,1,40,0|0,0:0|0:0,0:0:0:0:
455,64,426166,5,2,1:3:0:0:
395,118,426335,1,0,0:0:0:0:
383,196,426503,1,0,0:0:0:0:
424,264,426672,1,0,0:0:0:0:
312,145,426840,2,0,P|294:138|270:137,2,40,2|2|2,0:0|0:0|1:2,0:0:0:0:
472,168,427177,2,0,P|491:166|510:159,2,40,2|2|2,0:0|0:0|0:0,0:0:0:0:
331,273,427515,6,0,P|258:281|167:253,1,160,2|0,1:2|0:0,0:0:0:0:
104,189,428020,1,0,0:0:0:0:
212,105,428189,2,0,P|221:146|207:196,1,80,2|0,0:0|0:0,0:0:0:0:
89,290,428526,2,0,P|81:250|94:213,1,80,0|0,0:0|0:0,0:0:0:0:
310,157,428863,5,2,1:3:0:0:
253,260,429031,2,0,P|214:263|175:257,1,80,0|2,0:0|0:0,0:0:0:0:
175,257,429284,1,0,0:0:0:0:
175,257,429368,1,2,0:0:0:0:
305,149,429537,2,0,P|344:145|383:152,1,80,2|0,0:0|1:0,0:0:0:0:
476,229,429874,1,2,0:0:0:0:
271,75,430043,6,0,P|223:143|250:210,1,160,2|2,0:0|0:0,0:0:0:0:
357,266,430548,2,0,P|395:257|440:259,1,80,0|0,0:0|0:0,0:0:0:0:
450,264,430801,1,0,0:0:0:0:
463,271,430885,1,2,0:0:0:0:
325,345,431054,2,0,L|344:175,1,160,2|0,1:2|0:0,0:0:0:0:
271,75,431559,5,2,1:3:0:0:
191,88,431728,1,0,0:0:0:0:
112,102,431897,1,2,0:0:0:0:
219,9,432065,1,2,0:0:0:0:
250,161,432234,1,0,0:0:0:0:
250,161,432318,1,0,0:0:0:0:
250,161,432402,1,2,1:2:0:0:
112,102,432571,1,2,0:0:0:0:
271,75,432739,2,0,L|366:62,1,80,0|2,0:0|1:2,0:0:0:0:
188,222,433076,6,0,B|84:208|84:208|26:227,1,160,2|0,0:0|0:0,0:0:0:0:
256,270,433582,2,0,P|271:234|265:192,1,80,2|2,0:0|1:2,0:0:0:0:
81,132,433919,2,0,P|73:171|84:208,1,80,2|2,0:0|0:0,0:0:0:0:
235,116,434256,5,2,1:3:0:0:
300,161,434425,1,0,0:0:0:0:
368,119,434593,1,2,0:0:0:0:
432,166,434762,1,2,0:0:0:0:
374,277,434930,2,0,P|315:264|256:270,1,120,2|0,0:0|0:0,0:0:0:0:
243,283,435267,2,0,B|207:266|207:266|156:275,1,80,2|0,0:0|0:0,0:0:0:0:
300,161,435604,5,2,1:2:0:0:
300,161,435773,1,0,0:0:0:0:
370,258,435942,2,0,B|405:274|405:274|456:265,1,80,2|0,0:0|0:0,0:0:0:0:
375,151,436279,2,0,B|334:143|334:143|299:160,1,80,2|0,0:0|1:0,0:0:0:0:
221,235,436616,1,2,0:0:0:0:
221,235,436700,1,0,0:0:0:0:
221,235,436784,2,0,L|172:231,1,40,0|0,0:0|0:0,0:0:0:0:
101,291,436953,5,2,1:3:0:0:
61,221,437121,1,0,0:0:0:0:
75,142,437290,1,2,0:0:0:0:
136,90,437458,1,2,0:0:0:0:
0,176,437627,1,2,0:0:0:0:
0,176,437711,1,0,0:0:0:0:
0,176,437795,1,0,1:0:0:0:
18,84,437964,1,2,0:0:0:0:
144,200,438133,1,2,0:0:0:0:
144,200,438301,6,0,B|220:169|220:169|243:210|290:216,1,160,2|0,1:2|0:0,0:0:0:0:
198,274,438807,1,2,0:0:0:0:
299,127,438975,2,0,L|390:138,1,80,2|0,0:0|1:0,0:0:0:0:
447,259,439312,2,0,L|356:270,1,80,2|0,0:0|0:0,0:0:0:0:
232,362,439649,6,0,P|197:293|225:208,1,160,2|0,1:3|0:0,0:0:0:0:
311,66,440155,1,2,0:0:0:0:
381,122,440324,2,0,P|402:198|367:268,1,160,2|2,0:0|0:0,0:0:0:0:
269,296,440829,2,0,B|159:282|159:282|111:302,1,160,2|2,1:2|0:0,0:0:0:0:
93,207,441335,1,2,0:0:0:0:
247,219,441503,5,2,0:0:0:0:
247,219,441588,1,0,0:0:0:0:
247,219,441672,1,2,0:0:0:0:
93,207,441840,2,0,P|74:131|110:60,1,160,2|2,0:0|0:0,0:0:0:0:
219,36,442346,5,0,1:0:0:0:
245,111,442515,1,0,0:0:0:0:
321,88,442683,1,2,0:0:0:0:
304,166,442852,1,0,0:0:0:0:
167,96,443020,2,0,B|151:154|168:218|168:218|132:186,1,160,2|2,0:0|0:0,0:0:0:0:
284,177,443526,6,0,B|341:171|341:171|381:190|381:190|445:184,1,160,0|2,1:0|0:0,0:0:0:0:
438,184,444031,1,2,0:0:0:0:
396,106,444200,1,0,0:0:0:0:
326,256,444368,2,0,L|228:266,1,80,2|2,0:0|0:0,0:0:0:0:
122,162,444706,2,0,L|220:172,1,80,2|0,0:0|0:0,0:0:0:0:
80,338,445211,5,0,0:0:0:0:
26,266,445380,2,0,P|17:204|57:130,1,139.999995727539,0|0,0:0|0:0,0:0:0:0:
80,338,446222,5,0,0:0:0:0:
