osu file format v14

[General]
AudioFilename: audio.mp3
AudioLeadIn: 0
PreviewTime: 162153
Countdown: 0
SampleSet: Soft
StackLeniency: 0.7
Mode: 3
LetterboxInBreaks: 0
SpecialStyle: 0
WidescreenStoryboard: 0

[Editor]
DistanceSpacing: 1.4
BeatDivisor: 4
GridSize: 8
TimelineZoom: 2.1

[Metadata]
Title:All For The Time
TitleUnicode:All For The Time
Artist:Taishi
ArtistUnicode:Taishi
Creator:AHHHHHHHHHHHHHH
Version:time flies
Source:
Tags:DVSP-0168 Comic Market 91 C91 Electronic Instrumental Diverse system ad piano advantage ad:piano IV monochrome anomaly disc 2 compllege
BeatmapID:2153612
BeatmapSetID:1029946

[Difficulty]
HPDrainRate:8.5
CircleSize:4
OverallDifficulty:8
ApproachRate:5
SliderMultiplier:1.4
SliderTickRate:1

[Events]
//Background and Video events
0,0,"73858612_p0_master1200.jpg",0,0
//Break Periods
//Storyboard Layer 0 (Background)
//Storyboard Layer 1 (Fail)
//Storyboard Layer 2 (Pass)
//Storyboard Layer 3 (Foreground)
//Storyboard Layer 4 (Overlay)
//Storyboard Sound Samples

[TimingPoints]
820,333.333333333333,4,2,1,5,1,0
820,-200,4,2,1,5,0,0
17153,-222.222222222222,4,2,1,5,0,0
17319,-232.558139534884,4,2,1,5,0,0
17486,-250,4,2,1,5,0,0
17653,-270.27027027027,4,2,1,5,0,0
17819,-285.714285714286,4,2,1,5,0,0
17986,-303.030303030303,4,2,1,5,0,0
18153,-333.333333333333,4,2,1,5,0,0
18319,-370.37037037037,4,2,1,5,0,0
18486,-400,4,2,1,5,0,0
18653,-434.782608695652,4,2,1,5,0,0
18819,-500,4,2,1,5,0,0
18986,-588.235294117647,4,2,1,5,0,0
19153,-666.666666666667,4,2,1,5,0,0
19319,-769.230769230769,4,2,1,5,0,0
19486,-1000,4,2,1,5,0,0
21611,-769.230769230769,4,2,1,5,0,0
21653,-625,4,2,1,5,0,0
21694,-500,4,2,1,5,0,0
21736,-333.333333333333,4,2,1,5,0,0
21778,-250,4,2,1,5,0,0
21819,-181.818181818182,4,2,1,5,0,0
21903,-133.333333333333,4,2,1,5,0,0
21986,-100,4,2,1,5,0,0
22069,-90.9090909090909,4,2,1,5,0,0
22153,-100,4,2,1,15,0,0
34153,-1000,4,2,1,15,0,0
34194,-52.6315789473684,4,2,1,15,0,0
34236,-100,4,2,1,15,0,0
37986,-1000,4,2,1,15,0,0
38069,-52.6315789473684,4,2,1,15,0,0
38153,-100,4,2,1,15,0,0
39319,-1000,4,2,1,15,0,0
39361,-52.6315789473684,4,2,1,15,0,0
39403,-100,4,2,1,15,0,0
39486,-1000,4,2,1,15,0,0
39528,-52.6315789473684,4,2,1,15,0,0
39569,-100,4,2,1,15,0,0
43819,-200,4,2,1,15,0,0
43840,-66.6666666666667,4,2,1,15,0,0
43861,-200,4,2,1,15,0,0
43882,-66.6666666666667,4,2,1,15,0,0
43903,-200,4,2,1,15,0,0
43924,-66.6666666666667,4,2,1,15,0,0
43944,-200,4,2,1,15,0,0
43965,-66.6666666666667,4,2,1,15,0,0
43986,-200,4,2,1,15,0,0
44007,-66.6666666666667,4,2,1,15,0,0
44028,-200,4,2,1,15,0,0
44049,-66.6666666666667,4,2,1,15,0,0
44069,-200,4,2,1,15,0,0
44090,-66.6666666666667,4,2,1,15,0,0
44111,-200,4,2,1,15,0,0
44132,-66.6666666666667,4,2,1,15,0,0
44153,-100,4,2,1,15,0,0
44819,-1000,4,2,1,15,0,0
44861,-52.6315789473684,4,2,1,15,0,0
44903,-100,4,2,1,15,0,0
49986,-1000,4,2,1,15,0,0
50028,-52.6315789473684,4,2,1,15,0,0
50069,-100,4,2,1,15,0,0
50153,-1000,4,2,1,15,0,0
50194,-52.6315789473684,4,2,1,15,0,0
50236,-100,4,2,1,15,0,0
54153,-100,4,2,1,5,0,0
72153,-99.009900990099,4,2,1,5,0,0
72486,-98.0392156862745,4,2,1,5,0,0
72819,-97.0873786407767,4,2,1,5,0,0
73153,-96.1538461538461,4,2,1,5,0,0
73486,-95.2380952380952,4,2,1,5,0,0
73819,-94.3396226415094,4,2,1,5,0,0
74153,-93.4579439252336,4,2,1,10,0,0
74486,-92.5925925925926,4,2,1,13,0,0
74819,-91.743119266055,4,2,1,16,0,0
75153,-90.9090909090909,4,2,1,19,0,0
75486,-89.2857142857143,4,2,1,22,0,0
75819,-87.719298245614,4,2,1,25,0,0
76153,-86.2068965517241,4,2,1,28,0,0
76486,-84.7457627118644,4,2,1,30,0,0
76819,-83.3333333333333,4,2,1,35,0,0
77153,-81.9672131147541,4,2,1,40,0,0
77486,-80.6451612903226,4,2,1,45,0,0
77819,-80,4,2,1,50,0,0
78153,-40,4,2,1,30,0,1
78194,-200,4,2,1,30,0,1
78319,-100,4,2,1,30,0,1
78486,-200,4,2,1,30,0,1
78514,-66.6666666666667,4,2,1,30,0,1
78542,-200,4,2,1,30,0,1
78569,-66.6666666666667,4,2,1,30,0,1
78597,-200,4,2,1,30,0,1
78625,-66.6666666666667,4,2,1,30,0,1
78653,-200,4,2,1,30,0,1
78681,-66.6666666666667,4,2,1,30,0,1
78708,-200,4,2,1,30,0,1
78736,-66.6666666666667,4,2,1,30,0,1
78764,-200,4,2,1,30,0,1
78792,-66.6666666666667,4,2,1,30,0,1
78819,-200,4,2,1,30,0,1
78903,-66.6666666666667,4,2,1,30,0,1
78986,-200,4,2,1,30,0,1
79069,-66.6666666666667,4,2,1,30,0,1
79153,-100,4,2,1,30,0,1
79486,-200,4,2,1,30,0,1
79528,-66.6666666666667,4,2,1,30,0,1
79569,-200,4,2,1,30,0,1
79611,-66.6666666666667,4,2,1,30,0,1
79653,-200,4,2,1,30,0,1
79694,-66.6666666666667,4,2,1,30,0,1
79736,-200,4,2,1,30,0,1
79778,-66.6666666666667,4,2,1,30,0,1
79819,-200,4,2,1,30,0,1
79847,-66.6666666666667,4,2,1,30,0,1
79875,-200,4,2,1,30,0,1
79903,-66.6666666666667,4,2,1,30,0,1
79931,-200,4,2,1,30,0,1
79958,-66.6666666666667,4,2,1,30,0,1
79986,-100,4,2,1,30,0,1
80153,-200,4,2,1,30,0,1
80181,-66.6666666666667,4,2,1,30,0,1
80208,-200,4,2,1,30,0,1
80236,-66.6666666666667,4,2,1,30,0,1
80264,-200,4,2,1,30,0,1
80292,-66.6666666666667,4,2,1,30,0,1
80319,-100,4,2,1,30,0,1
81153,-200,4,2,1,30,0,1
81181,-66.6666666666667,4,2,1,30,0,1
81208,-200,4,2,1,30,0,1
81236,-66.6666666666667,4,2,1,30,0,1
81264,-200,4,2,1,30,0,1
81292,-66.6666666666667,4,2,1,30,0,1
81319,-200,4,2,1,30,0,1
81347,-66.6666666666667,4,2,1,30,0,1
81375,-200,4,2,1,30,0,1
81403,-66.6666666666667,4,2,1,30,0,1
81431,-200,4,2,1,30,0,1
81458,-66.6666666666667,4,2,1,30,0,1
81486,-200,4,2,1,30,0,1
81569,-66.6666666666667,4,2,1,30,0,1
81653,-200,4,2,1,30,0,1
81736,-66.6666666666667,4,2,1,30,0,1
81819,-100,4,2,1,30,0,1
82153,-200,4,2,1,30,0,1
82194,-66.6666666666667,4,2,1,30,0,1
82236,-200,4,2,1,30,0,1
82278,-66.6666666666667,4,2,1,30,0,1
82319,-200,4,2,1,30,0,1
82361,-66.6666666666667,4,2,1,30,0,1
82403,-200,4,2,1,30,0,1
82444,-66.6666666666667,4,2,1,30,0,1
82486,-133.333333333333,4,2,1,30,0,1
82514,-80,4,2,1,30,0,1
82542,-133.333333333333,4,2,1,30,0,1
82569,-80,4,2,1,30,0,1
82597,-133.333333333333,4,2,1,30,0,1
82625,-80,4,2,1,30,0,1
82653,-133.333333333333,4,2,1,30,0,1
82681,-80,4,2,1,30,0,1
82708,-133.333333333333,4,2,1,30,0,1
82736,-80,4,2,1,30,0,1
82764,-133.333333333333,4,2,1,30,0,1
82792,-80,4,2,1,30,0,1
82819,-100,4,2,1,30,0,1
83153,-66.6666666666667,4,2,1,30,0,1
83236,-85.4700854700855,4,2,1,30,0,1
83319,-120.481927710843,4,2,1,30,0,1
83403,-200,4,2,1,30,0,1
83486,-21.7391304347826,4,2,1,30,0,1
83528,-250,4,2,1,30,0,1
83736,-166.666666666667,4,2,1,30,0,1
83778,-125,4,2,1,30,0,1
83819,-200,4,2,1,30,0,1
83847,-66.6666666666667,4,2,1,30,0,1
83875,-200,4,2,1,30,0,1
83903,-66.6666666666667,4,2,1,30,0,1
83931,-200,4,2,1,30,0,1
83958,-66.6666666666667,4,2,1,30,0,1
83986,-200,4,2,1,30,0,1
84014,-66.6666666666667,4,2,1,30,0,1
84042,-200,4,2,1,30,0,1
84069,-66.6666666666667,4,2,1,30,0,1
84097,-200,4,2,1,30,0,1
84125,-66.6666666666667,4,2,1,30,0,1
84153,-200,4,2,1,30,0,1
84236,-66.6666666666667,4,2,1,30,0,1
84319,-200,4,2,1,30,0,1
84403,-66.6666666666667,4,2,1,30,0,1
84486,-100,4,2,1,30,0,1
84819,-1000,4,2,1,30,0,1
84861,-52.6315789473684,4,2,1,30,0,1
84903,-1000,4,2,1,30,0,1
84944,-52.6315789473684,4,2,1,30,0,1
84986,-100,4,2,1,30,0,1
85153,-200,4,2,1,30,0,1
85181,-66.6666666666667,4,2,1,30,0,1
85208,-200,4,2,1,30,0,1
85236,-66.6666666666667,4,2,1,30,0,1
85264,-200,4,2,1,30,0,1
85292,-66.6666666666667,4,2,1,30,0,1
85319,-1000,4,2,1,30,0,1
85361,-52.6315789473684,4,2,1,30,0,1
85403,-1000,4,2,1,30,0,1
85444,-52.6315789473684,4,2,1,30,0,1
85486,-200,4,2,1,30,0,1
85514,-66.6666666666667,4,2,1,30,0,1
85542,-200,4,2,1,30,0,1
85569,-66.6666666666667,4,2,1,30,0,1
85597,-200,4,2,1,30,0,1
85625,-66.6666666666667,4,2,1,30,0,1
85653,-100,4,2,1,30,0,1
85819,-1000,4,2,1,30,0,1
85861,-52.6315789473684,4,2,1,30,0,1
85903,-1000,4,2,1,30,0,1
85944,-52.6315789473684,4,2,1,30,0,1
85986,-100,4,2,1,30,0,1
86653,-200,4,2,1,30,0,1
86681,-66.6666666666667,4,2,1,30,0,1
86708,-200,4,2,1,30,0,1
86736,-66.6666666666667,4,2,1,30,0,1
86764,-200,4,2,1,30,0,1
86792,-66.6666666666667,4,2,1,30,0,1
86819,-200,4,2,1,30,0,1
86903,-66.6666666666667,4,2,1,30,0,1
86986,-200,4,2,1,30,0,1
87069,-66.6666666666667,4,2,1,30,0,1
87153,-100,4,2,1,30,0,1
87986,-1000,4,2,1,30,0,1
88111,-27.027027027027,4,2,1,30,0,1
88153,-100,4,2,1,30,0,1
88819,-40,4,2,1,30,0,1
88861,-200,4,2,1,30,0,1
88986,-100,4,2,1,30,0,1
89153,-200,4,2,1,30,0,1
89181,-66.6666666666667,4,2,1,30,0,1
89208,-200,4,2,1,30,0,1
89236,-66.6666666666667,4,2,1,30,0,1
89264,-200,4,2,1,30,0,1
89292,-66.6666666666667,4,2,1,30,0,1
89319,-200,4,2,1,30,0,1
89347,-66.6666666666667,4,2,1,30,0,1
89375,-200,4,2,1,30,0,1
89403,-66.6666666666667,4,2,1,30,0,1
89431,-200,4,2,1,30,0,1
89458,-66.6666666666667,4,2,1,30,0,1
89486,-200,4,2,1,30,0,1
89569,-66.6666666666667,4,2,1,30,0,1
89653,-200,4,2,1,30,0,1
89736,-66.6666666666667,4,2,1,30,0,1
89819,-100,4,2,1,30,0,1
90153,-200,4,2,1,30,0,1
90194,-66.6666666666667,4,2,1,30,0,1
90236,-200,4,2,1,30,0,1
90278,-66.6666666666667,4,2,1,30,0,1
90319,-200,4,2,1,30,0,1
90361,-66.6666666666667,4,2,1,30,0,1
90403,-200,4,2,1,30,0,1
90444,-66.6666666666667,4,2,1,30,0,1
90486,-200,4,2,1,30,0,1
90514,-66.6666666666667,4,2,1,30,0,1
90542,-200,4,2,1,30,0,1
90569,-66.6666666666667,4,2,1,30,0,1
90597,-200,4,2,1,30,0,1
90625,-66.6666666666667,4,2,1,30,0,1
90653,-100,4,2,1,30,0,1
90819,-200,4,2,1,30,0,1
90847,-66.6666666666667,4,2,1,30,0,1
90875,-200,4,2,1,30,0,1
90903,-66.6666666666667,4,2,1,30,0,1
90931,-200,4,2,1,30,0,1
90958,-66.6666666666667,4,2,1,30,0,1
90986,-100,4,2,1,30,0,1
91819,-200,4,2,1,30,0,1
91847,-66.6666666666667,4,2,1,30,0,1
91875,-200,4,2,1,30,0,1
91903,-66.6666666666667,4,2,1,30,0,1
91931,-200,4,2,1,30,0,1
91958,-66.6666666666667,4,2,1,30,0,1
91986,-200,4,2,1,30,0,1
92014,-66.6666666666667,4,2,1,30,0,1
92042,-200,4,2,1,30,0,1
92069,-66.6666666666667,4,2,1,30,0,1
92097,-200,4,2,1,30,0,1
92125,-66.6666666666667,4,2,1,30,0,1
92153,-200,4,2,1,30,0,1
92236,-66.6666666666667,4,2,1,30,0,1
92319,-200,4,2,1,30,0,1
92403,-66.6666666666667,4,2,1,30,0,1
92486,-100,4,2,1,30,0,1
93153,-133.333333333333,4,2,1,30,0,1
93181,-80,4,2,1,30,0,1
93208,-133.333333333333,4,2,1,30,0,1
93236,-80,4,2,1,30,0,1
93264,-133.333333333333,4,2,1,30,0,1
93292,-80,4,2,1,30,0,1
93319,-133.333333333333,4,2,1,30,0,1
93347,-80,4,2,1,30,0,1
93375,-133.333333333333,4,2,1,30,0,1
93403,-80,4,2,1,30,0,1
93431,-133.333333333333,4,2,1,30,0,1
93458,-80,4,2,1,30,0,1
93486,-100,4,2,1,30,0,1
93819,-66.6666666666667,4,2,1,30,0,1
93903,-85.4700854700855,4,2,1,30,0,1
93986,-120.481927710843,4,2,1,30,0,1
94069,-200,4,2,1,30,0,1
94153,-21.7391304347826,4,2,1,30,0,1
94194,-250,4,2,1,30,0,1
94403,-166.666666666667,4,2,1,30,0,1
94444,-125,4,2,1,30,0,1
94486,-200,4,2,1,30,0,1
94514,-66.6666666666667,4,2,1,30,0,1
94542,-200,4,2,1,30,0,1
94569,-66.6666666666667,4,2,1,30,0,1
94597,-200,4,2,1,30,0,1
94625,-66.6666666666667,4,2,1,30,0,1
94653,-200,4,2,1,30,0,1
94681,-66.6666666666667,4,2,1,30,0,1
94708,-200,4,2,1,30,0,1
94736,-66.6666666666667,4,2,1,30,0,1
94764,-200,4,2,1,30,0,1
94792,-66.6666666666667,4,2,1,30,0,1
94819,-200,4,2,1,30,0,1
94903,-66.6666666666667,4,2,1,30,0,1
94986,-200,4,2,1,30,0,1
95069,-66.6666666666667,4,2,1,30,0,1
95153,-100,4,2,1,30,0,1
95486,-1000,4,2,1,30,0,1
95528,-52.6315789473684,4,2,1,30,0,1
95569,-1000,4,2,1,30,0,1
95611,-52.6315789473684,4,2,1,30,0,1
95653,-100,4,2,1,30,0,1
95819,-200,4,2,1,30,0,1
95847,-66.6666666666667,4,2,1,30,0,1
95875,-200,4,2,1,30,0,1
95903,-66.6666666666667,4,2,1,30,0,1
95931,-200,4,2,1,30,0,1
95958,-66.6666666666667,4,2,1,30,0,1
95986,-1000,4,2,1,30,0,1
96028,-52.6315789473684,4,2,1,30,0,1
96069,-1000,4,2,1,30,0,1
96111,-52.6315789473684,4,2,1,30,0,1
96153,-200,4,2,1,30,0,1
96181,-66.6666666666667,4,2,1,30,0,1
96208,-200,4,2,1,30,0,1
96236,-66.6666666666667,4,2,1,30,0,1
96264,-200,4,2,1,30,0,1
96292,-66.6666666666667,4,2,1,30,0,1
96319,-100,4,2,1,30,0,1
96486,-1000,4,2,1,30,0,1
96528,-52.6315789473684,4,2,1,30,0,1
96569,-1000,4,2,1,30,0,1
96611,-52.6315789473684,4,2,1,30,0,1
96653,-100,4,2,1,30,0,1
97319,-200,4,2,1,30,0,1
97347,-66.6666666666667,4,2,1,30,0,1
97375,-200,4,2,1,30,0,1
97403,-66.6666666666667,4,2,1,30,0,1
97431,-200,4,2,1,30,0,1
97458,-66.6666666666667,4,2,1,30,0,1
97486,-200,4,2,1,30,0,1
97569,-66.6666666666667,4,2,1,30,0,1
97653,-200,4,2,1,30,0,1
97736,-66.6666666666667,4,2,1,30,0,1
97819,-100,4,2,1,30,0,1
98153,-33.3333333333333,4,2,1,30,0,1
98194,-200,4,2,1,30,0,1
98236,-181.818181818182,4,2,1,30,0,1
98319,-166.666666666667,4,2,1,30,0,1
98403,-153.846153846154,4,2,1,30,0,1
98486,-142.857142857143,4,2,1,30,0,1
98569,-133.333333333333,4,2,1,30,0,1
98653,-125,4,2,1,30,0,1
98694,-117.647058823529,4,2,1,30,0,1
98736,-111.111111111111,4,2,1,30,0,1
98778,-105.263157894737,4,2,1,30,0,1
98819,-1000,4,2,1,30,0,1
98861,-52.6315789473684,4,2,1,30,0,1
98903,-1000,4,2,1,30,0,1
98944,-52.6315789473684,4,2,1,30,0,1
98986,-1000,4,2,1,30,0,1
99028,-52.6315789473684,4,2,1,30,0,1
99069,-1000,4,2,1,30,0,1
99111,-52.6315789473684,4,2,1,30,0,1
99153,-1000,4,2,1,30,0,1
99236,-142.857142857143,4,2,1,30,0,1
99319,-76.9230769230769,4,2,1,30,0,1
99403,-52.6315789473684,4,2,1,30,0,1
99486,-25,4,2,1,30,0,0
99528,-105.263157894737,4,2,1,30,0,0
100153,-1000,4,2,1,30,0,0
100194,-52.6315789473684,4,2,1,30,0,0
100236,-1000,4,2,1,30,0,0
100278,-52.6315789473684,4,2,1,30,0,0
100319,-1000,4,2,1,30,0,0
100361,-52.6315789473684,4,2,1,30,0,0
100403,-1000,4,2,1,30,0,0
100444,-52.6315789473684,4,2,1,30,0,0
100486,-111.111111111111,4,2,1,30,0,0
100819,-200,4,2,1,30,0,0
100861,-66.6666666666667,4,2,1,30,0,0
100903,-200,4,2,1,30,0,0
100944,-66.6666666666667,4,2,1,30,0,0
100986,-200,4,2,1,30,0,0
101028,-66.6666666666667,4,2,1,30,0,0
101069,-200,4,2,1,30,0,0
101111,-66.6666666666667,4,2,1,30,0,0
101153,-117.647058823529,4,2,1,30,0,0
101486,-1000,4,2,1,30,0,0
101528,-52.6315789473684,4,2,1,30,0,0
101569,-1000,4,2,1,30,0,0
101611,-52.6315789473684,4,2,1,30,0,0
101653,-1000,4,2,1,30,0,0
101694,-52.6315789473684,4,2,1,30,0,0
101736,-1000,4,2,1,30,0,0
101778,-52.6315789473684,4,2,1,30,0,0
101819,-125,4,2,1,30,0,0
102153,-50,4,2,1,30,0,0
102194,-133.333333333333,4,2,1,30,0,0
102486,-125,4,2,1,30,0,0
102528,-117.647058823529,4,2,1,30,0,0
102569,-111.111111111111,4,2,1,30,0,0
102611,-105.263157894737,4,2,1,30,0,0
102653,-200,4,2,1,30,0,0
102694,-66.6666666666667,4,2,1,30,0,0
102736,-200,4,2,1,30,0,0
102778,-66.6666666666667,4,2,1,30,0,0
102819,-1000,4,2,1,30,0,0
102861,-52.6315789473684,4,2,1,30,0,0
102903,-1000,4,2,1,30,0,0
102944,-52.6315789473684,4,2,1,30,0,0
102986,-1000,4,2,1,30,0,0
103028,-52.6315789473684,4,2,1,30,0,0
103069,-1000,4,2,1,30,0,0
103111,-52.6315789473684,4,2,1,30,0,0
103153,-142.857142857143,4,2,1,30,0,0
103486,-200,4,2,1,30,0,0
103528,-66.6666666666667,4,2,1,30,0,0
103569,-200,4,2,1,30,0,0
103611,-66.6666666666667,4,2,1,30,0,0
103653,-200,4,2,1,30,0,0
103694,-66.6666666666667,4,2,1,30,0,0
103736,-200,4,2,1,30,0,0
103778,-66.6666666666667,4,2,1,30,0,0
103819,-153.846153846154,4,2,1,30,0,0
104153,-1000,4,2,1,30,0,0
104194,-52.6315789473684,4,2,1,30,0,0
104236,-1000,4,2,1,30,0,0
104278,-52.6315789473684,4,2,1,30,0,0
104319,-1000,4,2,1,30,0,0
104361,-52.6315789473684,4,2,1,30,0,0
104403,-1000,4,2,1,30,0,0
104444,-52.6315789473684,4,2,1,30,0,0
104486,-166.666666666667,4,2,1,30,0,0
104819,-50,4,2,1,30,0,0
104861,-181.818181818182,4,2,1,30,0,0
105153,-166.666666666667,4,2,1,30,0,0
105194,-142.857142857143,4,2,1,30,0,0
105236,-125,4,2,1,30,0,0
105278,-111.111111111111,4,2,1,30,0,0
105319,-200,4,2,1,30,0,0
105361,-66.6666666666667,4,2,1,30,0,0
105403,-200,4,2,1,30,0,0
105444,-66.6666666666667,4,2,1,30,0,0
105486,-1000,4,2,1,30,0,0
105528,-52.6315789473684,4,2,1,30,0,0
105569,-1000,4,2,1,30,0,0
105611,-52.6315789473684,4,2,1,30,0,0
105653,-1000,4,2,1,30,0,0
105694,-52.6315789473684,4,2,1,30,0,0
105736,-1000,4,2,1,30,0,0
105778,-52.6315789473684,4,2,1,30,0,0
105819,-200,4,2,1,30,0,0
106194,-66.6666666666667,4,2,1,30,0,0
106236,-200,4,2,1,30,0,0
106278,-66.6666666666667,4,2,1,30,0,0
106319,-200,4,2,1,30,0,0
106361,-66.6666666666667,4,2,1,30,0,0
106403,-200,4,2,1,30,0,0
106444,-66.6666666666667,4,2,1,30,0,0
106486,-200,4,2,1,30,0,0
106819,-1000,4,2,1,30,0,0
106861,-52.6315789473684,4,2,1,30,0,0
106903,-1000,4,2,1,30,0,0
106944,-52.6315789473684,4,2,1,30,0,0
106986,-1000,4,2,1,30,0,0
107028,-52.6315789473684,4,2,1,30,0,0
107069,-1000,4,2,1,30,0,0
107111,-52.6315789473684,4,2,1,30,0,0
107153,-200,4,2,1,30,0,0
107486,-50,4,2,1,30,0,0
107528,-200,4,2,1,30,0,0
107819,-166.666666666667,4,2,1,30,0,0
107861,-142.857142857143,4,2,1,30,0,0
107903,-125,4,2,1,30,0,0
107944,-111.111111111111,4,2,1,30,0,0
107986,-200,4,2,1,30,0,0
108028,-66.6666666666667,4,2,1,30,0,0
108069,-200,4,2,1,30,0,0
108111,-66.6666666666667,4,2,1,30,0,0
108153,-1111.11111111111,4,2,1,30,0,0
108194,-55.2486187845304,4,2,1,30,0,0
108236,-1111.11111111111,4,2,1,30,0,0
108278,-55.2486187845304,4,2,1,30,0,0
108319,-1111.11111111111,4,2,1,30,0,0
108361,-55.2486187845304,4,2,1,30,0,0
108403,-1111.11111111111,4,2,1,30,0,0
108444,-55.2486187845304,4,2,1,30,0,0
108486,-200,4,2,1,30,0,0
108861,-74.0740740740741,4,2,1,30,0,0
108903,-200,4,2,1,30,0,0
108944,-74.0740740740741,4,2,1,30,0,0
108986,-200,4,2,1,30,0,0
109028,-74.0740740740741,4,2,1,30,0,0
109069,-200,4,2,1,30,0,0
109111,-74.0740740740741,4,2,1,30,0,0
109153,-200,4,2,1,30,0,0
109486,-1111.11111111111,4,2,1,25,0,0
109528,-58.4795321637427,4,2,1,25,0,0
109569,-1111.11111111111,4,2,1,25,0,0
109611,-58.4795321637427,4,2,1,25,0,0
109653,-1111.11111111111,4,2,1,25,0,0
109694,-58.4795321637427,4,2,1,25,0,0
109736,-1111.11111111111,4,2,1,25,0,0
109778,-58.4795321637427,4,2,1,25,0,0
109819,-200,4,2,1,25,0,0
110153,-58.4795321637427,4,2,1,25,0,0
110194,-200,4,2,1,25,0,0
110528,-178.571428571429,4,2,1,25,0,0
110569,-156.25,4,2,1,25,0,0
110611,-138.888888888889,4,2,1,25,0,0
110653,-250,4,2,1,20,0,0
110694,-83.3333333333333,4,2,1,20,0,0
110736,-250,4,2,1,20,0,0
110778,-83.3333333333333,4,2,1,20,0,0
110819,-1428.57142857143,4,2,1,20,0,0
110861,-75.187969924812,4,2,1,20,0,0
110903,-1428.57142857143,4,2,1,20,0,0
110944,-75.187969924812,4,2,1,20,0,0
110986,-1428.57142857143,4,2,1,20,0,0
111028,-75.187969924812,4,2,1,20,0,0
111069,-1428.57142857143,4,2,1,20,0,0
111111,-75.187969924812,4,2,1,20,0,0
111153,-200,4,2,1,20,0,0
111486,-333.333333333333,4,2,1,20,0,0
111528,-128.205128205128,4,2,1,20,0,0
111569,-333.333333333333,4,2,1,20,0,0
111611,-128.205128205128,4,2,1,20,0,0
111653,-333.333333333333,4,2,1,20,0,0
111694,-128.205128205128,4,2,1,20,0,0
111736,-333.333333333333,4,2,1,20,0,0
111778,-128.205128205128,4,2,1,20,0,0
111819,-200,4,2,1,20,0,0
112153,-2000,4,2,1,20,0,0
112194,-105.263157894737,4,2,1,20,0,0
112236,-2000,4,2,1,20,0,0
112278,-105.263157894737,4,2,1,20,0,0
112319,-2000,4,2,1,20,0,0
112361,-105.263157894737,4,2,1,20,0,0
112403,-2000,4,2,1,20,0,0
112444,-105.263157894737,4,2,1,20,0,0
112486,-200,4,2,1,20,0,0
112819,-80,4,2,1,15,0,0
112861,-200,4,2,1,15,0,0
113319,-400,4,2,1,15,0,0
113361,-133.333333333333,4,2,1,15,0,0
113403,-400,4,2,1,15,0,0
113444,-133.333333333333,4,2,1,15,0,0
113486,-2000,4,2,1,15,0,0
113528,-105.263157894737,4,2,1,15,0,0
113569,-2000,4,2,1,15,0,0
113611,-105.263157894737,4,2,1,15,0,0
113653,-2000,4,2,1,15,0,0
113694,-105.263157894737,4,2,1,15,0,0
113736,-2000,4,2,1,15,0,0
113778,-105.263157894737,4,2,1,15,0,0
113819,-200,4,2,1,15,0,0
114153,-500,4,2,1,10,0,0
114194,-166.666666666667,4,2,1,10,0,0
114236,-500,4,2,1,10,0,0
114278,-166.666666666667,4,2,1,10,0,0
114319,-500,4,2,1,10,0,0
114361,-166.666666666667,4,2,1,10,0,0
114403,-500,4,2,1,10,0,0
114444,-166.666666666667,4,2,1,10,0,0
114486,-200,4,2,1,10,0,0
114819,-2500,4,2,1,5,0,0
114861,-131.578947368421,4,2,1,5,0,0
114903,-2500,4,2,1,5,0,0
114944,-131.578947368421,4,2,1,5,0,0
114986,-2500,4,2,1,5,0,0
115028,-131.578947368421,4,2,1,5,0,0
115069,-2500,4,2,1,5,0,0
115111,-131.578947368421,4,2,1,5,0,0
115153,-200,4,2,1,5,0,0
115486,-200,4,2,1,5,0,0
116819,-1000,4,2,1,5,0,0
116861,-105.263157894737,4,2,1,5,0,0
116903,-1000,4,2,1,5,0,0
116944,-105.263157894737,4,2,1,5,0,0
116986,-200,4,2,1,5,0,0
117319,-1000,4,2,1,5,0,0
117361,-105.263157894737,4,2,1,5,0,0
117403,-1000,4,2,1,5,0,0
117444,-105.263157894737,4,2,1,5,0,0
117486,-200,4,2,1,5,0,0
117819,-1000,4,2,1,5,0,0
117861,-105.263157894737,4,2,1,5,0,0
117903,-1000,4,2,1,5,0,0
117944,-105.263157894737,4,2,1,5,0,0
117986,-200,4,2,1,5,0,0
121319,-400,4,2,1,5,0,0
121403,-133.333333333333,4,2,1,5,0,0
121486,-200,4,2,1,5,0,0
126653,-400,4,2,1,5,0,0
126736,-133.333333333333,4,2,1,5,0,0
126819,-200,4,2,1,5,0,0
131986,-400,4,2,1,5,0,0
132069,-133.333333333333,4,2,1,5,0,0
132153,-200,4,2,1,5,0,0
135819,-181.818181818182,4,2,1,5,0,0
136153,-166.666666666667,4,2,1,5,0,0
136486,-153.846153846154,4,2,1,5,0,0
136819,-142.857142857143,4,2,1,7,0,0
137153,-133.333333333333,4,2,1,9,0,0
137486,-125,4,2,1,11,0,0
137819,-117.647058823529,4,2,1,13,0,0
138153,-111.111111111111,4,2,1,15,0,0
138486,-105.263157894737,4,2,1,17,0,0
138819,-100,4,2,1,19,0,0
139153,-99.009900990099,4,2,1,21,0,0
139486,-98.0392156862745,4,2,1,24,0,0
139819,-97.1817298347911,4,2,1,27,0,0
140153,-96.2463907603465,4,2,1,30,0,0
140486,-93.4579439252336,4,2,1,33,0,0
140819,-90.0900900900901,4,2,1,36,0,0
141153,-86.9565217391304,4,2,1,40,0,0
141486,-83.3333333333333,4,2,1,45,0,0
141819,-166.666666666667,4,2,1,45,0,0
141861,-1000,4,2,1,5,0,0
141986,-133.333333333333,4,2,1,30,0,0
142028,-83.3333333333333,4,2,1,30,0,0
142069,-64.5161290322581,4,2,1,30,0,0
142111,-27.7777777777778,4,2,1,30,0,0
142153,-1000,4,2,1,30,0,0
143028,-500,4,2,1,30,0,0
143069,-333.333333333333,4,2,1,30,0,0
143111,-250,4,2,1,30,0,0
143153,-181.818181818182,4,2,1,30,0,0
143236,-133.333333333333,4,2,1,30,0,0
143319,-100,4,2,1,30,0,0
143403,-90.9090909090909,4,2,1,30,0,0
143486,-1000,4,2,1,30,0,0
144361,-500,4,2,1,30,0,0
144403,-333.333333333333,4,2,1,30,0,0
144444,-250,4,2,1,30,0,0
144486,-181.818181818182,4,2,1,30,0,0
144569,-133.333333333333,4,2,1,30,0,0
144653,-100,4,2,1,30,0,0
144736,-90.9090909090909,4,2,1,30,0,0
144819,-1000,4,2,1,30,0,0
145694,-500,4,2,1,30,0,0
145736,-333.333333333333,4,2,1,30,0,0
145778,-250,4,2,1,30,0,0
145819,-181.818181818182,4,2,1,30,0,0
145903,-133.333333333333,4,2,1,30,0,0
145986,-100,4,2,1,30,0,0
146069,-90.9090909090909,4,2,1,30,0,0
146153,-1000,4,2,1,30,0,0
147028,-500,4,2,1,30,0,0
147069,-333.333333333333,4,2,1,30,0,0
147111,-250,4,2,1,30,0,0
147153,-181.818181818182,4,2,1,30,0,0
147236,-133.333333333333,4,2,1,30,0,0
147319,-100,4,2,1,30,0,0
147403,-90.9090909090909,4,2,1,30,0,0
147486,-1000,4,2,1,30,0,0
148361,-500,4,2,1,30,0,0
148403,-333.333333333333,4,2,1,30,0,0
148444,-250,4,2,1,30,0,0
148486,-181.818181818182,4,2,1,30,0,0
148569,-133.333333333333,4,2,1,30,0,0
148653,-100,4,2,1,30,0,0
148736,-90.9090909090909,4,2,1,30,0,0
148819,-1000,4,2,1,30,0,0
149694,-500,4,2,1,30,0,0
149736,-333.333333333333,4,2,1,30,0,0
149778,-250,4,2,1,30,0,0
149819,-181.818181818182,4,2,1,30,0,0
149903,-133.333333333333,4,2,1,30,0,0
149986,-100,4,2,1,30,0,0
150069,-90.9090909090909,4,2,1,30,0,0
150153,-1000,4,2,1,30,0,0
151028,-500,4,2,1,30,0,0
151069,-333.333333333333,4,2,1,30,0,0
151111,-250,4,2,1,30,0,0
151153,-181.818181818182,4,2,1,30,0,0
151236,-133.333333333333,4,2,1,30,0,0
151319,-100,4,2,1,30,0,0
151403,-90.9090909090909,4,2,1,30,0,0
151486,-1000,4,2,1,30,0,0
151861,-500,4,2,1,30,0,0
151903,-285.714285714286,4,2,1,30,0,0
151944,-200,4,2,1,30,0,0
151986,-133.333333333333,4,2,1,30,0,0
152028,-100,4,2,1,30,0,0
152069,-90.9090909090909,4,2,1,30,0,0
152111,-83.3333333333333,4,2,1,30,0,0
152153,-1000,4,2,1,30,0,0
152528,-500,4,2,1,30,0,0
152569,-285.714285714286,4,2,1,30,0,0
152611,-200,4,2,1,30,0,0
152653,-133.333333333333,4,2,1,30,0,0
152694,-100,4,2,1,30,0,0
152736,-90.9090909090909,4,2,1,30,0,0
152778,-83.3333333333333,4,2,1,30,0,0
152819,-1000,4,2,1,30,0,0
153694,-500,4,2,1,30,0,0
153735,-333.333333333333,4,2,1,30,0,0
153777,-250,4,2,1,30,0,0
153819,-181.818181818182,4,2,1,30,0,0
153902,-133.333333333333,4,2,1,30,0,0
153985,-100,4,2,1,30,0,0
154069,-90.9090909090909,4,2,1,30,0,0
154152,-1000,4,2,1,30,0,0
155027,-500,4,2,1,30,0,0
155069,-333.333333333333,4,2,1,30,0,0
155110,-250,4,2,1,30,0,0
155152,-181.818181818182,4,2,1,30,0,0
155235,-133.333333333333,4,2,1,30,0,0
155319,-100,4,2,1,30,0,0
155402,-90.9090909090909,4,2,1,30,0,0
155485,-1000,4,2,1,30,0,0
156360,-500,4,2,1,30,0,0
156402,-333.333333333333,4,2,1,30,0,0
156444,-250,4,2,1,30,0,0
156485,-181.818181818182,4,2,1,30,0,0
156569,-133.333333333333,4,2,1,30,0,0
156652,-100,4,2,1,30,0,0
156735,-90.9090909090909,4,2,1,30,0,0
156819,-1000,4,2,1,30,0,0
157194,-500,4,2,1,30,0,0
157236,-333.333333333333,4,2,1,30,0,0
157278,-250,4,2,1,30,0,0
157319,-181.818181818182,4,2,1,30,0,0
157361,-133.333333333333,4,2,1,30,0,0
157403,-100,4,2,1,30,0,0
157444,-90.9090909090909,4,2,1,30,0,0
157486,-1000,4,2,1,30,0,0
157528,-500,4,2,1,30,0,0
157569,-333.333333333333,4,2,1,30,0,0
157611,-250,4,2,1,30,0,0
157653,-200,4,2,1,30,0,0
157694,-166.666666666667,4,2,1,30,0,0
157736,-142.857142857143,4,2,1,30,0,0
157778,-117.647058823529,4,2,1,30,0,0
157819,-181.818181818182,4,2,1,30,0,0
157903,-133.333333333333,4,2,1,30,0,0
157986,-100,4,2,1,30,0,0
158069,-90.9090909090909,4,2,1,30,0,0
158152,-1000,4,2,1,30,0,0
159027,-500,4,2,1,30,0,0
159069,-333.333333333333,4,2,1,30,0,0
159110,-250,4,2,1,30,0,0
159152,-181.818181818182,4,2,1,30,0,0
159235,-133.333333333333,4,2,1,30,0,0
159319,-100,4,2,1,30,0,0
159402,-90.9090909090909,4,2,1,30,0,0
159485,-1000,4,2,1,30,0,0
160360,-500,4,2,1,30,0,0
160402,-333.333333333333,4,2,1,30,0,0
160444,-250,4,2,1,30,0,0
160485,-181.818181818182,4,2,1,30,0,0
160569,-133.333333333333,4,2,1,30,0,0
160652,-100,4,2,1,30,0,0
160735,-90.9090909090909,4,2,1,30,0,0
160819,-1000,4,2,1,30,0,0
161528,-500,4,2,1,30,0,0
161569,-333.333333333333,4,2,1,30,0,0
161611,-250,4,2,1,30,0,0
161653,-181.818181818182,4,2,1,30,0,0
161736,-133.333333333333,4,2,1,30,0,0
161819,-100,4,2,1,30,0,0
161903,-90.9090909090909,4,2,1,30,0,0
161986,-1000,4,2,1,30,0,0
162069,-52.6315789473684,4,2,1,30,0,0
162153,-133.333333333333,4,2,1,30,0,0
162236,-80,4,2,1,30,0,0
162319,-133.333333333333,4,2,1,30,0,0
162403,-80,4,2,1,30,0,0
162486,-200,4,2,1,30,0,0
162514,-66.6666666666667,4,2,1,30,0,0
162542,-200,4,2,1,30,0,0
162569,-66.6666666666667,4,2,1,30,0,0
162597,-200,4,2,1,30,0,0
162625,-66.6666666666667,4,2,1,30,0,0
162653,-200,4,2,1,30,0,0
162681,-66.6666666666667,4,2,1,30,0,0
162708,-200,4,2,1,30,0,0
162736,-66.6666666666667,4,2,1,30,0,0
162764,-200,4,2,1,30,0,0
162792,-66.6666666666667,4,2,1,30,0,0
162819,-200,4,2,1,30,0,0
162903,-66.6666666666667,4,2,1,30,0,0
162986,-200,4,2,1,30,0,0
163069,-66.6666666666667,4,2,1,30,0,0
163153,-100,4,2,1,30,0,0
163486,-200,4,2,1,30,0,1
163653,-66.6666666666667,4,2,1,30,0,1
163819,-200,4,2,1,30,0,1
163875,-66.6666666666667,4,2,1,30,0,1
163931,-200,4,2,1,30,0,1
163986,-66.6666666666667,4,2,1,30,0,1
164042,-200,4,2,1,30,0,1
164097,-66.6666666666667,4,2,1,30,0,1
164153,-200,4,2,1,30,0,1
164319,-66.6666666666667,4,2,1,30,0,1
164486,-200,4,2,1,30,0,1
164542,-66.6666666666667,4,2,1,30,0,1
164597,-200,4,2,1,30,0,1
164653,-66.6666666666667,4,2,1,30,0,1
164708,-200,4,2,1,30,0,1
164764,-66.6666666666667,4,2,1,30,0,1
164819,-200,4,2,1,30,0,1
164986,-66.6666666666667,4,2,1,30,0,1
165153,-200,4,2,1,30,0,1
165208,-66.6666666666667,4,2,1,30,0,1
165264,-200,4,2,1,30,0,1
165319,-66.6666666666667,4,2,1,30,0,1
165375,-200,4,2,1,30,0,1
165431,-66.6666666666667,4,2,1,30,0,1
165486,-200,4,2,1,30,0,1
165653,-66.6666666666667,4,2,1,30,0,1
165819,-200,4,2,1,30,0,1
165875,-66.6666666666667,4,2,1,30,0,1
165931,-200,4,2,1,30,0,1
165986,-66.6666666666667,4,2,1,30,0,1
166042,-200,4,2,1,30,0,1
166097,-66.6666666666667,4,2,1,30,0,1
166153,-100,4,2,1,30,0,1
166486,-200,4,2,1,30,0,1
166514,-66.6666666666667,4,2,1,30,0,1
166542,-200,4,2,1,30,0,1
166569,-66.6666666666667,4,2,1,30,0,1
166597,-200,4,2,1,30,0,1
166625,-66.6666666666667,4,2,1,30,0,1
166653,-200,4,2,1,30,0,1
166681,-66.6666666666667,4,2,1,30,0,1
166708,-200,4,2,1,30,0,1
166736,-66.6666666666667,4,2,1,30,0,1
166764,-200,4,2,1,30,0,1
166792,-66.6666666666667,4,2,1,30,0,1
166819,-100,4,2,1,30,0,1
167153,-1000,4,2,1,30,0,1
167181,-52.6315789473684,4,2,1,30,0,1
167208,-1000,4,2,1,30,0,1
167236,-52.6315789473684,4,2,1,30,0,1
167264,-1000,4,2,1,30,0,1
167292,-52.6315789473684,4,2,1,30,0,1
167319,-1000,4,2,1,30,0,1
167347,-52.6315789473684,4,2,1,30,0,1
167375,-1000,4,2,1,30,0,1
167403,-52.6315789473684,4,2,1,30,0,1
167431,-1000,4,2,1,30,0,1
167458,-52.6315789473684,4,2,1,30,0,1
167486,-100,4,2,1,30,0,1
167819,-1000,4,2,1,30,0,1
167847,-52.6315789473684,4,2,1,30,0,1
167875,-1000,4,2,1,30,0,1
167903,-52.6315789473684,4,2,1,30,0,1
167931,-1000,4,2,1,30,0,1
167958,-52.6315789473684,4,2,1,30,0,1
167986,-1000,4,2,1,30,0,1
168014,-52.6315789473684,4,2,1,30,0,1
168042,-1000,4,2,1,30,0,1
168069,-52.6315789473684,4,2,1,30,0,1
168097,-1000,4,2,1,30,0,1
168125,-52.6315789473684,4,2,1,30,0,1
168153,-100,4,2,1,30,0,1
168486,-1000,4,2,1,30,0,1
168514,-52.6315789473684,4,2,1,30,0,1
168542,-1000,4,2,1,30,0,1
168569,-52.6315789473684,4,2,1,30,0,1
168597,-1000,4,2,1,30,0,1
168625,-52.6315789473684,4,2,1,30,0,1
168653,-1000,4,2,1,30,0,1
168681,-52.6315789473684,4,2,1,30,0,1
168708,-1000,4,2,1,30,0,1
168736,-52.6315789473684,4,2,1,30,0,1
168764,-1000,4,2,1,30,0,1
168792,-52.6315789473684,4,2,1,30,0,1
168819,-200,4,2,1,30,0,1
168986,-66.6666666666667,4,2,1,30,0,1
169153,-200,4,2,1,30,0,1
169208,-66.6666666666667,4,2,1,30,0,1
169264,-200,4,2,1,30,0,1
169319,-66.6666666666667,4,2,1,30,0,1
169375,-200,4,2,1,30,0,1
169431,-66.6666666666667,4,2,1,30,0,1
169486,-200,4,2,1,30,0,1
169653,-66.6666666666667,4,2,1,30,0,1
169819,-200,4,2,1,30,0,1
169875,-66.6666666666667,4,2,1,30,0,1
169931,-200,4,2,1,30,0,1
169986,-66.6666666666667,4,2,1,30,0,1
170042,-200,4,2,1,30,0,1
170097,-66.6666666666667,4,2,1,30,0,1
170153,-200,4,2,1,30,0,1
170319,-66.6666666666667,4,2,1,30,0,1
170486,-200,4,2,1,30,0,1
170542,-66.6666666666667,4,2,1,30,0,1
170597,-200,4,2,1,30,0,1
170653,-66.6666666666667,4,2,1,30,0,1
170708,-200,4,2,1,30,0,1
170764,-66.6666666666667,4,2,1,30,0,1
170819,-200,4,2,1,30,0,1
170986,-66.6666666666667,4,2,1,30,0,1
171153,-200,4,2,1,30,0,1
171208,-66.6666666666667,4,2,1,30,0,1
171264,-200,4,2,1,30,0,1
171319,-66.6666666666667,4,2,1,30,0,1
171375,-200,4,2,1,30,0,1
171431,-66.6666666666667,4,2,1,30,0,1
171486,-100,4,2,1,30,0,1
171819,-1000,4,2,1,30,0,1
171847,-52.6315789473684,4,2,1,30,0,1
171875,-1000,4,2,1,30,0,1
171903,-52.6315789473684,4,2,1,30,0,1
171931,-1000,4,2,1,30,0,1
171958,-52.6315789473684,4,2,1,30,0,1
171986,-1000,4,2,1,30,0,1
172014,-52.6315789473684,4,2,1,30,0,1
172042,-1000,4,2,1,30,0,1
172069,-52.6315789473684,4,2,1,30,0,1
172097,-1000,4,2,1,30,0,1
172125,-52.6315789473684,4,2,1,30,0,1
172153,-100,4,2,1,30,0,1
172486,-200,4,2,1,30,0,1
172514,-66.6666666666667,4,2,1,30,0,1
172542,-200,4,2,1,30,0,1
172569,-66.6666666666667,4,2,1,30,0,1
172597,-200,4,2,1,30,0,1
172625,-66.6666666666667,4,2,1,30,0,1
172653,-200,4,2,1,30,0,1
172681,-66.6666666666667,4,2,1,30,0,1
172708,-200,4,2,1,30,0,1
172736,-66.6666666666667,4,2,1,30,0,1
172764,-200,4,2,1,30,0,1
172792,-66.6666666666667,4,2,1,30,0,1
172819,-200,4,2,1,30,0,1
172986,-66.6666666666667,4,2,1,30,0,1
173153,-200,4,2,1,30,0,1
173208,-66.6666666666667,4,2,1,30,0,1
173264,-200,4,2,1,30,0,1
173319,-66.6666666666667,4,2,1,30,0,1
173375,-200,4,2,1,30,0,1
173431,-66.6666666666667,4,2,1,30,0,1
173486,-200,4,2,1,30,0,1
173569,-66.6666666666667,4,2,1,30,0,1
173653,-200,4,2,1,30,0,1
173736,-66.6666666666667,4,2,1,30,0,1
173819,-200,4,2,1,30,0,1
173875,-66.6666666666667,4,2,1,30,0,1
173931,-200,4,2,1,30,0,1
173986,-66.6666666666667,4,2,1,30,0,1
174042,-200,4,2,1,30,0,1
174097,-66.6666666666667,4,2,1,30,0,1
174153,-200,4,2,1,30,0,1
174320,-66.6666666666667,4,2,1,30,0,1
174486,-200,4,2,1,30,0,1
174542,-66.6666666666667,4,2,1,30,0,1
174598,-200,4,2,1,30,0,1
174653,-66.6666666666667,4,2,1,30,0,1
174709,-200,4,2,1,30,0,1
174764,-66.6666666666667,4,2,1,30,0,1
174820,-200,4,2,1,30,0,1
174986,-66.6666666666667,4,2,1,30,0,1
175153,-200,4,2,1,30,0,1
175209,-66.6666666666667,4,2,1,30,0,1
175264,-200,4,2,1,30,0,1
175320,-66.6666666666667,4,2,1,30,0,1
175375,-200,4,2,1,30,0,1
175431,-66.6666666666667,4,2,1,30,0,1
175486,-200,4,2,1,30,0,1
175653,-66.6666666666667,4,2,1,30,0,1
175820,-200,4,2,1,30,0,1
175875,-66.6666666666667,4,2,1,30,0,1
175931,-200,4,2,1,30,0,1
175986,-66.6666666666667,4,2,1,30,0,1
176042,-200,4,2,1,30,0,1
176098,-66.6666666666667,4,2,1,30,0,1
176153,-200,4,2,1,30,0,1
176320,-66.6666666666667,4,2,1,30,0,1
176486,-200,4,2,1,30,0,1
176542,-66.6666666666667,4,2,1,30,0,1
176598,-200,4,2,1,30,0,1
176653,-66.6666666666667,4,2,1,30,0,1
176709,-200,4,2,1,30,0,1
176764,-66.6666666666667,4,2,1,30,0,1
176820,-100,4,2,1,30,0,1
177153,-200,4,2,1,30,0,1
177181,-66.6666666666667,4,2,1,30,0,1
177209,-200,4,2,1,30,0,1
177236,-66.6666666666667,4,2,1,30,0,1
177264,-200,4,2,1,30,0,1
177292,-66.6666666666667,4,2,1,30,0,1
177320,-200,4,2,1,30,0,1
177348,-66.6666666666667,4,2,1,30,0,1
177375,-200,4,2,1,30,0,1
177403,-66.6666666666667,4,2,1,30,0,1
177431,-200,4,2,1,30,0,1
177459,-66.6666666666667,4,2,1,30,0,1
177486,-100,4,2,1,30,0,1
177820,-1000,4,2,1,30,0,1
177848,-52.6315789473684,4,2,1,30,0,1
177875,-1000,4,2,1,30,0,1
177903,-52.6315789473684,4,2,1,30,0,1
177931,-1000,4,2,1,30,0,1
177959,-52.6315789473684,4,2,1,30,0,1
177986,-1000,4,2,1,30,0,1
178014,-52.6315789473684,4,2,1,30,0,1
178042,-1000,4,2,1,30,0,1
178070,-52.6315789473684,4,2,1,30,0,1
178098,-1000,4,2,1,30,0,1
178125,-52.6315789473684,4,2,1,30,0,1
178153,-100,4,2,1,30,0,1
178486,-1000,4,2,1,30,0,1
178514,-52.6315789473684,4,2,1,30,0,1
178542,-1000,4,2,1,30,0,1
178570,-52.6315789473684,4,2,1,30,0,1
178598,-1000,4,2,1,30,0,1
178625,-52.6315789473684,4,2,1,30,0,1
178653,-1000,4,2,1,30,0,1
178681,-52.6315789473684,4,2,1,30,0,1
178709,-1000,4,2,1,30,0,1
178736,-52.6315789473684,4,2,1,30,0,1
178764,-1000,4,2,1,30,0,1
178792,-52.6315789473684,4,2,1,30,0,1
178820,-100,4,2,1,30,0,1
179153,-1000,4,2,1,30,0,1
179181,-52.6315789473684,4,2,1,30,0,1
179209,-1000,4,2,1,30,0,1
179236,-52.6315789473684,4,2,1,30,0,1
179264,-1000,4,2,1,30,0,1
179292,-52.6315789473684,4,2,1,30,0,1
179320,-1000,4,2,1,30,0,1
179348,-52.6315789473684,4,2,1,30,0,1
179375,-1000,4,2,1,30,0,1
179403,-52.6315789473684,4,2,1,30,0,1
179431,-1000,4,2,1,30,0,1
179459,-52.6315789473684,4,2,1,30,0,1
179486,-200,4,2,1,30,0,1
179653,-66.6666666666667,4,2,1,30,0,1
179820,-200,4,2,1,30,0,1
179875,-66.6666666666667,4,2,1,30,0,1
179931,-200,4,2,1,30,0,1
179986,-66.6666666666667,4,2,1,30,0,1
180042,-200,4,2,1,30,0,1
180098,-66.6666666666667,4,2,1,30,0,1
180153,-200,4,2,1,30,0,1
180320,-66.6666666666667,4,2,1,30,0,1
180486,-200,4,2,1,30,0,1
180542,-66.6666666666667,4,2,1,30,0,1
180598,-200,4,2,1,30,0,1
180653,-66.6666666666667,4,2,1,30,0,1
180709,-200,4,2,1,30,0,1
180764,-66.6666666666667,4,2,1,30,0,1
180820,-200,4,2,1,30,0,1
180986,-66.6666666666667,4,2,1,30,0,1
181153,-200,4,2,1,30,0,1
181209,-66.6666666666667,4,2,1,30,0,1
181264,-200,4,2,1,30,0,1
181320,-66.6666666666667,4,2,1,30,0,1
181375,-200,4,2,1,30,0,1
181431,-66.6666666666667,4,2,1,30,0,1
181486,-200,4,2,1,30,0,1
181653,-66.6666666666667,4,2,1,30,0,1
181820,-200,4,2,1,30,0,1
181875,-66.6666666666667,4,2,1,30,0,1
181931,-200,4,2,1,30,0,1
181986,-66.6666666666667,4,2,1,30,0,1
182042,-200,4,2,1,30,0,1
182098,-66.6666666666667,4,2,1,30,0,1
182153,-1000,4,2,1,30,0,1
182174,-52.6315789473684,4,2,1,30,0,1
182194,-500,4,2,1,30,0,1
182215,-55.5555555555556,4,2,1,30,0,1
182236,-333.333333333333,4,2,1,30,0,1
182257,-58.8235294117647,4,2,1,30,0,1
182278,-285.714285714286,4,2,1,30,0,1
182299,-60.6060606060606,4,2,1,30,0,1
182319,-250,4,2,1,30,0,1
182347,-62.5,4,2,1,30,0,1
182375,-222.222222222222,4,2,1,30,0,1
182403,-64.5161290322581,4,2,1,30,0,1
182431,-200,4,2,1,30,0,1
182458,-66.6666666666667,4,2,1,30,0,1
182486,-200,4,2,1,30,0,1
182507,-80,4,2,1,30,0,1
182549,-200,4,2,1,30,0,1
182569,-80,4,2,1,30,0,1
182611,-250,4,2,1,30,0,1
182653,-71.4285714285714,4,2,1,30,0,1
182715,-250,4,2,1,30,0,1
182757,-71.4285714285714,4,2,1,30,0,1
182819,-200,4,2,1,30,0,1
182903,-66.6666666666667,4,2,1,30,0,1
182986,-200,4,2,1,30,0,1
183069,-72.463768115942,4,2,1,30,0,1
183181,-200,4,2,1,30,0,1
183319,-70.4225352112676,4,2,1,30,0,1
183486,-100,4,2,1,15,0,0
183653,-100,4,2,1,30,0,0
183819,-200,4,2,1,5,0,0
183903,-120.481927710843,4,2,1,5,0,0
183986,-85.4700854700855,4,2,1,5,0,0
184069,-66.6666666666667,4,2,1,5,0,0
184153,-1000,4,2,1,30,0,0
184486,-200,4,2,1,30,0,0
184569,-100,4,2,1,30,0,0
184653,-80,4,2,1,30,0,0
184736,-57.1428571428571,4,2,1,30,0,0
184819,-100,4,2,1,30,0,0
185486,-200,4,2,1,30,0,0
185528,-66.6666666666667,4,2,1,30,0,0
185569,-200,4,2,1,30,0,0
185611,-66.6666666666667,4,2,1,30,0,0
185653,-200,4,2,1,30,0,0
185694,-66.6666666666667,4,2,1,30,0,0
185736,-200,4,2,1,30,0,0
185778,-66.6666666666667,4,2,1,30,0,0
185819,-100,4,2,1,30,0,0
186819,-200,4,2,1,30,0,0
186861,-66.6666666666667,4,2,1,30,0,0
186903,-200,4,2,1,30,0,0
186944,-66.6666666666667,4,2,1,30,0,0
186986,-200,4,2,1,30,0,0
187028,-66.6666666666667,4,2,1,30,0,0
187069,-200,4,2,1,30,0,0
187111,-66.6666666666667,4,2,1,30,0,0
187153,-100,4,2,1,30,0,0
188153,-200,4,2,1,30,0,0
188194,-66.6666666666667,4,2,1,30,0,0
188236,-200,4,2,1,30,0,0
188278,-66.6666666666667,4,2,1,30,0,0
188319,-200,4,2,1,30,0,0
188361,-66.6666666666667,4,2,1,30,0,0
188403,-200,4,2,1,30,0,0
188444,-66.6666666666667,4,2,1,30,0,0
188486,-100,4,2,1,30,0,0
189486,-200,4,2,1,30,0,0
189528,-66.6666666666667,4,2,1,30,0,0
189569,-200,4,2,1,30,0,0
189611,-66.6666666666667,4,2,1,30,0,0
189653,-200,4,2,1,30,0,0
189694,-66.6666666666667,4,2,1,30,0,0
189736,-200,4,2,1,30,0,0
189778,-66.6666666666667,4,2,1,30,0,0
189819,-100,4,2,1,30,0,0
190819,-200,4,2,1,30,0,0
190861,-66.6666666666667,4,2,1,30,0,0
190903,-200,4,2,1,30,0,0
190944,-66.6666666666667,4,2,1,30,0,0
190986,-200,4,2,1,30,0,0
191028,-66.6666666666667,4,2,1,30,0,0
191069,-200,4,2,1,30,0,0
191111,-66.6666666666667,4,2,1,30,0,0
191153,-100,4,2,1,30,0,0
192153,-200,4,2,1,30,0,0
192194,-66.6666666666667,4,2,1,30,0,0
192236,-200,4,2,1,30,0,0
192278,-66.6666666666667,4,2,1,30,0,0
192319,-200,4,2,1,30,0,0
192361,-66.6666666666667,4,2,1,30,0,0
192403,-200,4,2,1,30,0,0
192444,-66.6666666666667,4,2,1,30,0,0
192486,-100,4,2,1,30,0,0
193486,-200,4,2,1,30,0,0
193528,-66.6666666666667,4,2,1,30,0,0
193569,-200,4,2,1,30,0,0
193611,-66.6666666666667,4,2,1,30,0,0
193653,-200,4,2,1,30,0,0
193694,-66.6666666666667,4,2,1,30,0,0
193736,-200,4,2,1,30,0,0
193778,-66.6666666666667,4,2,1,30,0,0
193819,-100,4,2,1,30,0,0
194819,-200,4,2,1,30,0,0
194861,-66.6666666666667,4,2,1,30,0,0
194903,-200,4,2,1,30,0,0
194944,-66.6666666666667,4,2,1,30,0,0
194986,-200,4,2,1,30,0,0
195028,-66.6666666666667,4,2,1,30,0,0
195069,-200,4,2,1,30,0,0
195111,-66.6666666666667,4,2,1,30,0,0
195153,-100,4,2,1,30,0,0
196153,-200,4,2,1,30,0,0
196194,-66.6666666666667,4,2,1,30,0,0
196236,-200,4,2,1,30,0,0
196278,-66.6666666666667,4,2,1,30,0,0
196319,-200,4,2,1,30,0,0
196361,-66.6666666666667,4,2,1,30,0,0
196403,-200,4,2,1,30,0,0
196444,-66.6666666666667,4,2,1,30,0,0
196486,-100,4,2,1,30,0,0
197486,-200,4,2,1,30,0,0
197528,-66.6666666666667,4,2,1,30,0,0
197569,-200,4,2,1,30,0,0
197611,-66.6666666666667,4,2,1,30,0,0
197653,-200,4,2,1,30,0,0
197694,-66.6666666666667,4,2,1,30,0,0
197736,-200,4,2,1,30,0,0
197778,-66.6666666666667,4,2,1,30,0,0
197819,-100,4,2,1,30,0,0
198819,-200,4,2,1,30,0,0
198861,-66.6666666666667,4,2,1,30,0,0
198903,-200,4,2,1,30,0,0
198944,-66.6666666666667,4,2,1,30,0,0
198986,-200,4,2,1,30,0,0
199028,-66.6666666666667,4,2,1,30,0,0
199069,-200,4,2,1,30,0,0
199111,-66.6666666666667,4,2,1,30,0,0
199153,-100,4,2,1,30,0,0
200153,-200,4,2,1,30,0,0
200194,-66.6666666666667,4,2,1,30,0,0
200236,-200,4,2,1,30,0,0
200278,-66.6666666666667,4,2,1,30,0,0
200319,-200,4,2,1,30,0,0
200361,-66.6666666666667,4,2,1,30,0,0
200403,-200,4,2,1,30,0,0
200444,-66.6666666666667,4,2,1,30,0,0
200486,-100,4,2,1,30,0,0
200819,-111.111111111111,4,2,1,35,0,0
200903,-90.9090909090909,4,2,1,30,0,0
200986,-111.111111111111,4,2,1,30,0,0
201069,-90.9090909090909,4,2,1,30,0,0
201153,-100,4,2,1,30,0,0
201486,-250,4,2,1,40,0,0
201528,-62.5,4,2,1,30,0,0
201569,-250,4,2,1,30,0,0
201611,-62.5,4,2,1,30,0,0
201653,-250,4,2,1,30,0,0
201694,-62.5,4,2,1,30,0,0
201736,-250,4,2,1,30,0,0
201778,-62.5,4,2,1,30,0,0
201819,-100,4,2,1,30,0,0
202153,-166.666666666667,4,2,1,45,0,0
202236,-71.4285714285714,4,2,1,30,0,0
202319,-166.666666666667,4,2,1,30,0,0
202403,-71.4285714285714,4,2,1,30,0,0
202486,-100,4,2,1,30,0,0
202819,-333.333333333333,4,2,1,50,0,0
202861,-58.8235294117647,4,2,1,30,0,0
202903,-333.333333333333,4,2,1,30,0,0
202944,-58.8235294117647,4,2,1,30,0,0
202986,-333.333333333333,4,2,1,30,0,0
203028,-58.8235294117647,4,2,1,30,0,0
203069,-333.333333333333,4,2,1,30,0,0
203111,-58.8235294117647,4,2,1,30,0,0
203153,-100,4,2,1,30,0,0
203486,-333.333333333333,4,2,1,55,0,0
203569,-58.8235294117647,4,2,1,30,0,0
203653,-333.333333333333,4,2,1,30,0,0
203736,-58.8235294117647,4,2,1,30,0,0
203819,-100,4,2,1,30,0,0
204153,-500,4,2,1,55,0,0
204194,-55.5555555555556,4,2,1,30,0,0
204236,-500,4,2,1,30,0,0
204278,-55.5555555555556,4,2,1,30,0,0
204319,-500,4,2,1,30,0,0
204361,-55.5555555555556,4,2,1,30,0,0
204403,-500,4,2,1,30,0,0
204444,-55.5555555555556,4,2,1,30,0,0
204486,-100,4,2,1,30,0,0
204819,-1000,4,2,1,30,0,0
204840,-52.6315789473684,4,2,1,30,0,0
204861,-500,4,2,1,30,0,0
204882,-55.5555555555556,4,2,1,30,0,0
204903,-333.333333333333,4,2,1,30,0,0
204924,-58.8235294117647,4,2,1,30,0,0
204944,-285.714285714286,4,2,1,30,0,0
204965,-60.6060606060606,4,2,1,30,0,0
204986,-250,4,2,1,30,0,0
205014,-62.5,4,2,1,30,0,0
205042,-222.222222222222,4,2,1,30,0,0
205069,-64.5161290322581,4,2,1,30,0,0
205097,-200,4,2,1,30,0,0
205125,-66.6666666666667,4,2,1,30,0,0
205153,-200,4,2,1,30,0,0
205174,-80,4,2,1,30,0,0
205215,-200,4,2,1,30,0,0
205236,-80,4,2,1,30,0,0
205278,-250,4,2,1,30,0,0
205319,-71.4285714285714,4,2,1,30,0,0
205382,-250,4,2,1,30,0,0
205424,-71.4285714285714,4,2,1,30,0,0
205486,-142.857142857143,4,2,1,30,0,0
205597,-76.9230769230769,4,2,1,30,0,0
205708,-125,4,2,1,30,0,0
205847,-83.3333333333333,4,2,1,30,0,0
205986,-133.333333333333,4,2,1,30,0,0
206069,-80,4,2,1,30,0,0
206153,-100,4,2,1,30,0,1
206819,-200,4,2,1,30,0,1
206861,-66.6666666666667,4,2,1,30,0,1
206902,-200,4,2,1,30,0,1
206944,-66.6666666666667,4,2,1,30,0,1
206986,-200,4,2,1,30,0,1
207027,-66.6666666666667,4,2,1,30,0,1
207069,-200,4,2,1,30,0,1
207111,-66.6666666666667,4,2,1,30,0,1
207152,-100,4,2,1,30,0,1
208152,-200,4,2,1,30,0,1
208181,-66.6666666666667,4,2,1,30,0,1
208208,-200,4,2,1,30,0,1
208236,-66.6666666666667,4,2,1,30,0,1
208264,-200,4,2,1,30,0,1
208292,-66.6666666666667,4,2,1,30,0,1
208319,-200,4,2,1,30,0,1
208347,-66.6666666666667,4,2,1,30,0,1
208375,-200,4,2,1,30,0,1
208403,-66.6666666666667,4,2,1,30,0,1
208431,-200,4,2,1,30,0,1
208458,-66.6666666666667,4,2,1,30,0,1
208486,-100,4,2,1,30,0,1
209486,-200,4,2,1,30,0,1
209527,-66.6666666666667,4,2,1,30,0,1
209569,-200,4,2,1,30,0,1
209611,-66.6666666666667,4,2,1,30,0,1
209652,-200,4,2,1,30,0,1
209694,-66.6666666666667,4,2,1,30,0,1
209736,-200,4,2,1,30,0,1
209777,-66.6666666666667,4,2,1,30,0,1
209819,-100,4,2,1,30,0,1
210819,-200,4,2,1,30,0,1
210847,-66.6666666666667,4,2,1,30,0,1
210875,-200,4,2,1,30,0,1
210903,-66.6666666666667,4,2,1,30,0,1
210931,-200,4,2,1,30,0,1
210958,-66.6666666666667,4,2,1,30,0,1
210986,-200,4,2,1,30,0,1
211014,-66.6666666666667,4,2,1,30,0,1
211042,-200,4,2,1,30,0,1
211069,-66.6666666666667,4,2,1,30,0,1
211097,-200,4,2,1,30,0,1
211125,-66.6666666666667,4,2,1,30,0,1
211152,-100,4,2,1,30,0,1
212152,-200,4,2,1,30,0,1
212181,-66.6666666666667,4,2,1,30,0,1
212208,-200,4,2,1,30,0,1
212236,-66.6666666666667,4,2,1,30,0,1
212264,-200,4,2,1,30,0,1
212292,-66.6666666666667,4,2,1,30,0,1
212319,-200,4,2,1,30,0,1
212347,-66.6666666666667,4,2,1,30,0,1
212375,-200,4,2,1,30,0,1
212403,-66.6666666666667,4,2,1,30,0,1
212431,-200,4,2,1,30,0,1
212458,-66.6666666666667,4,2,1,30,0,1
212486,-100,4,2,1,30,0,1
213486,-200,4,2,1,30,0,1
213527,-66.6666666666667,4,2,1,30,0,1
213569,-200,4,2,1,30,0,1
213611,-66.6666666666667,4,2,1,30,0,1
213652,-200,4,2,1,30,0,1
213694,-66.6666666666667,4,2,1,30,0,1
213736,-200,4,2,1,30,0,1
213777,-66.6666666666667,4,2,1,30,0,1
213819,-100,4,2,1,30,0,1
214819,-200,4,2,1,30,0,1
214861,-66.6666666666667,4,2,1,30,0,1
214902,-200,4,2,1,30,0,1
214944,-66.6666666666667,4,2,1,30,0,1
214986,-200,4,2,1,30,0,1
215027,-66.6666666666667,4,2,1,30,0,1
215069,-200,4,2,1,30,0,1
215111,-66.6666666666667,4,2,1,30,0,1
215152,-100,4,2,1,30,0,1
216152,-200,4,2,1,30,0,1
216181,-66.6666666666667,4,2,1,30,0,1
216208,-200,4,2,1,30,0,1
216236,-66.6666666666667,4,2,1,30,0,1
216264,-200,4,2,1,30,0,1
216292,-66.6666666666667,4,2,1,30,0,1
216319,-200,4,2,1,30,0,1
216333,-66.6666666666667,4,2,1,30,0,1
216347,-200,4,2,1,30,0,1
216361,-66.6666666666667,4,2,1,30,0,1
216375,-200,4,2,1,30,0,1
216389,-66.6666666666667,4,2,1,30,0,1
216403,-200,4,2,1,30,0,1
216417,-66.6666666666667,4,2,1,30,0,1
216431,-200,4,2,1,30,0,1
216458,-66.6666666666667,4,2,1,30,0,1
216486,-100,4,2,1,30,0,1
217486,-200,4,2,1,30,0,1
217527,-66.6666666666667,4,2,1,30,0,1
217569,-200,4,2,1,30,0,1
217611,-66.6666666666667,4,2,1,30,0,1
217652,-200,4,2,1,30,0,1
217694,-66.6666666666667,4,2,1,30,0,1
217736,-200,4,2,1,30,0,1
217777,-66.6666666666667,4,2,1,30,0,1
217819,-100,4,2,1,30,0,1
218819,-200,4,2,1,30,0,1
218861,-66.6666666666667,4,2,1,30,0,1
218902,-200,4,2,1,30,0,1
218944,-66.6666666666667,4,2,1,30,0,1
218986,-200,4,2,1,30,0,1
219027,-66.6666666666667,4,2,1,30,0,1
219069,-200,4,2,1,30,0,1
219111,-66.6666666666667,4,2,1,30,0,1
219152,-100,4,2,1,30,0,1
220152,-200,4,2,1,30,0,1
220194,-66.6666666666667,4,2,1,30,0,1
220236,-200,4,2,1,30,0,1
220277,-66.6666666666667,4,2,1,30,0,1
220319,-200,4,2,1,30,0,1
220361,-66.6666666666667,4,2,1,30,0,1
220402,-200,4,2,1,30,0,1
220444,-66.6666666666667,4,2,1,30,0,1
220486,-100,4,2,1,30,0,1
221486,-200,4,2,1,30,0,1
221527,-66.6666666666667,4,2,1,30,0,1
221569,-200,4,2,1,30,0,1
221611,-66.6666666666667,4,2,1,30,0,1
221652,-200,4,2,1,30,0,1
221694,-66.6666666666667,4,2,1,30,0,1
221736,-200,4,2,1,30,0,1
221777,-66.6666666666667,4,2,1,30,0,1
221819,-100,4,2,1,30,0,1
222486,-125,4,2,1,10,0,1
222528,-83.3333333333333,4,2,1,10,0,1
222569,-125,4,2,1,10,0,1
222611,-83.3333333333333,4,2,1,10,0,1
222653,-125,4,2,1,10,0,1
222694,-83.3333333333333,4,2,1,10,0,1
222736,-125,4,2,1,10,0,1
222778,-83.3333333333333,4,2,1,10,0,1
222819,-100,4,2,1,10,0,1
223153,-166.666666666667,4,2,1,15,0,1
223194,-71.4285714285714,4,2,1,15,0,1
223236,-166.666666666667,4,2,1,15,0,1
223278,-71.4285714285714,4,2,1,15,0,1
223319,-166.666666666667,4,2,1,15,0,1
223361,-71.4285714285714,4,2,1,15,0,1
223403,-166.666666666667,4,2,1,15,0,1
223444,-71.4285714285714,4,2,1,15,0,1
223486,-100,4,2,1,15,0,1
223819,-250,4,2,1,20,0,1
223861,-62.5,4,2,1,20,0,1
223903,-250,4,2,1,20,0,1
223944,-62.5,4,2,1,20,0,1
223986,-250,4,2,1,20,0,1
224028,-62.5,4,2,1,20,0,1
224069,-250,4,2,1,20,0,1
224111,-62.5,4,2,1,20,0,1
224153,-100,4,2,1,20,0,1
224486,-500,4,2,1,25,0,1
224528,-55.5555555555556,4,2,1,25,0,1
224569,-500,4,2,1,25,0,1
224611,-55.5555555555556,4,2,1,25,0,1
224653,-500,4,2,1,25,0,1
224694,-55.5555555555556,4,2,1,25,0,1
224736,-500,4,2,1,25,0,1
224778,-55.5555555555556,4,2,1,25,0,1
224819,-100,4,2,1,30,0,1
225153,-1000,4,2,1,30,0,1
225194,-52.6315789473684,4,2,1,30,0,1
225236,-1000,4,2,1,30,0,1
225278,-52.6315789473684,4,2,1,30,0,1
225319,-1000,4,2,1,30,0,1
225361,-52.6315789473684,4,2,1,30,0,1
225403,-1000,4,2,1,30,0,1
225444,-52.6315789473684,4,2,1,30,0,1
225486,-100,4,2,1,30,0,1
225819,-1000,4,2,1,35,0,1
225861,-52.6315789473684,4,2,1,35,0,1
225903,-1000,4,2,1,35,0,1
225944,-52.6315789473684,4,2,1,35,0,1
225986,-1000,4,2,1,35,0,1
226028,-52.6315789473684,4,2,1,35,0,1
226069,-1000,4,2,1,35,0,1
226111,-52.6315789473684,4,2,1,35,0,1
226153,-100,4,2,1,35,0,1
226319,-1000,4,2,1,35,0,1
226361,-52.6315789473684,4,2,1,35,0,1
226403,-1000,4,2,1,35,0,1
226444,-52.6315789473684,4,2,1,35,0,1
226486,-1000,4,2,1,40,0,1
226528,-52.6315789473684,4,2,1,40,0,1
226569,-1000,4,2,1,40,0,1
226611,-52.6315789473684,4,2,1,40,0,1
226653,-1000,4,2,1,40,0,1
226694,-52.6315789473684,4,2,1,40,0,1
226736,-1000,4,2,1,40,0,1
226778,-52.6315789473684,4,2,1,40,0,1
226819,-250,4,2,1,40,0,1
226944,-35.7142857142857,4,2,1,45,0,1
226986,-333.333333333333,4,2,1,45,0,1
227111,-31.2500000000001,4,2,1,50,0,1
227153,-500,4,2,1,50,0,1
227278,-26.3157894736844,4,2,1,55,0,1
227319,-1000,4,2,1,55,0,1
227444,-22.2222222222222,4,2,1,55,0,1
227486,-100,4,2,1,15,0,0
248819,-100,4,2,1,5,0,0
250486,-105.263157894737,4,2,1,5,0,0
253153,-111.111111111111,4,2,1,5,0,0
255819,-117.647058823529,4,2,1,5,0,0
258486,-125,4,2,1,5,0,0
261153,-133.333333333333,4,2,1,5,0,0
263819,-142.857142857143,4,2,1,5,0,0
266486,-153.846153846154,4,2,1,5,0,0
269153,-166.666666666667,4,2,1,5,0,0
271819,-181.818181818182,4,2,1,5,0,0
274486,-200,4,2,1,5,0,0

[HitObjects]
448,192,820,5,0,0:0:0:0:
64,192,2153,1,0,0:0:0:0:
192,192,6153,128,0,8819:0:0:0:0:
448,192,8819,1,0,0:0:0:0:
448,192,11486,1,0,0:0:0:0:
64,192,12819,1,0,0:0:0:0:
192,192,16819,1,0,0:0:0:0:
192,192,19819,128,0,22153:0:0:0:0:
64,192,22153,1,0,0:0:0:0:
448,192,22153,1,0,0:0:0:0:
320,192,22153,1,0,0:0:0:0:
192,192,22486,1,0,0:0:0:0:
320,192,22653,1,0,0:0:0:0:
448,192,22819,1,0,0:0:0:0:
64,192,22819,1,0,0:0:0:0:
64,192,23153,1,0,0:0:0:0:
448,192,23153,1,0,0:0:0:0:
192,192,23486,1,0,0:0:0:0:
320,192,23653,1,0,0:0:0:0:
448,192,23819,1,0,0:0:0:0:
64,192,23819,1,0,0:0:0:0:
192,192,24819,1,0,0:0:0:0:
64,192,24819,1,0,0:0:0:0:
448,192,24819,1,0,0:0:0:0:
320,192,24986,1,0,0:0:0:0:
448,192,25153,1,0,0:0:0:0:
192,192,25486,1,0,0:0:0:0:
448,192,25486,1,0,0:0:0:0:
448,192,25819,1,0,0:0:0:0:
64,192,26153,1,0,0:0:0:0:
320,192,26319,1,0,0:0:0:0:
448,192,26486,1,0,0:0:0:0:
192,192,26486,1,0,0:0:0:0:
320,192,27486,1,0,0:0:0:0:
448,192,27486,1,0,0:0:0:0:
64,192,27486,1,0,0:0:0:0:
192,192,27819,1,0,0:0:0:0:
320,192,27986,1,0,0:0:0:0:
448,192,28153,1,0,0:0:0:0:
64,192,28486,1,0,0:0:0:0:
448,192,28486,1,0,0:0:0:0:
192,192,28819,1,0,0:0:0:0:
320,192,28986,1,0,0:0:0:0:
448,192,29153,1,0,0:0:0:0:
192,192,30153,1,0,0:0:0:0:
64,192,30153,1,0,0:0:0:0:
448,192,30153,1,0,0:0:0:0:
320,192,30319,1,0,0:0:0:0:
448,192,30486,1,0,0:0:0:0:
192,192,30819,1,0,0:0:0:0:
448,192,30819,1,0,0:0:0:0:
448,192,31153,1,0,0:0:0:0:
192,192,31153,1,0,0:0:0:0:
64,192,31486,1,0,0:0:0:0:
320,192,31653,1,0,0:0:0:0:
448,192,31819,128,0,32819:0:0:0:0:
192,192,32819,1,0,0:0:0:0:
320,192,32819,1,0,0:0:0:0:
64,192,32819,1,0,0:0:0:0:
192,192,33153,1,0,0:0:0:0:
320,192,33319,1,0,0:0:0:0:
448,192,33486,1,0,0:0:0:0:
64,192,33486,1,0,0:0:0:0:
64,192,33819,1,0,0:0:0:0:
448,192,33819,1,0,0:0:0:0:
448,192,34153,128,0,34236:0:0:0:0:
192,192,34153,128,0,34236:0:0:0:0:
64,192,34153,128,0,34236:0:0:0:0:
320,192,34319,1,0,0:0:0:0:
448,192,34486,1,0,0:0:0:0:
64,192,34486,1,0,0:0:0:0:
448,192,35486,1,0,0:0:0:0:
64,192,35486,1,0,0:0:0:0:
192,192,35486,1,0,0:0:0:0:
320,192,35653,1,0,0:0:0:0:
448,192,35819,1,0,0:0:0:0:
448,192,36153,1,0,0:0:0:0:
448,192,36486,1,0,0:0:0:0:
192,192,36819,1,0,0:0:0:0:
320,192,36986,1,0,0:0:0:0:
448,192,37153,1,0,0:0:0:0:
64,192,37153,1,0,0:0:0:0:
192,192,37986,128,0,38153:0:0:0:0:
64,192,38153,1,0,0:0:0:0:
320,192,38153,1,0,0:0:0:0:
448,192,38153,1,0,0:0:0:0:
192,192,38486,1,0,0:0:0:0:
320,192,38653,1,0,0:0:0:0:
448,192,38819,1,0,0:0:0:0:
64,192,38819,1,0,0:0:0:0:
64,192,39153,1,0,0:0:0:0:
448,192,39153,1,0,0:0:0:0:
320,192,39319,128,0,39403:0:0:0:0:
448,192,39486,128,0,39569:0:0:0:0:
192,192,39486,128,0,39569:0:0:0:0:
64,192,39486,128,0,39569:0:0:0:0:
320,192,39653,1,0,0:0:0:0:
448,192,39819,1,0,0:0:0:0:
64,192,40819,1,0,0:0:0:0:
192,192,40819,1,0,0:0:0:0:
448,192,40819,1,0,0:0:0:0:
320,192,40986,1,0,0:0:0:0:
448,192,41153,1,0,0:0:0:0:
192,192,41153,1,0,0:0:0:0:
192,192,41486,1,0,0:0:0:0:
448,192,41486,1,0,0:0:0:0:
448,192,41819,1,0,0:0:0:0:
192,192,41819,1,0,0:0:0:0:
64,192,42153,1,0,0:0:0:0:
320,192,42319,1,0,0:0:0:0:
448,192,42486,1,0,0:0:0:0:
320,192,43486,1,0,0:0:0:0:
448,192,43486,1,0,0:0:0:0:
64,192,43486,1,0,0:0:0:0:
64,192,43819,1,0,0:0:0:0:
192,192,43861,1,0,0:0:0:0:
448,192,43903,1,0,0:0:0:0:
320,192,43944,1,0,0:0:0:0:
64,192,43986,1,0,0:0:0:0:
192,192,44028,1,0,0:0:0:0:
448,192,44069,1,0,0:0:0:0:
320,192,44111,1,0,0:0:0:0:
192,192,44153,1,0,0:0:0:0:
64,192,44153,1,0,0:0:0:0:
448,192,44486,1,0,0:0:0:0:
64,192,44486,1,0,0:0:0:0:
64,192,44819,128,0,44903:0:0:0:0:
192,192,44819,128,0,44903:0:0:0:0:
448,192,44819,128,0,44903:0:0:0:0:
320,192,44986,1,0,0:0:0:0:
448,192,45153,1,0,0:0:0:0:
64,192,45153,1,0,0:0:0:0:
320,192,45458,1,0,0:0:0:0:
192,192,46153,1,0,0:0:0:0:
448,192,46153,1,0,0:0:0:0:
64,192,46153,1,0,0:0:0:0:
320,192,46319,1,0,0:0:0:0:
448,192,46486,1,0,0:0:0:0:
64,192,46486,1,0,0:0:0:0:
448,192,46799,1,0,0:0:0:0:
64,192,46819,1,0,0:0:0:0:
448,192,47153,1,0,0:0:0:0:
192,192,47181,1,0,0:0:0:0:
192,192,47486,1,0,0:0:0:0:
64,192,47486,1,0,0:0:0:0:
320,192,47653,1,0,0:0:0:0:
448,192,47819,1,0,0:0:0:0:
320,192,48819,1,0,0:0:0:0:
64,192,48819,1,0,0:0:0:0:
448,192,48819,1,0,0:0:0:0:
192,192,49153,1,0,0:0:0:0:
64,192,49153,1,0,0:0:0:0:
320,192,49319,1,0,0:0:0:0:
448,192,49486,1,0,0:0:0:0:
64,192,49486,1,0,0:0:0:0:
64,192,49778,1,0,0:0:0:0:
448,192,49819,1,0,0:0:0:0:
320,192,49986,128,0,50069:0:0:0:0:
448,192,50153,128,0,50236:0:0:0:0:
192,192,50153,128,0,50236:0:0:0:0:
64,192,50153,128,0,50236:0:0:0:0:
320,192,50319,1,0,0:0:0:0:
448,192,50486,1,0,0:0:0:0:
64,192,50792,1,0,0:0:0:0:
64,192,51486,1,0,0:0:0:0:
192,192,51486,1,0,0:0:0:0:
448,192,51486,1,0,0:0:0:0:
320,192,51653,1,0,0:0:0:0:
448,192,51819,1,0,0:0:0:0:
192,192,51819,1,0,0:0:0:0:
448,192,52153,1,0,0:0:0:0:
192,192,52486,1,0,0:0:0:0:
448,192,52486,1,0,0:0:0:0:
64,192,52819,1,0,0:0:0:0:
320,192,52986,1,0,0:0:0:0:
448,192,53153,128,0,54153:0:0:0:0:
64,192,54153,1,0,0:0:0:0:
192,192,54153,1,0,0:0:0:0:
320,192,54486,1,0,0:0:0:0:
192,192,54653,1,0,0:0:0:0:
448,192,54819,1,0,0:0:0:0:
64,192,54986,1,0,0:0:0:0:
448,192,55153,1,0,0:0:0:0:
320,192,55208,1,0,0:0:0:0:
192,192,55340,1,0,0:0:0:0:
64,192,55486,1,0,0:0:0:0:
192,192,55542,1,0,0:0:0:0:
320,192,55653,1,0,0:0:0:0:
64,192,55708,1,0,0:0:0:0:
448,192,55819,1,0,0:0:0:0:
320,192,55986,1,0,0:0:0:0:
192,192,56042,1,0,0:0:0:0:
448,192,56236,1,0,0:0:0:0:
64,192,56319,1,0,0:0:0:0:
192,192,56403,1,0,0:0:0:0:
448,192,56486,1,0,0:0:0:0:
320,192,56542,1,0,0:0:0:0:
64,192,56653,1,0,0:0:0:0:
64,192,56819,1,0,0:0:0:0:
192,192,56875,1,0,0:0:0:0:
320,192,56944,1,0,0:0:0:0:
448,192,57049,1,0,0:0:0:0:
320,192,57090,1,0,0:0:0:0:
192,192,57153,1,0,0:0:0:0:
320,192,57319,1,0,0:0:0:0:
64,192,57375,1,0,0:0:0:0:
192,192,57431,1,0,0:0:0:0:
448,192,57542,1,0,0:0:0:0:
320,192,57653,1,0,0:0:0:0:
64,192,57708,1,0,0:0:0:0:
448,192,57819,1,0,0:0:0:0:
192,192,57986,1,0,0:0:0:0:
64,192,58153,1,0,0:0:0:0:
192,192,58347,1,0,0:0:0:0:
448,192,58431,1,0,0:0:0:0:
320,192,58486,1,0,0:0:0:0:
64,192,58653,1,0,0:0:0:0:
448,192,58764,1,0,0:0:0:0:
192,192,58819,1,0,0:0:0:0:
320,192,58875,1,0,0:0:0:0:
64,192,58986,1,0,0:0:0:0:
192,192,59042,1,0,0:0:0:0:
320,192,59153,1,0,0:0:0:0:
192,192,59278,1,0,0:0:0:0:
448,192,59319,1,0,0:0:0:0:
320,192,59403,1,0,0:0:0:0:
64,192,59486,1,0,0:0:0:0:
320,192,59625,1,0,0:0:0:0:
448,192,59792,1,0,0:0:0:0:
64,192,59986,1,0,0:0:0:0:
448,192,60111,1,0,0:0:0:0:
192,192,60319,1,0,0:0:0:0:
320,192,60444,1,0,0:0:0:0:
448,192,60486,1,0,0:0:0:0:
320,192,60653,1,0,0:0:0:0:
192,192,60792,1,0,0:0:0:0:
64,192,60819,1,0,0:0:0:0:
320,192,60958,1,0,0:0:0:0:
192,192,61125,1,0,0:0:0:0:
448,192,61153,1,0,0:0:0:0:
64,192,61319,1,0,0:0:0:0:
192,192,61653,1,0,0:0:0:0:
448,192,61819,1,0,0:0:0:0:
320,192,61986,1,0,0:0:0:0:
64,192,62153,1,0,0:0:0:0:
448,192,62486,1,0,0:0:0:0:
320,192,62653,1,0,0:0:0:0:
64,192,62819,1,0,0:0:0:0:
320,192,62986,1,0,0:0:0:0:
448,192,63153,1,0,0:0:0:0:
192,192,63319,1,0,0:0:0:0:
64,192,63486,1,0,0:0:0:0:
192,192,63653,1,0,0:0:0:0:
448,192,63819,1,0,0:0:0:0:
64,192,63944,1,0,0:0:0:0:
320,192,63986,1,0,0:0:0:0:
192,192,64014,1,0,0:0:0:0:
320,192,64153,1,0,0:0:0:0:
448,192,64208,1,0,0:0:0:0:
192,192,64319,1,0,0:0:0:0:
64,192,64382,1,0,0:0:0:0:
448,192,64486,1,0,0:0:0:0:
192,192,64653,1,0,0:0:0:0:
64,192,64819,1,0,0:0:0:0:
448,192,64819,1,0,0:0:0:0:
320,192,65028,1,0,0:0:0:0:
192,192,65125,1,0,0:0:0:0:
64,192,65153,1,0,0:0:0:0:
320,192,65292,1,0,0:0:0:0:
192,192,65319,1,0,0:0:0:0:
448,192,65458,1,0,0:0:0:0:
320,192,65542,1,0,0:0:0:0:
192,192,65653,1,0,0:0:0:0:
448,192,65778,1,0,0:0:0:0:
64,192,65819,1,0,0:0:0:0:
320,192,66014,1,0,0:0:0:0:
64,192,66125,1,0,0:0:0:0:
192,192,66153,1,0,0:0:0:0:
320,192,66292,1,0,0:0:0:0:
64,192,66403,1,0,0:0:0:0:
448,192,66486,1,0,0:0:0:0:
192,192,66653,1,0,0:0:0:0:
192,192,66847,1,0,0:0:0:0:
64,192,66986,1,0,0:0:0:0:
320,192,67042,1,0,0:0:0:0:
448,192,67153,1,0,0:0:0:0:
320,192,67319,1,0,0:0:0:0:
64,192,67486,1,0,0:0:0:0:
320,192,67632,1,0,0:0:0:0:
64,192,67736,1,0,0:0:0:0:
192,192,67778,1,0,0:0:0:0:
448,192,67819,1,0,0:0:0:0:
320,192,67986,1,0,0:0:0:0:
192,192,68153,1,0,0:0:0:0:
320,192,68236,1,0,0:0:0:0:
64,192,68319,1,0,0:0:0:0:
192,192,68375,1,0,0:0:0:0:
448,192,68486,1,0,0:0:0:0:
64,192,68625,1,0,0:0:0:0:
192,192,68653,1,0,0:0:0:0:
448,192,68708,1,0,0:0:0:0:
320,192,68819,1,0,0:0:0:0:
192,192,69069,1,0,0:0:0:0:
448,192,69153,1,0,0:0:0:0:
320,192,69208,1,0,0:0:0:0:
192,192,69319,1,0,0:0:0:0:
64,192,69375,1,0,0:0:0:0:
320,192,69486,1,0,0:0:0:0:
192,192,69625,1,0,0:0:0:0:
320,192,69653,1,0,0:0:0:0:
448,192,69819,1,0,0:0:0:0:
192,192,69986,1,0,0:0:0:0:
64,192,70153,128,0,78069:0:0:0:0:
448,192,70153,1,0,0:0:0:0:
192,192,70299,1,0,0:0:0:0:
320,192,70444,1,0,0:0:0:0:
448,192,70486,1,0,0:0:0:0:
320,192,70792,1,0,0:0:0:0:
448,192,70792,1,0,0:0:0:0:
320,192,71125,1,0,0:0:0:0:
448,192,71153,1,0,0:0:0:0:
448,192,71458,1,0,0:0:0:0:
192,192,71632,1,0,0:0:0:0:
320,192,71792,1,0,0:0:0:0:
448,192,71819,128,0,72153:0:0:0:0:
192,192,72153,128,0,72486:0:0:0:0:
320,192,72486,128,0,72819:0:0:0:0:
448,192,72819,128,0,73153:0:0:0:0:
192,192,73153,128,0,73819:0:0:0:0:
320,192,73486,128,0,74153:0:0:0:0:
448,192,73819,128,0,74653:0:0:0:0:
192,192,74153,128,0,74986:0:0:0:0:
320,192,74486,128,0,75319:0:0:0:0:
448,192,74819,128,0,75653:0:0:0:0:
192,192,75153,128,0,76069:0:0:0:0:
320,192,75486,128,0,76403:0:0:0:0:
448,192,75819,128,0,76736:0:0:0:0:
192,192,76153,128,0,77069:0:0:0:0:
320,192,76486,128,0,77403:0:0:0:0:
448,192,76819,128,0,77736:0:0:0:0:
192,192,77153,128,0,78069:0:0:0:0:
320,192,77486,128,0,78069:0:0:0:0:
448,192,77819,128,0,78069:0:0:0:0:
64,192,78153,1,0,0:0:0:0:
192,192,78153,1,0,0:0:0:0:
320,192,78153,1,2,0:0:0:0:
448,192,78153,1,0,0:0:0:0:
192,192,78319,1,0,0:0:0:0:
320,192,78319,1,0,0:0:0:0:
64,192,78486,1,0,0:0:0:0:
448,192,78542,1,0,0:0:0:0:
64,192,78597,1,0,0:0:0:0:
448,192,78653,1,0,0:0:0:0:
192,192,78708,1,0,0:0:0:0:
448,192,78764,1,0,0:0:0:0:
320,192,78819,1,4,0:0:0:0:
192,192,78819,1,0,0:0:0:0:
64,192,78819,1,0,0:0:0:0:
320,192,78986,1,4,0:0:0:0:
192,192,78986,1,0,0:0:0:0:
64,192,78986,1,0,0:0:0:0:
448,192,79153,1,0,0:0:0:0:
320,192,79236,1,0,0:0:0:0:
192,192,79319,1,0,0:0:0:0:
64,192,79319,1,0,0:0:0:0:
448,192,79486,128,0,79819:0:0:0:0:
320,192,79653,1,0,0:0:0:0:
192,192,79653,1,0,0:0:0:0:
64,192,79819,1,0,0:0:0:0:
320,192,79875,1,0,0:0:0:0:
64,192,79931,1,0,0:0:0:0:
192,192,79986,1,0,0:0:0:0:
320,192,79986,1,0,0:0:0:0:
192,192,80153,1,4,0:0:0:0:
64,192,80153,1,0,0:0:0:0:
448,192,80153,1,0,0:0:0:0:
320,192,80208,1,0,0:0:0:0:
64,192,80264,1,0,0:0:0:0:
192,192,80319,128,0,80486:0:0:0:0:
320,192,80319,128,0,80653:0:0:0:0:
64,192,80486,128,0,80653:0:0:0:0:
448,192,80486,128,0,80819:0:0:0:0:
192,192,80653,128,0,80819:0:0:0:0:
64,192,80819,128,2,81153:0:0:0:0:
320,192,80819,1,0,0:0:0:0:
320,192,80986,1,0,0:0:0:0:
448,192,80986,128,0,81153:0:0:0:0:
192,192,81153,1,0,0:0:0:0:
320,192,81208,1,0,0:0:0:0:
192,192,81264,1,0,0:0:0:0:
320,192,81319,1,0,0:0:0:0:
64,192,81375,1,0,0:0:0:0:
320,192,81431,1,0,0:0:0:0:
64,192,81486,1,0,0:0:0:0:
448,192,81486,1,4,0:0:0:0:
192,192,81486,1,0,0:0:0:0:
64,192,81653,1,0,0:0:0:0:
448,192,81653,1,4,0:0:0:0:
192,192,81653,1,0,0:0:0:0:
320,192,81819,1,0,0:0:0:0:
192,192,81903,1,0,0:0:0:0:
64,192,81986,1,0,0:0:0:0:
448,192,81986,1,0,0:0:0:0:
320,192,82153,128,0,82486:0:0:0:0:
448,192,82153,1,0,0:0:0:0:
192,192,82319,1,0,0:0:0:0:
64,192,82319,1,0,0:0:0:0:
64,192,82486,1,0,0:0:0:0:
192,192,82486,1,0,0:0:0:0:
448,192,82542,1,0,0:0:0:0:
320,192,82597,1,0,0:0:0:0:
192,192,82653,1,0,0:0:0:0:
448,192,82708,1,0,0:0:0:0:
192,192,82764,1,0,0:0:0:0:
64,192,82819,128,0,83153:0:0:0:0:
320,192,82819,1,4,0:0:0:0:
448,192,82819,1,0,0:0:0:0:
192,192,82986,128,0,83153:0:0:0:0:
320,192,83153,128,0,83486:0:0:0:0:
192,192,83486,1,0,0:0:0:0:
64,192,83486,1,2,0:0:0:0:
448,192,83486,1,0,0:0:0:0:
64,192,83819,1,0,0:0:0:0:
320,192,83875,1,0,0:0:0:0:
64,192,83931,1,0,0:0:0:0:
448,192,83986,1,0,0:0:0:0:
192,192,84042,1,0,0:0:0:0:
448,192,84097,1,0,0:0:0:0:
320,192,84153,1,4,0:0:0:0:
192,192,84153,1,0,0:0:0:0:
64,192,84153,1,0,0:0:0:0:
320,192,84319,1,4,0:0:0:0:
192,192,84319,1,0,0:0:0:0:
64,192,84319,1,0,0:0:0:0:
448,192,84486,1,0,0:0:0:0:
320,192,84569,1,0,0:0:0:0:
192,192,84653,1,0,0:0:0:0:
64,192,84653,1,0,0:0:0:0:
448,192,84819,128,0,84986:0:0:0:0:
320,192,84819,128,0,84986:0:0:0:0:
64,192,84986,1,0,0:0:0:0:
192,192,84986,1,0,0:0:0:0:
320,192,85153,1,0,0:0:0:0:
192,192,85208,1,0,0:0:0:0:
320,192,85264,1,0,0:0:0:0:
192,192,85319,1,0,0:0:0:0:
64,192,85319,128,0,85486:0:0:0:0:
192,192,85486,1,0,0:0:0:0:
448,192,85486,1,4,0:0:0:0:
320,192,85542,1,0,0:0:0:0:
448,192,85597,1,0,0:0:0:0:
64,192,85653,128,0,85986:0:0:0:0:
192,192,85653,128,0,85819:0:0:0:0:
448,192,85819,128,0,86153:0:0:0:0:
320,192,85819,128,0,85986:0:0:0:0:
192,192,85986,128,0,86153:0:0:0:0:
64,192,86153,1,0,0:0:0:0:
320,192,86153,128,2,86486:0:0:0:0:
448,192,86319,128,0,86486:0:0:0:0:
192,192,86319,1,0,0:0:0:0:
192,192,86486,1,0,0:0:0:0:
64,192,86486,1,0,0:0:0:0:
448,192,86653,1,0,0:0:0:0:
64,192,86708,1,0,0:0:0:0:
448,192,86764,1,0,0:0:0:0:
64,192,86819,1,0,0:0:0:0:
320,192,86819,1,4,0:0:0:0:
192,192,86819,1,0,0:0:0:0:
320,192,86986,1,4,0:0:0:0:
192,192,86986,1,0,0:0:0:0:
64,192,86986,1,0,0:0:0:0:
448,192,87153,1,0,0:0:0:0:
320,192,87236,1,0,0:0:0:0:
192,192,87319,1,0,0:0:0:0:
448,192,87375,128,0,87653:0:0:0:0:
320,192,87431,128,0,87653:0:0:0:0:
64,192,87486,128,0,87819:0:0:0:0:
192,192,87653,128,0,87819:0:0:0:0:
320,192,87819,128,0,87986:0:0:0:0:
192,192,87986,1,0,0:0:0:0:
320,192,88153,1,0,0:0:0:0:
448,192,88153,128,4,88486:0:0:0:0:
64,192,88153,1,0,0:0:0:0:
192,192,88319,1,0,0:0:0:0:
320,192,88319,128,0,88653:0:0:0:0:
64,192,88486,1,0,0:0:0:0:
192,192,88486,128,0,88653:0:0:0:0:
64,192,88653,128,0,88819:0:0:0:0:
448,192,88653,1,0,0:0:0:0:
192,192,88819,1,0,0:0:0:0:
320,192,88819,1,2,0:0:0:0:
448,192,88819,1,0,0:0:0:0:
320,192,88986,1,0,0:0:0:0:
64,192,88986,1,0,0:0:0:0:
448,192,89153,1,0,0:0:0:0:
192,192,89208,1,0,0:0:0:0:
448,192,89264,1,0,0:0:0:0:
192,192,89319,1,0,0:0:0:0:
320,192,89375,1,0,0:0:0:0:
192,192,89431,1,0,0:0:0:0:
64,192,89486,1,0,0:0:0:0:
320,192,89486,1,0,0:0:0:0:
448,192,89486,1,4,0:0:0:0:
320,192,89653,1,0,0:0:0:0:
64,192,89653,1,0,0:0:0:0:
448,192,89653,1,4,0:0:0:0:
192,192,89819,1,0,0:0:0:0:
448,192,89903,1,0,0:0:0:0:
320,192,89986,1,0,0:0:0:0:
64,192,89986,1,0,0:0:0:0:
448,192,90153,128,0,90486:0:0:0:0:
320,192,90319,1,0,0:0:0:0:
64,192,90319,1,0,0:0:0:0:
192,192,90486,1,0,0:0:0:0:
320,192,90542,1,0,0:0:0:0:
192,192,90597,1,0,0:0:0:0:
320,192,90653,1,0,0:0:0:0:
64,192,90653,1,0,0:0:0:0:
192,192,90819,1,0,0:0:0:0:
64,192,90819,1,0,0:0:0:0:
320,192,90819,1,4,0:0:0:0:
448,192,90875,1,0,0:0:0:0:
64,192,90931,1,0,0:0:0:0:
192,192,90986,128,0,91153:0:0:0:0:
448,192,90986,128,0,91319:0:0:0:0:
64,192,91153,128,0,91319:0:0:0:0:
320,192,91153,128,0,91319:0:0:0:0:
192,192,91319,128,0,91653:0:0:0:0:
64,192,91486,128,0,91819:0:0:0:0:
320,192,91486,128,2,91653:0:0:0:0:
448,192,91653,128,0,91819:0:0:0:0:
320,192,91819,1,0,0:0:0:0:
192,192,91875,1,0,0:0:0:0:
320,192,91931,1,0,0:0:0:0:
192,192,91986,1,0,0:0:0:0:
448,192,92042,1,0,0:0:0:0:
192,192,92097,1,0,0:0:0:0:
448,192,92153,1,4,0:0:0:0:
64,192,92153,1,0,0:0:0:0:
320,192,92153,1,0,0:0:0:0:
64,192,92319,1,0,0:0:0:0:
320,192,92319,1,0,0:0:0:0:
448,192,92319,1,4,0:0:0:0:
192,192,92486,1,0,0:0:0:0:
64,192,92569,1,0,0:0:0:0:
320,192,92653,1,0,0:0:0:0:
448,192,92653,1,0,0:0:0:0:
448,192,92819,1,0,0:0:0:0:
64,192,92819,1,0,0:0:0:0:
320,192,92986,1,0,0:0:0:0:
64,192,92986,1,0,0:0:0:0:
64,192,93153,1,0,0:0:0:0:
320,192,93153,1,0,0:0:0:0:
192,192,93208,1,0,0:0:0:0:
448,192,93264,1,0,0:0:0:0:
320,192,93319,1,0,0:0:0:0:
192,192,93375,1,0,0:0:0:0:
320,192,93431,1,0,0:0:0:0:
64,192,93486,128,4,93819:0:0:0:0:
192,192,93486,1,0,0:0:0:0:
448,192,93486,1,0,0:0:0:0:
192,192,93653,128,0,93819:0:0:0:0:
320,192,93819,128,0,94153:0:0:0:0:
192,192,94153,1,2,0:0:0:0:
64,192,94153,1,0,0:0:0:0:
448,192,94153,1,0,0:0:0:0:
320,192,94486,1,0,0:0:0:0:
64,192,94542,1,0,0:0:0:0:
320,192,94597,1,0,0:0:0:0:
192,192,94653,1,0,0:0:0:0:
448,192,94708,1,0,0:0:0:0:
192,192,94764,1,0,0:0:0:0:
64,192,94819,1,0,0:0:0:0:
320,192,94819,1,0,0:0:0:0:
448,192,94819,1,4,0:0:0:0:
64,192,94986,1,0,0:0:0:0:
320,192,94986,1,0,0:0:0:0:
448,192,94986,1,4,0:0:0:0:
192,192,95153,1,0,0:0:0:0:
320,192,95236,1,0,0:0:0:0:
448,192,95319,1,0,0:0:0:0:
64,192,95319,1,0,0:0:0:0:
192,192,95486,128,0,95653:0:0:0:0:
320,192,95486,128,0,95653:0:0:0:0:
64,192,95653,1,0,0:0:0:0:
448,192,95653,1,0,0:0:0:0:
320,192,95819,1,0,0:0:0:0:
64,192,95875,1,0,0:0:0:0:
320,192,95931,1,0,0:0:0:0:
64,192,95986,1,0,0:0:0:0:
448,192,95986,128,0,96153:0:0:0:0:
192,192,96153,1,4,0:0:0:0:
64,192,96153,1,0,0:0:0:0:
320,192,96208,1,0,0:0:0:0:
192,192,96264,1,0,0:0:0:0:
64,192,96319,128,0,96653:0:0:0:0:
448,192,96319,128,0,96486:0:0:0:0:
320,192,96486,128,0,96819:0:0:0:0:
192,192,96486,128,0,96653:0:0:0:0:
448,192,96653,128,0,96819:0:0:0:0:
64,192,96819,1,0,0:0:0:0:
192,192,96819,128,2,97153:0:0:0:0:
320,192,96986,128,0,97153:0:0:0:0:
448,192,96986,1,0,0:0:0:0:
448,192,97153,1,0,0:0:0:0:
64,192,97153,1,0,0:0:0:0:
192,192,97319,1,0,0:0:0:0:
320,192,97375,1,0,0:0:0:0:
192,192,97431,1,0,0:0:0:0:
320,192,97486,1,0,0:0:0:0:
64,192,97486,1,0,0:0:0:0:
448,192,97486,1,4,0:0:0:0:
64,192,97653,1,0,0:0:0:0:
320,192,97653,1,0,0:0:0:0:
448,192,97653,1,4,0:0:0:0:
192,192,97819,1,0,0:0:0:0:
320,192,97875,1,0,0:0:0:0:
448,192,97931,1,0,0:0:0:0:
192,192,97986,1,0,0:0:0:0:
64,192,97986,1,0,0:0:0:0:
320,192,98153,128,0,98486:0:0:0:0:
192,192,98486,128,0,98819:0:0:0:0:
64,192,98819,128,0,99153:0:0:0:0:
320,192,98819,128,4,99153:0:0:0:0:
448,192,98819,128,0,99153:0:0:0:0:
192,192,99153,128,0,99486:0:0:0:0:
64,192,99486,1,0,0:0:0:0:
320,192,99486,1,2,0:0:0:0:
448,192,99486,1,0,0:0:0:0:
192,192,100153,128,4,100486:0:0:0:0:
64,192,100153,128,0,100486:0:0:0:0:
448,192,100153,128,0,100486:0:0:0:0:
320,192,100819,128,0,101153:0:0:0:0:
64,192,101486,128,0,101819:0:0:0:0:
192,192,101486,128,4,101819:0:0:0:0:
448,192,101486,128,0,101819:0:0:0:0:
64,192,102153,1,0,0:0:0:0:
320,192,102153,1,2,0:0:0:0:
448,192,102153,1,0,0:0:0:0:
320,192,102653,128,0,102819:0:0:0:0:
64,192,102819,128,0,103153:0:0:0:0:
192,192,102819,128,4,103153:0:0:0:0:
448,192,102819,128,0,103153:0:0:0:0:
320,192,103486,128,0,103819:0:0:0:0:
192,192,104153,128,4,104486:0:0:0:0:
64,192,104153,128,0,104486:0:0:0:0:
448,192,104153,128,0,104486:0:0:0:0:
320,192,104819,1,2,0:0:0:0:
448,192,104819,1,0,0:0:0:0:
64,192,104819,1,0,0:0:0:0:
320,192,105319,128,0,105486:0:0:0:0:
192,192,105486,128,4,105819:0:0:0:0:
64,192,105486,128,0,105819:0:0:0:0:
448,192,105486,128,0,105819:0:0:0:0:
320,192,106153,128,0,106486:0:0:0:0:
192,192,106153,128,0,106319:0:0:0:0:
64,192,106819,128,0,107153:0:0:0:0:
192,192,106819,128,4,107153:0:0:0:0:
448,192,106819,128,0,107153:0:0:0:0:
320,192,107486,1,2,0:0:0:0:
448,192,107486,1,0,0:0:0:0:
64,192,107486,1,0,0:0:0:0:
320,192,107986,128,0,108153:0:0:0:0:
64,192,108153,128,0,108486:0:0:0:0:
192,192,108153,128,4,108486:0:0:0:0:
448,192,108153,128,0,108486:0:0:0:0:
320,192,108819,128,0,109153:0:0:0:0:
64,192,109486,128,4,109819:0:0:0:0:
448,192,109486,128,0,109819:0:0:0:0:
320,192,110153,1,2,0:0:0:0:
448,192,110153,1,0,0:0:0:0:
64,192,110153,1,0,0:0:0:0:
320,192,110653,128,0,110819:0:0:0:0:
64,192,110819,128,4,111153:0:0:0:0:
448,192,110819,128,0,111153:0:0:0:0:
320,192,111486,128,0,111819:0:0:0:0:
64,192,112153,128,0,112486:0:0:0:15:soft-hitfinish.wav
448,192,112153,128,0,112486:0:0:0:0:
320,192,112819,1,0,0:0:0:0:
64,192,112819,1,2,0:0:0:0:
320,192,113319,128,0,113486:0:0:0:0:
64,192,113486,128,0,113819:0:0:0:10:soft-hitfinish.wav
448,192,113486,128,0,113819:0:0:0:0:
320,192,114153,128,0,114486:0:0:0:0:
64,192,114819,128,4,115153:0:0:0:0:
448,192,115486,1,2,0:0:0:0:
64,192,115819,1,0,0:0:0:0:
320,192,116153,1,0,0:0:0:0:
64,192,116458,1,0,0:0:0:0:
448,192,116819,128,0,116986:0:0:0:0:
192,192,117319,128,0,117486:0:0:0:0:
320,192,117819,128,0,117986:0:0:0:0:
64,192,118153,1,0,0:0:0:0:
192,192,118486,1,0,0:0:0:0:
192,192,118819,1,0,0:0:0:0:
448,192,119153,1,0,0:0:0:0:
320,192,119514,1,0,0:0:0:0:
192,192,120819,1,0,0:0:0:0:
64,192,120819,1,0,0:0:0:0:
448,192,121319,128,0,121486:0:0:0:0:
192,192,121986,1,0,0:0:0:0:
192,192,122153,1,0,0:0:0:0:
64,192,122153,1,0,0:0:0:0:
192,192,123486,1,0,0:0:0:0:
64,192,123986,1,0,0:0:0:0:
64,192,124153,1,0,0:0:0:0:
192,192,124819,1,0,0:0:0:0:
448,192,126153,1,0,0:0:0:0:
320,192,126153,1,0,0:0:0:0:
64,192,126653,128,0,126819:0:0:0:0:
320,192,127486,1,0,0:0:0:0:
192,192,127486,1,0,0:0:0:0:
320,192,128819,1,0,0:0:0:0:
320,192,131486,1,0,0:0:0:0:
192,192,131486,1,0,0:0:0:0:
448,192,131986,128,0,132153:0:0:0:0:
192,192,132653,1,0,0:0:0:0:
192,192,132819,1,0,0:0:0:0:
320,192,132819,1,0,0:0:0:0:
192,192,134153,1,0,0:0:0:0:
320,192,134653,1,0,0:0:0:0:
320,192,134819,1,0,0:0:0:0:
64,192,135486,128,0,141819:0:0:0:0:
448,192,136819,1,0,0:0:0:0:
320,192,136819,1,0,0:0:0:0:
192,192,137153,128,0,137486:0:0:0:0:
320,192,137486,128,0,137819:0:0:0:0:
448,192,137819,128,0,138153:0:0:0:0:
192,192,138153,128,0,138819:0:0:0:0:
320,192,138486,128,0,139153:0:0:0:0:
448,192,138819,128,0,139486:0:0:0:0:
192,192,139153,128,0,139986:0:0:0:0:
320,192,139486,128,0,140319:0:0:0:0:
448,192,139819,128,0,140653:0:0:0:0:
192,192,140153,128,0,141069:0:0:0:0:
320,192,140486,128,0,141403:0:0:0:0:
448,192,140819,128,0,141819:0:0:0:0:
192,192,141153,128,0,141819:0:0:0:0:
320,192,141486,128,0,141819:0:0:0:0:
64,192,142153,128,0,143486:0:0:0:0:
448,192,142153,1,0,0:0:0:0:
192,192,142153,1,0,0:0:0:0:
320,192,142153,1,2,0:0:0:0:
320,192,143486,1,0,0:0:0:0:
192,192,143486,1,0,0:0:0:0:
448,192,143486,128,0,144819:0:0:0:0:
192,192,144819,1,0,0:0:0:0:
64,192,144819,1,0,0:0:0:0:
320,192,144819,128,2,146153:0:0:0:0:
192,192,146153,1,0,0:0:0:0:
448,192,146153,1,0,0:0:0:0:
64,192,146153,128,0,147486:0:0:0:0:
320,192,147486,1,2,0:0:0:0:
192,192,147486,1,0,0:0:0:0:
448,192,147486,128,0,148819:0:0:0:0:
192,192,148819,1,0,0:0:0:0:
64,192,148819,1,0,0:0:0:0:
320,192,148819,128,0,150153:0:0:0:0:
192,192,150153,1,0,0:0:0:0:
448,192,150153,1,0,0:0:0:0:
64,192,150153,128,2,151486:0:0:0:0:
448,192,151486,128,0,152153:0:0:0:0:
192,192,151486,1,0,0:0:0:0:
320,192,151486,1,0,0:0:0:0:
64,192,152153,1,0,0:0:0:0:
320,192,152153,1,0,0:0:0:0:
192,192,152153,128,0,152819:0:0:0:0:
320,192,152819,1,0,0:0:0:0:
448,192,152819,1,0,0:0:0:0:
64,192,152819,128,2,154153:0:0:0:0:
192,192,154153,1,0,0:0:0:0:
448,192,154153,1,0,0:0:0:0:
320,192,154153,128,0,155486:0:0:0:0:
192,192,155486,1,2,0:0:0:0:
448,192,155486,1,0,0:0:0:0:
64,192,155486,128,0,156819:0:0:0:0:
192,192,156819,1,0,0:0:0:0:
320,192,156819,1,0,0:0:0:0:
448,192,156819,128,0,157486:0:0:0:0:
64,192,157486,128,0,157819:0:0:0:0:
192,192,157486,128,0,157819:0:0:0:0:
64,192,158153,1,0,0:0:0:0:
192,192,158153,1,0,0:0:0:0:
448,192,158153,1,0,0:0:0:0:
320,192,158153,128,2,159486:0:0:0:0:
64,192,159486,1,0,0:0:0:0:
448,192,159486,1,0,0:0:0:0:
192,192,159486,128,0,160819:0:0:0:0:
320,192,160819,1,2,0:0:0:0:
448,192,160819,1,0,0:0:0:0:
64,192,160819,128,0,161986:0:0:0:0:
192,192,162153,1,0,0:0:0:0:
320,192,162153,1,0,0:0:0:0:
448,192,162153,1,0,0:0:0:0:
448,192,162319,1,0,0:0:0:0:
320,192,162319,1,0,0:0:0:0:
192,192,162319,1,0,0:0:0:0:
64,192,162486,1,0,0:0:0:0:
448,192,162542,1,0,0:0:0:0:
64,192,162597,1,0,0:0:0:0:
448,192,162653,1,0,0:0:0:0:
192,192,162708,1,0,0:0:0:0:
320,192,162764,1,0,0:0:0:0:
448,192,162819,1,0,0:0:0:0:
64,192,162819,1,0,0:0:0:0:
192,192,162819,1,0,0:0:0:0:
192,192,162986,1,0,0:0:0:0:
64,192,162986,1,0,0:0:0:0:
448,192,162986,1,0,0:0:0:0:
320,192,163153,1,0,0:0:0:0:
448,192,163153,1,0,0:0:0:0:
64,192,163319,1,0,0:0:0:0:
192,192,163319,1,0,0:0:0:0:
448,192,163486,1,0,0:0:0:0:
320,192,163486,1,0,0:0:0:0:
192,192,163486,1,2,0:0:0:0:
64,192,163486,1,0,0:0:0:0:
192,192,163819,1,0,0:0:0:0:
64,192,163819,1,0,0:0:0:0:
192,192,163931,1,0,0:0:0:0:
64,192,163931,1,0,0:0:0:0:
192,192,164042,1,0,0:0:0:0:
64,192,164042,1,0,0:0:0:0:
64,192,164153,1,0,0:0:0:0:
192,192,164153,1,0,0:0:0:0:
320,192,164153,1,4,0:0:0:0:
448,192,164486,1,0,0:0:0:0:
192,192,164486,1,0,0:0:0:0:
192,192,164597,1,0,0:0:0:0:
448,192,164597,1,0,0:0:0:0:
192,192,164708,1,0,0:0:0:0:
448,192,164708,1,0,0:0:0:0:
448,192,164819,1,0,0:0:0:0:
192,192,164819,1,0,0:0:0:0:
320,192,165153,1,0,0:0:0:0:
448,192,165153,1,0,0:0:0:0:
448,192,165264,1,0,0:0:0:0:
320,192,165264,1,0,0:0:0:0:
320,192,165375,1,0,0:0:0:0:
448,192,165375,1,0,0:0:0:0:
448,192,165486,1,0,0:0:0:0:
320,192,165486,1,4,0:0:0:0:
64,192,165486,1,0,0:0:0:0:
320,192,165819,1,0,0:0:0:0:
64,192,165819,1,0,0:0:0:0:
64,192,165931,1,0,0:0:0:0:
320,192,165931,1,0,0:0:0:0:
320,192,166042,1,0,0:0:0:0:
64,192,166042,1,0,0:0:0:0:
192,192,166153,1,0,0:0:0:0:
320,192,166153,1,2,0:0:0:0:
192,192,166319,1,0,0:0:0:0:
448,192,166486,1,0,0:0:0:0:
64,192,166542,1,0,0:0:0:0:
448,192,166597,1,0,0:0:0:0:
64,192,166653,1,0,0:0:0:0:
448,192,166708,1,0,0:0:0:0:
64,192,166764,1,0,0:0:0:0:
192,192,166819,1,0,0:0:0:0:
320,192,166819,1,4,0:0:0:0:
448,192,166819,1,0,0:0:0:0:
320,192,166986,1,0,0:0:0:0:
192,192,167153,1,0,0:0:0:0:
320,192,167208,1,0,0:0:0:0:
192,192,167264,1,0,0:0:0:0:
320,192,167319,1,0,0:0:0:0:
192,192,167375,1,0,0:0:0:0:
320,192,167431,1,0,0:0:0:0:
64,192,167486,1,0,0:0:0:0:
192,192,167486,1,0,0:0:0:0:
320,192,167653,1,0,0:0:0:0:
448,192,167653,1,0,0:0:0:0:
448,192,167819,1,0,0:0:0:0:
64,192,167875,1,0,0:0:0:0:
448,192,167931,1,0,0:0:0:0:
64,192,167986,1,0,0:0:0:0:
448,192,168042,1,0,0:0:0:0:
64,192,168097,1,0,0:0:0:0:
448,192,168153,1,0,0:0:0:0:
320,192,168153,1,4,0:0:0:0:
192,192,168153,1,0,0:0:0:0:
192,192,168486,1,0,0:0:0:0:
320,192,168542,1,0,0:0:0:0:
192,192,168597,1,0,0:0:0:0:
320,192,168653,1,0,0:0:0:0:
192,192,168708,1,0,0:0:0:0:
320,192,168764,1,0,0:0:0:0:
192,192,168819,1,2,0:0:0:0:
64,192,168819,1,0,0:0:0:0:
448,192,168819,1,0,0:0:0:0:
448,192,169153,1,0,0:0:0:0:
192,192,169153,1,0,0:0:0:0:
192,192,169264,1,0,0:0:0:0:
448,192,169264,1,0,0:0:0:0:
448,192,169375,1,0,0:0:0:0:
192,192,169375,1,0,0:0:0:0:
192,192,169486,1,4,0:0:0:0:
448,192,169486,1,0,0:0:0:0:
64,192,169486,1,0,0:0:0:0:
320,192,169819,1,0,0:0:0:0:
448,192,169819,1,0,0:0:0:0:
448,192,169931,1,0,0:0:0:0:
320,192,169931,1,0,0:0:0:0:
320,192,170042,1,0,0:0:0:0:
448,192,170042,1,0,0:0:0:0:
448,192,170153,1,0,0:0:0:0:
320,192,170153,1,0,0:0:0:0:
320,192,170486,1,0,0:0:0:0:
64,192,170486,1,0,0:0:0:0:
64,192,170597,1,0,0:0:0:0:
320,192,170597,1,0,0:0:0:0:
64,192,170708,1,0,0:0:0:0:
320,192,170708,1,0,0:0:0:0:
320,192,170819,1,0,0:0:0:0:
64,192,170819,1,0,0:0:0:0:
448,192,170819,1,4,0:0:0:0:
192,192,171153,1,0,0:0:0:0:
64,192,171153,1,0,0:0:0:0:
64,192,171264,1,0,0:0:0:0:
192,192,171264,1,0,0:0:0:0:
192,192,171375,1,0,0:0:0:0:
64,192,171375,1,0,0:0:0:0:
448,192,171486,1,0,0:0:0:0:
192,192,171486,1,2,0:0:0:0:
320,192,171653,1,0,0:0:0:0:
64,192,171653,1,0,0:0:0:0:
448,192,171819,1,0,0:0:0:0:
64,192,171875,1,0,0:0:0:0:
448,192,171931,1,0,0:0:0:0:
64,192,171986,1,0,0:0:0:0:
448,192,172042,1,0,0:0:0:0:
64,192,172097,1,0,0:0:0:0:
448,192,172153,1,0,0:0:0:0:
192,192,172153,1,0,0:0:0:0:
320,192,172153,1,4,0:0:0:0:
320,192,172319,1,0,0:0:0:0:
64,192,172319,1,0,0:0:0:0:
448,192,172486,1,0,0:0:0:0:
320,192,172542,1,0,0:0:0:0:
448,192,172597,1,0,0:0:0:0:
192,192,172653,1,0,0:0:0:0:
320,192,172708,1,0,0:0:0:0:
192,192,172764,1,0,0:0:0:0:
448,192,172819,1,0,0:0:0:0:
64,192,172819,1,0,0:0:0:0:
448,192,173153,1,0,0:0:0:0:
64,192,173153,1,0,0:0:0:0:
64,192,173264,1,0,0:0:0:0:
448,192,173264,1,0,0:0:0:0:
448,192,173375,1,0,0:0:0:0:
64,192,173375,1,0,0:0:0:0:
320,192,173486,1,0,0:0:0:0:
192,192,173486,1,4,0:0:0:0:
64,192,173486,1,0,0:0:0:0:
192,192,173653,1,0,0:0:0:0:
320,192,173653,1,0,0:0:0:0:
320,192,173819,1,0,0:0:0:0:
448,192,173819,1,0,0:0:0:0:
448,192,173931,1,0,0:0:0:0:
320,192,173931,1,0,0:0:0:0:
320,192,174042,1,0,0:0:0:0:
448,192,174042,1,0,0:0:0:0:
448,192,174153,1,0,0:0:0:0:
192,192,174153,1,2,0:0:0:0:
64,192,174153,1,0,0:0:0:0:
192,192,174486,1,0,0:0:0:0:
64,192,174486,1,0,0:0:0:0:
192,192,174597,1,0,0:0:0:0:
64,192,174597,1,0,0:0:0:0:
192,192,174708,1,0,0:0:0:0:
64,192,174708,1,0,0:0:0:0:
64,192,174819,1,0,0:0:0:0:
192,192,174819,1,4,0:0:0:0:
448,192,174819,1,0,0:0:0:0:
448,192,175153,1,0,0:0:0:0:
64,192,175153,1,0,0:0:0:0:
64,192,175264,1,0,0:0:0:0:
448,192,175264,1,0,0:0:0:0:
64,192,175375,1,0,0:0:0:0:
448,192,175375,1,0,0:0:0:0:
448,192,175486,1,0,0:0:0:0:
64,192,175486,1,0,0:0:0:0:
320,192,175819,1,0,0:0:0:0:
448,192,175819,1,0,0:0:0:0:
448,192,175931,1,0,0:0:0:0:
320,192,175931,1,0,0:0:0:0:
320,192,176042,1,0,0:0:0:0:
448,192,176042,1,0,0:0:0:0:
448,192,176153,1,0,0:0:0:0:
320,192,176153,1,4,0:0:0:0:
192,192,176153,1,0,0:0:0:0:
320,192,176486,1,0,0:0:0:0:
192,192,176486,1,0,0:0:0:0:
192,192,176597,1,0,0:0:0:0:
320,192,176597,1,0,0:0:0:0:
320,192,176708,1,0,0:0:0:0:
192,192,176708,1,0,0:0:0:0:
64,192,176819,1,0,0:0:0:0:
192,192,176819,1,2,0:0:0:0:
448,192,176986,1,0,0:0:0:0:
320,192,177153,1,0,0:0:0:0:
64,192,177208,1,0,0:0:0:0:
320,192,177264,1,0,0:0:0:0:
64,192,177319,1,0,0:0:0:0:
320,192,177375,1,0,0:0:0:0:
64,192,177431,1,0,0:0:0:0:
192,192,177486,1,4,0:0:0:0:
320,192,177486,1,0,0:0:0:0:
448,192,177486,1,0,0:0:0:0:
448,192,177653,1,0,0:0:0:0:
192,192,177819,1,0,0:0:0:0:
448,192,177875,1,0,0:0:0:0:
192,192,177931,1,0,0:0:0:0:
448,192,177986,1,0,0:0:0:0:
192,192,178042,1,0,0:0:0:0:
448,192,178097,1,0,0:0:0:0:
64,192,178153,1,0,0:0:0:0:
192,192,178153,1,0,0:0:0:0:
320,192,178319,1,0,0:0:0:0:
448,192,178319,1,0,0:0:0:0:
320,192,178486,1,0,0:0:0:0:
64,192,178542,1,0,0:0:0:0:
320,192,178597,1,0,0:0:0:0:
64,192,178653,1,0,0:0:0:0:
320,192,178708,1,0,0:0:0:0:
64,192,178764,1,0,0:0:0:0:
448,192,178819,1,0,0:0:0:0:
320,192,178819,1,4,0:0:0:0:
192,192,178819,1,0,0:0:0:0:
192,192,179153,1,0,0:0:0:0:
448,192,179208,1,0,0:0:0:0:
192,192,179264,1,0,0:0:0:0:
448,192,179319,1,0,0:0:0:0:
192,192,179375,1,0,0:0:0:0:
448,192,179431,1,0,0:0:0:0:
192,192,179486,1,0,0:0:0:0:
64,192,179486,1,0,0:0:0:0:
320,192,179486,1,2,0:0:0:0:
448,192,179819,1,0,0:0:0:0:
64,192,179819,1,0,0:0:0:0:
64,192,179931,1,0,0:0:0:0:
448,192,179931,1,0,0:0:0:0:
448,192,180042,1,0,0:0:0:0:
64,192,180042,1,0,0:0:0:0:
64,192,180153,1,0,0:0:0:0:
448,192,180153,1,0,0:0:0:0:
192,192,180153,1,4,0:0:0:0:
320,192,180486,1,0,0:0:0:0:
448,192,180486,1,0,0:0:0:0:
448,192,180597,1,0,0:0:0:0:
320,192,180597,1,0,0:0:0:0:
320,192,180708,1,0,0:0:0:0:
448,192,180708,1,0,0:0:0:0:
448,192,180819,1,0,0:0:0:0:
320,192,180819,1,0,0:0:0:0:
320,192,181153,1,0,0:0:0:0:
192,192,181153,1,0,0:0:0:0:
192,192,181264,1,0,0:0:0:0:
320,192,181264,1,0,0:0:0:0:
192,192,181375,1,0,0:0:0:0:
320,192,181375,1,0,0:0:0:0:
320,192,181486,1,4,0:0:0:0:
192,192,181486,1,0,0:0:0:0:
448,192,181486,1,0,0:0:0:0:
192,192,181819,1,0,0:0:0:0:
64,192,181819,1,0,0:0:0:0:
64,192,181931,1,0,0:0:0:0:
192,192,181931,1,0,0:0:0:0:
192,192,182042,1,0,0:0:0:0:
64,192,182042,1,0,0:0:0:0:
448,192,182153,1,2,0:0:0:0:
320,192,182194,1,0,0:0:0:0:
64,192,182236,1,0,0:0:0:0:
192,192,182278,1,0,0:0:0:0:
448,192,182319,1,0,0:0:0:0:
320,192,182375,1,0,0:0:0:0:
64,192,182431,1,0,0:0:0:0:
192,192,182486,1,0,0:0:0:0:
320,192,182549,1,0,0:0:0:0:
192,192,182632,1,0,0:0:0:0:
320,192,182715,1,0,0:0:0:0:
64,192,182819,1,0,0:0:0:0:
448,192,182819,1,4,0:0:0:0:
64,192,182986,1,0,0:0:0:0:
448,192,182986,1,0,0:0:0:0:
448,192,183181,1,0,0:0:0:0:
64,192,183181,1,0,0:0:0:0:
64,192,183486,128,0,183653:0:0:0:0:
320,192,183653,128,0,183819:0:0:0:0:
192,192,183819,128,0,184153:0:0:0:0:
448,192,184153,1,0,0:0:0:0:
320,192,184153,1,0,0:0:0:0:
64,192,184819,1,0,0:0:0:0:
192,192,184819,1,0,0:0:0:0:
320,192,184819,1,2,0:0:0:0:
448,192,184819,1,0,0:0:0:0:
64,192,184986,1,0,0:0:0:0:
320,192,185153,1,0,0:0:0:0:
448,192,185153,1,0,0:0:0:0:
192,192,185319,1,0,0:0:0:0:
64,192,185319,1,0,0:0:0:0:
64,192,185486,128,0,185819:0:0:0:0:
448,192,185486,1,0,0:0:0:0:
320,192,185486,1,4,0:0:0:0:
192,192,185653,1,0,0:0:0:0:
320,192,185819,1,0,0:0:0:0:
448,192,185819,1,0,0:0:0:0:
192,192,185986,1,0,0:0:0:0:
320,192,186153,1,0,0:0:0:0:
64,192,186153,1,0,0:0:0:0:
448,192,186153,128,0,186486:0:0:0:0:
192,192,186319,1,0,0:0:0:0:
320,192,186486,1,0,0:0:0:0:
64,192,186486,1,0,0:0:0:0:
192,192,186653,1,0,0:0:0:0:
448,192,186653,1,0,0:0:0:0:
64,192,186819,128,0,187486:0:0:0:0:
320,192,186819,1,4,0:0:0:0:
192,192,186819,128,0,187153:0:0:0:0:
448,192,186986,1,0,0:0:0:0:
448,192,187153,1,0,0:0:0:0:
320,192,187153,1,0,0:0:0:0:
192,192,187319,1,0,0:0:0:0:
192,192,187486,1,0,0:0:0:0:
448,192,187486,128,2,187819:0:0:0:0:
320,192,187486,1,0,0:0:0:0:
64,192,187653,1,0,0:0:0:0:
192,192,187819,1,0,0:0:0:0:
320,192,187819,1,0,0:0:0:0:
448,192,187986,1,0,0:0:0:0:
64,192,187986,1,0,0:0:0:0:
192,192,188153,128,4,188486:0:0:0:0:
320,192,188153,1,0,0:0:0:0:
64,192,188153,1,0,0:0:0:0:
448,192,188319,1,0,0:0:0:0:
320,192,188486,1,0,0:0:0:0:
64,192,188486,1,0,0:0:0:0:
192,192,188653,1,0,0:0:0:0:
64,192,188819,1,0,0:0:0:0:
448,192,188819,128,0,189153:0:0:0:0:
320,192,188819,1,0,0:0:0:0:
192,192,188986,1,0,0:0:0:0:
64,192,189153,1,0,0:0:0:0:
320,192,189153,1,0,0:0:0:0:
192,192,189319,1,0,0:0:0:0:
448,192,189319,1,0,0:0:0:0:
320,192,189486,128,4,189819:0:0:0:0:
448,192,189486,128,0,190153:0:0:0:0:
64,192,189486,1,0,0:0:0:0:
192,192,189653,1,0,0:0:0:0:
64,192,189819,1,0,0:0:0:0:
192,192,189819,1,0,0:0:0:0:
320,192,189986,1,0,0:0:0:0:
64,192,190153,128,0,190486:0:0:0:0:
192,192,190153,1,0,0:0:0:0:
320,192,190153,1,2,0:0:0:0:
448,192,190319,1,0,0:0:0:0:
192,192,190486,1,0,0:0:0:0:
320,192,190486,1,0,0:0:0:0:
64,192,190653,1,0,0:0:0:0:
448,192,190653,1,0,0:0:0:0:
192,192,190819,1,0,0:0:0:0:
320,192,190819,1,4,0:0:0:0:
448,192,190819,128,0,191153:0:0:0:0:
64,192,190986,1,0,0:0:0:0:
192,192,191153,1,0,0:0:0:0:
320,192,191153,1,0,0:0:0:0:
448,192,191319,1,0,0:0:0:0:
320,192,191486,1,0,0:0:0:0:
64,192,191486,1,0,0:0:0:0:
192,192,191486,128,0,191819:0:0:0:0:
448,192,191653,1,0,0:0:0:0:
320,192,191819,1,0,0:0:0:0:
64,192,191819,1,0,0:0:0:0:
448,192,191986,1,0,0:0:0:0:
192,192,191986,1,0,0:0:0:0:
64,192,192153,1,0,0:0:0:0:
320,192,192153,1,4,0:0:0:0:
448,192,192153,128,0,192486:0:0:0:0:
64,192,192319,1,0,0:0:0:0:
320,192,192403,1,0,0:0:0:0:
192,192,192403,1,0,0:0:0:0:
64,192,192486,1,0,0:0:0:0:
320,192,192653,1,0,0:0:0:0:
448,192,192653,1,0,0:0:0:0:
64,192,192819,1,0,0:0:0:0:
320,192,192819,1,2,0:0:0:0:
192,192,192819,128,0,193153:0:0:0:0:
448,192,192986,1,0,0:0:0:0:
64,192,193153,1,0,0:0:0:0:
320,192,193153,1,0,0:0:0:0:
192,192,193319,1,0,0:0:0:0:
448,192,193319,1,0,0:0:0:0:
448,192,193486,1,0,0:0:0:0:
64,192,193486,1,0,0:0:0:0:
320,192,193486,128,4,193819:0:0:0:0:
192,192,193653,1,0,0:0:0:0:
64,192,193819,1,0,0:0:0:0:
448,192,193819,1,0,0:0:0:0:
320,192,193986,1,0,0:0:0:0:
448,192,194153,1,0,0:0:0:0:
64,192,194153,128,0,194486:0:0:0:0:
192,192,194153,1,0,0:0:0:0:
320,192,194319,1,0,0:0:0:0:
448,192,194486,1,0,0:0:0:0:
192,192,194486,1,0,0:0:0:0:
64,192,194653,1,0,0:0:0:0:
320,192,194653,1,0,0:0:0:0:
448,192,194819,1,0,0:0:0:0:
64,192,194819,128,0,195486:0:0:0:0:
192,192,194819,128,4,195153:0:0:0:0:
320,192,194986,1,0,0:0:0:0:
448,192,195153,1,0,0:0:0:0:
320,192,195153,1,0,0:0:0:0:
192,192,195319,1,0,0:0:0:0:
448,192,195486,1,0,0:0:0:0:
192,192,195486,1,0,0:0:0:0:
320,192,195486,128,2,195819:0:0:0:0:
448,192,195653,1,0,0:0:0:0:
64,192,195819,1,0,0:0:0:0:
192,192,195819,1,0,0:0:0:0:
320,192,195986,1,0,0:0:0:0:
448,192,195986,1,0,0:0:0:0:
64,192,196153,1,0,0:0:0:0:
192,192,196153,128,4,196486:0:0:0:0:
448,192,196153,1,0,0:0:0:0:
320,192,196319,1,0,0:0:0:0:
64,192,196486,1,0,0:0:0:0:
448,192,196486,1,0,0:0:0:0:
192,192,196653,1,0,0:0:0:0:
320,192,196819,128,0,197153:0:0:0:0:
64,192,196819,1,0,0:0:0:0:
448,192,196819,1,0,0:0:0:0:
192,192,196986,1,0,0:0:0:0:
448,192,197153,1,0,0:0:0:0:
64,192,197153,1,0,0:0:0:0:
320,192,197319,1,0,0:0:0:0:
192,192,197319,1,0,0:0:0:0:
448,192,197486,1,0,0:0:0:0:
64,192,197486,128,4,198153:0:0:0:0:
192,192,197486,128,0,197819:0:0:0:0:
320,192,197653,1,0,0:0:0:0:
320,192,197819,1,0,0:0:0:0:
448,192,197819,1,0,0:0:0:0:
192,192,197986,1,0,0:0:0:0:
192,192,198153,1,0,0:0:0:0:
448,192,198153,1,0,0:0:0:0:
320,192,198153,128,2,198486:0:0:0:0:
64,192,198319,1,0,0:0:0:0:
192,192,198486,1,0,0:0:0:0:
448,192,198486,1,0,0:0:0:0:
320,192,198653,1,0,0:0:0:0:
64,192,198653,1,0,0:0:0:0:
192,192,198819,1,0,0:0:0:0:
448,192,198819,1,0,0:0:0:0:
64,192,198819,128,4,199153:0:0:0:0:
320,192,198986,1,0,0:0:0:0:
448,192,199153,1,0,0:0:0:0:
192,192,199153,1,0,0:0:0:0:
320,192,199319,1,0,0:0:0:0:
192,192,199486,1,0,0:0:0:0:
448,192,199486,128,0,199819:0:0:0:0:
64,192,199486,128,0,199653:0:0:0:0:
192,192,199653,1,0,0:0:0:0:
320,192,199653,128,0,199819:0:0:0:0:
64,192,199819,1,0,0:0:0:0:
192,192,199819,1,0,0:0:0:0:
320,192,199986,1,0,0:0:0:0:
448,192,199986,1,0,0:0:0:0:
192,192,200153,1,0,0:0:0:0:
320,192,200153,1,0,0:0:0:0:
64,192,200153,128,4,200486:0:0:0:0:
192,192,200319,1,0,0:0:0:0:
320,192,200403,1,0,0:0:0:0:
448,192,200403,1,0,0:0:0:0:
192,192,200486,1,0,0:0:0:0:
320,192,200653,1,0,0:0:0:0:
64,192,200653,1,0,0:0:0:0:
64,192,200819,1,0,0:0:0:0:
448,192,200819,128,0,201153:0:0:0:0:
192,192,200819,1,2,0:0:0:0:
320,192,200986,1,0,0:0:0:0:
64,192,201153,1,0,0:0:0:0:
192,192,201153,1,0,0:0:0:0:
320,192,201319,1,0,0:0:0:0:
448,192,201319,1,0,0:0:0:0:
64,192,201486,128,0,201819:0:0:0:0:
192,192,201486,128,4,201819:0:0:0:0:
320,192,201486,1,0,0:0:0:0:
448,192,201653,1,0,0:0:0:0:
320,192,201819,1,0,0:0:0:0:
448,192,201819,1,0,0:0:0:0:
64,192,201986,1,0,0:0:0:0:
192,192,201986,1,0,0:0:0:0:
320,192,202153,1,0,0:0:0:0:
192,192,202153,128,0,202486:0:0:0:0:
448,192,202153,128,0,202486:0:0:0:0:
64,192,202319,1,0,0:0:0:0:
64,192,202486,1,0,0:0:0:0:
320,192,202486,1,0,0:0:0:0:
448,192,202653,1,0,0:0:0:0:
192,192,202653,1,0,0:0:0:0:
192,192,202819,128,0,203153:0:0:0:0:
320,192,202819,128,4,203153:0:0:0:0:
64,192,202819,1,0,0:0:0:0:
448,192,202986,1,0,0:0:0:0:
64,192,203153,1,0,0:0:0:0:
448,192,203153,1,0,0:0:0:0:
320,192,203319,1,0,0:0:0:0:
192,192,203319,1,0,0:0:0:0:
64,192,203486,128,0,203819:0:0:0:0:
192,192,203486,128,2,203819:0:0:0:0:
448,192,203486,128,0,203819:0:0:0:0:
320,192,203653,1,0,0:0:0:0:
320,192,203819,1,0,0:0:0:0:
192,192,203986,1,0,0:0:0:0:
448,192,203986,1,0,0:0:0:0:
64,192,204153,128,0,204486:0:0:0:0:
192,192,204153,128,0,204486:0:0:0:0:
320,192,204153,128,4,204486:0:0:0:0:
448,192,204319,1,0,0:0:0:0:
448,192,204486,1,0,0:0:0:0:
192,192,204653,1,0,0:0:0:0:
64,192,204653,1,0,0:0:0:0:
448,192,204819,1,0,0:0:0:0:
320,192,204861,1,0,0:0:0:0:
64,192,204903,1,0,0:0:0:0:
192,192,204944,1,0,0:0:0:0:
448,192,204986,1,0,0:0:0:0:
320,192,205042,1,0,0:0:0:0:
64,192,205097,1,0,0:0:0:0:
192,192,205153,1,0,0:0:0:0:
320,192,205215,1,0,0:0:0:0:
192,192,205278,1,0,0:0:0:0:
320,192,205382,1,0,0:0:0:0:
64,192,205486,1,0,0:0:0:0:
448,192,205486,1,4,0:0:0:0:
192,192,205708,1,0,0:0:0:0:
64,192,205708,1,0,0:0:0:0:
448,192,205986,1,0,0:0:0:0:
320,192,205986,1,0,0:0:0:0:
64,192,206153,1,0,0:0:0:0:
192,192,206153,1,2,0:0:0:0:
448,192,206153,1,0,0:0:0:0:
320,192,206153,1,0,0:0:0:0:
320,192,206319,1,0,0:0:0:0:
192,192,206486,1,0,0:0:0:0:
64,192,206486,1,0,0:0:0:0:
448,192,206549,128,0,206632:0:0:0:0:
192,192,206653,1,0,0:0:0:0:
320,192,206653,1,0,0:0:0:0:
448,192,206819,1,0,0:0:0:0:
64,192,206819,128,4,207153:0:0:0:0:
320,192,206819,1,0,0:0:0:0:
448,192,206986,1,0,0:0:0:0:
320,192,207153,1,0,0:0:0:0:
192,192,207153,1,0,0:0:0:0:
64,192,207319,1,0,0:0:0:0:
192,192,207319,1,0,0:0:0:0:
448,192,207486,128,0,207819:0:0:0:0:
64,192,207486,1,0,0:0:0:0:
320,192,207486,1,0,0:0:0:0:
192,192,207653,1,0,0:0:0:0:
320,192,207736,128,0,207819:0:0:0:0:
192,192,207819,128,0,208153:0:0:0:0:
64,192,207819,1,0,0:0:0:0:
320,192,207986,1,0,0:0:0:0:
448,192,207986,1,0,0:0:0:0:
64,192,208125,128,0,208208:0:0:0:0:
320,192,208153,128,4,208486:0:0:0:0:
448,192,208153,1,0,0:0:0:0:
192,192,208319,1,0,0:0:0:0:
64,192,208486,1,0,0:0:0:0:
448,192,208486,1,0,0:0:0:0:
320,192,208653,1,0,0:0:0:0:
192,192,208653,1,0,0:0:0:0:
64,192,208819,128,0,209153:0:0:0:0:
320,192,208819,1,0,0:0:0:0:
448,192,208819,128,2,208903:0:0:0:0:
192,192,208986,1,0,0:0:0:0:
320,192,209153,1,0,0:0:0:0:
448,192,209153,1,0,0:0:0:0:
192,192,209319,1,0,0:0:0:0:
64,192,209319,1,0,0:0:0:0:
448,192,209486,1,0,0:0:0:0:
320,192,209486,128,4,209819:0:0:0:0:
64,192,209486,1,0,0:0:0:0:
192,192,209653,1,0,0:0:0:0:
64,192,209819,1,0,0:0:0:0:
448,192,209819,1,0,0:0:0:0:
320,192,209986,1,0,0:0:0:0:
64,192,209986,1,0,0:0:0:0:
320,192,210153,1,0,0:0:0:0:
192,192,210153,128,0,210486:0:0:0:0:
448,192,210153,1,0,0:0:0:0:
64,192,210319,1,0,0:0:0:0:
448,192,210319,1,0,0:0:0:0:
64,192,210486,1,0,0:0:0:0:
320,192,210486,1,0,0:0:0:0:
192,192,210653,1,0,0:0:0:0:
448,192,210653,1,0,0:0:0:0:
320,192,210792,128,0,210875:0:0:0:0:
64,192,210819,128,0,211153:0:0:0:0:
192,192,210819,1,4,0:0:0:0:
448,192,210986,1,0,0:0:0:0:
192,192,211153,1,0,0:0:0:0:
448,192,211181,128,0,211264:0:0:0:0:
192,192,211319,1,0,0:0:0:0:
64,192,211319,1,0,0:0:0:0:
320,192,211486,1,0,0:0:0:0:
448,192,211486,128,2,211819:0:0:0:0:
64,192,211486,1,0,0:0:0:0:
192,192,211528,128,0,211611:0:0:0:0:
320,192,211653,1,0,0:0:0:0:
64,192,211819,1,0,0:0:0:0:
192,192,211819,1,0,0:0:0:0:
448,192,211986,1,0,0:0:0:0:
320,192,211986,1,0,0:0:0:0:
320,192,212153,1,0,0:0:0:0:
64,192,212153,128,0,212486:0:0:0:0:
192,192,212153,1,4,0:0:0:0:
448,192,212319,1,0,0:0:0:0:
320,192,212424,128,0,212507:0:0:0:0:
192,192,212486,1,0,0:0:0:0:
448,192,212486,1,0,0:0:0:0:
192,192,212625,128,0,212708:0:0:0:0:
64,192,212653,1,0,0:0:0:0:
320,192,212819,1,0,0:0:0:0:
64,192,212819,128,0,212903:0:0:0:0:
448,192,212819,1,0,0:0:0:0:
192,192,212986,1,0,0:0:0:0:
320,192,213153,1,0,0:0:0:0:
448,192,213153,1,0,0:0:0:0:
192,192,213319,1,0,0:0:0:0:
64,192,213319,1,0,0:0:0:0:
64,192,213486,1,0,0:0:0:0:
448,192,213486,1,0,0:0:0:0:
320,192,213486,128,4,213819:0:0:0:0:
192,192,213653,1,0,0:0:0:0:
64,192,213819,1,0,0:0:0:0:
448,192,213819,1,0,0:0:0:0:
192,192,213986,1,0,0:0:0:0:
448,192,213986,1,0,0:0:0:0:
320,192,214125,128,0,214208:0:0:0:0:
192,192,214153,1,2,0:0:0:0:
64,192,214153,128,0,214486:0:0:0:0:
448,192,214319,1,0,0:0:0:0:
320,192,214486,1,0,0:0:0:0:
192,192,214486,1,0,0:0:0:0:
448,192,214653,1,0,0:0:0:0:
64,192,214653,1,0,0:0:0:0:
320,192,214819,1,4,0:0:0:0:
448,192,214819,1,0,0:0:0:0:
192,192,214819,128,0,215153:0:0:0:0:
64,192,214986,1,0,0:0:0:0:
320,192,215153,1,0,0:0:0:0:
448,192,215153,1,0,0:0:0:0:
320,192,215319,1,0,0:0:0:0:
64,192,215319,1,0,0:0:0:0:
64,192,215486,1,0,0:0:0:0:
448,192,215486,1,0,0:0:0:0:
192,192,215486,128,0,215819:0:0:0:0:
320,192,215653,1,0,0:0:0:0:
448,192,215708,128,0,215792:0:0:0:0:
64,192,215819,1,0,0:0:0:0:
320,192,215819,1,0,0:0:0:0:
192,192,215924,128,0,216007:0:0:0:0:
448,192,215986,1,0,0:0:0:0:
320,192,216153,128,4,216486:0:0:0:0:
64,192,216153,128,0,216236:0:0:0:0:
192,192,216153,1,0,0:0:0:0:
448,192,216319,1,0,0:0:0:0:
192,192,216347,128,0,216431:0:0:0:0:
64,192,216486,1,0,0:0:0:0:
448,192,216486,1,0,0:0:0:0:
320,192,216597,128,0,216681:0:0:0:0:
192,192,216653,1,0,0:0:0:0:
64,192,216653,1,0,0:0:0:0:
320,192,216819,1,2,0:0:0:0:
448,192,216819,128,0,217153:0:0:0:0:
192,192,216847,128,0,216931:0:0:0:0:
64,192,216986,1,0,0:0:0:0:
320,192,217153,1,0,0:0:0:0:
192,192,217153,1,0,0:0:0:0:
64,192,217319,1,0,0:0:0:0:
448,192,217319,1,0,0:0:0:0:
320,192,217486,1,0,0:0:0:0:
64,192,217486,1,0,0:0:0:0:
192,192,217486,128,4,217819:0:0:0:0:
448,192,217653,1,0,0:0:0:0:
320,192,217819,1,0,0:0:0:0:
64,192,217819,128,0,217903:0:0:0:0:
192,192,217986,1,0,0:0:0:0:
448,192,217986,1,0,0:0:0:0:
64,192,218153,1,0,0:0:0:0:
448,192,218153,1,0,0:0:0:0:
320,192,218153,128,0,218486:0:0:0:0:
192,192,218319,1,0,0:0:0:0:
64,192,218486,1,0,0:0:0:0:
448,192,218486,1,0,0:0:0:0:
320,192,218653,1,0,0:0:0:0:
192,192,218653,1,0,0:0:0:0:
192,192,218819,1,0,0:0:0:0:
448,192,218819,1,0,0:0:0:0:
64,192,218819,128,4,219153:0:0:0:0:
320,192,218986,1,0,0:0:0:0:
192,192,219153,1,0,0:0:0:0:
448,192,219153,1,0,0:0:0:0:
320,192,219319,1,0,0:0:0:0:
192,192,219319,1,0,0:0:0:0:
64,192,219486,1,0,0:0:0:0:
320,192,219486,1,0,0:0:0:0:
448,192,219486,128,2,219819:0:0:0:0:
192,192,219653,1,0,0:0:0:0:
64,192,219819,1,0,0:0:0:0:
320,192,219819,1,0,0:0:0:0:
192,192,219986,1,0,0:0:0:0:
448,192,219986,1,0,0:0:0:0:
64,192,220153,1,0,0:0:0:0:
448,192,220153,1,0,0:0:0:0:
320,192,220153,128,4,220486:0:0:0:0:
192,192,220319,1,0,0:0:0:0:
64,192,220486,1,0,0:0:0:0:
448,192,220486,1,0,0:0:0:0:
192,192,220653,1,0,0:0:0:0:
448,192,220653,1,0,0:0:0:0:
320,192,220819,1,0,0:0:0:0:
64,192,220819,128,0,221153:0:0:0:0:
192,192,220819,128,0,220986:0:0:0:0:
320,192,220986,1,0,0:0:0:0:
448,192,220986,128,0,221153:0:0:0:0:
320,192,221153,1,0,0:0:0:0:
192,192,221153,1,0,0:0:0:0:
448,192,221319,1,0,0:0:0:0:
64,192,221319,1,0,0:0:0:0:
320,192,221486,1,0,0:0:0:0:
64,192,221486,1,0,0:0:0:0:
192,192,221486,128,4,221819:0:0:0:0:
448,192,221653,1,0,0:0:0:0:
320,192,221708,128,0,221792:0:0:0:0:
448,192,221819,1,0,0:0:0:0:
64,192,221819,1,0,0:0:0:0:
64,192,221944,128,0,222028:0:0:0:0:
192,192,221986,1,0,0:0:0:0:
448,192,222153,1,2,0:0:0:0:
192,192,222153,1,0,0:0:0:0:
320,192,222194,128,0,222278:0:0:0:0:
64,192,222486,1,0,0:0:0:0:
192,192,222569,1,0,0:0:0:0:
320,192,222653,1,0,0:0:0:0:
448,192,222736,1,0,0:0:0:0:
64,192,222819,1,0,0:0:0:0:
192,192,222819,1,0,0:0:0:0:
192,192,222986,1,0,0:0:0:0:
64,192,222986,1,0,0:0:0:0:
448,192,223153,1,0,0:0:0:0:
320,192,223236,1,0,0:0:0:0:
192,192,223319,1,0,0:0:0:0:
64,192,223403,1,0,0:0:0:0:
448,192,223486,1,0,0:0:0:0:
320,192,223486,1,0,0:0:0:0:
448,192,223653,1,0,0:0:0:0:
320,192,223653,1,0,0:0:0:0:
64,192,223819,1,0,0:0:0:0:
192,192,223903,1,0,0:0:0:0:
320,192,223986,1,0,0:0:0:0:
448,192,224069,1,0,0:0:0:0:
64,192,224153,1,0,0:0:0:0:
192,192,224153,1,0,0:0:0:0:
64,192,224319,1,0,0:0:0:0:
192,192,224319,1,0,0:0:0:0:
448,192,224486,1,0,0:0:0:0:
448,192,224569,1,0,0:0:0:0:
192,192,224653,1,0,0:0:0:0:
192,192,224736,1,0,0:0:0:0:
448,192,224819,1,0,0:0:0:0:
320,192,224819,1,2,0:0:0:0:
192,192,224986,1,0,0:0:0:0:
64,192,224986,1,0,0:0:0:0:
64,192,225153,1,0,0:0:0:0:
192,192,225153,1,0,0:0:0:0:
192,192,225236,1,0,0:0:0:0:
64,192,225236,1,0,0:0:0:0:
320,192,225319,1,0,0:0:0:0:
448,192,225319,1,0,0:0:0:0:
448,192,225403,1,0,0:0:0:0:
320,192,225403,1,0,0:0:0:0:
64,192,225486,1,0,0:0:0:0:
192,192,225486,1,0,0:0:0:0:
448,192,225653,1,0,0:0:0:0:
320,192,225653,1,0,0:0:0:0:
320,192,225819,1,0,0:0:0:0:
448,192,225819,1,0,0:0:0:0:
448,192,225903,1,0,0:0:0:0:
320,192,225903,1,0,0:0:0:0:
192,192,225986,1,0,0:0:0:0:
64,192,225986,1,0,0:0:0:0:
64,192,226069,1,0,0:0:0:0:
192,192,226069,1,0,0:0:0:0:
320,192,226153,1,0,0:0:0:0:
448,192,226153,1,0,0:0:0:0:
64,192,226319,1,0,0:0:0:0:
192,192,226319,1,0,0:0:0:0:
448,192,226403,1,0,0:0:0:0:
320,192,226403,1,0,0:0:0:0:
64,192,226486,1,0,0:0:0:0:
192,192,226486,1,0,0:0:0:0:
192,192,226569,1,0,0:0:0:0:
64,192,226569,1,0,0:0:0:0:
320,192,226653,1,0,0:0:0:0:
448,192,226653,1,0,0:0:0:0:
448,192,226736,1,0,0:0:0:0:
320,192,226736,1,0,0:0:0:0:
192,192,226819,1,0,0:0:0:0:
64,192,226819,1,0,0:0:0:0:
64,192,226986,1,0,0:0:0:0:
192,192,226986,1,0,0:0:0:0:
320,192,226986,1,0,0:0:0:0:
192,192,227153,1,0,0:0:0:0:
64,192,227153,1,0,0:0:0:0:
320,192,227153,1,0,0:0:0:0:
448,192,227153,1,0,0:0:0:0:
192,192,227319,1,0,0:0:0:0:
64,192,227319,1,0,0:0:0:0:
448,192,227319,1,0,0:0:0:0:
320,192,227319,1,0,0:0:0:0:
320,192,227486,1,0,0:0:0:0:
448,192,227486,1,0,0:0:0:0:
64,192,227486,1,0,0:0:0:0:
192,192,227486,1,0,0:0:0:0:
320,192,227819,1,0,0:0:0:0:
192,192,228153,1,0,0:0:0:0:
320,192,228465,1,0,0:0:0:0:
64,192,228819,1,0,0:0:0:0:
448,192,228861,1,0,0:0:0:0:
320,192,230153,1,0,0:0:0:0:
64,192,230153,1,0,0:0:0:0:
192,192,230507,1,0,0:0:0:0:
192,192,230819,1,0,0:0:0:0:
448,192,231153,1,0,0:0:0:0:
64,192,231486,1,0,0:0:0:0:
320,192,231542,1,0,0:0:0:0:
64,192,232819,1,0,0:0:0:0:
448,192,232819,1,0,0:0:0:0:
320,192,233174,1,0,0:0:0:0:
192,192,233528,1,0,0:0:0:0:
64,192,233819,1,0,0:0:0:0:
320,192,233819,1,0,0:0:0:0:
64,192,234208,1,0,0:0:0:0:
64,192,235486,1,0,0:0:0:0:
320,192,235486,1,0,0:0:0:0:
192,192,235847,1,0,0:0:0:0:
192,192,236194,1,0,0:0:0:0:
448,192,236528,1,0,0:0:0:0:
320,192,236958,1,0,0:0:0:0:
192,192,238153,1,0,0:0:0:0:
448,192,238153,1,0,0:0:0:0:
320,192,238542,1,0,0:0:0:0:
64,192,238819,1,0,0:0:0:0:
192,192,238819,1,0,0:0:0:0:
320,192,239153,1,0,0:0:0:0:
448,192,239486,1,0,0:0:0:0:
64,192,239597,1,0,0:0:0:0:
192,192,240819,1,0,0:0:0:0:
64,192,240819,1,0,0:0:0:0:
320,192,241132,1,0,0:0:0:0:
320,192,241507,1,0,0:0:0:0:
64,192,242153,1,0,0:0:0:0:
448,192,242174,1,0,0:0:0:0:
320,192,243444,1,0,0:0:0:0:
64,192,243486,1,0,0:0:0:0:
448,192,243819,1,0,0:0:0:0:
192,192,244194,1,0,0:0:0:0:
448,192,244486,1,0,0:0:0:0:
64,192,244819,1,0,0:0:0:0:
192,192,244847,1,0,0:0:0:0:
320,192,246153,1,0,0:0:0:0:
448,192,246153,1,0,0:0:0:0:
64,192,248819,1,0,0:0:0:0:
448,192,248819,1,0,0:0:0:0:
192,192,249153,1,0,0:0:0:0:
320,192,249319,1,0,0:0:0:0:
448,192,249486,1,0,0:0:0:0:
448,192,249819,1,0,0:0:0:0:
64,192,249819,1,0,0:0:0:0:
192,192,250153,1,0,0:0:0:0:
320,192,250319,1,0,0:0:0:0:
448,192,250486,1,0,0:0:0:0:
64,192,250486,1,0,0:0:0:0:
64,192,251486,1,0,0:0:0:0:
192,192,251486,1,0,0:0:0:0:
320,192,251653,1,0,0:0:0:0:
448,192,251819,1,0,0:0:0:0:
448,192,252153,1,0,0:0:0:0:
448,192,252486,1,0,0:0:0:0:
192,192,252819,1,0,0:0:0:0:
64,192,252819,1,0,0:0:0:0:
320,192,252986,1,0,0:0:0:0:
448,192,253153,1,0,0:0:0:0:
64,192,254153,1,0,0:0:0:0:
448,192,254153,1,0,0:0:0:0:
192,192,254486,1,0,0:0:0:0:
320,192,254653,1,0,0:0:0:0:
448,192,254819,1,0,0:0:0:0:
448,192,255153,1,0,0:0:0:0:
64,192,255153,1,0,0:0:0:0:
192,192,255486,1,0,0:0:0:0:
320,192,255653,1,0,0:0:0:0:
448,192,255819,1,0,0:0:0:0:
192,192,256819,1,0,0:0:0:0:
64,192,256819,1,0,0:0:0:0:
320,192,256986,1,0,0:0:0:0:
448,192,257153,1,0,0:0:0:0:
448,192,257486,1,0,0:0:0:0:
448,192,257819,1,0,0:0:0:0:
192,192,257819,1,0,0:0:0:0:
64,192,258153,1,0,0:0:0:0:
320,192,258319,1,0,0:0:0:0:
448,192,258486,1,0,0:0:0:0:
64,192,259486,1,0,0:0:0:0:
448,192,259486,1,0,0:0:0:0:
320,192,259486,1,0,0:0:0:0:
192,192,259819,1,0,0:0:0:0:
320,192,259986,1,0,0:0:0:0:
448,192,260153,1,0,0:0:0:0:
64,192,260153,1,0,0:0:0:0:
448,192,260486,1,0,0:0:0:0:
64,192,260486,1,0,0:0:0:0:
192,192,260819,1,0,0:0:0:0:
320,192,260986,1,0,0:0:0:0:
448,192,261153,1,0,0:0:0:0:
192,192,262153,1,0,0:0:0:0:
64,192,262153,1,0,0:0:0:0:
320,192,262319,1,0,0:0:0:0:
448,192,262486,1,0,0:0:0:0:
448,192,262819,1,0,0:0:0:0:
448,192,263153,1,0,0:0:0:0:
192,192,263153,1,0,0:0:0:0:
64,192,263486,1,0,0:0:0:0:
192,192,263486,1,0,0:0:0:0:
320,192,263653,1,0,0:0:0:0:
448,192,263819,1,0,0:0:0:0:
320,192,264819,1,0,0:0:0:0:
448,192,264819,1,0,0:0:0:0:
64,192,264819,1,0,0:0:0:0:
192,192,265153,1,0,0:0:0:0:
320,192,265319,1,0,0:0:0:0:
448,192,265486,1,0,0:0:0:0:
448,192,265819,1,0,0:0:0:0:
64,192,265819,1,0,0:0:0:0:
192,192,266153,1,0,0:0:0:0:
320,192,266319,1,0,0:0:0:0:
448,192,266486,1,0,0:0:0:0:
192,192,267486,1,0,0:0:0:0:
64,192,267486,1,0,0:0:0:0:
320,192,267653,1,0,0:0:0:0:
448,192,267819,1,0,0:0:0:0:
448,192,268153,1,0,0:0:0:0:
448,192,268486,1,0,0:0:0:0:
192,192,268486,1,0,0:0:0:0:
64,192,268819,1,0,0:0:0:0:
320,192,268986,1,0,0:0:0:0:
448,192,269153,1,0,0:0:0:0:
448,192,270153,1,0,0:0:0:0:
64,192,270153,1,0,0:0:0:0:
192,192,270486,1,0,0:0:0:0:
320,192,270653,1,0,0:0:0:0:
448,192,270819,1,0,0:0:0:0:
64,192,271153,1,0,0:0:0:0:
448,192,271153,1,0,0:0:0:0:
192,192,271486,1,0,0:0:0:0:
320,192,271653,1,0,0:0:0:0:
64,192,271819,1,0,0:0:0:0:
448,192,271819,1,0,0:0:0:0:
64,192,272819,1,0,0:0:0:0:
320,192,272986,1,0,0:0:0:0:
448,192,273153,1,0,0:0:0:0:
448,192,273486,1,0,0:0:0:0:
448,192,273819,1,0,0:0:0:0:
192,192,273819,1,0,0:0:0:0:
64,192,274153,1,0,0:0:0:0:
320,192,274319,1,0,0:0:0:0:
448,192,274486,1,0,0:0:0:0:
64,192,275486,1,0,0:0:0:0:
